Files
ClassICNooB-luxembourg-zwee/Luxembourg_Zwee_6SIN.bms

3514 lines
103 KiB
Plaintext
Raw Normal View History

*---------------------- HEADER FIELD
#PLAYER 1
#GENRE NIGHTFUNK
#TITLE Luxembourg Zwee
#ARTIST LU vs. ARMYTOM
#BPM 348
#PLAYLEVEL 30
#RANK 3
#SUBTITLE [6K UE Normalization]
#SUBARTIST BGA:HYOUTAN / obj:kh
#STAGEFILE bga_title.png
#BANNER bga_bunner.png
#DIFFICULTY 2
#TOTAL 1200
#LNTYPE 1
#LNMODE 1
#WAV01 BGM_3.1.1.wav
#WAV02 BGM_19.1.1.wav
#WAV03 BGM_35.1.1.wav
#WAV04 BGM_51.1.1.wav
#WAV05 BGM_67.1.1.wav
#WAV06 BGM_83.1.1.wav
#WAV07 BGM_99.1.1.wav
#WAV08 BGM_115.1.1.wav
#WAV09 BGM_131.1.1.wav
#WAV0A BGM_147.1.1.wav
#WAV0B BGM_163.1.1.wav
#WAV0C BGM_179.1.1.wav
#WAV0E Key-bass_6.3.1.wav
#WAV0F Key-bass_8.3.3.wav
#WAV0G Key-bass_10.3.1.wav
#WAV0H Key-bass_11.1.1.wav
#WAV0J Key-bass_67.3.3.wav
#WAV0K Key-bass_68.2.4.wav
#WAV0L Key-bass_69.4.1.wav
#WAV0M Key-bass_70.2.4.wav
#WAV0N Key-bass_73.4.1.wav
#WAV0O Key-bass_74.3.1.wav
#WAV0Q Key-rythm_cymbal_01.wav
#WAV0S Key-rythm_ching_01.wav
#WAV0T Key-rythm_ching_02.wav
#WAV0U Key-rythm_ching_03.wav
#WAV0V Key-rythm_ching_04.wav
#WAV0X Key-rythm_arp_115.1.1_000.wav
#WAV0Y Key-rythm_arp_115.1.1_001.wav
#WAV0Z Key-rythm_arp_115.1.1_002.wav
#WAV10 Key-rythm_arp_115.1.1_003.wav
#WAV11 Key-rythm_arp_115.1.1_004.wav
#WAV12 Key-rythm_arp_115.1.1_005.wav
#WAV13 Key-rythm_arp_115.1.1_006.wav
#WAV14 Key-rythm_arp_115.1.1_007.wav
#WAV15 Key-rythm_arp_115.1.1_008.wav
#WAV16 Key-rythm_arp_115.1.1_009.wav
#WAV17 Key-rythm_arp_115.1.1_010.wav
#WAV18 Key-rythm_arp_115.1.1_011.wav
#WAV19 Key-rythm_arp_115.1.1_012.wav
#WAV1A Key-rythm_arp_115.1.1_013.wav
#WAV1B Key-rythm_arp_115.1.1_014.wav
#WAV1C Key-rythm_arp_115.1.1_015.wav
#WAV1D Key-rythm_arp_115.1.1_016.wav
#WAV1E Key-rythm_arp_115.1.1_017.wav
#WAV1F Key-rythm_arp_115.1.1_018.wav
#WAV1G Key-rythm_arp_115.1.1_019.wav
#WAV1H Key-rythm_arp_115.1.1_020.wav
#WAV1I Key-rythm_arp_115.1.1_021.wav
#WAV1J Key-rythm_arp_115.1.1_022.wav
#WAV1K Key-rythm_arp_115.1.1_023.wav
#WAV1L Key-rythm_arp_115.1.1_024.wav
#WAV1M Key-rythm_arp_115.1.1_025.wav
#WAV1N Key-rythm_arp_115.1.1_026.wav
#WAV1O Key-rythm_arp_115.1.1_027.wav
#WAV1P Key-rythm_arp_115.1.1_028.wav
#WAV1Q Key-rythm_arp_115.1.1_029.wav
#WAV1R Key-rythm_arp_115.1.1_030.wav
#WAV1S Key-rythm_arp_115.1.1_031.wav
#WAV1U Key-rythm_arp_131.1.1_000.wav
#WAV1V Key-rythm_arp_131.1.1_001.wav
#WAV1W Key-rythm_arp_131.1.1_002.wav
#WAV1X Key-rythm_arp_131.1.1_003.wav
#WAV1Y Key-rythm_arp_131.1.1_004.wav
#WAV1Z Key-rythm_arp_131.1.1_005.wav
#WAV20 Key-rythm_arp_131.1.1_006.wav
#WAV21 Key-rythm_arp_131.1.1_007.wav
#WAV22 Key-rythm_arp_131.1.1_008.wav
#WAV23 Key-rythm_arp_131.1.1_009.wav
#WAV24 Key-rythm_arp_131.1.1_010.wav
#WAV25 Key-rythm_arp_131.1.1_011.wav
#WAV26 Key-rythm_arp_131.1.1_012.wav
#WAV27 Key-rythm_arp_131.1.1_013.wav
#WAV28 Key-rythm_arp_131.1.1_014.wav
#WAV29 Key-rythm_arp_131.1.1_015.wav
#WAV2A Key-rythm_arp_131.1.1_016.wav
#WAV2B Key-rythm_arp_131.1.1_017.wav
#WAV2C Key-rythm_arp_131.1.1_018.wav
#WAV2D Key-rythm_arp_131.1.1_019.wav
#WAV2E Key-rythm_arp_131.1.1_020.wav
#WAV2F Key-rythm_arp_131.1.1_021.wav
#WAV2G Key-rythm_arp_131.1.1_022.wav
#WAV2H Key-rythm_arp_131.1.1_023.wav
#WAV2I Key-rythm_arp_131.1.1_024.wav
#WAV2J Key-rythm_arp_131.1.1_025.wav
#WAV2K Key-rythm_arp_131.1.1_026.wav
#WAV2L Key-rythm_arp_131.1.1_027.wav
#WAV2M Key-rythm_arp_131.1.1_028.wav
#WAV2N Key-rythm_arp_131.1.1_029.wav
#WAV2O Key-rythm_arp_131.1.1_030.wav
#WAV2P Key-rythm_arp_131.1.1_031.wav
#WAV2R Key-rythm_cymbal_02-01.wav
#WAV2S Key-rythm_cymbal_02-02.wav
#WAV2T Key-rythm_cymbal_161.4.1.wav
#WAV2V Key-rythm_kick_01.wav
#WAV2W Key-rythm_snare.wav
#WAV2X Key-rythm_kick_02.wav
#WAV2Z Key-chicago_155.1.1.wav
#WAV30 Key-chicago_168.1.1.wav
#WAV31 Key-chicago_169.1.1.wav
#WAV32 Key-chicago_170.1.1.wav
#WAV33 Key-chicago_171.1.1.wav
#WAV34 Key-chicago_175.1.1.wav
#WAV35 Key-chicago_177.1.1.wav
#WAV36 Key-chicago_179.1.1.wav
#WAV37 Key-chicago_183.1.1.wav
#WAV39 Key-organ-01_19.1.1.wav
#WAV3A Key-organ-01_19.2.3.wav
#WAV3B Key-organ-01_20.1.1.wav
#WAV3C Key-organ-01_20.2.3.wav
#WAV3D Key-organ-01_20.4.1.wav
#WAV3E Key-organ-01_21.1.1.wav
#WAV3F Key-organ-01_21.2.3.wav
#WAV3G Key-organ-01_22.1.1.wav
#WAV3H Key-organ-01_22.2.3.wav
#WAV3I Key-organ-01_22.4.1.wav
#WAV3K Key-organ-02_131.1.1.wav
#WAV3L Key-organ-02_131.2.3.wav
#WAV3M Key-organ-02_132.1.1.wav
#WAV3N Key-organ-02_132.2.3.wav
#WAV3O Key-organ-02_132.4.1.wav
#WAV3P Key-organ-02_133.1.1.wav
#WAV3Q Key-organ-02_133.2.3.wav
#WAV3R Key-organ-02_134.1.1.wav
#WAV3S Key-organ-02_134.2.3.wav
#WAV3T Key-organ-02_134.4.1.wav
#WAV3V Key-organ-03_000.wav
#WAV3W Key-organ-03_001.wav
#WAV3X Key-organ-03_002.wav
#WAV3Y Key-organ-03_003.wav
#WAV3Z Key-organ-03_004.wav
#WAV40 Key-organ-03_005.wav
#WAV42 Key-piano-01_147.1.1.wav
#WAV43 Key-piano-01_149.1.1.wav
#WAV44 Key-piano-01_151.1.1.wav
#WAV46 Key-piano-01_163.1.1_000.wav
#WAV47 Key-piano-01_163.1.1_001.wav
#WAV48 Key-piano-01_163.1.1_002.wav
#WAV49 Key-piano-01_163.1.1_003.wav
#WAV4A Key-piano-01_163.1.1_004.wav
#WAV4B Key-piano-01_163.1.1_005.wav
#WAV4C Key-piano-01_163.1.1_006.wav
#WAV4D Key-piano-01_163.1.1_007.wav
#WAV4E Key-piano-01_163.1.1_008.wav
#WAV4F Key-piano-01_163.1.1_009.wav
#WAV4G Key-piano-01_163.1.1_010.wav
#WAV4H Key-piano-01_163.1.1_011.wav
#WAV4I Key-piano-01_163.1.1_012.wav
#WAV4J Key-piano-01_163.1.1_013.wav
#WAV4K Key-piano-01_163.1.1_014.wav
#WAV4L Key-piano-01_163.1.1_015.wav
#WAV4M Key-piano-01_163.1.1_016.wav
#WAV4N Key-piano-01_163.1.1_017.wav
#WAV4O Key-piano-01_163.1.1_018.wav
#WAV4P Key-piano-01_163.1.1_019.wav
#WAV4Q Key-piano-01_163.1.1_020.wav
#WAV4R Key-piano-01_163.1.1_021.wav
#WAV4S Key-piano-01_163.1.1_022.wav
#WAV4T Key-piano-01_163.1.1_023.wav
#WAV4U Key-piano-01_163.1.1_024.wav
#WAV4V Key-piano-01_163.1.1_025.wav
#WAV4W Key-piano-01_163.1.1_026.wav
#WAV4X Key-piano-01_163.1.1_027.wav
#WAV4Y Key-piano-01_163.1.1_028.wav
#WAV4Z Key-piano-01_163.1.1_029.wav
#WAV50 Key-piano-01_163.1.1_030.wav
#WAV51 Key-piano-01_163.1.1_031.wav
#WAV52 Key-piano-01_163.1.1_032.wav
#WAV53 Key-piano-01_163.1.1_033.wav
#WAV54 Key-piano-01_163.1.1_034.wav
#WAV55 Key-piano-01_163.1.1_035.wav
#WAV56 Key-piano-01_163.1.1_036.wav
#WAV57 Key-piano-01_163.1.1_037.wav
#WAV58 Key-piano-01_163.1.1_038.wav
#WAV59 Key-piano-01_163.1.1_039.wav
#WAV5A Key-piano-01_163.1.1_040.wav
#WAV5B Key-piano-01_163.1.1_041.wav
#WAV5C Key-piano-01_163.1.1_042.wav
#WAV5D Key-piano-01_163.1.1_043.wav
#WAV5E Key-piano-01_163.1.1_044.wav
#WAV5F Key-piano-01_163.1.1_045.wav
#WAV5G Key-piano-01_163.1.1_046.wav
#WAV5H Key-piano-01_163.1.1_047.wav
#WAV5I Key-piano-01_163.1.1_048.wav
#WAV5J Key-piano-01_163.1.1_049.wav
#WAV5K Key-piano-01_163.1.1_050.wav
#WAV5L Key-piano-01_163.1.1_051.wav
#WAV5M Key-piano-01_163.1.1_052.wav
#WAV5N Key-piano-01_163.1.1_053.wav
#WAV5O Key-piano-01_163.1.1_054.wav
#WAV5P Key-piano-01_163.1.1_055.wav
#WAV5Q Key-piano-01_163.1.1_056.wav
#WAV5R Key-piano-01_163.1.1_057.wav
#WAV5S Key-piano-01_163.1.1_058.wav
#WAV5T Key-piano-01_163.1.1_059.wav
#WAV5U Key-piano-01_163.1.1_060.wav
#WAV5V Key-piano-01_163.1.1_061.wav
#WAV5W Key-piano-01_163.1.1_062.wav
#WAV5X Key-piano-01_163.1.1_063.wav
#WAV5Z Key-piano-01_163.1.1_065.wav
#WAV60 Key-piano-01_163.1.1_066.wav
#WAV61 Key-piano-01_163.1.1_067.wav
#WAV62 Key-piano-01_163.1.1_068.wav
#WAV63 Key-piano-01_163.1.1_069.wav
#WAV64 Key-piano-01_163.1.1_070.wav
#WAV65 Key-piano-01_163.1.1_071.wav
#WAV66 Key-piano-01_163.1.1_072.wav
#WAV67 Key-piano-01_163.1.1_073.wav
#WAV68 Key-piano-01_163.1.1_074.wav
#WAV69 Key-piano-01_163.1.1_075.wav
#WAV6A Key-piano-01_163.1.1_076.wav
#WAV6B Key-piano-01_163.1.1_077.wav
#WAV6C Key-piano-01_163.1.1_078.wav
#WAV6D Key-piano-01_163.1.1_079.wav
#WAV6E Key-piano-01_163.1.1_080.wav
#WAV6G Key-piano-02.wav
#WAV6I Key-choir-179.1.1.wav
#WAV6J Key-choir-183.1.1.wav
#WAV6K Key-choir-187.1.1.wav
#WAV6L Key-choir-191.1.1.wav
#WAV6N Key-chant_51.1.1.wav
#WAV6O Key-chant_55.1.1.wav
#WAV6P Key-chant_59.1.1.wav
#WAV6Q Key-chant_63.1.1.wav
#WAV6S Key-chant_19.1.1.wav
#WAV6T Key-chant_21.1.1.wav
#WAV6U Key-chant_23.1.1.wav
#WAV6V Key-chant_25.1.1.wav
#WAV6X Key-chant_67.1.1.wav
#WAV6Y Key-chant_69.1.1.wav
#WAV6Z Key-chant_71.1.1.wav
#WAV71 Key-chant_163.1.1.wav
#WAV72 Key-chant_164.1.1.wav
#WAV73 Key-chant_165.1.1.wav
#WAV74 Key-chant_167.1.1.wav
#WAV75 Key-chant_169.1.1.wav
#WAV76 Key-chant_171.1.1.wav
#WAV77 Key-chant_172.1.1.wav
#WAV78 Key-chant_173.1.1.wav
#WAV79 Key-chant_175.1.1.wav
#WAV7A Key-chant_177.1.1.wav
#WAV7C Key-seq_115.1.1_000.wav
#WAV7D Key-seq_115.1.1_001.wav
#WAV7E Key-seq_115.1.1_002.wav
#WAV7F Key-seq_115.1.1_003.wav
#WAV7G Key-seq_115.1.1_004.wav
#WAV7H Key-seq_115.1.1_005.wav
#WAV7I Key-seq_115.1.1_006.wav
#WAV7J Key-seq_115.1.1_007.wav
#WAV7K Key-seq_115.1.1_008.wav
#WAV7L Key-seq_115.1.1_009.wav
#WAV7M Key-seq_115.1.1_010.wav
#WAV7N Key-seq_115.1.1_011.wav
#WAV7O Key-seq_115.1.1_012.wav
#WAV7P Key-seq_115.1.1_013.wav
#WAV7Q Key-seq_115.1.1_014.wav
#WAV7R Key-seq_115.1.1_015.wav
#WAV7S Key-seq_115.1.1_016.wav
#WAV7T Key-seq_115.1.1_017.wav
#WAV7U Key-seq_115.1.1_018.wav
#WAV7V Key-seq_115.1.1_019.wav
#WAV7W Key-seq_115.1.1_020.wav
#WAV7X Key-seq_115.1.1_021.wav
#WAV7Y Key-seq_115.1.1_022.wav
#WAV7Z Key-seq_115.1.1_023.wav
#WAV80 Key-seq_115.1.1_024.wav
#WAV81 Key-seq_115.1.1_025.wav
#WAV82 Key-seq_115.1.1_026.wav
#WAV83 Key-seq_115.1.1_027.wav
#WAV84 Key-seq_115.1.1_028.wav
#WAV85 Key-seq_115.1.1_029.wav
#WAV86 Key-seq_115.1.1_030.wav
#WAV87 Key-seq_115.1.1_031.wav
#WAV88 Key-seq_115.1.1_032.wav
#WAV89 Key-seq_115.1.1_033.wav
#WAV8A Key-seq_115.1.1_034.wav
#WAV8B Key-seq_115.1.1_035.wav
#WAV8C Key-seq_115.1.1_036.wav
#WAV8D Key-seq_115.1.1_037.wav
#WAV8E Key-seq_115.1.1_038.wav
#WAV8F Key-seq_115.1.1_039.wav
#WAV8G Key-seq_115.1.1_040.wav
#WAV8H Key-seq_115.1.1_041.wav
#WAV8I Key-seq_115.1.1_042.wav
#WAV8J Key-seq_115.1.1_043.wav
#WAV8K Key-seq_115.1.1_044.wav
#WAV8L Key-seq_115.1.1_045.wav
#WAV8M Key-seq_115.1.1_046.wav
#WAV8N Key-seq_115.1.1_047.wav
#WAV8P Key-bell_84.1.1.wav
#WAV8Q Key-bell_86.1.1.wav
#WAV8R Key-bell_88.1.1.wav
#WAV8S Key-bell_90.1.1.wav
#WAV8T Key-bell_92.1.1.wav
#WAV8U Key-bell_94.1.1.wav
#WAV8V Key-bell_96.1.1.wav
#WAV8W Key-bell_98.1.1.wav
#WAV8X Key-bell_147.1.1.wav
#WAV8Y Key-bell_163.1.1.wav
#WAV8Z Key-bell_191.1.1.wav
#WAV91 Key-fx_51.1.1.wav
#WAV92 Key-fx_99.1.1.wav
#WAV93 Key-fx_115.1.1.wav
#WAV94 Key-fx_163.1.1.wav
#WAV96 Key-Basoon_19.1.1_000.wav
#WAV97 Key-Basoon_19.1.1_001.wav
#WAV98 Key-Basoon_19.1.1_002.wav
#WAV99 Key-Basoon_19.1.1_003.wav
#WAV9A Key-Basoon_19.1.1_004.wav
#WAV9B Key-Basoon_19.1.1_005.wav
#WAV9C Key-Basoon_19.1.1_006.wav
#WAV9D Key-Basoon_19.1.1_007.wav
#WAV9E Key-Basoon_19.1.1_008.wav
#WAV9F Key-Basoon_19.1.1_009.wav
#WAV9G Key-Basoon_19.1.1_010.wav
#WAV9H Key-Basoon_19.1.1_011.wav
#WAV9I Key-Basoon_19.1.1_012.wav
#WAV9J Key-Basoon_19.1.1_013.wav
#BMP01 bga.wmv
*---------------------- EXPANSION FIELD
#6K
*---------------------- MAIN DATA FIELD
#00104:01
#00359:01
#00653:000E
#00753:0E
#00852:0000000F
#00952:000F0000
#01053:000G
#01101:0H
#01111:00ZZ0000000000ZZ0000000000ZZ0000000000ZZ0000000000002V0000000000
#01112:0000ZZ0000000000ZZ0000000000ZZ0000000000002V00000000002V00000000
#01113:000000ZZ0000000000ZZ0000000000ZZ000000002V0000002V00000000002W00
#01115:0000ZZ0000ZZ0000ZZ00002V00002W00
#01118:0000000000ZZ0000000000ZZ0000000000ZZ000000000000002V0000002W0000
#01119:000000000000ZZ0000000000ZZ0000000000ZZ000000002V000000000000002W
#01153:0G
#01159:01
#01201:0H
#01211:0000002V000000000000002V00000000002V000000002V000000002W00000000
#01212:000000000000002V00000000002V00000000002V000000002W0000000000002W
#01213:000000002V000000002V0000000000002V0000002V000000000000002W000000
#01215:00002V00000000002V00000000002V0000000000002V000000002W0000002W00
#01218:0000000000002V00000000002V00000000002V0000000000002W000000000000
#01219:00000000002V000000002V000000002V000000000000002V00000000002W0000
#01301:0H
#01311:000000000000002V00000000002V00000000002V0000000000000000002V0000
#01312:0000000000002V00000000002V00000000002V00000000002W0000000000002V
#01313:00000000002V00000000002V00000000002V00000000002V0000002W00002V00
#01315:00002V00002V00002V00002V00002V00
#01318:0000002V00000000002V00000000002V00000000002V000000002W0000000000
#01319:00002V00000000002V00000000002V00000000002V000000002W000000000000
#01401:000G
#01411:0000002V000000002V0000002V0000002V0000002V0000002V0000002V000000
#01412:002V000000000000
#01413:00000000002V0000002V0000002V0000002V0000002V0000002V0000002V0000
#01415:00002V000000002V0000002V0000002V0000002V0000002V0000002V0000002V
#01418:002V000000000000000000000000000000000000000000000000000000000000
#01419:2V00002V002V002V002V002V002V002V
#01501:0H
#01511:0000000000000000000000000000000000000000000000000000002V00000000
#01512:2V002V002V002V002V002V002V00002W
#01513:002V0000002V0000002V0000002V0000002V0000002V0000002V000000000000
#01515:0000002V0000002V0000002V0000002V0000002V0000002V000000002W000000
#01518:00002V0000002V0000002V0000002V0000002V0000002V0000000000002W0000
#01519:00000000000000000000000000000000000000000000000000002V000000002W
#01601:0000000F
#01611:002X00000000002V00000000002V00000000002V00000000002V00000000002V
#01612:0000002V00002V00002V00002V00002V
#01613:2X000000002V00000000002V00000000002V00000000002V00000000002V0000
#01615:002V00002V00002V00002V00002V0000
#01618:0000002V00000000002V00000000002V00000000002V00000000002V00000000
#01619:00002V00002V00002V00002V00002V00
#01711:00000000002V00000000002V00000000002V00000000002V00000000002V0000
#01712:000000002V00000000002V00000000002V00000000002V000000002W00000000
#01713:0000002V00000000002V00000000002V00000000002V00000000000000002V00
#01715:2V00002V00002V00002V00002W002V00
#01718:002V00000000002V00000000002V00000000002V0000000000002W0000000000
#01719:00002V00000000002V00000000002V00000000002V000000002W00000000002V
#01811:00002V0000000000002W000000000000002W0000000000002W0000000000002W
#01812:000000002V00000000000000002W000000002W000000002W00000000002W0000
#01813:0000002V000000002W00000000002W00000000002W000000002W000000002W00
#01815:2V00000000002V0000002W00000000002W000000002W00000000002W00000000
#01818:002V00000000002V000000002W0000000000002W0000000000002W0000000000
#01819:00000000002V00000000002W0000002W0000000000002W00000000002W000000
#01901:02
#01901:96979800
#01901:0Q
#01901:0S0T
#01901:6S
#01901:00
#01901:00
#01901:00
#01901:3900003A00000000
#01911:00002W00002V002W
#01912:0000002V0000000000002W000000002W0000000000002V0000000000002W0000
#01913:000000002V000000002W000000002W000000002W0000002V0000002V00000000
#01915:2V000000002V00000000002W000000002W000000002V000000002V000000002W
#01918:002V00000000002V00000000002W000000002W00000000002V00000000002W00
#01919:00002V0000002V00000000002W000000002W000000000000002V000000000000
#02001:00
#02001:00
#02001:00
#02001:0U0V
#02001:00
#02001:00
#02001:00
#02001:3B00003C00003D00
#02011:000000002V0000000000002W0000000000002W000000000000002W0000000000
#02012:00002W000000002V0000000000002W000000000000002V000000002W00000000
#02013:002W0000002V000000002W000000002W0000002W00000000002W000000002W00
#02015:00000000000000002W000000002W0000002W00000000002V00000000002W0000
#02018:0000002W00000000002W0000000000002W000000002V0000000000002W000000
#02019:2W00000000002V00000000002W000000000000002V0000002W0000000000002W
#02101:6T
#02101:999A9B00
#02101:0Q
#02101:0S0T
#02101:00
#02101:00
#02101:00
#02101:00
#02101:3E00003F00000000
#02111:2V000000000000000000002W0000000000002W00000000002W00000000002W00
#02112:002V0000000000002W000000000000002W000000002V000000002W0000000000
#02113:0000002V0000002V000000002W000000002W00000000002V0000002W0000002W
#02115:00000000002V0000002W0000002W0000000000002V000000002W000000000000
#02118:00002V0000002V00000000000000002W0000000000002V0000000000002W0000
#02119:000000002V00000000002W0000002W000000002W00000000000000002W000000
#02201:00
#02201:0000009C
#02201:00
#02201:0U0V
#02201:00
#02201:00
#02201:00
#02201:3G00003H00003I00
#02211:0000002V00002W00002W00002W00002W
#02212:00002W000000002V0000000000002W0000000000002V00000000002W00000000
#02213:00000000002V000000002W0000000000002W00000000002V00000000002W0000
#02215:2W00000000000000002W0000000000002W00000000002V00000000002W000000
#02218:0000002W000000002W000000002W00000000002W00000000002W000000000000
#02219:002W00002V0000000000002W0000002W000000002V00000000002W000000002W
#02301:6U
#02301:9D9E9F00
#02301:0Q
#02301:0S0T
#02301:00
#02301:00
#02301:00
#02301:00
#02301:3900003A00000000
#02311:00002V000000002W00002V002V000000
#02312:002V00000000002V0000002W00000000002W0000000000000000002V00000000
#02313:0000002V0000000000002W00000000002W00000000002V0000002V000000002W
#02315:00002V00000000002W0000002W00000000002W000000002V00000000002W0000
#02318:2V000000002V0000002W00000000002W00000000002V0000000000002W000000
#02319:0000000000002V0000000000002W00000000002W00000000002V000000002W00
#02401:00
#02401:0000009G
#02401:00
#02401:0U0V
#02401:00
#02401:00
#02401:00
#02401:3B00003C00003D00
#02411:2W000000002V0000000000002W0000000000002W0000000000002W0000000000
#02412:00002W0000000000002W000000002W000000000000002V000000002W00000000
#02413:0000000000002V000000002W000000002W0000002V000000002W00000000002W
#02415:000000002V0000002W0000000000002W00000000002V0000000000002W000000
#02418:002W00000000002V00000000002W000000002W00000000002W00000000002W00
#02419:0000002W0000000000002W0000000000002W00000000002V00000000002W0000
#02501:6V
#02501:9H9I9J00
#02501:0Q
#02501:0S0T
#02501:00
#02501:00
#02501:00
#02501:00
#02501:3E00003F00000000
#02511:2V00000000000000002W000000000000002W00000000002V0000000000002W00
#02512:00002V00000000002W00000000002W0000000000002V000000002V0000000000
#02513:00000000002V000000002W000000002W000000002V0000000000002V00000000
#02515:002V000000002V00000000002W00000000002W00000000002V000000002W0000
#02518:000000002V0000000000002W000000002W00002W00000000002V00000000002W
#02519:0000002V0000002V00000000002W00000000000000002V00000000002W000000
#02601:00
#02601:00
#02601:00
#02601:0U
#02601:00
#02601:00
#02601:00
#02601:3G00003H00000000
#02611:0000002W000000000000002V0000000000000000002V000000002V0000000000
#02612:002W000000002V0000000000002V0000002V000000000000002V000000002V00
#02613:2W0000000000002V000000002V00000000002V00000000002V0000000000002V
#02615:00002W00000000002V00000000002V00000000002V0000000000002V00000000
#02618:00000000002V000000002V000000002V0000002V0000002V00000000002V0000
#02619:000000002V000000002V0000000000002V00000000002V00000000002V000000
#02701:6S
#02701:96979800
#02701:0Q
#02701:0S0T
#02701:00
#02701:00
#02701:00
#02701:00
#02701:3900003A00000000
#02711:2V0000002V0000000000002W000000002W0000000000002V000000002W000000
#02712:0000000000002V000000000000002W0000000000002V00000000002V00000000
#02713:00000000002V000000002W0000000000002W0000000000002V00000000002W00
#02715:002V00000000002V000000002W00000000002W0000002V0000000000002W0000
#02718:0000002V000000002W0000000000002W000000002V00000000002V0000000000
#02719:00002V0000000000002W0000002W00000000002W00000000002V00000000002W
#02801:00
#02801:00
#02801:00
#02801:0U0V
#02801:00
#02801:00
#02801:00
#02801:3B00003C00003D00
#02811:002W0000000000002W00000000002W000000000000002V000000000000002W00
#02812:00002W0000000000002W00000000000000002W00000000000000002W00000000
#02813:0000000000002V0000002W000000002W0000002W0000002V00000000002W0000
#02815:0000002W0000002V00000000002W0000000000002V000000002W00000000002W
#02818:2W000000002V0000000000002W000000002W0000000000002W0000002W000000
#02819:000000002V0000000000002W000000002W000000002V000000002W0000000000
#02901:6T
#02901:999A9B00
#02901:0Q
#02901:0S0T
#02901:00
#02901:00
#02901:00
#02901:00
#02901:3E00003F00000000
#02911:000000000000002V0000000000002W00000000002V000000000000002W000000
#02912:002V0000002W0000002W00002V00002W
#02913:0000002V000000002W0000000000002W00000000002V000000002V0000000000
#02915:000000002V000000002W0000002W00000000002W00000000002V000000000000
#02918:002V000000002V00000000002W000000002W000000002V000000002V0000002W
#02919:2V000000002V00000000002W000000002W0000000000002V00000000002W0000
#03001:00
#03001:0000009C
#03001:00
#03001:0U0V
#03001:00
#03001:00
#03001:00
#03001:3G00003H00003I00
#03011:00002W00000000002W000000000000000000002W000000000000002W00000000
#03012:000000002V00000000000000002W000000002W00000000002W00000000002W00
#03013:002W000000002V000000002W00000000002W000000002V0000002W0000000000
#03015:2W000000002V000000002W000000002W00000000002V000000000000002W0000
#03018:000000000000002V000000002W0000002W0000000000002V000000002W000000
#03019:0000002W00000000002W000000002W00000000002V000000002W00000000002W
#03101:6U
#03101:9D9E9F00
#03101:0Q
#03101:0S0T
#03101:00
#03101:00
#03101:00
#03101:00
#03101:3900003A00000000
#03111:00002V00000000002W0000000000002W0000000000002V000000000000002W00
#03112:000000002V0000000000002W00000000002W00000000002V00000000002W0000
#03113:2V0000000000002V0000000000002W000000002W00000000002V00000000002W
#03115:0000002V00000000002W0000002W0000000000002V00000000002V0000000000
#03118:002V000000002V00000000002W00000000002W00000000002V0000002W000000
#03119:00000000002V000000002W00000000002W000000002V00000000002V00000000
#03201:00
#03201:0000009G
#03201:00
#03201:0U0V
#03201:00
#03201:00
#03201:00
#03201:3B00003C00003D00
#03211:000000002V00000000000000002W000000000000002V000000002W0000000000
#03212:0000002W00000000002W0000000000002W0000002V000000000000002W000000
#03213:00000000002V000000002W0000002W000000002W000000002W00000000002W00
#03215:002W00000000002V000000002W000000002W00000000002V00000000002W0000
#03218:00002W00000000002W0000000000002W0000000000002V000000002W00000000
#03219:2W00000000002V000000002W0000000000002W0000000000002W00000000002W
#03301:6V
#03301:9H9I9J00
#03301:0Q
#03301:0S0T
#03301:00
#03301:00
#03301:00
#03301:00
#03301:3E00003F00000000
#03311:00002V000000000000002W000000000000002W000000002V000000000000002W
#03312:002V000000002V00000000002W000000002W000000002V00000000002W000000
#03313:0000002V0000002V0000000000002W00000000002V00000000002V0000000000
#03315:000000002V0000002W000000002W00000000002W00000000002V000000002W00
#03318:2V00000000000000002W00000000002W00000000002V00000000002V00000000
#03319:00000000002V00000000002W000000002W000000000000002V000000002W0000
#03401:00
#03401:00
#03401:00
#03401:0U
#03401:00
#03401:00
#03401:00
#03401:3G00003H00000000
#03411:0000000000002V00000000002V0000000000002V00000000002W000000002W00
#03412:0000002V000000002W00000000002V00000000002W00000000002W0000000000
#03413:2V000000002V00000000002W00000000002V00000000002W00000000002W0000
#03415:000000002V00000000002W000000002V00000000002W00000000002W00000000
#03418:002V00000000002V00000000002V000000002V00000000002W0000000000002W
#03419:00002V0000000000002W0000000000002V00000000002W00000000002W000000
#03501:03
#03501:3V00003W
#03501:0Q
#03501:0S0T
#03501:6S
#03511:00000000000000000000000000000000000000000000000000002V000000002W
#03512:2V000000002V000000002V000000002V000000002V000000002V000000000000
#03513:002V000000002V000000002V000000002V000000002V00000000002V00000000
#03515:00002V000000002V000000002V000000002V000000002V0000000000002W0000
#03518:0000002V000000002V000000002V000000002V000000002V0000000000002W00
#03519:000000002V000000002V000000002V000000002V000000002V0000002W000000
#03601:00
#03601:003X
#03601:00
#03601:0U0V
#03611:00000000002X0000000000000000002W00000000000000002W0000000000002W
#03612:002W000000002X00000000002X000000002W000000002V00000000002W000000
#03613:2W0000002X00000000002X00000000002W000000002V0000002W0000002W0000
#03615:00002W00000000002X00002X0000000000002W000000002V0000000000002W00
#03618:0000002W00000000002X000000002W00000000002V0000000000002W00000000
#03619:000000000000002X00000000002X00000000002W0000000000002W0000000000
#03701:6T
#03701:3Y0000000000000000000000003Z0000
#03701:0Q
#03701:0S0T
#03711:000000000000002V
#03712:000000002V000000002V000000002V000000002V000000002W0000000000002V
#03713:0000002V000000002V000000002V000000002V000000002V0000000000002V00
#03715:00002V000000002V000000002V000000002V000000002V000000002W00000000
#03718:002V000000002V000000002V000000002V000000002V000000002W0000000000
#03719:2V000000002V000000002V000000002V000000002V000000002W0000002V0000
#03801:00
#03801:00000000000000000040000000000000
#03801:00
#03801:0U0V
#03811:00002V0000000000002V0000002V00000000000000002V0000000000002W0000
#03812:00000000002V0000000000000000002V000000002V0000000000002W00000000
#03813:0000002V000000002V00000000002V000000002V00000000002W000000000000
#03815:002V00000000002V0000002W00000000002V0000002V000000002W000000002W
#03818:2V00002V00002V00002V00002W00002W
#03819:000000002V00000000002W00000000002V0000000000002V000000002W000000
#03901:6U
#03901:3V00003W
#03901:0Q
#03901:0S0T
#03911:00000000000000000000000000000000000000000000000000000000002W0000
#03912:2V2V2V2V2V2V2V00
#03913:002V0000002V0000002V0000002V0000002V0000002V0000002V000000002W00
#03915:002V002V002V002V002V002V002V0000
#03918:0000002V0000002V0000002V0000002V0000002V0000002V0000002V00000000
#03919:000000000000000000000000000000000000000000000000000000002W00002W
#04001:00
#04001:003X
#04001:00
#04001:0U0V
#04011:0000002W000000000000000000002X0000000000002X00000000002W0000002W
#04012:00002W00000000002X0000002X000000002X000000002X0000002W0000002W00
#04013:00000000002X0000002X00000000002X000000000000002X00000000002W0000
#04015:002W000000002X000000002X000000002X0000002X000000002W000000000000
#04018:2W0000000000002X00000000002X00000000002X00000000000000002W000000
#04019:00002X00002X0000002X00002W000000
#04101:6V
#04101:3Y0000000000000000000000003Z0000
#04101:0Q
#04101:0S0T
#04111:0000002V00000000002V00000000002V00000000002V00000000002W00000000
#04112:00002V00002V00002V00002V00002V00
#04113:00000000002V00000000002V00000000002V00000000002V00000000002V0000
#04115:002V00002V00002V00002V00002W0000
#04118:002V00000000002V00000000002V00000000002V00000000002W00000000002V
#04119:2V00002V00002V00002V00002W00002V
#04201:00
#04201:00000000000000000040000000000000
#04201:00
#04201:0U
#04211:002V00000000002V000000002W0000000000002W000000000000000000002W00
#04212:00002V000000000000002W000000002W0000000000002W000000002W00000000
#04213:00000000002V0000002V000000002W00000000002W00000000002W000000002W
#04215:2V0000002V0000002V000000002W000000002W00000000002W000000002W0000
#04218:0000000000002V0000000000000000002W000000002W0000002W000000000000
#04219:0000002V000000000000002W00000000002W00000000002W000000002W000000
#04301:6S
#04301:3V00003W
#04301:0Q
#04301:0S0T
#04311:00000000002V00000000002V00000000002V00000000002V0000000000002W00
#04312:00002V00002V00002V00002V00002W00
#04313:0000002V00000000002V00000000002V00000000002V00000000002V0000002W
#04315:002V00002V00002V00002V00002V0000
#04318:002V00000000002V00000000002V00000000002V00000000002V0000002W0000
#04319:2V00002V00002V00002V00002V000000
#04401:00
#04401:003X
#04401:00
#04401:0U0V
#04411:000000000000000000002X00000000000000002W0000000000002W0000000000
#04412:00002W0000000000002X00000000002W00000000002V00000000002W00000000
#04413:00002X002X00002W00002V002W00002W
#04415:2W000000002X00000000002X000000002W00000000002V0000000000002W0000
#04418:0000002W0000002X00000000002X000000002W0000000000002W00000000002W
#04419:002W000000002X00000000002X000000002W00000000002V000000002W000000
#04501:6T
#04501:3Y0000000000000000000000003Z0000
#04501:0Q
#04501:0S0T
#04511:2V00002V00002V00002V00002W00002V
#04512:002V00000000002V00000000002V00000000002V00000000002W000000000000
#04513:00002V00000000002V00000000002V00000000002V00000000002W000000002V
#04515:0000002V00000000002V00000000002V00000000002V00000000002W00000000
#04518:00002V00002V00002V00002V00002V00
#04519:00000000002V00000000002V00000000002V00000000002V00000000002V0000
#04601:00
#04601:00000000000000000040000000000000
#04601:00
#04601:0U0V
#04611:0000000000002V000000002W0000000000002V000000002V0000002W00000000
#04612:002V0000000000002V0000000000002V0000000000002V00000000002W000000
#04613:000000002V000000002V0000002V0000000000002V00000000000000002W0000
#04615:2V000000002V0000000000002V000000002V0000002V0000002W00000000002W
#04618:00002V000000002V00000000000000002V000000000000002W00000000002W00
#04619:0000002V0000000000002W0000002V000000002V0000000000002W0000000000
#04701:6U
#04701:3V00003W
#04701:0Q
#04701:0S0T
#04712:002V002V002V002V002V002V002V002W
#04713:002V0000002V0000002V0000002V0000002V0000002V0000002V0000002W0000
#04715:0000002V0000002V0000002V0000002V0000002V0000002V0000002V0000002W
#04718:002V2V2V2V2V2V2W
#04719:2V
#04801:00
#04801:003X
#04801:00
#04801:0U0V
#04811:002W000000002X00000000002X000000002W0000000000002W0000000000002W
#04812:000000000000002X0000000000002W0000000000002V0000000000002W000000
#04813:0000002W00000000002X0000002X0000000000002V000000002W000000002W00
#04815:000000002X0000000000002X000000002W00000000002V000000002W00000000
#04818:2W000000000000002X0000000000002W0000002W0000002V00000000002W0000
#04819:00002W00002X000000002X000000000000002W000000000000002W0000000000
#04901:6V
#04901:3Y0000000000000000000000003Z0000
#04901:0Q
#04901:0S0T
#04911:0000002V0000002V0000002V0000002V0000002V0000002V0000002W0000002V
#04913:002V002V002V002V002V002V002W002V
#04915:2V2V2V2V2V2V2W2V
#04919:002V0000002V0000002V0000002V0000002V0000002V0000002W0000002V0000
#05001:00
#05001:00000000000000000040000000000000
#05001:00
#05001:0U
#05011:00000000002V0000000000002V0000000000002V00000000002W000000000000
#05012:2V0000000000002V00000000002V000000002V00000000002W000000002W0000
#05013:00002V00002W00002V00002W00002W00
#05015:00002V0000000000002W00000000002V000000000000002W000000000000002W
#05018:002V000000002V000000002W00000000002V0000002W00000000002W00000000
#05019:0000002V000000002W00000000002V00000000002W00000000002W0000002W00
#05101:6N
#05101:04
#05151:91
#05351:91
#05453:000E
#05551:6O
#05553:0E
#05652:0000000F
#05751:006O0000
#05752:000F0000
#05853:000G
#05901:0H
#05901:6P
#05911:00000000002V00000000002V00000000002V00000000002V000000002W000000
#05912:000000002V00000000002V00000000002V00000000002V0000000000002W0000
#05913:0000002V00000000002V00000000002V00000000002V00000000002V00000000
#05915:002V00002V00002V00002V00002V002W
#05918:002V00000000002V00000000002V00000000002V00000000002V000000000000
#05919:2V00000000002V00000000002V00000000002V00000000002V0000000000002W
#05953:0G
#06001:0H
#06011:002V00002V00002V00002V00002W002W
#06012:0000002V00000000002V00000000002V00000000002V0000000000002W000000
#06013:002V00000000002V00000000002V00000000002V00000000002W000000000000
#06015:000000002V00000000002V00000000002V00000000002V000000002W00000000
#06018:2V00000000002V00000000002V00000000002V00000000002W000000002W0000
#06019:00000000002V00000000002V00000000002V00000000002V000000000000002W
#06101:0H
#06111:000000000000002V00000000002V00000000002V00000000002W00000000002V
#06112:002V00002V00002V00002V00002W0000
#06113:002V000000002V00000000002V000000002V00000000002V0000000000002V00
#06115:2V000000002V00000000002V000000002V00000000002V00000000002V000000
#06118:0000002V00000000002V00000000002V00000000002V00000000002W00000000
#06119:000000002V00000000002V000000000000002V00000000002W000000002V0000
#06201:00
#06201:00
#06201:000G
#06211:00000000002V00000000002V00000000002V0000000000002W000000002W0000
#06212:2V00000000002V00000000002V0000000000002V00000000002W00000000002W
#06213:0000002V00000000002V000000002V0000000000002V0000000000002W000000
#06215:00002V00000000002V0000000000002V000000002V00000000002W0000000000
#06218:002V00000000002V00000000002V000000002V000000002V0000000000002W00
#06219:000000002V00000000002V00000000002V00000000002V000000002W00000000
#06301:0H
#06301:6Q
#06311:0000002V0000000000002V00000000002V00000000002V000000002V00000000
#06312:00000000002V00000000002V00000000000000002V000000000000002W000000
#06313:00002V00000000002V00000000002V000000002V00000000002V00000000002W
#06315:2V0000000000002V000000002V00000000002V00000000002V00000000002W00
#06318:000000002V000000002V00000000002V00000000002V000000002V0000000000
#06319:002V000000002V0000000000002V0000002V00000000002V00000000002W0000
#06401:00
#06401:00
#06401:0000000F
#06411:2W00000000002X00000000002X0000000000002X000000002W0000000000002W
#06412:00002W000000002X00000000002X000000002X000000000000002W0000000000
#06413:00000000002X000000002X00000000002X0000000000002V00000000002W0000
#06415:000000002X0000000000002X0000002X000000002V000000002W000000002W00
#06418:002W000000000000002X000000000000002X000000002V00000000002W000000
#06419:0000002W000000002X00000000002X0000000000002V00000000002W00000000
#06511:00000000002V000000002V0000000000002V00000000002V00000000002V0000
#06512:2V0000000000002V00000000002V00000000002V00000000002W000000000000
#06513:0000002V00000000002V00000000002V00000000002V00000000002W00000000
#06515:000000002V0000002V00000000002V00000000002V00000000002W000000002V
#06518:00002V00000000000000002V000000002V00000000002V00000000002V000000
#06519:002V000000002V00000000002V00000000002V00000000002W00000000002V00
#06611:00002V000000002V0000000000002W00000000002W00000000002W0000000000
#06612:0000002V0000000000002W000000002W0000000000002W00000000002W000000
#06613:2V00000000002V00000000002W00000000002W0000000000002W00000000002W
#06615:000000002V000000002W0000000000002W000000002W00000000002W00000000
#06618:002V0000000000002W000000002W00000000002W000000002W00000000002W00
#06619:00000000002V00000000002W00000000002W00000000002W00000000002W0000
#06701:05
#06701:6X000000000J0000
#06701:0Q
#06701:0S0T
#06701:2R
#06701:00
#06701:00
#06701:00
#06701:00
#06701:00
#06701:3V00003W
#06711:002V00000000002V0000000000002V000000000000002V0000000000002W0000
#06712:0000002V000000000000002V0000000000002V00000000002V00000000000000
#06713:00000000002V000000002V000000002V0000002V0000002V000000002W000000
#06715:2V00000000002V00000000002V000000002V00000000000000002V000000002W
#06718:000000002V000000002V0000002V0000000000002V000000002V000000002W00
#06719:00002V00000000002V000000000000002V000000002V00000000002V00000000
#06801:00
#06801:000000000000000K0000000000000000
#06801:00
#06801:0U0V
#06801:00
#06801:00
#06801:00
#06801:00
#06801:00
#06801:00
#06801:003X
#06811:0000002W000000002W0000000000002W0000000000002V00000000002W000000
#06812:002W0000002V000000000000002W00000000002W0000000000002W0000000000
#06813:2W0000000000002V000000002W00000000002W00000000002W000000002W0000
#06815:0000000000002V0000002W0000002W00000000002V000000002W000000000000
#06818:000000002V0000000000002W00000000002W00000000002V0000000000002W00
#06819:00002W0000000000002W0000000000002W000000002V00000000002W0000002W
#06901:6Y
#06901:0000000L
#06901:0Q
#06901:0S0T
#06901:00
#06901:00
#06901:00
#06901:00
#06901:00
#06901:00
#06901:3Y0000000000000000000000003Z0000
#06911:000000002V0000002W000000000000002W0000000000002V000000002W000000
#06912:002V00000000002V00000000002W000000002W000000000000002W0000000000
#06913:0000002V00000000002W000000002W00000000002V000000002W000000002W00
#06915:2V000000002V0000000000002W0000000000002W000000002W0000000000002W
#06918:00002V000000000000002W000000002W00000000002V000000000000002W0000
#06919:0000000000002V000000002W00000000002W000000002V000000002W00000000
#07001:00
#07001:000000000000000M0000000000000000
#07001:00
#07001:0U0V
#07001:00
#07001:00
#07001:00
#07001:00
#07001:00
#07001:00
#07001:00000000000000000040000000000000
#07011:00002W000000000000002W0000000000002W00000000002V000000000000002W
#07012:2W00002V0000002W00002V00002W0000
#07013:00000000002V00000000002W000000002W00000000002V00000000002W000000
#07015:0000002W000000002W000000002W000000002W0000000000002W0000002W0000
#07018:000000002V000000002W00000000002W00000000002V00000000002W00000000
#07019:002W00000000002V000000002W0000000000002W000000002W00000000002W00
#07101:6Z
#07101:00000000000J0000
#07101:0Q
#07101:0S0T
#07101:00
#07101:00
#07101:00
#07101:00
#07101:00
#07101:00
#07101:3V00003W
#07111:00000000002V00000000002W0000002W0000002W000000002V0000000000002W
#07112:00002V000000002V000000002W000000000000002V00000000002V0000000000
#07113:000000002V000000002W000000000000002W00000000002V00000000002W0000
#07115:002V0000000000002W000000002W000000002W0000000000002V000000002W00
#07118:2V00002V000000002W00002V00002W00
#07119:0000002V0000000000002W0000002W0000000000002V00000000002V00000000
#07201:00
#07201:000000000000000K0000000000000000
#07201:00
#07201:0U0V
#07201:00
#07201:00
#07201:00
#07201:00
#07201:00
#07201:00
#07201:003X
#07211:00000000002V000000002W000000000000002W00000000002W00000000000000
#07212:00002W0000000000002W00000000002W00000000002V00000000002W00000000
#07213:002W000000002V0000000000002W00000000002W00000000002W000000002W00
#07215:0000002W000000002W00000000002W00000000002V00000000002W000000002W
#07218:2W0000000000002V000000002W000000002W00000000002V000000002W000000
#07219:000000002V0000000000002W000000002W00000000002V0000000000002W0000
#07301:00
#07301:0000000N
#07301:0Q
#07301:0S0T
#07301:00
#07301:00
#07301:00
#07301:00
#07301:00
#07301:00
#07301:3Y0000000000000000000000003Z0000
#07311:2V00000000002V000000002W0000000000002W00000000002V00000000002W00
#07312:002V0000000000002W00000000002W000000002W000000000000002V00000000
#07313:000000002V00000000002W0000000000002W000000002V0000002V0000000000
#07315:00000000002V0000000000002W0000002W000000002V0000000000002W000000
#07318:0000002V00000000002W0000002W0000000000002V000000002V0000002W0000
#07319:00002V000000002V000000000000002W000000000000002V000000000000002W
#07401:00
#07401:00
#07401:00
#07401:0U0O
#07401:00
#07401:00
#07401:00
#07401:00
#07401:00
#07401:00
#07401:00000000000000000040000000000000
#07411:00000000002V000000002V000000000000002W0000000000002V00000000002W
#07412:00002W00000000002V0000000000002W00000000002V00000000002V00000000
#07413:2W00000000002V00000000002W000000002W00000000002V00000000002W0000
#07415:002W00000000002V00000000002W00000000002W0000000000002V0000002W00
#07418:0000002W000000000000002V000000002W00000000002V000000000000000000
#07419:000000002V000000002V000000002W00000000002V0000002V0000002W000000
#07501:6X
#07501:00000000000J0000
#07501:0Q
#07501:0S0T
#07501:00
#07501:00
#07501:00
#07501:00
#07501:00
#07501:00
#07501:3V00003W
#07511:00000000002V000000002W0000002W0000000000002V000000002V0000000000
#07512:00002V0000000000002W0000000000002W00000000002V00000000002W000000
#07513:0000000000002V0000000000002W00000000002W00000000002V00000000002W
#07515:0000002V000000002W0000002W000000002W0000000000002V000000002W0000
#07518:002V00000000002V000000000000002W000000002V0000000000002V00000000
#07519:2V0000002V0000000000002W0000000000002W000000002V0000000000002W00
#07601:00
#07601:000000000000000K0000000000000000
#07601:00
#07601:0U0V
#07601:00
#07601:00
#07601:00
#07601:00
#07601:00
#07601:00
#07601:003X
#07611:2W00000000002V0000002W00000000002W0000000000002V0000000000002W00
#07612:00002W0000000000002W000000002W00000000002V00000000002W0000000000
#07613:000000002V0000002W0000000000002W00000000002V00000000002W00000000
#07615:0000002W000000000000002W00000000002W000000002V00000000002W000000
#07618:002W00000000002V00000000002W00000000002W00000000002W0000002W0000
#07619:00000000002V0000000000002W00000000002W00000000002W0000000000002W
#07701:6Y
#07701:0000000L
#07701:0Q
#07701:0S0T
#07701:00
#07701:00
#07701:00
#07701:00
#07701:00
#07701:00
#07701:3Y0000000000000000000000003Z0000
#07711:00002V00002W00002W002V00002V0000
#07712:002V0000000000002W0000000000002W00000000002V000000000000002W0000
#07713:2V0000000000002V000000002W000000002W00000000002V000000002W000000
#07715:00002V0000002V0000000000002W00000000002W00000000002V00000000002W
#07718:0000002V00000000002W000000002W000000000000002V000000002V00000000
#07719:00000000002V00000000002W0000000000002W00000000002V00000000002W00
#07801:00
#07801:000000000000000M0000000000000000
#07801:00
#07801:0U0V
#07801:00
#07801:00
#07801:00
#07801:00
#07801:00
#07801:00
#07801:00000000000000000040000000000000
#07811:2W00000000002V00000000002W00000000002W00000000002W0000000000002W
#07812:000000002V000000002W00000000002W00000000002V00000000002W00000000
#07813:002W0000000000002W00000000002W00000000002V000000002W000000002W00
#07815:0000002W0000000000002W00000000002W00000000002V0000000000002W0000
#07818:00002W000000002V00000000002W00000000002W0000000000002W0000000000
#07819:00000000002V00000000002W00000000002W00000000002V000000002W000000
#07901:6Z
#07901:00000000000J0000
#07901:0Q
#07901:0S0T
#07901:00
#07901:00
#07901:00
#07901:00
#07901:00
#07901:00
#07901:3V00003W
#07911:0000000000002V00000000002W0000000000002W0000000000002V0000000000
#07912:002V00000000002V00000000000000002W00000000002V000000002V00000000
#07913:00002V00000000002W000000002W0000002W00000000002V0000000000002W00
#07915:000000002V0000000000002W0000000000002W00000000002V000000002W0000
#07918:2V000000002V000000002W000000002W00000000002V0000000000002W000000
#07919:0000002V00000000002W000000002W00000000002V000000002V00000000002W
#08001:00
#08001:000000000000000K0000000000000000
#08001:00
#08001:0U0V
#08001:00
#08001:00
#08001:00
#08001:00
#08001:00
#08001:00
#08001:003X
#08011:002W0000000000002W00000000002W000000000000002V000000000000002W00
#08012:2W00000000002V000000002W000000000000002W0000000000002W000000002W
#08013:000000002V00000000002W00000000002W000000002V00000000002W00000000
#08015:0000002W00000000002W00000000002W000000002V000000002W0000002W0000
#08018:00002W000000002V000000002W00000000002W00000000002W00000000000000
#08019:00000000002V000000000000002W0000002W00000000002V000000002W000000
#08101:00
#08101:0000000N
#08101:0Q
#08101:0S0T
#08101:00
#08101:00
#08101:00
#08101:00
#08101:00
#08101:00
#08101:3Y0000000000000000000000003Z0000
#08111:000000002V00000000002W0000000000002W00000000002V000000002W000000
#08112:00000000002V0000000000002W000000000000002V0000000000002V00000000
#08113:00002V00000000002W00000000002W000000002W00000000002V00000000002W
#08115:002V00000000002V000000000000002W00000000002V000000002V0000000000
#08118:2V00000000002V000000002W000000002W00000000002V0000000000002W0000
#08119:0000002V00000000002W0000002W000000002W00000000002V00000000002W00
#08201:00
#08201:00
#08201:00
#08201:0U0O
#08201:00
#08201:00
#08201:00
#08201:00
#08201:00
#08201:00
#08201:00000000000000000040000000000000
#08211:002V0000000000002W0000000000002V0000000000002W00000000002W000000
#08212:2V00000000002V0000000000002V00000000002V0000000000002W0000000000
#08213:00000000002V00000000002W00000000002V00000000002W00000000002W0000
#08215:00002V000000002V000000002V00000000002V00000000002W00000000002W00
#08218:0000002V0000000000002W00000000002V000000002W00000000002W00000000
#08219:000000002V000000002W000000002V00000000002W000000002W00000000002W
#08301:06
#08301:6S
#08301:2R
#08311:0000002V0000000000002V0000000000002V0000000000002V000000002V0000
#08312:2V00000000002V00000000002V000000000000002V0000000000002V00000000
#08313:00002V00000000002V00000000002V000000002V0000000000002V0000000000
#08315:000000002V000000002V00000000002V00000000002V0000002V000000002V00
#08318:002V00000000002V00000000002V000000002V0000002V00000000000000002V
#08319:00000000002V00000000002V000000002V0000000000002V000000002V000000
#08401:00
#08401:00
#08401:00
#08401:8P
#08411:00002V00000000002V00000000002V00000000002V00000000000000002W0000
#08412:0000002V00000000002V00000000002V0000000000002V000000002W00000000
#08413:2V00000000002V000000002V00000000002V0000000000002W0000000000002W
#08415:000000002V00000000002V00000000002V000000002V000000002W0000000000
#08418:000000000000002V00000000002V00000000002V00000000002W000000002W00
#08419:002V0000002V0000000000002V00000000002V000000002V000000002W000000
#08501:6T
#08511:000000002V000000000000002W0000000000002W0000000000002W000000002W
#08512:002V0000000000002W000000000000002W000000000000002W00000000000000
#08513:00000000002V000000002W000000002W00000000002V0000002W000000002W00
#08515:2V00000000002V000000002W00000000002W000000002V0000000000002W0000
#08518:0000002V00000000002W000000002W00000000002V0000000000002W00000000
#08519:00002V000000002V00000000002W000000002W000000002V000000002W000000
#08601:00
#08601:00
#08601:00
#08601:8Q
#08611:000000002V000000002W0000000000002W0000000000002V000000002W000000
#08612:2W0000002W00002W00002V00002W0000
#08613:00000000002V000000000000002W00000000002W00000000002W00000000002W
#08615:0000002W0000000000002W000000002W00000000002V00000000002W00000000
#08618:00002W000000002V000000002W00000000002W00000000002W00000000002W00
#08619:002W000000002V000000002W00000000002W000000002V0000000000002W0000
#08701:6U
#08711:0000002V0000000000002W00000000002W000000002V00000000000000002W00
#08712:002V000000002V000000000000002W00000000002V000000002V0000002W0000
#08713:00000000002V00000000002W00000000002W00000000002V000000002W000000
#08715:2V0000000000002V000000002W00000000002W00000000002V0000000000002W
#08718:000000002V000000002W00000000002W0000000000002V000000002V00000000
#08719:00002V00000000002W000000002W00000000002W0000000000002V0000000000
#08801:00
#08801:00
#08801:00
#08801:8R
#08811:0000002V00002W00000000002W000000
#08812:0000002W0000002V00000000000000002W00000000002V00000000002W000000
#08813:002W000000000000002W0000002W000000002W00002V00000000002W0000002W
#08815:000000002V00000000002W0000002W000000002W00000000002W000000002W00
#08818:00002W00000000002W0000000000002W000000002V00000000002W0000000000
#08819:2W000000002V00000000002W00000000002W00000000002V00000000002W0000
#08901:6V
#08911:2V000000000000002W0000000000002W00000000002V00000000002V00000000
#08912:002V000000002V0000000000002W0000000000002V0000002V0000000000002W
#08913:00000000002V00000000002W000000002W00000000002V0000000000002W0000
#08915:000000002V000000002W000000002W000000002W0000000000002V0000000000
#08918:00002V000000002V000000002W000000002W00000000002V000000002W000000
#08919:0000002V0000000000002W000000000000002W0000000000002V000000002W00
#09001:00
#09001:00
#09001:00
#09001:8S
#09011:00000000002V0000002V0000000000002V000000002V00000000002V00000000
#09012:000000002V0000000000002V00000000002V00000000002V00000000002V0000
#09013:00002W00000000002V000000002V000000002V000000000000002V000000002V
#09015:2W0000000000002V000000002V0000000000002V000000002V00000000002V00
#09018:002W000000002V000000000000002V000000000000002V00000000002V000000
#09019:0000002W0000000000002V000000002V000000002V000000002V000000000000
#09101:6S
#09101:00
#09101:0Q
#09101:0S0T
#09101:00
#09101:00
#09101:00
#09101:00
#09101:00
#09101:3900003A00000000
#09111:002V00000000002V00000000000000002W00000000002V00000000002W000000
#09112:00000000002V00000000002W00000000002W00000000002V0000000000002W00
#09113:000000002V000000002W000000002W00000000002V00000000002V0000000000
#09115:0000002V0000000000002W000000002W00000000002V00000000002V00000000
#09118:00002V00000000002W000000002W00000000002W00000000002V00000000002W
#09119:2V00000000002V00000000002W00000000002W00000000002V000000002W0000
#09201:00
#09201:00
#09201:00
#09201:0U0V
#09201:8T
#09201:00
#09201:3B
#09201:00
#09201:0000003C00003D00
#09211:00002W000000002V000000002W00000000002W000000002V000000000000002W
#09212:0000002W00000000002W000000000000002W000000000000002W000000002W00
#09213:002W000000002V0000000000002W00000000002W0000000000002W0000000000
#09215:2W000000002V000000002W000000002W00000000002V00000000002W00000000
#09218:00000000000000002W00000000002W00000000002V0000002W000000002W0000
#09219:000000002V0000000000002W000000002W00000000002V00000000002W000000
#09301:6T
#09301:00
#09301:0Q
#09301:0S0T
#09301:00
#09301:00
#09301:00
#09301:00
#09301:00
#09301:3E00003F00000000
#09311:000000002V0000000000002W00000000002W000000000000002V000000000000
#09312:00000000002V000000002W00000000002W00000000002V0000000000002W0000
#09313:2V00000000002V00000000002W00000000002W000000002V000000002W000000
#09315:0000002V00000000002W000000002W000000002W000000002V00000000002W00
#09318:00002V00000000002W0000000000002W00000000002V00000000002V00000000
#09319:002V00000000002V00000000002W0000000000002V00000000002V000000002W
#09401:00
#09401:00
#09401:00
#09401:0U0V
#09401:8U
#09401:00
#09401:3G
#09401:00
#09401:0000003H00003I00
#09411:2W0000000000002V00000000000000002W00000000002V00000000002W000000
#09412:0000002W000000002W000000002W0000002W0000000000002W00000000002W00
#09413:00002W0000000000002W000000002W00000000002V00000000002W0000000000
#09415:000000002V00000000002W000000002W00000000002V00000000002W00000000
#09418:002W000000002V00000000002W0000000000002W00000000002W00000000002W
#09419:00000000002V00000000002W0000000000002W000000002V00000000002W0000
#09501:6U
#09501:00
#09501:0Q
#09501:0S0T
#09501:00
#09501:00
#09501:00
#09501:00
#09501:00
#09501:3900003A00000000
#09511:0000002V00000000002W0000000000002W00000000002V0000000000002W0000
#09512:00000000002V00000000002W00000000002W00000000000000002V0000000000
#09513:002V0000000000002W00000000002W00000000002V000000002V00000000002W
#09515:2V00000000002V0000000000002W000000000000002V00000000002V00000000
#09518:000000002V00000000002W000000002W0000002W000000002V00000000002W00
#09519:00002V000000002V000000002W00000000002W000000002V000000002W000000
#09601:00
#09601:00
#09601:00
#09601:0U0V
#09601:8V
#09601:00
#09601:3B
#09601:00
#09601:0000003C00003D00
#09611:0000000000002V0000000000002W000000002W00000000000000002W00000000
#09612:002W00000000000000002W00000000000000000000002V00000000002W000000
#09613:000000002V0000002W00000000002W000000002W000000002W0000000000002W
#09615:2W000000002V00000000002W0000002W000000002V000000002W000000002W00
#09618:0000002W00000000002W0000000000002W000000002V000000002W0000000000
#09619:00002W000000002V000000002W000000002W00000000002V00000000002W0000
#09701:6V
#09701:00
#09701:0Q
#09701:0S0T
#09701:00
#09701:00
#09701:00
#09701:00
#09701:00
#09701:3E00003F00000000
#09711:002V0000002V00000000002W0000000000002W00000000002V00000000002W00
#09712:00002V0000000000002W00000000002W0000000000002V00000000002W000000
#09713:0000000000002V0000000000002W00000000002W00000000002V00000000002W
#09715:00002V002W00002W00002V00002V0000
#09718:2V0000000000002V000000002W000000002W00000000002V00000000002W0000
#09719:0000002V0000000000002W00000000002W000000002V00000000002V00000000
#09801:00
#09801:00
#09801:00
#09801:0U
#09801:8W
#09801:00
#09801:3G00003H00000000
#09811:00000000002V00000000002W00000000002V00000000000000002W0000000000
#09812:00002V000000000000002W00000000002V00000000002W000000002W00000000
#09813:000000002V000000002W00000000002V00000000002W0000000000002W000000
#09815:2V00000000002V00000000002V00000000002V000000002W00000000002W0000
#09818:0000002V000000002W00000000002V000000002V000000002W00000000002W00
#09819:002V00000000002V00000000002V0000000000002W000000002W00000000002W
#09901:07
#09901:92
#09951:2S
#10253:000E
#10353:0E
#10452:0000000F
#10552:000F0000
#10653:000G
#10701:0H
#10701:6S
#10701:00
#10701:00
#10701:00
#10701:00
#10701:00
#10701:00
#10701:00
#10701:00
#10701:00
#10701:00
#10701:00
#10701:3900003A00000000
#10711:00000000000Q00000000000Q00000000000Q00000000002V00000000002W0000
#10712:00000Q00000Q00000Q002V00002V0000
#10713:0000000Q00000000000Q00000000000Q00000000002V00000000002V00000000
#10715:000Q00000Q00000Q0000002V00002W00
#10718:000Q00000000000Q00000000000Q00000000000Q00000000002V00000000002W
#10719:0Q00000Q00000Q00000Q00002V00002W
#10751:2S
#10753:0G
#10801:0H
#10801:00
#10801:00
#10801:00
#10801:00
#10801:00
#10801:00
#10801:00
#10801:00
#10801:00
#10801:00
#10801:00
#10801:3B00003C00003D00
#10811:0000002W0000000000002W0000000000002W00000000002V00000000002W0000
#10812:002W00000000002W00000000002W0000000000002V000000002W000000002W00
#10813:2W00000000002W000000002W000000002W000000002V0000000000002W000000
#10815:00002W00000000002W00000000002W000000002W0000000000002W0000000000
#10818:000000002W000000002W00000000002W0000000000002V000000002W00000000
#10819:00000000002W0000000000002W00000000002W00000000002W0000000000002W
#10901:0H
#10901:6T
#10901:0Q
#10901:00
#10901:00
#10901:00
#10901:00
#10901:00
#10901:00
#10901:00
#10901:00
#10901:00
#10901:00
#10901:3E00003F00000000
#10911:0000000000002W000000002W0000000000002V0000000000002W00000000002V
#10912:0000002W000000002W0000000000002W00000000002V0000000000002V000000
#10913:00002W000000002W00000000002W00000000002V000000002W00000000002V00
#10915:002W0000002W000000002W00000000002W00000000002V000000002W00000000
#10918:2W00000000000000002W000000002W00000000002V00000000002W0000000000
#10919:000000002W000000000000002W000000002W00000000002V00000000002V0000
#11001:00
#11001:00
#11001:00
#11001:000G
#11001:00
#11001:00
#11001:00
#11001:00
#11001:00
#11001:00
#11001:00
#11001:00
#11001:3G00003H00003I00
#11011:00000000002V000000000000002V0000000000002V0000002V00000000002V00
#11012:0000002V0000000000002V00000000002V00000000000000002V000000000000
#11013:00002V00000000002V00000000002V000000002V0000002V00000000002V0000
#11015:002V000000002V000000002V00000000002V000000002V00000000002V000000
#11018:2V0000000000002V000000002V00000000002V00000000000000002V00000000
#11019:000000002V000000002V00000000002V00000000002V000000002V000000002V
#11101:0H
#11101:6U
#11101:0Q
#11101:00
#11101:00
#11101:00
#11101:00
#11101:00
#11101:00
#11101:00
#11101:00
#11101:00
#11101:00
#11101:3900003A00000000
#11111:0000002V00000000002V00000000002V00000000002V0000000000002W000000
#11112:2V00000000002V00000000002V00000000002V000000002V00000000002W0000
#11113:002V00002V00002V00002V00002V0000
#11115:000000002V00000000002V00000000002V00000000002V000000002V00000000
#11118:002V00000000002V00000000002V00000000002V00000000002V00000000002W
#11119:00000000002V00000000002V00000000002V0000000000002V00000000002W00
#11201:00
#11201:00
#11201:0000000F
#11201:00
#11201:00
#11201:00
#11201:00
#11201:00
#11201:00
#11201:00
#11201:00
#11201:3B00003C00000000
#11201:0000003D
#11211:00002X0000000000002X00000000002X00000000002X00000000002X00000000
#11212:0000002X0000000000002X00000000002X00000000002X00000000002X000000
#11213:2X00000000002X000000002X00000000002X00000000002X00000000002X0000
#11215:002X00000000002X000000002X00000000002X00000000002X00000000002X00
#11218:000000002X0000002X000000002X00000000002X00000000002X000000000000
#11219:00000000002X00000000000000002X00000000002X00000000002X000000002X
#11301:6V
#11301:00
#11301:0Q
#11301:00
#11301:00
#11301:00
#11301:00
#11301:00
#11301:3E00003F00000000
#11301:00
#11301:00
#11301:00
#11301:002V000000000000
#11311:00002V00000000002V000000002V00000000002V0000000000002W0000000000
#11312:0000002V00000000002V0000000000002V00000000002V00000000002V000000
#11313:002V00000000002V000000002V00000000002V0000000000002W00000000002V
#11315:0000000000002V000000002V00000000002V0000000000002W00000000002V00
#11318:2V000000002V00000000000000002V0000000000002V00000000002W00000000
#11319:000000002V00000000002V000000002V000000002V00002V00000000002V0000
#11401:00
#11401:00
#11401:00
#11401:00
#11401:00
#11401:00
#11401:00
#11401:3G00003H00000000
#11411:2V00002V00002W0000002W00002W0000
#11412:0000002V00000000002W0000000000002W000000002W000000000000002W0000
#11413:00000000002V000000002W000000002W0000000000002W000000002W00000000
#11415:000000002V0000000000002W00000000002W00000000002W000000002W000000
#11418:002V0000000000002W00000000002W000000002W00000000002W00000000002W
#11419:00002V000000002V00000000002W000000002W00000000002W00000000002W00
#11501:08
#11501:93
#11501:0Q
#11501:0S0T
#11501:00
#11501:0X0Y0Z1011121314
#11501:2S
#11501:00
#11501:3900003A00000000
#11501:00
#11501:7C00007D00000000007F000000007H00
#11501:00
#11501:00
#11501:00
#11501:00
#11501:00
#11501:00
#11501:00
#11501:0000007E00000000
#11501:00
#11501:0000007G
#11501:00
#11501:00
#11501:00
#11501:00
#11501:00
#11501:6S
#11511:002V00000000002V000000000000002W000000002V00000000002V000000002W
#11512:000000002V00000000002W0000000000002W000000002V0000000000002W0000
#11513:2V00000000002V00000000002W0000000000002W000000002V00000000002W00
#11515:00002V00000000002W000000002W000000002W0000000000002V000000000000
#11518:00000000002V00000000002W000000002W0000000000002V000000002W000000
#11519:0000002V00000000002W000000002W0000000000002V00000000002V00000000
#11601:00
#11601:00
#11601:00
#11601:0U0V
#11601:00
#11601:15161718191A1B1C
#11601:00
#11601:3B00003C00003D00
#11601:00
#11601:00
#11601:7I00007K00007M00
#11601:00
#11601:00
#11601:00
#11601:00
#11601:00
#11601:00
#11601:00
#11601:0000007J000000000000000000000000
#11601:00
#11601:0000000000000000007L000000007N00
#11611:00000000002V000000002W00000000002W000000002V000000002W0000000000
#11612:00002W00000000002W00000000002W00000000002V0000000000002W00000000
#11613:000000002V0000000000002W00000000002W0000000000002W00000000002W00
#11615:2W00000000002V00000000002W00000000002W000000002V00000000002W0000
#11618:002W000000000000002W00000000002W0000000000002V00000000002W000000
#11619:0000002W0000002V00000000002W00000000002W00000000002W00000000002W
#11701:00
#11701:00
#11701:0Q
#11701:0S0T
#11701:00
#11701:1D1E1F1G1H1I1J1K
#11701:00
#11701:00
#11701:3E00003F00000000
#11701:00
#11701:7O00007Q00007S00
#11701:00
#11701:00
#11701:00
#11701:00
#11701:00
#11701:00
#11701:00
#11701:0000007P00000000007R000000000000
#11701:00
#11701:000000000000007T
#11701:00
#11701:00
#11701:00
#11701:00
#11701:00
#11701:6T
#11711:2V00002V00002W0000002V00002W0000
#11712:002V0000000000002W000000000000002W0000000000002V00000000002W0000
#11713:00002V000000002V00000000002W0000002W000000002V00000000002W000000
#11715:00000000002V00000000002W0000002W0000002W00000000002W00000000002W
#11718:0000002V0000000000002W000000000000002W00000000002W00000000002W00
#11719:000000002V000000002W000000002W0000000000002V00000000002W00000000
#11801:00
#11801:00
#11801:00
#11801:0U0V
#11801:00
#11801:1L1M1N1O1P1Q1R1S
#11801:00
#11801:3G00003H00003I00
#11801:00
#11801:00
#11801:7U00007V00000000007X000000007Z00
#11801:00
#11801:00
#11801:00
#11801:00
#11801:00
#11801:00
#11801:00
#11801:0000007W00000000
#11801:00
#11801:0000007Y
#11811:2W0000000000002V0000000000002W00000000002V0000000000002W00000000
#11812:00000000002V000000002W000000002W0000000000002V0000000000002W0000
#11813:002W000000002V000000002W00000000002W0000002V000000002W0000000000
#11815:000000002V000000002W0000000000002W0000000000002V000000002W000000
#11818:0000002W00000000000000002W0000000000002W000000002W0000000000002W
#11819:00002W00000000002W000000002W000000002W0000000000002W000000002W00
#11901:00
#11901:00
#11901:0Q
#11901:0S0T
#11901:00
#11901:0X0Y0Z1011121314
#11901:00
#11901:00
#11901:3900003A00000000
#11901:00
#11901:80000081000000000083000000008500
#11901:00
#11901:00
#11901:00
#11901:00
#11901:00
#11901:00
#11901:00
#11901:0000008200000000
#11901:00
#11901:00000084
#11901:00
#11901:00
#11901:00
#11901:00
#11901:00
#11901:6U
#11911:00002V00000000002W00000000002W00000000002V000000002V00000000002W
#11912:000000002V000000002W00000000002W00000000002V000000000000002W0000
#11913:2V00002V00002W00002W00002V002W00
#11915:002V00000000002V00000000002W0000002W00000000002V0000000000002W00
#11918:00000000002V00000000002W000000000000002W0000000000002V0000000000
#11919:0000002V0000000000002W00000000002W00000000002V000000002V00000000
#12001:00
#12001:00
#12001:00
#12001:0U0V
#12001:00
#12001:15161718191A1B1C
#12001:00
#12001:3B00003C00003D00
#12001:00
#12001:00
#12001:8600008800008A00
#12001:00
#12001:00
#12001:00
#12001:00
#12001:00
#12001:00
#12001:00
#12001:00000087000000000000000000000000
#12001:00
#12001:00000000000000000089000000008B00
#12011:0000002V00002W00002W0000002W0000
#12012:000000002V00000000002W0000000000002W00000000002V0000000000002W00
#12013:00002W00000000002W00000000002W00000000002V000000002W00000000002W
#12015:0000002W00000000002W00000000002W00000000002V00000000002W00000000
#12018:002W00000000002V00000000002W00000000002W000000002W000000002W0000
#12019:2W000000002V00000000002W000000002W00000000002V00000000002W000000
#12101:00
#12101:00
#12101:0Q
#12101:0S0T
#12101:00
#12101:1D1E1F1G1H1I1J1K
#12101:00
#12101:00
#12101:3E00003F00000000
#12101:00
#12101:8C00008E00008G00
#12101:00
#12101:00
#12101:00
#12101:00
#12101:00
#12101:00
#12101:00
#12101:0000008D00000000008F000000000000
#12101:00
#12101:000000000000008H
#12101:00
#12101:00
#12101:00
#12101:00
#12101:00
#12101:6V
#12111:2V00000000002V0000000000002W000000002W00000000002V0000000000002W
#12112:00000000002V00000000002W000000000000002W0000000000002V0000000000
#12113:00002V00002W00002W00002V00002W00
#12115:002V00000000002V000000002W000000002W00000000002V00000000002W0000
#12118:00002V00000000002W0000000000002W00000000002V00000000002V00000000
#12119:0000002V00000000002W000000002W00000000002V000000002V000000002W00
#12201:00
#12201:00
#12201:00
#12201:0U
#12201:00
#12201:1L1M1N1O1P1Q1R1S
#12201:00
#12201:3G00003H00000000
#12201:00
#12201:00
#12201:8I00008J00000000008L000000008N00
#12201:00
#12201:00
#12201:00
#12201:00
#12201:00
#12201:00
#12201:00
#12201:0000008K00000000
#12201:00
#12201:0000008M
#12211:00000000002V00000000002V00000000002V000000000000002V000000000000
#12212:2W0000000000002V0000000000002V000000000000002V0000000000002V0000
#12213:0000002W00000000002V00000000002V000000002V0000002V00000000002V00
#12215:00002W00000000002V0000002V00000000002V000000002V000000002V000000
#12218:002W000000002V0000000000002V00000000002V000000000000002V00000000
#12219:000000002V00000000002V00000000002V000000002V000000002V000000002V
#12301:00
#12301:00
#12301:0Q
#12301:0S0T
#12301:00
#12301:0X0Y0Z1011121314
#12301:00
#12301:00
#12301:3900003A00000000
#12301:00
#12301:7C00007D00000000007F000000007H00
#12301:00
#12301:00
#12301:00
#12301:00
#12301:00
#12301:00
#12301:00
#12301:0000007E00000000
#12301:00
#12301:0000007G
#12301:00
#12301:00
#12301:00
#12301:00
#12301:00
#12301:6S
#12311:2V0000000000002V000000000000002W0000000000002V0000000000002W0000
#12312:00002V00000000000000002W00000000002W0000000000002V00000000002W00
#12313:0000002V000000002W000000002W00000000002W00000000002V000000000000
#12315:000000002V000000002W000000002W00000000002V00000000002V000000002W
#12318:002V000000002V00000000002W00000000002W000000002V000000002W000000
#12319:00000000002V000000002W00000000002W000000002V00000000002V00000000
#12401:00
#12401:00
#12401:00
#12401:0U0V
#12401:00
#12401:15161718191A1B1C
#12401:00
#12401:3B00003C00003D00
#12401:00
#12401:00
#12401:7I00007K00007M00
#12401:00
#12401:00
#12401:00
#12401:00
#12401:00
#12401:00
#12401:00
#12401:0000007J000000000000000000000000
#12401:00
#12401:0000000000000000007L000000007N00
#12411:0000002W000000000000002W000000000000002W00000000002W00000000002W
#12412:000000002V000000002W00000000002W00000000002V00000000002W00000000
#12413:002W000000002V00000000002W000000002W00000000002V0000000000002W00
#12415:00000000002V000000002W00000000002W00000000002V00000000002W000000
#12418:002W00002W00002W00002V00002W0000
#12419:2W0000000000002V00000000002W000000002W00000000002W000000002W0000
#12501:00
#12501:00
#12501:0Q
#12501:0S0T
#12501:00
#12501:1D1E1F1G1H1I1J1K
#12501:00
#12501:00
#12501:3E00003F00000000
#12501:00
#12501:7O00007Q00007S00
#12501:00
#12501:00
#12501:00
#12501:00
#12501:00
#12501:00
#12501:00
#12501:0000007P00000000007R000000000000
#12501:00
#12501:000000000000007T
#12501:00
#12501:00
#12501:00
#12501:00
#12501:00
#12501:6T
#12511:0000000000002V0000000000002W0000000000002V000000000000002W000000
#12512:000000002V00000000002W0000000000002W0000000000002V00000000002W00
#12513:0000002V00000000002W00000000002W0000000000002V000000002V00000000
#12515:002V00000000002V0000000000002W000000002W00000000002V000000000000
#12518:2V000000002V00000000002W000000002W000000002V000000002V000000002W
#12519:00002V00000000002W0000002W00000000002W000000002V00000000002W0000
#12601:00
#12601:00
#12601:00
#12601:0U0V
#12601:00
#12601:1L1M1N1O1P1Q1R1S
#12601:00
#12601:3G00003H00003I00
#12601:00
#12601:00
#12601:7U00007V00000000007X000000007Z00
#12601:00
#12601:00
#12601:00
#12601:00
#12601:00
#12601:00
#12601:00
#12601:0000007W00000000
#12601:00
#12601:0000007Y
#12611:0000002W00000000002W00000000002W0000000000002V00000000002W000000
#12612:000000002V0000000000002W0000000000002W000000002V00000000002W0000
#12613:002W0000000000002W000000002W00000000002W00000000002W000000002W00
#12615:2W00000000002V00000000002W000000002W0000000000002W0000000000002W
#12618:00000000002V000000002W00000000002W000000002V00000000002W00000000
#12619:00002W000000002V0000000000002W00000000002V00000000002W0000000000
#12701:00
#12701:00
#12701:0Q
#12701:0S0T
#12701:00
#12701:0X0Y0Z1011121314
#12701:00
#12701:00
#12701:3900003A00000000
#12701:00
#12701:80000081000000000083000000008500
#12701:00
#12701:00
#12701:00
#12701:00
#12701:00
#12701:00
#12701:00
#12701:0000008200000000
#12701:00
#12701:00000084
#12701:00
#12701:00
#12701:00
#12701:00
#12701:00
#12701:6U
#12711:00000000002V00000000002W000000000000002W000000000000002V00000000
#12712:00002V0000000000002W00000000002W00000000002V000000002V0000000000
#12713:0000002V000000002W00000000002W00000000002V000000002V00000000002W
#12715:000000002V00000000002W00000000002W0000000000002V0000000000002W00
#12718:002V00000000002V000000002W00000000002W00000000002V000000002W0000
#12719:2V00000000002V0000000000002W0000002W000000002V00000000002W000000
#12801:00
#12801:00
#12801:00
#12801:0U0V
#12801:00
#12801:15161718191A1B1C
#12801:00
#12801:3B00003C00003D00
#12801:00
#12801:00
#12801:8600008800008A00
#12801:00
#12801:00
#12801:00
#12801:00
#12801:00
#12801:00
#12801:00
#12801:00000087000000000000000000000000
#12801:00
#12801:00000000000000000089000000008B00
#12811:2W0000000000002V000000002W00000000002W00000000002W00000000002W00
#12812:002W0000000000002W0000000000002W0000002W00000000002W000000000000
#12813:000000002V000000002W000000002W000000000000002V000000002W00000000
#12815:0000002W000000000000002W00000000002W00000000002V000000002W000000
#12818:00000000002V000000002W00000000002W000000002V000000000000002W0000
#12819:00002W0000002V0000000000002W0000000000002V00000000002W000000002W
#12901:00
#12901:00
#12901:0Q
#12901:0S0T
#12901:00
#12901:1D1E1F1G1H1I1J1K
#12901:00
#12901:00
#12901:3E00003F00000000
#12901:00
#12901:8C00008E00008G00
#12901:00
#12901:00
#12901:00
#12901:00
#12901:00
#12901:00
#12901:00
#12901:0000008D00000000008F000000000000
#12901:00
#12901:000000000000008H
#12901:00
#12901:00
#12901:00
#12901:00
#12901:00
#12901:6V
#12911:00000000002V00000000002W00000000002W000000002V0000000000002W0000
#12912:2V000000000000002W00000000002W00000000002V0000000000002V00000000
#12913:00002V000000002V00000000002W00000000002W00000000002V000000000000
#12915:002V000000002V00000000002W00000000002W000000002V000000002W000000
#12918:00002V00002W00002W0000002V00002W
#12919:0000002V00000000002W00000000002W00000000002V000000002V000000002W
#13001:00
#13001:00
#13001:00
#13001:0U
#13001:00
#13001:1L1M1N1O1P1Q1R1S
#13001:00
#13001:3G00003H00000000
#13001:00
#13001:00
#13001:8I00008J00000000008L000000008N00
#13001:00
#13001:00
#13001:00
#13001:00
#13001:00
#13001:00
#13001:00
#13001:0000008K00000000
#13001:00
#13001:0000008M
#13011:000000002V000000002W000000002V0000000000002W00000000002W00000000
#13012:002V0000000000002W000000000000002V00000000002W0000000000002W0000
#13013:2V00000000002V0000000000002V00000000002V00000000002W00000000002W
#13015:00002V000000002V000000002V000000002V0000000000002W00000000002W00
#13018:0000002V000000000000002W0000000000002V000000002W000000002W000000
#13019:00000000002V000000002W000000002V000000002W00000000002W0000000000
#13101:09
#13101:00
#13101:00
#13101:0S0T
#13101:00
#13101:00
#13101:00
#13101:3K00003L00000000
#13101:00
#13101:00
#13101:00
#13101:00
#13101:00
#13101:00
#13101:00
#13101:00
#13101:00
#13101:2S
#13101:00
#13101:00
#13101:00
#13101:00
#13101:00
#13101:1U000000001Z0000
#13101:0000001X00000000
#13101:001V000000002000
#13101:001Y
#13101:00001W0000000021
#13111:002V00000000002V00000000002V0000000000002V00000000002V0000000000
#13112:0000002V00000000002V00000000002V000000000000002V0000000000002W00
#13113:00000000002V00000000002V000000002V000000002V00000000002V0000002W
#13115:000000002V00000000002V0000000000002V000000002V00000000002W000000
#13118:00002V00000000002V00000000002V000000002V00000000002V000000000000
#13119:2V00000000002V00000000002V00000000002V00000000002V000000002W0000
#13201:00
#13201:00
#13201:00
#13201:0U0V
#13201:00
#13201:00
#13201:00
#13201:3M00003N00003O00
#13201:00
#13201:00
#13201:00
#13201:00
#13201:00
#13201:00
#13201:00
#13201:00
#13201:00
#13201:00
#13201:00
#13201:00
#13201:00
#13201:00
#13201:00
#13201:0000240000000029
#13201:2200000000270000
#13201:0000002500000000
#13201:0023000000002800
#13201:0026
#13211:002W00000000002X00000000002X0000000000002V0000000000002W00000000
#13212:00000000002X0000000000002X00000000002W0000000000002W000000000000
#13213:000000002X00000000002X00000000002W0000000000002V0000000000002W00
#13215:00002W00000000002X0000000000002W00000000002V000000002W000000002W
#13218:2W00000000002X000000002X00000000002W000000002V0000000000002W0000
#13219:0000002W00000000002X000000002W000000002W000000002W0000002W000000
#13301:00
#13301:00
#13301:00
#13301:0S0T
#13301:00
#13301:00
#13301:00
#13301:3P00003Q00000000
#13301:00
#13301:00
#13301:00
#13301:00
#13301:00
#13301:00
#13301:00
#13301:00
#13301:00
#13301:00
#13301:00
#13301:00
#13301:00
#13301:00
#13301:00
#13301:002E
#13301:00002C000000002H
#13301:2A000000002F0000
#13301:0000002D00000000
#13301:002B000000002G00
#13311:2V0000000000002V00000000002V00000000002V0000000000002W0000000000
#13312:002V000000002V00000000002V000000002V00000000002V00000000002V0000
#13313:00000000002V000000002V00000000002V00000000002V000000002W00000000
#13315:000000002V000000002V00000000002V000000002V000000002W00000000002V
#13318:00002V00000000000000002V0000000000002V00000000002W00000000002V00
#13319:0000002V000000002V00000000002V0000000000002V0000000000002V000000
#13401:00
#13401:00
#13401:00
#13401:0U0V
#13401:00
#13401:00
#13401:00
#13401:3R00003S00003T00
#13401:00
#13401:00
#13401:00
#13401:00
#13401:00
#13401:00
#13401:00
#13401:00
#13401:00
#13401:00
#13401:00
#13401:00
#13401:00
#13401:00
#13401:00
#13401:002J000000002O00
#13401:002M
#13401:002K0000
#13401:2I000000002N0000
#13401:0000002L0000002P
#13411:2V00000000002V00000000002V000000002V000000002V00000000002W000000
#13412:0000002V00000000002V0000000000002V0000000000002V00000000002W0000
#13413:002V00000000002V00000000002V0000000000002V00000000002W0000000000
#13415:000000002V00000000002W000000002V00000000002V00000000002W00000000
#13418:00000000002V00000000002W0000000000002V0000000000002W00000000002W
#13419:00002V00000000002V00000000002V000000002V000000002W00000000002W00
#13501:00
#13501:00
#13501:00
#13501:0S0T
#13501:00
#13501:00
#13501:00
#13501:3K00003L00000000
#13501:00
#13501:00
#13501:00
#13501:00
#13501:00
#13501:00
#13501:00
#13501:00
#13501:00
#13501:00
#13501:00
#13501:00
#13501:00
#13501:00
#13501:00
#13501:1U000000001Z0000
#13501:0000001X00000000
#13501:001V000000002000
#13501:001Y
#13501:00001W0000000021
#13511:002V00002V00002V00002V00002V0000
#13512:000000002V00000000002V00000000002V00000000002V000000002V00000000
#13513:2V00000000002V00000000002V00000000002V0000000000002V00000000002W
#13515:002V00000000002V00000000002V00000000002V000000002V00000000002W00
#13518:00000000002V00000000002V00000000002V00000000002V00000000002W0000
#13519:0000002V00000000002V00000000002V00000000002V0000000000002W000000
#13601:00
#13601:00
#13601:00
#13601:0U0V
#13601:00
#13601:00
#13601:00
#13601:3M00003N00003O00
#13601:00
#13601:00
#13601:00
#13601:00
#13601:00
#13601:00
#13601:00
#13601:00
#13601:00
#13601:00
#13601:00
#13601:00
#13601:00
#13601:00
#13601:00
#13601:0000240000000029
#13601:2200000000270000
#13601:0000002500000000
#13601:0023000000002800
#13601:0026
#13611:002W000000002X00000000002X00000000002X000000000000002W0000000000
#13612:2W0000000000002X00000000002X00000000002X000000002W0000000000002W
#13613:000000002X00000000002X0000000000002X000000002X00000000002W000000
#13615:00000000002X00000000002X000000002X0000000000002X00000000002W0000
#13618:0000002W000000002X0000000000002X00000000002X00000000002W00000000
#13619:00002W0000000000002X000000002X00000000002X000000002W000000002W00
#13701:00
#13701:00
#13701:00
#13701:0S0T
#13701:00
#13701:00
#13701:00
#13701:3P00003Q00000000
#13701:00
#13701:00
#13701:00
#13701:00
#13701:00
#13701:00
#13701:00
#13701:00
#13701:00
#13701:00
#13701:00
#13701:00
#13701:00
#13701:00
#13701:00
#13701:002E
#13701:00002C000000002H
#13701:2A000000002F0000
#13701:0000002D00000000
#13701:002B000000002G00
#13711:002V00000000002V000000000000002V0000000000002V00000000002V000000
#13712:00000000002V0000000000002V00000000002V00000000002W00000000002V00
#13713:00002V00000000002V000000002V0000000000002V00000000002W0000000000
#13715:0000002V00000000002V000000002V000000002V00000000002W00000000002V
#13718:2V00000000002V000000002V00000000002V00000000002V00000000002V0000
#13719:000000002V00000000002V00000000002V000000002V00000000002W00000000
#13801:00
#13801:00
#13801:00
#13801:0U
#13801:00
#13801:00
#13801:00
#13801:3R00003S00000000
#13801:00
#13801:00
#13801:00
#13801:00
#13801:00
#13801:00
#13801:00
#13801:00
#13801:00
#13801:00
#13801:00
#13801:00
#13801:00
#13801:00
#13801:00
#13801:002J000000002O00
#13801:002M
#13801:002K0000
#13801:2I000000002N0000
#13801:0000002L0000002P
#13811:002V00002V0000002W0000002W00002W
#13812:000000002V000000002V00000000002W00000000002W0000000000002W000000
#13813:2V00002V002W002W00002W00002W0000
#13815:00000000002V00000000002W00000000002W000000002W000000002W00000000
#13818:0000002V00000000000000002W00000000002W000000002W00000000002W0000
#13819:002V00000000002V00000000002W00000000002W00000000002W00000000002W
#13901:00
#13901:00
#13901:00
#13901:0S0T
#13901:00
#13901:00
#13901:00
#13901:3K00003L00000000
#13901:00
#13901:00
#13901:00
#13901:00
#13901:00
#13901:00
#13901:00
#13901:00
#13901:00
#13901:00
#13901:00
#13901:00
#13901:00
#13901:00
#13901:00
#13901:1U000000001Z0000
#13901:0000001X00000000
#13901:001V000000002000
#13901:001Y
#13901:00001W0000000021
#13911:000000002V00000000002V000000002V0000000000002V00000000002W000000
#13912:002V00002V00002V00002V00002V0000
#13913:2V00002V00002V00002V00002V00002W
#13915:002V00000000002V00000000002V00000000002V00000000002V00000000002W
#13918:0000002V00000000002V0000000000002V000000002V00000000002V00000000
#13919:00000000002V00000000002V00000000002V00000000002V00000000002W0000
#14001:00
#14001:00
#14001:00
#14001:0U0V
#14001:00
#14001:00
#14001:00
#14001:3M00003N00003O00
#14001:00
#14001:00
#14001:00
#14001:00
#14001:00
#14001:00
#14001:00
#14001:00
#14001:00
#14001:00
#14001:00
#14001:00
#14001:00
#14001:00
#14001:00
#14001:0000240000000029
#14001:2200000000270000
#14001:0000002500000000
#14001:0023000000002800
#14001:0026
#14011:000000002X00000000002X00000000002W00000000002V000000002W00000000
#14012:002W00000000002X00000000002X00000000002W00000000002W000000000000
#14013:0000002W00000000002X00000000002W00000000002V000000002W000000002W
#14015:00000000002X00000000002X0000000000002W00000000002W00000000002W00
#14018:2W00000000002X00000000002X000000002W00000000002V00000000002W0000
#14019:002W00002X00002W00002V0000002W00
#14101:00
#14101:00
#14101:00
#14101:0S0T
#14101:00
#14101:00
#14101:00
#14101:3P00003Q00000000
#14101:00
#14101:00
#14101:00
#14101:00
#14101:00
#14101:00
#14101:00
#14101:00
#14101:00
#14101:00
#14101:00
#14101:00
#14101:00
#14101:00
#14101:00
#14101:002E
#14101:00002C000000002H
#14101:2A000000002F0000
#14101:0000002D00000000
#14101:002B000000002G00
#14111:002V00000000002V00000000002V00000000002V00000000002W000000002V00
#14112:2V00000000002V00000000002V00000000002V00000000002W0000000000002V
#14113:00000000002V00000000002V00000000002V00000000002V00000000002V0000
#14115:000000002V00000000002V00000000002V00000000002V000000002W00000000
#14118:0000002V00000000002V00000000002V00000000002V0000000000002V000000
#14119:002V00002V00002V00002V00002W0000
#14201:00
#14201:00
#14201:00
#14201:0U0V
#14201:00
#14201:00
#14201:00
#14201:3R00003S00003T00
#14201:00
#14201:00
#14201:00
#14201:00
#14201:00
#14201:00
#14201:00
#14201:00
#14201:00
#14201:00
#14201:00
#14201:00
#14201:00
#14201:00
#14201:00
#14201:002J000000002O00
#14201:002M
#14201:002K0000
#14201:2I000000002N0000
#14201:0000002L0000002P
#14211:000000002V00000000002W00000000002V0000000000002V0000000000002W00
#14212:00000000002V0000000000002V0000000000002V000000000000002W00000000
#14213:0000002V00000000002V00000000002V000000002V000000002W00000000002W
#14215:002V000000002V000000002W00000000002V000000002V00000000002W000000
#14218:00002V000000002V0000000000002V0000000000002V000000002W0000000000
#14219:2V000000000000002V000000002V000000002V00000000002W000000002W0000
#14301:00
#14301:00
#14301:00
#14301:0S0T
#14301:00
#14301:00
#14301:00
#14301:3K00003L00000000
#14301:00
#14301:00
#14301:00
#14301:00
#14301:00
#14301:00
#14301:00
#14301:00
#14301:00
#14301:00
#14301:00
#14301:00
#14301:00
#14301:00
#14301:00
#14301:1U000000001Z0000
#14301:0000001X00000000
#14301:001V000000002000
#14301:001Y
#14301:00001W0000000021
#14311:000000002V0000000000002V00000000002V0000000000002V0000000000002W
#14312:002V0000000000002V0000000000002V0000000000002V00000000002W000000
#14313:00000000002V000000002V00000000002V000000002V000000002V0000000000
#14315:0000002V00000000002V000000002V00000000002V000000002V000000002W00
#14318:2V00000000002V0000000000002V00000000002V000000000000002V00000000
#14319:00002V000000002V000000002V00000000002V000000002V00000000002W0000
#14401:00
#14401:00
#14401:00
#14401:0U0V
#14401:00
#14401:00
#14401:00
#14401:3M00003N00003O00
#14401:00
#14401:00
#14401:00
#14401:00
#14401:00
#14401:00
#14401:00
#14401:00
#14401:00
#14401:00
#14401:00
#14401:00
#14401:00
#14401:00
#14401:00
#14401:0000240000000029
#14401:2200000000270000
#14401:0000002500000000
#14401:0023000000002800
#14401:0026
#14411:000000002X00000000002X000000002W00000000000000002W0000000000002W
#14412:002W0000000000002X000000000000002W00000000002V00000000002W000000
#14413:2W00000000002X00000000002X00000000002W000000002V00000000002W0000
#14415:00000000002X00000000002X00000000002W0000002V000000002W0000002W00
#14418:00002W000000002X00000000002X0000000000002V0000000000002W00000000
#14419:0000002W00000000002X000000002W000000002W00000000002W000000000000
#14501:00
#14501:00
#14501:00
#14501:0S0T
#14501:00
#14501:00
#14501:00
#14501:3P00003Q00000000
#14501:00
#14501:00
#14501:00
#14501:00
#14501:00
#14501:00
#14501:00
#14501:00
#14501:00
#14501:00
#14501:00
#14501:00
#14501:00
#14501:00
#14501:00
#14501:002E
#14501:00002C000000002H
#14501:2A000000002F0000
#14501:0000002D00000000
#14501:002B000000002G00
#14511:000000000000002V0000000000002V000000002V000000000000002W00000000
#14512:0000002V00000000002V00000000002V00000000002V000000002W0000000000
#14513:00002V00000000002V000000002V0000000000002V000000002W00000000002V
#14515:000000002V00000000002V00000000002V0000000000002V0000000000002V00
#14518:002V0000002V0000000000002V00000000002V00000000002W000000002V0000
#14519:2V00000000002V000000002V00000000002V000000002V00000000002V000000
#14601:00
#14601:00
#14601:00
#14601:0U
#14601:00
#14601:00
#14601:00
#14601:3R00003S00000000
#14601:00
#14601:00
#14601:00
#14601:00
#14601:00
#14601:00
#14601:00
#14601:00
#14601:00
#14601:00
#14601:00
#14601:00
#14601:00
#14601:00
#14601:00
#14601:002J000000000000
#14601:00
#14601:002K0000
#14601:2I
#14601:0000002L00000000
#14611:2V00000000002V00000000002V000000002V00000000002W0000002W00000000
#14612:002V00000000002V00000000002V00000000002V00000000000000002W000000
#14613:00000000002V00000000002W0000000000002V00000000002W000000002W0000
#14615:000000002V00000000002W00000000002V000000002W0000002W000000002W00
#14618:0000002V00000000002W00000000002V0000000000002W00000000000000002W
#14619:002V00002W00002V00002W00002W0000
#14701:0A
#14701:8X
#14719:42
#14751:2S
#14915:43
#15053:000E
#15101:8X
#15112:44
#15153:0E
#15252:0000000F
#15352:000F0000
#15453:000G
#15501:6G
#15501:0H
#15501:8X
#15511:00000000002V000000000000002V00000000002V00000000002V000000000000
#15512:0000002V0000000000002V000000000000002V00000000002V00000000002W00
#15513:000000002V000000002V00000000002V00000000002V0000000000002W000000
#15515:2V00000000002V000000002V000000002V00000000002V000000002V00000000
#15518:002V00000000002V000000002V000000002V00000000002V00000000002W0000
#15519:00002V00000000002V00000000002V00000000002V00000000002V000000002W
#15551:2S
#15553:0G
#15601:00
#15601:0H
#15611:2V00000000002V000000002V00000000002V0000000000002W000000002W0000
#15612:002V002V002V002W
#15613:00002V000000002V00000000002V000000002V0000000000002W00000000002W
#15615:002V0000000000002V00000000002V000000002V0000002V0000000000002W00
#15618:0000002V0000000000002V00000000002V00000000002V000000002W00000000
#15619:00000000002V0000002V00000000002V00000000002V000000002W0000000000
#15701:00
#15701:0H
#15711:00002V00000000002V00000000002V00000000002V0000000000002W00000000
#15712:0000002V00000000002V00000000002V00000000002V000000002W0000000000
#15713:00002V00002V00002V00002V00002V00
#15715:00000000002V00000000002V00000000002V00000000002V00000000002V0000
#15718:2V00000000002V00000000002V00000000002V0000000000002W00000000002V
#15719:002V00000000002V00000000002V00000000002V000000002W00000000002V00
#15801:00
#15801:000G
#15811:0000002V0000000000002V000000002V00000000002V00000000002W0000002W
#15812:2V0000000000002V00000000000000002V0000000000002V00000000002W0000
#15813:002V000000002V00000000002V000000000000002V00000000002W0000000000
#15815:00002V00000000002V000000002V00000000002V00000000002W000000000000
#15818:00000000002V00000000002V00000000002V000000002V00000000002W000000
#15819:000000002V000000002V000000002V0000002V00000000002W00000000002W00
#15901:6G
#15901:0H
#15901:8X
#15911:00000000000000002V0000000000002V00000000002V000000000000002W0000
#15912:000000002V00000000002V00000000002V00000000002V000000002V00000000
#15913:002V0000002V00000000002V00000000002V00000000002V000000002W000000
#15915:2V00000000002V00000000002V00000000002V00000000002V0000000000002W
#15918:0000002V00000000002V000000002V00000000002V00000000002V0000000000
#15919:00002V000000002V00000000002V00000000002V00000000002V000000002W00
#16001:00
#16001:0000000F
#16011:000000002X00000000002X00000000002X000000002V000000002W0000000000
#16012:00002W0000000000002X00000000002X0000000000002V0000000000002W0000
#16013:002W0000000000002X00000000002X00000000002V0000000000002W00000000
#16015:00000000002X00000000002X00000000002X00000000002V000000002W000000
#16018:2W00000000002X00000000002X00000000002X0000000000002W00000000002W
#16019:0000002W0000002X00000000002X00000000002X000000002W00000000002W00
#16101:00
#16101:00
#16101:00
#16101:00
#16101:0000002T
#16111:2V00002V00002V00002V00002W00002V
#16112:0000002V0000000000002V00000000002V00000000002V000000002W00000000
#16113:002V0000000000002V00000000002V00000000002V000000002W00000000002V
#16115:00002V000000002V00000000002V00000000002V0000000000002W0000000000
#16118:00000000002V00000000002V00000000002V00000000002V000000002V000000
#16119:000000002V000000002V00000000002V00000000002V000000000000002V0000
#16211:0000002V0000000000002W00000000002W0000000000002W0000002W00000000
#16212:000000002V000000002W00000000002W00000000002W000000000000002W0000
#16213:00000000002V00000000002W00000000002W000000002W00000000002W000000
#16215:2V00000000002V0000000000002W0000000000002W00000000002W0000000000
#16218:002V0000000000002W00000000002W000000002W00000000002W00000000002W
#16219:00002V000000002V000000002W00000000002W00000000002W00000000002W00
#16301:0B
#16301:71000000000J0000
#16301:0Q
#16301:8Y
#16301:2S
#16301:2Z
#16301:00
#16301:00
#16301:00
#16301:3V00003W
#16301:00
#16301:00
#16301:00
#16301:00
#16301:0048
#16301:00470049
#16301:46
#16301:00
#16301:6I
#16301:00
#16301:00
#16301:00
#16301:00
#16301:94
#16311:2V00002V00002V00002V00002V00002W
#16312:00000000002V000000002V00000000002V00000000002V00000000002W000000
#16313:00002V00000000002V000000002V00000000002V00000000002V00000000002W
#16315:002V00000000002V0000000000002V00000000002V00000000002V0000000000
#16318:000000002V0000000000002V00000000002V00000000002V00000000002W0000
#16319:0000002V00000000002V00000000002V00000000002V00000000002V00000000
#16401:72
#16401:000000000000000K0000000000000000
#16401:00
#16401:00
#16401:00
#16401:00
#16401:00
#16401:00
#16401:00
#16401:003X
#16401:00
#16401:00
#16401:004C
#16401:004B004D
#16401:4A
#16411:000000002V0000000000002W00000000002W000000002V00000000002W000000
#16412:0000002W00000000002W0000000000002W0000000000002V00000000002W0000
#16413:00000000002V000000002W000000002W00000000002V000000002W0000000000
#16415:002W00000000002V0000000000002W000000002W00000000002W00000000002W
#16418:00002W00000000002W000000002W0000000000002V0000000000002W00000000
#16419:2W00002V00002W00002W00002W00002W
#16501:73
#16501:0000000L
#16501:0Q
#16501:00
#16501:00
#16501:00
#16501:00
#16501:00
#16501:00
#16501:3Y0000000000000000000000003Z0000
#16501:00
#16501:00
#16501:00
#16501:00
#16501:004G
#16501:004F0000
#16501:4E00004H
#16511:00002V00000000000000002W00000000002W00000000002V0000000000002W00
#16512:0000002V000000002W00000000002W00000000002V0000000000002W00000000
#16513:002V00000000002V00000000002W00000000002W00000000002W00000000002W
#16515:00000000002V000000002W00000000002W00000000002V00000000002W000000
#16518:2V00000000002V00000000002W00000000002W00000000002W000000002W0000
#16519:000000002V000000002W00000000002W00000000002V000000002W0000000000
#16601:00
#16601:000000000000000M0000000000000000
#16601:00
#16601:00
#16601:00
#16601:00
#16601:00
#16601:00
#16601:00
#16601:00000000000000000040000000000000
#16601:00
#16601:00
#16601:0000004L
#16601:004K
#16601:004J0000
#16601:4I
#16611:0000002W00000000002W000000002W000000000000002V000000000000002W00
#16612:00002W000000002V000000000000002W000000002V00000000002W0000000000
#16613:0000000000002V00000000002W0000002W000000002V00000000002W00000000
#16615:002W0000000000002W000000002W00000000002W000000002W000000002W0000
#16618:000000002V0000000000002W0000000000002W0000000000002W00000000002W
#16619:2W000000002V000000002W0000000000002W00000000002V000000002W000000
#16701:74
#16701:8Z000000000J0000
#16701:0Q
#16701:00
#16701:00
#16701:00
#16701:00
#16701:00
#16701:00
#16701:3V00003W
#16701:00
#16701:00
#16701:00
#16701:00
#16701:00
#16701:6J
#16701:004O
#16701:004N004P
#16701:4M
#16711:000000002V00000000002W0000000000002W00000000002V00000000002W0000
#16712:002V00000000002V0000000000002W000000002W000000002V00000000002W00
#16713:2V000000002V00000000002W000000002W00000000002V000000002V00000000
#16715:0000002V00000000002W00000000002W00000000002V000000002V0000000000
#16718:0000000000002V0000000000002W0000000000002V000000000000002W000000
#16719:00002V00000000002W0000002W00000000002W0000000000002V00000000002W
#16801:00
#16801:000000000000000K0000000000000000
#16801:30
#16801:00
#16801:00
#16801:00
#16801:00
#16801:00
#16801:00
#16801:003X
#16801:00
#16801:00
#16801:00
#16801:00
#16801:004S
#16801:004R004T
#16801:4Q
#16811:002W00002W00002W00002V00002W0000
#16812:000000002V00000000002W00000000002W00000000002V000000002W00000000
#16813:002W00000000002V00000000002W00000000002W000000002W0000000000002W
#16815:2W00000000002V00000000002W00000000002W0000000000002W000000002W00
#16818:0000002W00000000002W00000000002W00000000002V000000000000002W0000
#16819:00000000002V00000000002W00000000002W00000000002V000000002W000000
#16901:75
#16901:3100000N
#16901:0Q
#16901:00
#16901:00
#16901:00
#16901:00
#16901:00
#16901:00
#16901:3Y0000000000000000000000003Z0000
#16901:00
#16901:00
#16901:004W
#16901:004V004X
#16901:4U
#16911:2V00000000002V00000000002W00000000002W00000000002V0000000000002W
#16912:002V00000000002V00000000002W0000000000002V00000000002V0000000000
#16913:00000000002V00000000002W00000000002W00000000002V00000000002W0000
#16915:000000002V00000000002W000000002W00000000002V00000000002V00000000
#16918:0000002V00000000002W0000000000002W00000000002V00000000002W000000
#16919:00002V00000000002W00000000002W000000002W00000000002V000000002W00
#17001:000O
#17001:32
#17001:00
#17001:00
#17001:00
#17001:00
#17001:00
#17001:00
#17001:00
#17001:00000000000000000040000000000000
#17001:00
#17001:00
#17001:00000051
#17001:0050
#17001:4Y4Z0000
#17011:00000000002V00000000002V0000000000002W000000002V0000000000002W00
#17012:2W00000000002V0000000000002W00000000002W00000000002V00000000002W
#17013:002W00002V00002W00002V00002V0000
#17015:002W00000000002V000000002W000000002W000000002V000000002V00000000
#17018:0000002W0000000000002V00000000002W000000000000002V000000002W0000
#17019:000000002V000000002V00000000002W00000000002V0000000000002W000000
#17101:76
#17101:8Y000000000J0000
#17101:0Q
#17101:33
#17101:00
#17101:00
#17101:00
#17101:00
#17101:00
#17101:3V00003W
#17101:00
#17101:00
#17101:00
#17101:00
#17101:0054
#17101:00530055
#17101:52
#17101:00
#17101:6K
#17111:000000002V00000000002W00000000002W000000002V00000000002V00000000
#17112:00000000002V00000000002W000000000000002W00000000002V00000000002W
#17113:2V00000000002V00000000002W000000002W0000000000002V000000002W0000
#17115:002V00000000002V00000000002W000000002W000000002V0000000000002W00
#17118:0000002V00000000002W00000000002W0000000000002V00000000002W000000
#17119:002V00002W00002W00002V00002V0000
#17201:77
#17201:000000000000000K0000000000000000
#17201:00
#17201:00
#17201:00
#17201:00
#17201:00
#17201:00
#17201:00
#17201:003X
#17201:00
#17201:00
#17201:0058
#17201:00570059
#17201:56
#17211:002W00000000002V000000002W000000002W00000000002V00000000002W0000
#17212:00000000002V00000000002W0000000000002W00000000002W00000000002W00
#17213:0000002W00000000002W0000000000002W00000000002V00000000002W000000
#17215:000000002V00000000002W000000002W000000002V000000002W00000000002W
#17218:00002W00000000002W00000000002W0000000000002V00000000002W00000000
#17219:2W00000000002V0000000000002W00000000002W0000000000002W0000000000
#17301:78
#17301:0000000L
#17301:0Q
#17301:00
#17301:00
#17301:00
#17301:00
#17301:00
#17301:00
#17301:3Y0000000000000000000000003Z0000
#17301:00
#17301:00
#17301:00
#17301:005C
#17301:005B005D
#17301:5A
#17311:0000002V00000000002W000000002W00000000002V00000000002V000000002W
#17312:00000000002V0000000000002W00000000002W00000000002V00000000002W00
#17313:00002V00000000002W0000000000002W00000000002V00000000002V00000000
#17315:000000002V00000000002W0000000000002W00000000002V00000000002W0000
#17318:002V00000000002V00000000002W00000000002W00000000002V000000000000
#17319:2V00000000002V000000002W000000002W00000000002V00000000002W000000
#17401:00
#17401:000000000000000M0000000000000000
#17401:00
#17401:00
#17401:00
#17401:00
#17401:00
#17401:00
#17401:00
#17401:00000000000000000040000000000000
#17401:00
#17401:00
#17401:0000005H
#17401:005G
#17401:005F0000
#17401:5E
#17411:00002V00002W00002W00002V00002W00
#17412:00000000002V00000000002W00000000002W00000000002V00000000002W0000
#17413:002W00000000002V00000000002W0000000000002V00000000002W0000000000
#17415:0000002W00000000002W00000000002W00000000002V00000000002W00000000
#17418:2W00000000002V00000000002W0000000000002W00000000002W00000000002W
#17419:002W00002W00002W002W00002W00002W
#17501:79
#17501:8Z000000000J0000
#17501:0Q
#17501:34
#17501:00
#17501:00
#17501:00
#17501:00
#17501:00
#17501:3V00003W
#17501:00
#17501:00
#17501:00
#17501:005K
#17501:5I5J005L
#17501:00
#17501:00
#17501:00
#17501:6L
#17511:00002V00000000002W00000000002W0000000000002V000000002V0000000000
#17512:000000002V000000002W00000000002W000000002V0000000000002V00000000
#17513:2V0000000000002V00000000002W00000000002W00000000002V00000000002W
#17515:002V000000002V00000000002W000000002W00000000002V000000002W000000
#17518:00000000002V00000000002W0000000000002W00000000002V000000002W0000
#17519:0000002V0000000000002W00000000002W00000000002V000000000000002W00
#17601:00
#17601:000000000000000K0000000000000000
#17601:00
#17601:00
#17601:00
#17601:00
#17601:00
#17601:00
#17601:00
#17601:003X
#17601:00
#17601:005O
#17601:005N005P
#17601:5M
#17611:2W00000000002V0000000000002W00000000002W00000000002W00000000002W
#17612:002W0000000000002W00000000002W0000000000002V00000000002W00000000
#17613:000000002V0000000000002W00000000002W00000000002V0000000000002W00
#17615:00002W000000002V000000002W00000000002W00000000002W000000002W0000
#17618:0000002W00000000002W0000000000002W00000000002V00000000002W000000
#17619:00000000002V000000002W000000002W000000002V00000000002W0000000000
#17701:7A
#17701:3500000N
#17701:0Q
#17701:00
#17701:00
#17701:00
#17701:00
#17701:00
#17701:00
#17701:3Y0000000000000000000000003Z0000
#17701:00
#17701:00
#17701:00
#17701:00
#17701:0000005T
#17701:005S
#17701:005R0000
#17701:5Q
#17711:0000000000000000002W00000000002W0000000000002V0000000000002W0000
#17712:000000002V00000000002W00000000002W000000002V00000000002V00000000
#17713:0000002V000000002W00000000002W00000000002V000000002V00000000002W
#17715:00002V000000002V00000000002W00000000002W000000002V00000000002W00
#17718:002V000000002V000000002W00000000002W00000000002V000000002W000000
#17719:2V000000002V0000000000002W00000000002W000000000000002V0000000000
#17801:000O
#17801:00
#17801:00
#17801:00
#17801:00
#17801:00
#17801:00
#17801:00
#17801:00
#17801:00000000000000000040000000000000
#17801:00
#17801:00
#17801:00
#17801:0000005X
#17801:005W
#17801:005V0000
#17801:5U
#17811:0000002V000000002W0000000000002V00000000002W00000000002W00000000
#17812:002V000000002V00000000002V00000000002V00000000002W0000000000002W
#17813:00000000002V00000000002W000000002V0000000000002W00000000002W0000
#17815:000000002V00000000002W0000002V00000000002W000000002W000000002W00
#17818:00002V0000000000002W000000000000002V000000002W00000000002W000000
#17819:2V0000000000002V00000000002V00000000002V0000000000002W0000000000
#17901:0C
#17901:71
#17901:2S
#17901:8Y
#17901:36
#17901:00
#17901:00
#17901:00
#17901:00
#17901:00
#17901:00
#17901:00
#17901:00
#17901:00
#17901:0048
#17901:00470049
#17901:46
#17901:00
#17901:6I
#17911:002V00000000002V00000000002V00000000002V00000000002V000000002V00
#17912:00000000002V00000000002V00000000002V00000000002V00000000002V0000
#17913:0000002V000000002V00000000002V00000000002V00000000002V0000000000
#17915:00002V00002V00002V00002V00002V00
#17918:00002V0000000000002V00000000002V00000000002V00000000002V00000000
#17919:2V00000000002V00000000002V00000000002V00000000002V0000000000002V
#18001:72
#18001:00
#18001:00
#18001:00
#18001:00
#18001:00
#18001:00
#18001:00
#18001:00
#18001:00
#18001:00
#18001:00
#18001:004C
#18001:004B004D
#18001:4A
#18011:000000002V000000002V00000000002V00000000002V00000000002W00000000
#18012:0000002V0000000000002V000000000000002V00000000002W0000000000002W
#18013:2V00000000002V000000002V000000002V00000000002V00000000002W000000
#18015:002V00000000002V000000002V000000002V00000000002V00000000002W0000
#18018:00002V00000000002V000000002V0000000000002V00000000002W0000000000
#18019:00000000002V00000000000000002V000000002V00000000002W000000002W00
#18101:73
#18101:00
#18101:00
#18101:00
#18101:00
#18101:00
#18101:00
#18101:00
#18101:00
#18101:00
#18101:00
#18101:00
#18101:00
#18101:004G
#18101:004F004H
#18101:4E
#18111:002V000000002V000000000000002W0000000000002V00000000002W00000000
#18112:00000000002V00000000002W000000002W00000000002V0000000000002W0000
#18113:0000002V0000000000002W0000000000002W00000000002V000000002W000000
#18115:00002V000000002V000000002W00000000002W00000000002W00000000000000
#18118:2V000000000000002W000000002W00000000002W0000000000002W000000002W
#18119:000000002V000000002W00000000002W000000002V000000002W000000002W00
#18201:00
#18201:00
#18201:00
#18201:00
#18201:00
#18201:00
#18201:00
#18201:00
#18201:00
#18201:00
#18201:00
#18201:00
#18201:0000004L
#18201:004K
#18201:004J0000
#18201:4I
#18211:00002W0000000000002W000000002W00000000002V00000000002W0000000000
#18212:0000002W000000002W0000000000002W00000000002V000000000000002W0000
#18213:002W00000000002V00000000002W00000000002W00000000002W00000000002W
#18215:2W000000002V00000000002W000000002W00000000002V000000002W00000000
#18218:0000002V00002W00002W00002W00002W
#18219:000000002V00000000002W0000000000002W00000000002V000000002W000000
#18301:74
#18301:8Z
#18301:37
#18301:00
#18301:00
#18301:00
#18301:00
#18301:00
#18301:00
#18301:00
#18301:00
#18301:00
#18301:00
#18301:004O
#18301:004N004P
#18301:4M
#18301:00
#18301:00
#18301:6J
#18311:00002V00000000002W0000000000002W00000000002V000000002V0000000000
#18312:0000002V0000000000002W00000000002W00000000002V000000002V00000000
#18313:000000002V000000002W000000002W00000000002V000000000000002W000000
#18315:2V00000000002V00000000002W0000000000002W0000002V0000000000002W00
#18318:00000000002V00000000002W00000000002W0000000000002V000000002W0000
#18319:002V00000000002V00000000002W000000002W0000000000002V00000000002W
#18401:00
#18401:00
#18401:00
#18401:00
#18401:00
#18401:00
#18401:00
#18401:00
#18401:00
#18401:00
#18401:00
#18401:004S
#18401:004R004T
#18401:4Q
#18411:2W00002V00002W00002W00002W00002W
#18412:002W00000000002V000000000000002W00000000002V00000000002W00000000
#18413:000000002V000000002W000000002W000000002W0000000000002W000000002W
#18415:0000002W0000000000002W00000000002W00000000002V00000000002W000000
#18418:00002W00000000002W000000002W0000000000002V000000002W000000000000
#18419:00000000002V00000000002W00000000002W00000000002V00000000002W0000
#18501:75
#18501:00
#18501:00
#18501:00
#18501:00
#18501:00
#18501:00
#18501:00
#18501:00
#18501:00
#18501:00
#18501:00
#18501:004W
#18501:004V004X
#18501:4U
#18511:00002V00000000002W00000000002W00000000002V000000002V000000002W00
#18512:0000002V00000000002W00000000002W00000000002V00000000002V00000000
#18513:000000002V000000000000002W00000000002W000000002V00000000002W0000
#18515:002V0000002V000000002W00000000002W00000000002V00000000002W000000
#18518:2V00000000002V000000002W00000000002W0000000000002V00000000000000
#18519:000000000000002V00000000002W00000000002W0000000000002V000000002W
#18601:00
#18601:00
#18601:00
#18601:00
#18601:00
#18601:00
#18601:00
#18601:00
#18601:00
#18601:00
#18601:00
#18601:00000051
#18601:0050
#18601:004Z0000
#18601:4Y
#18611:00002V00002V00002V00002V00002V00
#18612:002W000000000000002V00000000002V00000000002V00000000002V00000000
#18613:0000002W000000002V00000000002V00000000002V00000000002V0000000000
#18615:00002W000000002V00000000002V00000000002V00000000002V00000000002V
#18618:2W00002V00002V00002V00002V00002V
#18619:00000000002V00000000002V00000000002V00000000002V00000000002V0000
#18701:76
#18701:8Y
#18701:36
#18701:00
#18701:00
#18701:00
#18701:00
#18701:00
#18701:00
#18701:00
#18701:00
#18701:00
#18701:00
#18701:0054
#18701:52530055
#18701:00
#18701:00
#18701:00
#18701:6K
#18711:00002V000000002V0000000000002W000000002W00000000002V00000000002W
#18712:002V0000000000002W000000002W0000000000002V0000000000002V00000000
#18713:2V00002V00002W00002W00002V00002W
#18715:00000000002V000000002W00000000002W000000002V000000002V0000000000
#18718:000000002V0000000000002W00000000002W00000000002V00000000002W0000
#18719:0000002V00000000002W00000000002W0000000000002V00000000002W000000
#18801:77
#18801:00
#18801:00
#18801:00
#18801:00
#18801:00
#18801:00
#18801:00
#18801:00
#18801:00
#18801:00
#18801:0058
#18801:00570059
#18801:56
#18811:00000000002V00000000002W00000000002W0000000000002W00000000002W00
#18812:00002W00000000002W00000000002W00000000002V000000002W000000000000
#18813:000000002V00000000002W00000000002W00000000002V0000000000002W0000
#18815:2W00000000002V00000000002W00000000002W000000002V000000002W000000
#18818:0000002W00000000002W00000000002W00000000002V00000000002W00000000
#18819:002W00000000002V00000000002W00000000002W0000000000002W000000002W
#18901:78
#18901:00
#18901:00
#18901:00
#18901:00
#18901:00
#18901:00
#18901:00
#18901:00
#18901:00
#18901:00
#18901:005C
#18901:005B005D
#18901:5A
#18911:000000002V0000000000002W00000000002W0000000000002V0000000000002W
#18912:00002V000000002V000000002W0000000000002W0000000000002V0000000000
#18913:0000002V000000002W000000002W000000002W000000002V000000002W000000
#18915:002V000000002V000000000000002W00000000002V000000002V000000002W00
#18918:2V00000000000000002W0000000000002W00000000002V000000002V00000000
#18919:00000000002V000000002W000000002W00000000002V000000000000002W0000
#19001:00
#19001:00
#19001:00
#19001:00
#19001:00
#19001:00
#19001:00
#19001:00
#19001:00
#19001:00
#19001:0000005H
#19001:005G
#19001:005F0000
#19001:5E
#19011:00000000002V000000002W00000000002W000000002V000000002W000000002W
#19012:2W00000000002V0000000000002W00000000002W00000000002W000000000000
#19013:002W00000000002V000000002W00000000002W00000000002W00000000002W00
#19015:000000002V0000000000002W00000000002W000000002V00000000002W000000
#19018:0000002W00000000002W00000000002W000000000000002V00000000002W0000
#19019:00002W00000000002W00000000002W00000000002V0000000000002W00000000
#19101:79
#19101:8Z
#19101:37
#19101:00
#19101:00
#19101:00
#19101:00
#19101:00
#19101:00
#19101:00
#19101:00
#19101:0061
#19101:00600062
#19101:5Z
#19101:00
#19101:00
#19101:00
#19101:00
#19101:6L
#19111:00000000002V000000002W00000000002W00000000002V0000000000002W0000
#19112:2V0000000000002V0000002W00000000002W0000000000002V00000000002W00
#19113:000000002V000000000000002W00000000002W000000002V000000002W000000
#19115:002V000000002V0000000000002W00000000002W00000000002V00000000002W
#19118:0000002V000000002W0000000000002W00000000002V00000000002V00000000
#19119:00002V0000000000002W000000002W00000000002V00000000002V0000000000
#19201:00
#19201:00
#19201:00
#19201:00
#19201:00
#19201:00
#19201:00
#19201:00
#19201:00
#19201:0065
#19201:00640066
#19201:63
#19211:0000002W00000000002W0000002W0000000000002V000000002W00000000002W
#19212:000000002V000000000000002W000000002W00000000000000002W0000000000
#19213:002W00002W0000002W00002V00002W00
#19215:00000000002V000000002W00000000000000002W000000002W00000000002W00
#19218:002W00000000002V0000002W0000002W00000000002V00000000002W00000000
#19219:2W00000000002V000000000000002W0000002W000000002V00000000002W0000
#19301:7A
#19301:00
#19301:00
#19301:00
#19301:00
#19301:00
#19301:00
#19301:00
#19301:00
#19301:00
#19301:00
#19301:00
#19301:0069
#19301:0068006A
#19301:67
#19311:000000002V000000000000002W0000000000002W00000000002V000000002W00
#19312:2V000000002V000000002W0000000000002W0000000000002V0000000000002W
#19313:002V0000000000002W00000000002W0000000000002V0000000000002W000000
#19315:0000000000002V000000002W000000002W00000000002V000000002V00000000
#19318:00002V000000002V00000000002W000000002W000000002V00000000002W0000
#19319:0000002V00000000002W00000000002W000000002V00000000002V0000000000
#19401:00
#19401:00
#19401:00
#19401:00
#19401:00
#19401:00
#19401:00
#19401:00
#19401:00
#19401:00
#19401:006D
#19401:006C006E
#19401:6B
#19411:000000002V00000000002W000000002V000000002W000000002W000000000000
#19412:00000000002V00000000002W00000000002V0000000000000000000000000000
#19413:002V002V0000002V0000002W00000000
#19415:2V0000000000002V000000002V00000000002V00000000002W00000000000000
#19418:0000002V000000002W000000002V000000000000002W00000000000000000000
#19419:002V000000000000002W0000000000002V00002V0000002W0000000000000000