*---------------------- HEADER FIELD
#PLAYER 1
#GENRE Immiscible
#TITLE Amethyst Moon
#ARTIST Rethisly
#BPM 165
#PLAYLEVEL 6
#RANK 3
#TOTAL 500
#STAGEFILE _stagefile.png
#WAV01 b_kick1_v100l16o5c.wav
#WAV02 b_kick2_v100l16o5c.wav
#WAV03 b_clap_v100l16o5c.wav
#WAV04 b_openhh_v100l16o5c.wav
#WAV05 b_closehh_v100l16o5c.wav
#WAV06 b_snare_v100l32o5c.wav
#WAV07 b_snare_v100l16o5c.wav
#WAV08 b_snare_v97l24o5c.wav
#WAV09 b_snare_v97l16o5c.wav
#WAV0A b_snare_v96l16o5c.wav
#WAV0B b_snare_v95l16o5c.wav
#WAV0C b_snare_v94l16o5c.wav
#WAV0D b_snare_v93l16o5c.wav
#WAV0E b_snare_v92l16o5c.wav
#WAV0F b_snare_v91l16o5c.wav
#WAV0G b_snare_v90l16o5c.wav
#WAV0H b_snare_v88l16o5c.wav
#WAV0I b_snare_v87l16o5c.wav
#WAV0J b_snare_v85l16o5c.wav
#WAV0K b_snare_v84l16o5c.wav
#WAV0L b_snare_v82l16o5c.wav
#WAV0M b_snare_v81l16o5c.wav
#WAV0N b_snare_v80l16o5c.wav
#WAV0O b_snare_v79l16o5c.wav
#WAV0P b_snare_v78l16o5c.wav
#WAV0Q b_snare_v77l16o5c.wav
#WAV0R b_snare_v76l16o5c.wav
#WAV0S b_snare_v75l16o5c.wav
#WAV0T b_snare_v74l16o5c.wav
#WAV0U b_snare_v73l16o5c.wav
#WAV0V b_snare_v72l16o5c.wav
#WAV0W b_snare_v71l16o5c.wav
#WAV0X b_snare_v70l16o5c.wav
#WAV0Y b_snare_v68l16o5c.wav
#WAV0Z b_snare_v67l16o5c.wav
#WAV10 b_snare_v66l16o5c.wav
#WAV11 b_snare_v65l16o5c.wav
#WAV12 b_snare_v64l16o5c.wav
#WAV13 b_square_v100l192-11o4a.wav
#WAV14 b_square_v100l192-11o4b.wav
#WAV15 b_square_v100l128-7o5cp.wav
#WAV16 b_square_v100l192-11o5cp.wav
#WAV17 b_square_v100l128-7o5fp.wav
#WAV18 b_square_v100l192-11o5fp.wav
#WAV19 b_square_v100l128-7o5gp.wav
#WAV1A b_square_v100l192-11o5gp.wav
#WAV1B b_square_v100l128-7o5b.wav
#WAV1C b_square_v100l192-11o5b.wav
#WAV1D b_square_v100l128-7o6cp.wav
#WAV1E b_square_v100l192-11o6cp.wav
#WAV1F b_square_v100l128-7o6dp.wav
#WAV1G b_square_v100l192-11o6dp.wav
#WAV1H b_square_v100l128-7o6e.wav
#WAV1I b_square_v100l192-11o6e.wav
#WAV1J b_lead1_v100l96-5o4cp.wav
#WAV1K b_lead1_v100l96-11o4dp.wav
#WAV1L b_lead1_v100l96-11o4e.wav
#WAV1M b_lead1_v100l96-5o4gp.wav
#WAV1N b_lead1_v100l96-11o4gp.wav
#WAV1O b_lead1_v100l96-17o4gp.wav
#WAV1P b_lead1_v100l96-5o4a.wav
#WAV1Q b_lead1_v100l96-35o4a.wav
#WAV1R b_lead1_v100l96-5o4b.wav
#WAV1S b_lead1_v100l96-11o4b.wav
#WAV1T b_lead1_v100l96-17o4b.wav
#WAV1U b_lead1_v100l96-23o4b.wav
#WAV1V b_lead1_v100l96-35o4b.wav
#WAV1W b_lead1_v100l96-5o5cp.wav
#WAV1X b_lead1_v100l96-11o5cp.wav
#WAV1Y b_lead1_v100l96-17o5cp.wav
#WAV1Z b_lead1_v100l96-5o5dp.wav
#WAV20 b_lead1_v100l96-11o5dp.wav
#WAV21 b_lead1_v100l96-35o5dp.wav
#WAV22 b_lead1_v100l96-5o5e.wav
#WAV23 b_lead1_v100l192-11o5e.wav
#WAV24 b_lead1_v100l96-11o5e.wav
#WAV25 b_lead1_v100l96-17o5e.wav
#WAV26 b_lead1_v100l96-23o5e.wav
#WAV27 b_lead1_v100l96-35o5e.wav
#WAV28 b_lead1_v100l96-5o5fp.wav
#WAV29 b_lead1_v100l192-11o5fp.wav
#WAV2A b_lead1_v100l96-11o5fp.wav
#WAV2B b_lead1_v100l96-17o5fp.wav
#WAV2C b_lead1_v100l96-5o5gp.wav
#WAV2D b_lead1_v100l192-11o5gp.wav
#WAV2E b_lead1_v100l96-11o5gp.wav
#WAV2F b_lead1_v100l96-17o5gp.wav
#WAV2G b_lead1_v100l96-35o5gp.wav
#WAV2H b_lead1_v100l96-5o5a.wav
#WAV2I b_lead1_v100l96-11o5a.wav
#WAV2J b_lead1_v100l96-5o5ap.wav
#WAV2K b_lead1_v100l96-5o5b.wav
#WAV2L b_lead1_v100l192-11o5b.wav
#WAV2M b_lead1_v100l96-11o5b.wav
#WAV2N b_lead1_v100l192-23o5b.wav
#WAV2O b_lead1_v100l192-35o5b.wav
#WAV2P b_lead1_v100l96-5o6c.wav
#WAV2Q b_lead1_v100l192-11o6c.wav
#WAV2R b_lead1_v100l96-11o6c.wav
#WAV2S b_lead1_v100l96-5o6cp.wav
#WAV2T b_lead1_v100l192-11o6cp.wav
#WAV2U b_lead1_v100l192-17o6cp.wav
#WAV2V b_lead1_v100l96-11o6cp.wav
#WAV2W b_lead1_v100l192-23o6cp.wav
#WAV2X b_lead1_v100l192-35o6cp.wav
#WAV2Y b_lead1_v100l96-5o6dp.wav
#WAV2Z b_lead1_v100l192-11o6dp.wav
#WAV30 b_lead1_v100l96-11o6dp.wav
#WAV31 b_lead1_v100l192-23o6dp.wav
#WAV32 b_lead1_v100l192-35o6dp.wav
#WAV33 b_lead1_v100l192-47o6dp.wav
#WAV34 b_lead1_v100l192-5o6e.wav
#WAV35 b_lead1_v100l96-5o6e.wav
#WAV36 b_lead1_v100l192-11o6e.wav
#WAV37 b_lead1_v100l192-17o6e.wav
#WAV38 b_lead1_v100l96-11o6e.wav
#WAV39 b_lead1_v100l192-23o6e.wav
#WAV3A b_lead1_v100l192-35o6e.wav
#WAV3B b_lead1_v100l192-47o6e.wav
#WAV3C b_lead1_v100l96-35o6e.wav
#WAV3D b_lead1_v100l96-5o6fp.wav
#WAV3E b_lead1_v100l192-11o6fp.wav
#WAV3F b_lead1_v100l192-17o6fp.wav
#WAV3G b_lead1_v100l96-11o6fp.wav
#WAV3H b_lead1_v100l192-23o6fp.wav
#WAV3I b_lead1_v100l192-35o6fp.wav
#WAV3J b_lead1_v100l192-47o6fp.wav
#WAV3K b_lead1_v100l192-5o6g.wav
#WAV3L b_lead1_v100l96-5o6g.wav
#WAV3M b_lead1_v100l96-11o6g.wav
#WAV3N b_lead1_v100l192-23o6g.wav
#WAV3O b_lead1_v100l192-35o6g.wav
#WAV3P b_lead1_v100l96-5o6gp.wav
#WAV3Q b_lead1_v100l192-11o6gp.wav
#WAV3R b_lead1_v100l192-17o6gp.wav
#WAV3S b_lead1_v100l96-11o6gp.wav
#WAV3T b_lead1_v100l192-23o6gp.wav
#WAV3U b_lead1_v100l192-35o6gp.wav
#WAV3V b_lead1_v100l192-47o6gp.wav
#WAV3W b_lead1_v100l96-35o6gp.wav
#WAV3X b_lead1_v100l192-11o6a.wav
#WAV3Y b_lead1_v100l192-23o6a.wav
#WAV3Z b_lead1_v100l96-5o6b.wav
#WAV40 b_lead1_v100l192-11o6b.wav
#WAV41 b_lead1_v100l192-23o6b.wav
#WAV42 b_lead1_v100l192-23o7c.wav
#WAV43 b_lead1_v100l192-23o7cp.wav
#WAV44 b_lead1_v100l192-35o7cp.wav
#WAV45 b_lead1_v100l192-23o7dp.wav
#WAV46 b_lead1_v100l192-23o7e.wav
#WAV47 b_lead2_v100l96-5o4cp.wav
#WAV48 b_lead2_v100l96-11o4dp.wav
#WAV49 b_lead2_v100l96-11o4e.wav
#WAV4A b_lead2_v100l96-5o4gp.wav
#WAV4B b_lead2_v100l96-11o4gp.wav
#WAV4C b_lead2_v100l96-17o4gp.wav
#WAV4D b_lead2_v100l96-5o4a.wav
#WAV4E b_lead2_v100l96-35o4a.wav
#WAV4F b_lead2_v100l96-5o4b.wav
#WAV4G b_lead2_v100l96-11o4b.wav
#WAV4H b_lead2_v100l96-17o4b.wav
#WAV4I b_lead2_v100l96-23o4b.wav
#WAV4J b_lead2_v100l96-35o4b.wav
#WAV4K b_lead2_v100l96-5o5cp.wav
#WAV4L b_lead2_v100l96-11o5cp.wav
#WAV4M b_lead2_v100l96-17o5cp.wav
#WAV4N b_lead2_v100l96-5o5dp.wav
#WAV4O b_lead2_v100l96-11o5dp.wav
#WAV4P b_lead2_v100l96-35o5dp.wav
#WAV4Q b_lead2_v100l96-5o5e.wav
#WAV4R b_lead2_v100l192-11o5e.wav
#WAV4S b_lead2_v100l96-11o5e.wav
#WAV4T b_lead2_v100l96-17o5e.wav
#WAV4U b_lead2_v100l96-23o5e.wav
#WAV4V b_lead2_v100l96-35o5e.wav
#WAV4W b_lead2_v100l96-5o5fp.wav
#WAV4X b_lead2_v100l192-11o5fp.wav
#WAV4Y b_lead2_v100l96-11o5fp.wav
#WAV4Z b_lead2_v100l96-17o5fp.wav
#WAV50 b_lead2_v100l96-5o5gp.wav
#WAV51 b_lead2_v100l192-11o5gp.wav
#WAV52 b_lead2_v100l96-11o5gp.wav
#WAV53 b_lead2_v100l96-17o5gp.wav
#WAV54 b_lead2_v100l96-35o5gp.wav
#WAV55 b_lead2_v100l96-5o5a.wav
#WAV56 b_lead2_v100l96-11o5a.wav
#WAV57 b_lead2_v100l96-5o5ap.wav
#WAV58 b_lead2_v100l96-5o5b.wav
#WAV59 b_lead2_v100l192-11o5b.wav
#WAV5A b_lead2_v100l96-11o5b.wav
#WAV5B b_lead2_v100l192-23o5b.wav
#WAV5C b_lead2_v100l192-35o5b.wav
#WAV5D b_lead2_v100l96-5o6c.wav
#WAV5E b_lead2_v100l192-11o6c.wav
#WAV5F b_lead2_v100l96-11o6c.wav
#WAV5G b_lead2_v100l96-5o6cp.wav
#WAV5H b_lead2_v100l192-11o6cp.wav
#WAV5I b_lead2_v100l192-17o6cp.wav
#WAV5J b_lead2_v100l96-11o6cp.wav
#WAV5K b_lead2_v100l192-23o6cp.wav
#WAV5L b_lead2_v100l192-35o6cp.wav
#WAV5M b_lead2_v100l96-5o6dp.wav
#WAV5N b_lead2_v100l192-11o6dp.wav
#WAV5O b_lead2_v100l96-11o6dp.wav
#WAV5P b_lead2_v100l192-23o6dp.wav
#WAV5Q b_lead2_v100l192-35o6dp.wav
#WAV5R b_lead2_v100l192-47o6dp.wav
#WAV5S b_lead2_v100l192-5o6e.wav
#WAV5T b_lead2_v100l96-5o6e.wav
#WAV5U b_lead2_v100l192-11o6e.wav
#WAV5V b_lead2_v100l192-17o6e.wav
#WAV5W b_lead2_v100l96-11o6e.wav
#WAV5X b_lead2_v100l192-23o6e.wav
#WAV5Y b_lead2_v100l192-35o6e.wav
#WAV5Z b_lead2_v100l192-47o6e.wav
#WAV60 b_lead2_v100l96-35o6e.wav
#WAV61 b_lead2_v100l96-5o6fp.wav
#WAV62 b_lead2_v100l192-11o6fp.wav
#WAV63 b_lead2_v100l192-17o6fp.wav
#WAV64 b_lead2_v100l96-11o6fp.wav
#WAV65 b_lead2_v100l192-23o6fp.wav
#WAV66 b_lead2_v100l192-35o6fp.wav
#WAV67 b_lead2_v100l192-47o6fp.wav
#WAV68 b_lead2_v100l192-5o6g.wav
#WAV69 b_lead2_v100l96-5o6g.wav
#WAV6A b_lead2_v100l96-11o6g.wav
#WAV6B b_lead2_v100l192-23o6g.wav
#WAV6C b_lead2_v100l192-35o6g.wav
#WAV6D b_lead2_v100l96-5o6gp.wav
#WAV6E b_lead2_v100l192-11o6gp.wav
#WAV6F b_lead2_v100l192-17o6gp.wav
#WAV6G b_lead2_v100l96-11o6gp.wav
#WAV6H b_lead2_v100l192-23o6gp.wav
#WAV6I b_lead2_v100l192-35o6gp.wav
#WAV6J b_lead2_v100l192-47o6gp.wav
#WAV6K b_lead2_v100l96-35o6gp.wav
#WAV6L b_lead2_v100l192-11o6a.wav
#WAV6M b_lead2_v100l192-23o6a.wav
#WAV6N b_lead2_v100l96-5o6b.wav
#WAV6O b_lead2_v100l192-11o6b.wav
#WAV6P b_lead2_v100l192-23o6b.wav
#WAV6Q b_lead2_v100l192-23o7c.wav
#WAV6R b_lead2_v100l192-23o7cp.wav
#WAV6S b_lead2_v100l192-35o7cp.wav
#WAV6T b_lead2_v100l192-23o7dp.wav
#WAV6U b_lead2_v100l192-23o7e.wav
#WAV6V b_bass_v100l8o3fp.wav
#WAV6W b_bass_v100l8o3gp.wav
#WAV6X b_bass_v100l8o3a.wav
#WAV6Y b_bass_v100l8o3b.wav
#WAV6Z b_bass_v100l8o4c.wav
#WAV70 b_bass_v100l8o4cp.wav
#WAV71 b_piano1_v78l128-7o4fp.wav
#WAV72 b_piano1_v100l16o4gp.wav
#WAV73 b_piano1_v83l128-7o4gp.wav
#WAV74 b_piano1_v83l128-7o4a.wav
#WAV75 b_piano1_v100l16o4b.wav
#WAV76 b_piano1_v100l4o4b.wav
#WAV77 b_piano1_v83l128-7o4b.wav
#WAV78 b_piano1_v100l4o5c.wav
#WAV79 b_piano1_v83l128-7o5cp.wav
#WAV7A b_piano1_v78l128-7o5cp.wav
#WAV7B b_piano1_v100l16o5dp.wav
#WAV7C b_piano1_v100l8o5dp.wav
#WAV7D b_piano1_v100l4o5dp.wav
#WAV7E b_piano1_v100l128-7o5e.wav
#WAV7F b_piano1_v100l8o5e.wav
#WAV7G b_piano1_v100l4-3o5e.wav
#WAV7H b_piano1_v100l16o5fp.wav
#WAV7I b_piano1_v100l8o5fp.wav
#WAV7J b_piano1_v100l4o5fp.wav
#WAV7K b_piano1_v100l8-3o5fp.wav
#WAV7L b_piano1_v100l128-7o5gp.wav
#WAV7M b_piano1_v100l16o5gp.wav
#WAV7N b_piano1_v100l8o5gp.wav
#WAV7O b_piano1_v100l16-3o5gp.wav
#WAV7P b_piano1_v100l4o5gp.wav
#WAV7Q b_piano1_v100l8-3o5gp.wav
#WAV7R b_piano1_v100l2-3o5gp.wav
#WAV7S b_piano1_v100l16o5b.wav
#WAV7T b_piano1_v100l8o5b.wav
#WAV7U b_piano1_v100l32-5o5b.wav
#WAV7V b_piano1_v100l16-3o5b.wav
#WAV7W b_piano1_v100l4o5b.wav
#WAV7X b_piano1_v100l4-3o5b.wav
#WAV7Y b_piano1_v100l16-3o6c.wav
#WAV7Z b_piano1_v100l128-7o6cp.wav
#WAV80 b_piano1_v100l16-3o6cp.wav
#WAV81 b_piano1_v100l32o6dp.wav
#WAV82 b_piano1_v100l16o6dp.wav
#WAV83 b_piano1_v100l8o6dp.wav
#WAV84 b_piano1_v100l4o6dp.wav
#WAV85 b_piano1_v100l32-15o6dp.wav
#WAV86 b_piano1_v100l128-7o6e.wav
#WAV87 b_piano1_v100l8o6e.wav
#WAV88 b_piano1_v100l4-3o6e.wav
#WAV89 b_piano1_v100l32o6fp.wav
#WAV8A b_piano1_v100l16o6fp.wav
#WAV8B b_piano1_v100l8o6fp.wav
#WAV8C b_piano1_v100l4o6fp.wav
#WAV8D b_piano1_v100l2o6fp.wav
#WAV8E b_piano1_v100l32o6gp.wav
#WAV8F b_piano1_v100l8o6gp.wav
#WAV8G b_piano1_v100l16-3o6gp.wav
#WAV8H b_piano1_v100l16-7o6gp.wav
#WAV8I b_piano1_v100l4-3o6gp.wav
#WAV8J b_piano1_v100l16-3o6b.wav
#WAV8K b_lead3_v100l8o5cp.wav
#WAV8L b_lead3_v100l8o5dp.wav
#WAV8M b_lead3_v100l16o5e.wav
#WAV8N b_lead3_v100l16o5fp.wav
#WAV8O b_lead3_v100l32-3o5fp.wav
#WAV8P b_lead3_v100l96-17o5fp.wav
#WAV8Q b_lead3_v100l16o5gp.wav
#WAV8R b_lead3_v100l32-3o5gp.wav
#WAV8S b_lead3_v100l8-3o5gp.wav
#WAV8T b_lead3_v100l16o5b.wav
#WAV8U b_lead3_v100l8o5b.wav
#WAV8V b_lead3_v100l8o6cp.wav
#WAV8W b_lead3_v100l16o6dp.wav
#WAV8X b_lead3_v100l8o6dp.wav
#WAV8Y b_lead3_v100l16o6e.wav
#WAV8Z b_lead3_v100l8o6e.wav
#WAV91 b_lead3_v100l16-15o6e.wav
#WAV92 b_lead3_v100l8o6fp.wav
#WAV93 b_lead3_v100l96-17o6fp.wav
#WAV94 b_lead3_v100l8o6gp.wav
#WAV95 b_lead3_v100l8-3o6gp.wav
#WAV96 b_lead3_v100l8o6b.wav
#WAV97 b_piano2_v100l16o4gp.wav
#WAV98 b_piano2_v100l16o4b.wav
#WAV99 b_piano2_v100l4o4b.wav
#WAV9A b_piano2_v100l4o5c.wav
#WAV9B b_piano2_v100l16o5dp.wav
#WAV9C b_piano2_v100l8o5dp.wav
#WAV9D b_piano2_v100l4o5dp.wav
#WAV9E b_piano2_v100l8o5e.wav
#WAV9F b_piano2_v100l4-3o5e.wav
#WAV9G b_piano2_v100l16o5fp.wav
#WAV9H b_piano2_v100l8o5fp.wav
#WAV9I b_piano2_v100l4o5fp.wav
#WAV9J b_piano2_v100l8-3o5fp.wav
#WAV9K b_piano2_v100l16o5gp.wav
#WAV9L b_piano2_v100l8o5gp.wav
#WAV9M b_piano2_v100l16-3o5gp.wav
#WAV9N b_piano2_v100l4o5gp.wav
#WAV9O b_piano2_v100l8-3o5gp.wav
#WAV9P b_piano2_v100l2-3o5gp.wav
#WAV9Q b_piano2_v100l16o5b.wav
#WAV9R b_piano2_v100l8o5b.wav
#WAV9S b_piano2_v100l32-5o5b.wav
#WAV9T b_piano2_v100l16-3o5b.wav
#WAV9U b_piano2_v100l4o5b.wav
#WAV9V b_piano2_v100l4-3o5b.wav
#WAV9W b_piano2_v100l16-3o6c.wav
#WAV9X b_piano2_v100l16-3o6cp.wav
#WAV9Y b_piano2_v100l32o6dp.wav
#WAV9Z b_piano2_v100l16o6dp.wav
#WAVA0 b_piano2_v100l8o6dp.wav
#WAVA1 b_piano2_v100l4o6dp.wav
#WAVA2 b_piano2_v100l32-15o6dp.wav
#WAVA3 b_piano2_v100l8o6e.wav
#WAVA4 b_piano2_v100l4-3o6e.wav
#WAVA5 b_piano2_v100l32o6fp.wav
#WAVA6 b_piano2_v100l16o6fp.wav
#WAVA7 b_piano2_v100l8o6fp.wav
#WAVA8 b_piano2_v100l4o6fp.wav
#WAVA9 b_piano2_v100l2o6fp.wav
#WAVAA b_piano2_v100l32o6gp.wav
#WAVAB b_piano2_v100l8o6gp.wav
#WAVAC b_piano2_v100l16-3o6gp.wav
#WAVAD b_piano2_v100l16-7o6gp.wav
#WAVAE b_piano2_v100l4-3o6gp.wav
#WAVAF b_piano2_v100l16-3o6b.wav
#WAVAH acid_break_000.wav
#WAVAI acid_break_001.wav
#WAVAJ acid_break_002.wav
#WAVAK acid_break_003.wav
#WAVAL acid_break_004.wav
#WAVAM acid_break_005.wav
#WAVAN acid_break_006.wav
#WAVAO acid_break_007.wav
#WAVAP acid_break_008.wav
#WAVAQ acid_break_009.wav
#WAVAR acid_break_010.wav
#WAVAS acid_break_011.wav
#WAVAT acid_break_012.wav
#WAVAU acid_break_013.wav
#WAVAV acid_break_014.wav
#WAVAW acid_break_015.wav
#WAVAX acid_break_016.wav
#WAVAY acid_break_017.wav
#WAVAZ acid_break_018.wav
#WAVB0 acid_break_019.wav
#WAVB1 acid_break_020.wav
#WAVB2 acid_break_021.wav
#WAVB3 acid_break_022.wav
#WAVB4 acid_break_023.wav
#WAVB5 acid_break_024.wav
#WAVB6 acid_break_025.wav
#WAVB7 acid_break_026.wav
#WAVB8 acid_break_027.wav
#WAVB9 acid_break_028.wav
#WAVBA acid_break_029.wav
#WAVBB acid_break_030.wav
#WAVBC acid_break_031.wav
#WAVBD acid_break_032.wav
#WAVBE acid_break_033.wav
#WAVBF acid_break_034.wav
#WAVBG acid_break_035.wav
#WAVBH acid_break_036.wav
#WAVBI acid_break_037.wav
#WAVBJ acid_break_038.wav
#WAVBK acid_break_039.wav
#WAVBL acid_break_040.wav
#WAVBM acid_break_041.wav
#WAVBN acid_break_042.wav
#WAVBO acid_break_043.wav
#WAVBP acid_break_044.wav
#WAVBQ acid_break_045.wav
#WAVBR acid_break_046.wav
#WAVBS acid_break_047.wav
#WAVBT acid_break_048.wav
#WAVBU acid_break_049.wav
#WAVBV acid_break_050.wav
#WAVBW acid_break_051.wav
#WAVBX acid_break_052.wav
#WAVBY acid_break_053.wav
#WAVBZ acid_break_054.wav
#WAVC0 acid_break_055.wav
#WAVC1 acid_break_056.wav
#WAVC2 acid_break_057.wav
#WAVC3 acid_break_058.wav
#WAVC4 acid_break_059.wav
#WAVC5 acid_break_060.wav
#WAVC6 acid_break_061.wav
#WAVC7 acid_break_062.wav
#WAVC8 acid_break_063.wav
#WAVC9 acid_break_064.wav
#WAVCA acid_break_065.wav
#WAVCB acid_break_066.wav
#WAVCC acid_break_067.wav
#WAVCD acid_break_068.wav
#WAVCE acid_break_069.wav
#WAVCF acid_break_070.wav
#WAVCG acid_break_071.wav
#WAVCH acid_break_072.wav
#WAVCI acid_break_073.wav
#WAVCJ acid_break_074.wav
#WAVCK acid_break_075.wav
#WAVCL acid_break_076.wav
#WAVCM acid_break_077.wav
#WAVCN acid_break_078.wav
#WAVCO acid_break_079.wav
#WAVCP acid_break_080.wav
#WAVCQ acid_break_081.wav
#WAVCR acid_break_082.wav
#WAVCS acid_break_083.wav
#WAVCT acid_break_084.wav
#WAVCU acid_break_085.wav
#WAVCV acid_break_086.wav
#WAVCW acid_break_087.wav
#WAVCX acid_break_088.wav
#WAVCY acid_break_089.wav
#WAVCZ acid_break_090.wav
#WAVD0 acid_break_091.wav
#WAVD2 acid_main_000.wav
#WAVD3 acid_main_001.wav
#WAVD4 acid_main_002.wav
#WAVD5 acid_main_003.wav
#WAVD6 acid_main_004.wav
#WAVD7 acid_main_005.wav
#WAVD8 acid_main_006.wav
#WAVD9 acid_main_007.wav
#WAVDA acid_main_008.wav
#WAVDB acid_main_009.wav
#WAVDC acid_main_010.wav
#WAVDD acid_main_011.wav
#WAVDE acid_main_012.wav
#WAVDF acid_main_013.wav
#WAVDG acid_main_014.wav
#WAVDH acid_main_015.wav
#WAVDI acid_main_016.wav
#WAVDJ acid_main_017.wav
#WAVDK acid_main_018.wav
#WAVDL acid_main_019.wav
#WAVDM acid_main_020.wav
#WAVDN acid_main_021.wav
#WAVDO acid_main_022.wav
#WAVDP acid_main_023.wav
#WAVDQ acid_main_024.wav
#WAVDR acid_main_025.wav
#WAVDS acid_main_026.wav
#WAVDT acid_main_027.wav
#WAVDU acid_main_028.wav
#WAVDV acid_main_029.wav
#WAVDW acid_main_030.wav
#WAVDX acid_main_031.wav
#WAVDY acid_main_032.wav
#WAVDZ acid_main_033.wav
#WAVE0 acid_main_034.wav
#WAVE1 acid_main_035.wav
#WAVE2 acid_main_036.wav
#WAVE3 acid_main_037.wav
#WAVE4 acid_main_038.wav
#WAVE5 acid_main_039.wav
#WAVE6 acid_main_040.wav
#WAVE7 acid_main_041.wav
#WAVE8 acid_main_042.wav
#WAVE9 acid_main_043.wav
#WAVEA acid_main_044.wav
#WAVEB acid_main_045.wav
#WAVEC acid_main_046.wav
#WAVED acid_main_047.wav
#WAVEE acid_main_048.wav
#WAVEF acid_main_049.wav
#WAVEG acid_main_050.wav
#WAVEH acid_main_051.wav
#WAVEI acid_main_052.wav
#WAVEJ acid_main_053.wav
#WAVEK acid_main_054.wav
#WAVEL acid_main_055.wav
#WAVEM acid_main_056.wav
#WAVEN acid_main_057.wav
#WAVEO acid_main_058.wav
#WAVEP acid_main_059.wav
#WAVEQ acid_main_060.wav
#WAVER acid_main_061.wav
#WAVES acid_main_062.wav
#WAVET acid_main_063.wav
#WAVEU acid_main_064.wav
#WAVEV acid_main_065.wav
#WAVEW acid_main_066.wav
#WAVEX acid_main_067.wav
#WAVEY acid_main_068.wav
#WAVEZ acid_main_069.wav
#WAVF0 acid_main_070.wav
#WAVF1 acid_main_071.wav
#WAVF2 acid_main_072.wav
#WAVF3 acid_main_073.wav
#WAVF4 acid_main_074.wav
#WAVF5 acid_main_075.wav
#WAVF6 acid_main_076.wav
#WAVF7 acid_main_077.wav
#WAVF8 acid_main_078.wav
#WAVF9 acid_main_079.wav
#WAVFA acid_main_080.wav
#WAVFB acid_main_081.wav
#WAVFC acid_main_082.wav
#WAVFD acid_main_083.wav
#WAVFE acid_main_084.wav
#WAVFF acid_main_085.wav
#WAVFG acid_main_086.wav
#WAVFH acid_main_087.wav
#WAVFI acid_main_088.wav
#WAVFJ acid_main_089.wav
#WAVFK acid_main_090.wav
#WAVFL acid_main_091.wav
#WAVFN acid_main_093.wav
#WAVFO acid_main_094.wav
#WAVFP acid_main_095.wav
#WAVFQ acid_main_096.wav
#WAVFR acid_main_097.wav
#WAVFS acid_main_098.wav
#WAVFT acid_main_099.wav
#WAVFU acid_main_100.wav
#WAVFV acid_main_101.wav
#WAVFW acid_main_102.wav
#WAVFX acid_main_103.wav
#WAVFY acid_main_104.wav
#WAVFZ acid_main_105.wav
#WAVG0 acid_main_106.wav
#WAVG1 acid_main_107.wav
#WAVG2 acid_main_108.wav
#WAVG3 acid_main_109.wav
#WAVG4 acid_main_110.wav
#WAVG5 acid_main_111.wav
#WAVG6 acid_main_112.wav
#WAVG7 acid_main_113.wav
#WAVG8 acid_main_114.wav
#WAVG9 acid_main_115.wav
#WAVGB acid_outro_000.wav
#WAVGC acid_outro_001.wav
#WAVGD acid_outro_002.wav
#WAVGE acid_outro_003.wav
#WAVGF acid_outro_004.wav
#WAVGG acid_outro_005.wav
#WAVGH acid_outro_006.wav
#WAVGI acid_outro_007.wav
#WAVGJ acid_outro_008.wav
#WAVGK acid_outro_009.wav
#WAVGL acid_outro_010.wav
#WAVGM acid_outro_011.wav
#WAVGN acid_outro_012.wav
#WAVGO acid_outro_013.wav
#WAVGP acid_outro_014.wav
#WAVGQ acid_outro_015.wav
#WAVGR acid_outro_016.wav
#WAVGS acid_outro_017.wav
#WAVGT acid_outro_018.wav
#WAVGU acid_outro_019.wav
#WAVGV acid_outro_020.wav
#WAVGW acid_outro_021.wav
#WAVGX acid_outro_022.wav
#WAVGY acid_outro_023.wav
#WAVGZ acid_outro_024.wav
#WAVH0 acid_outro_025.wav
#WAVH1 acid_outro_026.wav
#WAVH2 acid_outro_027.wav
#WAVH3 acid_outro_028.wav
#WAVH4 acid_outro_029.wav
#WAVH5 acid_outro_030.wav
#WAVH6 acid_outro_031.wav
#WAVH7 acid_outro_032.wav
#WAVH8 acid_outro_033.wav
#WAVH9 acid_outro_034.wav
#WAVHA acid_outro_035.wav
#WAVHB acid_outro_036.wav
#WAVHC acid_outro_037.wav
#WAVHD acid_outro_038.wav
#WAVHE acid_outro_039.wav
#WAVHF acid_outro_040.wav
#WAVHG acid_outro_041.wav
#WAVHH acid_outro_042.wav
#WAVHI acid_outro_043.wav
#WAVHJ acid_outro_044.wav
#WAVHK acid_outro_045.wav
#WAVHL acid_outro_046.wav
#WAVHM acid_outro_047.wav
#WAVHN acid_outro_048.wav
#WAVHO acid_outro_049.wav
#WAVHP acid_outro_050.wav
#WAVHQ acid_outro_051.wav
#WAVHR acid_outro_052.wav
#WAVHS acid_outro_053.wav
#WAVHT acid_outro_054.wav
#WAVHU acid_outro_055.wav
#WAVHV acid_outro_056.wav
#WAVHW acid_outro_057.wav
#WAVHX acid_outro_058.wav
#WAVHY acid_outro_059.wav
#WAVHZ acid_outro_060.wav
#WAVI0 acid_outro_061.wav
#WAVI1 acid_outro_062.wav
#WAVI2 acid_outro_063.wav
#WAVI3 acid_outro_064.wav
#WAVI4 acid_outro_065.wav
#WAVI5 acid_outro_066.wav
#WAVI6 acid_outro_067.wav
#WAVI7 acid_outro_068.wav
#WAVI8 acid_outro_069.wav
#WAVI9 acid_outro_070.wav
#WAVIA acid_outro_071.wav
#WAVIB acid_outro_072.wav
#WAVIC acid_outro_073.wav
#WAVID acid_outro_074.wav
#WAVIE acid_outro_075.wav
#WAVIF acid_outro_076.wav
#WAVIG acid_outro_077.wav
#WAVIH acid_outro_078.wav
#WAVII acid_outro_079.wav
#WAVIJ acid_outro_080.wav
#WAVIK acid_outro_081.wav
#WAVIL acid_outro_082.wav
#WAVIM acid_outro_083.wav
#WAVIN acid_outro_084.wav
#WAVIO acid_outro_085.wav
#WAVIP acid_outro_086.wav
#WAVIQ acid_outro_087.wav
#WAVIR acid_outro_088.wav
#WAVIT fill_000.wav
#WAVIU fill_001.wav
#WAVIV fill_002.wav
#WAVIW fill_003.wav
#WAVIX fill_004.wav
#WAVIY fill_005.wav
#WAVIZ fill_006.wav
#WAVJ0 fill_007.wav
#WAVJ1 fill_008.wav
#WAVJ2 hhroop_000.wav
#WAVJ3 hhroop_001.wav
#WAVJ4 hhroop_002.wav
#WAVJ5 hhroop_003.wav
#WAVJ6 hhroop_004.wav
#WAVJ7 hhroop_005.wav
#WAVJ8 hhroop_006.wav
#WAVJ9 hhroop_007.wav
#WAVJA hhroop_008.wav
#WAVJB hhroop_009.wav
#WAVJC hhroop_010.wav
#WAVJD hhroop_011.wav
#WAVJE hhroop_012.wav
#WAVJF hhroop_013.wav
#WAVJG hhroop_014.wav
#WAVJH hhroop_015.wav
#WAVJI hhroop_016.wav
#WAVJJ hhroop_017.wav
#WAVJK hhroop_018.wav
#WAVJL hhroop_019.wav
#WAVJM hhroop_020.wav
#WAVJN hhroop_021.wav
#WAVJO hhroop_022.wav
#WAVJP hhroop_023.wav
#WAVJQ hhroop_024.wav
#WAVJR hhroop_025.wav
#WAVJS hhroop_026.wav
#WAVJT hhroop_027.wav
#WAVJV guitar_000.wav
#WAVJW guitar_001.wav
#WAVJX guitar_002.wav
#WAVJY guitar_003.wav
#WAVJZ guitar_004.wav
#WAVK0 guitar_005.wav
#WAVK1 guitar_006.wav
#WAVK2 guitar_007.wav
#WAVK3 guitar_008.wav
#WAVK4 guitar_009.wav
#WAVK5 guitar_010.wav
#WAVK6 guitar_011.wav
#WAVK7 guitar_012.wav
#WAVK8 guitar_013.wav
#WAVK9 guitar_014.wav
#WAVKA guitar_015.wav
#WAVKB guitar_016.wav
#WAVKC guitar_017.wav
#WAVKD guitar_018.wav
#WAVKE guitar_019.wav
#WAVKF guitar_020.wav
#WAVKG guitar_021.wav
#WAVKH guitar_022.wav
#WAVKI guitar_023.wav
#WAVKJ guitar_024.wav
#WAVKK guitar_025.wav
#WAVKL guitar_026.wav
#WAVKM guitar_027.wav
#WAVKN guitar_028.wav
#WAVKO guitar_029.wav
#WAVKP guitar_030.wav
#WAVKQ guitar_031.wav
#WAVKR guitar_032.wav
#WAVKS guitar_033.wav
#WAVKT guitar_034.wav
#WAVKU guitar_035.wav
#WAVKV guitar_036.wav
#WAVKX cymbal.wav
#WAVKY s_cymbal.wav
#WAVKZ impact.wav
#WAVZW BGM1.wav
#WAVZX BGM2.wav
#WAVZY BGM3.wav
#BMP01 _bga.wmv
#LNOBJ ZZ
#DIFFICULTY 5
#SUBARTIST BGA:るっかるか / obj:monaka
#SUBTITLE -Pure White Crystal- *---------------------- MAIN DATA FIELD
#00002:1.25
#00004:000000000000000000000000000000000000000000000000000000000000000000000000000000000000000000000001000000000000000000000000000000000000000000000000000000000000000000000000000000000000000000000000000000000000000000000000000000000000000000000000000000000000000000000000000000000000000000000000000000000000000000000000000000000000000000000000000000000000000000000000000000000000000000000000000000000000000000000000000000000000000000000000000000000000000000000000000000000000000000000000
#00201:IT00IUIVIW000000IX00IY00IZ00J0J1
#00201:00
#00201:00
#00201:00
#00201:00
#00201:00
#00201:00
#00201:00
#00201:00
#00201:00
#00201:00
#00201:00
#00201:00
#00201:00
#00201:00
#00201:00
#00201:00
#00201:00
#00201:00
#00201:00
#00201:ZW
#00301:00
#00301:00
#00301:00
#00301:00
#00301:00
#00301:00
#00301:00
#00301:00
#00301:00
#00301:00
#00301:00
#00301:0070007000700070
#00301:00
#00301:00J3J4J5J600J7J8J900JBJCJD00JE00
#00311:01010101
#00312:0004000400040004
#00313:J2000000030000001500001500150000
#00314:00001500000005000019000003000005
#00315:19000005000000050000000500000500
#00316:KX
#00318:000005000015000000JA00001B0000JF
#00319:0000001B00001D000000050000001D00
#00401:00
#00401:00
#00401:00
#00401:00
#00401:00
#00401:00
#00401:00
#00401:00
#00401:00
#00401:00
#00401:00
#00401:0070007000700070
#00401:00
#00401:00JHJIJJJK00JLJMJNJOJPJQJR00JS00
#00411:01010101
#00412:0004000400040004
#00413:JG000000030000150000000003000000
#00414:00001500001500001H00000500001D00
#00415:1900001B0000050000001500001500JT
#00418:00000500000000050000001F00000500
#00419:0000000500001D000000050000000005
#00501:00
#00501:00
#00501:00
#00501:00
#00501:00
#00501:00
#00501:00
#00501:00
#00501:00
#00501:00
#00501:00
#00501:0070007000700070
#00501:00
#00501:00J3J4J5J600J7J8J900JBJCJD00JE00
#00511:01010101
#00512:0004000400040004
#00513:J2000000030000001500001500150000
#00514:000015000000050000JA000003000005
#00515:00000005000000050000000500000500
#00518:1900050000150000001900001B0000JF
#00519:0000001B00001D000000050000001D00
#00601:00
#00601:00
#00601:00
#00601:00
#00601:00
#00601:00
#00601:00
#00601:00
#00601:00
#00601:00
#00601:00
#00601:0070007000700070
#00601:00
#00601:00JHJIJJJK00JLJM00JOJPJQJR00JSJT
#00611:01010101
#00612:0004000400040004
#00613:JG000000030000050000000003000000
#00614:0000050000000500JN00000500000500
#00615:19000005000000150000150000150000
#00618:00001500001500001700001B00000005
#00619:0000001B00001D000000050000001D00
#00701:00
#00701:00
#00701:00
#00701:00
#00701:00
#00701:00
#00701:00
#00701:00
#00701:00
#00701:00
#00701:00
#00701:0070007000700070
#00701:00
#00701:00J3J4J50000J7J800JA00JCJD00JE00
#00711:01010101
#00712:0004000400040004
#00713:J2000005001500001500001500150000
#00714:00001500J60000050000050003000005
#00715:1900001B000005000019000500000500
#00718:0000000003000000J90000001B0000JF
#00719:0005001D00JB001D
#00801:00
#00801:00
#00801:00
#00801:00
#00801:00
#00801:00
#00801:00
#00801:00
#00801:00
#00801:00
#00801:00
#00801:0070007000700070
#00801:00
#00801:00JHJIJJ0000JLJM00JOJPJQJR00JSJT
#00811:01010101
#00812:0004000400040004
#00813:JG00000500150000JN00000003000005
#00814:00001500JK0000150000050000150000
#00815:1900001B00001D001H00000500001D00
#00818:00000000030000050000150000000000
#00819:00000500000005000000001F00000500
#00901:00
#00901:00
#00901:00
#00901:00
#00901:00
#00901:00
#00901:00
#00901:00
#00901:00
#00901:00
#00901:00
#00901:0070007000700070
#00901:00
#00901:00J3J4J5J600J7J800JAJBJCJD00JE00
#00911:01010101
#00912:0004000400040004
#00913:00031503
#00914:19000005000005000000050000150005
#00915:0000150000150000J900001500000500
#00918:J200001B00000005001900001B0000JF
#00919:0000050000001D000000000500001D00
#01001:00
#01001:00
#01001:00
#01001:00
#01001:00
#01001:00
#01001:00
#01001:00
#01001:00
#01001:00
#01001:00
#01001:0070007000700070
#01001:00
#01001:00JHJIJJJK00JLJMJNJOJPJQJR00JSJT
#01011:01010101
#01012:0004000400040004
#01013:JG000000030000150000000003000000
#01014:00001500001500001700000500000500
#01015:1900001B000005000000150000150000
#01018:00000500000000050000001B00000005
#01019:0000000500001D000000050000001D00
#01101:00
#01101:0004000400040004
#01101:00
#01101:00
#01101:00
#01101:00
#01101:00
#01101:00
#01101:00
#01101:00
#01101:00
#01101:0070007000700070
#01101:79007Z797Z0079797L00797L00797E00
#01101:00
#01101:00
#01101:00
#01101:00
#01101:00
#01101:00
#01101:00
#01101:00
#01101:00
#01101:J2J3J4J5J600J7J8J9JAJBJCJD00JEJF
#01111:01010101
#01112:00000500000000050000000500000500
#01113:1A00000500160000001A000003000000
#01114:00001600030000001600001600007L00
#01115:9100001C00001E000000050000160000
#01116:KX
#01118:00000000860000007Z0000001C000005
#01119:00008600000005000000007Z00001E00
#01201:00
#01201:0004000400040004
#01201:00
#01201:00
#01201:00
#01201:00
#01201:00
#01201:00
#01201:00
#01201:00
#01201:001I
#01201:0070007000700070
#01201:79007Z797Z0079797L00797L00797E00
#01201:00008600000000000000007Z00007L00
#01201:00
#01201:00
#01201:00
#01201:00
#01201:00
#01201:00
#01201:00
#01201:00
#01201:JGJHJIJJJK00JLJMJNJOJPJQJR00JSJT
#01211:01010101
#01212:00000005000005000000160000000500
#01213:1A000000030000007Z0000008M000005
#01214:000005000016001600008N0000160000
#01215:8Y00008W00008T008Q00000500001E00
#01218:00001600860000050000050003000000
#01219:0000001C00001E000000001G00008T00
#01301:00
#01301:0004000400040000
#01301:00
#01301:0000000000000004
#01301:00
#01301:00
#01301:00
#01301:00
#01301:00
#01301:00
#01301:00
#01301:0070007000700070
#01301:79007Z797Z0079797L00797L00797E00
#01301:00000000000000007Z00007Z00007L00
#01301:00
#01301:00
#01301:00
#01301:00
#01301:00
#01301:00
#01301:00
#01301:00
#01301:J2J3J4J5J600J7J8J9JAJBJCJD00JEJF
#01311:01010101
#01312:00000500000005000000000500000500
#01313:00000005001600001600000003000000
#01314:8S001600030000050000001600008K00
#01315:0000001C00001E00001A000000160000
#01318:1A000000860000008S0000001C000005
#01319:0086008U0005001E
#01401:00
#01401:00
#01401:00
#01401:0004000400040004
#01401:00
#01401:00
#01401:00
#01401:00
#01401:00
#01401:00
#01401:00
#01401:0070007000700070
#01401:79007Z797Z0079797L00797L00797E00
#01401:00000000860000007Z00007Z00007L00
#01401:00
#01401:00
#01401:00
#01401:00
#01401:00
#01401:00
#01401:00
#01401:00
#01401:JGJHJIJJJK00JLJMJNJOJPJQJR00JSJT
#01411:01010101
#01412:00000500000000160000050000008L00
#01413:8O000005001600001800000500000005
#01414:00001600030000050000160000160000
#01415:1A00001C00001E000000008M00001E00
#01418:008R8P03
#01419:00008600000005000000001C00000500
#01501:00
#01501:00
#01501:00
#01501:00000000000000050000000000000000
#01501:00
#01501:00
#01501:1A00161C00161E00161A00161C161E00
#01501:00
#01501:00
#01501:00
#01501:00
#01501:0070007000700070
#01501:79007Z797Z0079797L00797L00797E00
#01501:00008600860000007Z00007Z00007L00
#01501:00
#01501:00
#01501:00
#01501:00
#01501:00
#01501:00
#01501:00
#01501:00
#01501:J2J3J4J5J600J7J800JAJBJCJD00JEJF
#01511:01010101
#01512:1211000500040005
#01513:0000040003000000J9000005000W0000
#01514:9100000010000Z0000000X0003000005
#01515:00000500000004000Y00000X00000V00
#01518:0012001100100000000Y00000W00000V
#01519:000000050000000Z0000050000000400
#01601:00
#01601:00000505000005050000050000000000
#01601:00000000000000000000000003000505
#01601:00
#01601:00
#01601:00
#01601:1A00161C00161E161I00161G00161E00
#01601:00
#01601:00
#01601:00
#01601:00
#01601:0070007000700070
#01601:79007Z797Z0079797L00797L00797E00
#01601:00008600860000007Z00007Z00007L00
#01601:00
#01601:00
#01601:00
#01601:00
#01601:00
#01601:00
#01601:00
#01601:00
#01601:JGJHJIJJJK00JLJMJNJOJPJQJR00JSJT
#01611:01010101
#01612:000T0004008N0004
#01613:0U000000030000008Q000005000L0000
#01614:000004000S008T00000004000M00000J
#01615:8Y00000T00000R000P00000N00000K00
#01618:000U0000000S0000000P000094000000
#01619:0000008W0000000Q00000O0000009600
#01701:00
#01701:00
#01701:00000500000005050000050500000500
#01701:00
#01701:00
#01701:00
#01701:1A00131C00131E00131A00131C131E00
#01701:00
#01701:00
#01701:00
#01701:00
#01701:006X006X006X006X
#01701:74007Z747Z0074747L00747L00747E00
#01701:00008600860000007Z00007Z00007L00
#01701:00
#01701:00
#01701:00
#01701:00
#01701:00
#01701:00
#01701:00
#01701:00
#01701:J200J4J5J600J7J8J9JAJBJCJD00JEJF
#01711:01010101
#01712:000400040C00008Z
#01713:0I00000003008V0000000400000A0000
#01714:00000G000F0000009500000003000009
#01715:000H000000000D0000000B0000000400
#01718:950000050000000D000C00000A000005
#01719:00J3000F000E00000000000B00000900
#01801:00
#01801:00
#01801:00
#01801:00
#01801:00
#01801:00
#01801:00
#01801:00
#01801:00
#01801:00
#01801:00
#01801:006Y006Y006Y006Y
#01801:77007Z777Z0077777L00777L00777E00
#01801:00008600860000007Z00007Z00007L00
#01801:00
#01801:00
#01801:00
#01801:00
#01801:00
#01801:00
#01801:00
#01801:00
#01801:JGJHJIJJJK0000JM00JO00JQ0000JSJT
#01811:01000000000007000000JP0000070000
#01812:0000140000140000JN00000700000007
#01813:9200001C0000JL000000140000140000
#01814:000000060000000007000000000014000000070000008Y000000000007000000
#01815:1A00000700001E001800000007000000
#01816:KX
#01818:00060000940000070000001C00008X00
#01819:000700009300JR1E
#01901:00
#01901:00
#01901:00000003
#01901:00
#01901:00000505000005050000050500000505
#01901:00
#01901:00
#01901:00
#01901:00
#01901:00
#01901:00
#01901:0070007000700070
#01901:7A007Z797Z0079797L00797L00797E00
#01901:00008600860000007Z00007Z00007L00
#01901:00
#01901:00
#01901:00
#01901:00
#01901:00
#01901:00
#01901:00
#01901:00
#01901:00J3J4J5J600J7J800JAJBJCJD00JEJF
#01911:01010101
#01912:0023000400040004
#01913:2T0000000000000003000000000000002Z000000000000002D0000000000003K
#01914:00004R00002D0000J9002L00002Z0000
#01915:5H00002Z000036000000590051003F00
#01916:KX
#01918:J20000000400000000005100000000005N0000000000360000005N0000000068
#01919:0000005N00005U000000005U00006300
#02001:00
#02001:00
#02001:00
#02001:00
#02001:00000505000005050000050500000505
#02001:00
#02001:00
#02001:00
#02001:00
#02001:00
#02001:00
#02001:0070007000700070
#02001:79007Z797Z0079797L00797L00797E00
#02001:00008600860000007Z00007Z00007L00
#02001:00
#02001:00
#02001:00
#02001:00
#02001:00
#02001:00
#02001:00
#02001:00
#02001:JGJH00JJ000000JM00JO00JQJR0000JT
#02011:01010101
#02012:0000000400040004
#02013:00040000JN000339
#02014:3U00003O0000JL000000JP003T000000
#02015:00JI03002T43005X
#02018:0000006C00003T005H0000006H000000
#02019:6I00JK6H006R00JS
#02101:00
#02101:00
#02101:00
#02101:0004000000000000
#02101:00000505000005050000050500000505
#02101:00
#02101:00
#02101:00
#02101:00
#02101:00
#02101:00
#02101:006V006V006V006V
#02101:71007Z717Z0071717L00717L00717E00
#02101:00008600000000007Z00007Z00007L00
#02101:00
#02101:00
#02101:00
#02101:00
#02101:00
#02101:00
#02101:00
#02101:00
#02101:J2J3J4J5000000J800JA00JCJD0000JF
#02111:01010101
#02112:3E0000J700040004
#02113:0067030032000300
#02114:6200860400JB00JE
#02115:00003J00000039005Q00003I00000000
#02118:003Q0000J6000000J900000000003Y00
#02119:006E000000005X000000006600006M00
#02201:00
#02201:00
#02201:00
#02201:00
#02201:00000505000005050000050500000505
#02201:00
#02201:00
#02201:00
#02201:00
#02201:00
#02201:00
#02201:006W006W006W006W
#02201:73007Z737Z0073737L00737L00737E00
#02201:00008600860000007Z00007Z00007L00
#02201:00
#02201:00
#02201:00
#02201:00
#02201:00
#02201:00
#02201:00
#02201:00
#02201:00JH00JJJK0000JMJNJOJPJQ0000JSJT
#02211:01010101
#02212:0004000000040004
#02213:JG3N3EJR
#02214:0000JI006B00000000002D00002D0000
#02215:3T0000JL0051032Q
#02218:6H000000030000006200003600510000
#02219:00000000000004000000005U00005E00
#02301:00
#02301:00
#02301:00000003
#02301:0000000000000004
#02301:00000505000005050000050500000505
#02301:00
#02301:00
#02301:00
#02301:00
#02301:00
#02301:00
#02301:0070007000700070
#02301:79007Z797Z0079797L00797L00797E00
#02301:00008600860000007Z00007Z00007L00
#02301:00
#02301:00
#02301:00
#02301:00
#02301:00
#02301:00
#02301:00
#02301:00
#02301:00J3J4J5J600J7J800JAJBJCJD00JEJF
#02311:01010101
#02312:000000000400000000000000040000000000000004000000000000003F00003K
#02313:J2002300002D00002Z0000002D006300
#02314:2T00000000002Z000000000036000000000000002L0000005100000000000068
#02315:00004R00005100005N005900002Z0000
#02318:5H00005N00005U0000000036005N0000
#02319:0000000003000000J900005U00000000
#02401:00
#02401:00
#02401:00
#02401:00
#02401:00000505000005050000050500000505
#02401:00
#02401:00
#02401:00
#02401:00
#02401:00
#02401:00
#02401:0070007000700070
#02401:79007Z797Z0079797L00797L00797E00
#02401:00008600860000007Z00007Z00007L00
#02401:00
#02401:00
#02401:00
#02401:00
#02401:00
#02401:00
#02401:00
#02401:00
#02401:JGJHJIJJ000000JM00JO00JQJR0000JT
#02411:01010101
#02412:0004000400040004
#02413:00000000JN000341
#02414:0000003O0000JL000000JP0045000000
#02415:3U0003002T46006P
#02418:0000006C00003T005H0000006T000000
#02419:6I00JK6H006U00JS
#02501:00
#02501:00
#02501:00
#02501:00
#02501:00000505000005050000050500000505
#02501:00
#02501:00
#02501:00
#02501:00
#02501:00
#02501:00
#02501:006V006V006V006V
#02501:71007Z717Z0071717L00717L00717E00
#02501:00008600860000007Z00007Z00007L00
#02501:00
#02501:00
#02501:00
#02501:00
#02501:00
#02501:00
#02501:00
#02501:00
#02501:J2J3J4J5J60000J800JAJBJCJD0000JF
#02511:01010101
#02512:0004000400040004
#02513:00000300J90003JE
#02514:440000J700313900
#02515:0000003U0000000039005P0000004100
#02518:6S00003H5X005X00
#02519:0000006I000065000000000000006P00
#02601:00
#02601:00
#02601:00000003
#02601:0004000400040004
#02601:00000505000005050000050500000505
#02601:0000060607000000000000000000000000000000000000000000000000000000
#02601:00
#02601:00
#02601:00
#02601:00
#02601:00
#02601:006W006W006Y006Y
#02601:73007Z737Z0073737L00777L00777E00
#02601:00008600860000007Z00007Z00007L00
#02601:00
#02601:00
#02601:00
#02601:00
#02601:00
#02601:00
#02601:00
#02601:00
#02601:JGJHJIJJJK00JLJM00JO00JQJR00JSJT
#02611:0100000700JP0007
#02612:3Q00000700000000JN00000062000007
#02613:00003V0000003N0000002Z0000070000
#02614:6E000000030000003T00000700004000
#02615:00006J0000006B00000700003E000000
#02616:KX
#02618:003X00000700000700005N0000006O00
#02619:006L0000000000006H00000007000000
#02701:00
#02701:00
#02701:00
#02701:00
#02701:00000505000005050000050500000505
#02701:00
#02701:00
#02701:2D00000000002L00000000002T0000002L0000002D002T002D002L002U000034
#02701:0000000000002Z000000000036000000000000002L00360000002Z003F00003K
#02701:000000000000000000000000000000000000000000000000000000000000005S
#02701:0000000000000000000000000000000000000000000000000000000000000068
#02701:0070007000700070
#02701:7A007Z797Z0079797L00797L00797E00
#02701:00008600860000007Z00007Z00007L00
#02701:00
#02701:00
#02701:00
#02701:00
#02701:00
#02701:00
#02701:00
#02701:00
#02701:J2J3J4J5J600J7J8J9JAJBJCJD00JEJF
#02711:01010101
#02712:0023000400040004
#02713:2T032Z03
#02714:00004R00002D00005900510000590000
#02715:5100005900005H000000590051005I00
#02716:KX
#02718:00000400005100005N00005H005N0000
#02719:5H00005N00005U000000005U00006300
#02801:00
#02801:00
#02801:00
#02801:00
#02801:00000505000005050000050500000505
#02801:00
#02801:00
#02801:3A000032000039002D003T0039002W00
#02801:0000003T
#02801:00
#02801:00
#02801:0070007000700070
#02801:79007Z797Z0079797L00797L00797E00
#02801:00008600860000007Z00007Z00007L00
#02801:00
#02801:00
#02801:00
#02801:00
#02801:00
#02801:00
#02801:00
#02801:00
#02801:JGJHJIJJJK00JLJMJNJOJPJQJR00JSJT
#02811:01010101
#02812:0004000400040039
#02813:3U0003002T00035K
#02814:5Y00003O00003T00000043005X000000
#02815:0000005Q0000000051006H0000005X00
#02818:6I00005X5H006H00
#02819:0000006C00006H0000006R0000000400
#02901:00
#02901:00
#02901:00
#02901:0004000000000000
#02901:00000505000005050000050500000505
#02901:00
#02901:00
#02901:2Z36330000002W002O00002X00003900
#02901:3E3Q3J00000000000000000000000000
#02901:00
#02901:00
#02901:006V006V006V006V
#02901:71007Z717Z0071717L00717L00717E00
#02901:00008600860000007Z00007Z00007L00
#02901:00
#02901:00
#02901:00
#02901:00
#02901:00
#02901:00
#02901:00
#02901:00
#02901:J2J3J4J50000J7J8J9JAJBJCJD00JEJF
#02911:01010101
#02912:5N00000400040004
#02913:005U0000030000003200000003000000
#02914:62006700000039005C00003I00003Y00
#02915:006E0000J6005K000000005L00000000
#02918:005R00005Q00005X
#02919:0000000000005X000000006600006M00
#03001:00
#03001:00
#03001:00
#03001:00
#03001:00000505000005050000050500000505
#03001:00
#03001:00
#03001:3H000000390000002Z00002T00002900
#03001:000000003N0000000000003600002Q00
#03001:00
#03001:00
#03001:006W006W006W006W
#03001:73007Z737Z0073737L00737L00737E00
#03001:00008600860000007Z00007Z00007L00
#03001:00
#03001:00
#03001:00
#03001:00
#03001:00
#03001:00
#03001:00
#03001:00
#03001:JGJH00JJJK0000JMJNJOJPJQJR00JSJT
#03011:01000000010000000100000100000100
#03012:0000000400040004
#03013:3T033E03
#03014:000000005X00JL0000002D00002D0000
#03015:6500JI00000000005N00005H00004X00
#03018:6H0000006B0000000000510000510000
#03019:00000400000000006200005U00005E00
#03101:00
#03101:00
#03101:00000003
#03101:0004000400040004
#03101:00000505000005050000050500000505
#03101:00
#03101:00
#03101:2D00000023002L0000002D002T0000002L0000002L002T002D002L002U000034
#03101:2T00000000002Z0000000000360000002Z0000000000360000002Z003F00003K
#03101:510000000000590000000000000000005900000000005H00000059005I00005S
#03101:0000000000000000000000000000000000000000000000000000000000000068
#03101:0070007000700070
#03101:79007Z797Z0079797L00797L00797E00
#03101:00008600860000007Z00007Z00007L00
#03101:00
#03101:00
#03101:00
#03101:00
#03101:00
#03101:00
#03101:00
#03101:00
#03101:J2J3J4J5J600J7J8J9JAJBJCJD00JEJF
#03111:0200020Z00020202
#03112:0002000202000W00
#03113:120003000Y0X000V
#03114:5H0011000010000Z000059005100000V
#03115:00004R0010005H00000Y0000005N0000
#03116:KX
#03118:00120011005100005N00000X00006300
#03119:0000005N00005U000000005U000W0000
#03201:00
#03201:00
#03201:00000003
#03201:0004000400040004
#03201:00000505000005050000050500000505
#03201:00
#03201:00
#03201:3A000032000039002T0043003T003H00
#03201:3U00003O00003T000000460045004100
#03201:00000000006R6H65
#03201:00
#03201:0070007000700070
#03201:79007Z797Z0079797L00797L00797E00
#03201:00008600860000007Z00007Z00007L00
#03201:00
#03201:00
#03201:00
#03201:00
#03201:00
#03201:00
#03201:00
#03201:00
#03201:JGJHJIJJJK00JLJMJNJOJPJQJR00JSJT
#03211:0200020202000202
#03212:0U00000T00000R000000020000000K00
#03213:000U00000S0000000P0000000M000000
#03214:00000200000S000Q00000O0000006P00
#03215:5Y00005Q00005X00000P00006T000000
#03216:KX
#03218:00000T00030000005H00000N0000000J
#03219:6I00006C00006H0000006U00000L0000
#03301:00
#03301:00
#03301:00030003
#03301:0004000400040004
#03301:00000505000005050000050500000505
#03301:00
#03301:00
#03301:3U00003A000031002W002N002W003H00
#03301:4400003U00003H003900310039004100
#03301:6I00005Y00005P005K005B005K006500
#03301:6S00006I000065005X005P005X006P00
#03301:006V006V006V006V
#03301:71007Z717Z0071717L00717L00717E00
#03301:00008600860000007Z00007Z00007L00
#03301:00
#03301:00
#03301:00
#03301:00
#03301:00
#03301:00
#03301:00
#03301:00
#03301:J2J3J4J5J600J7J8J9JAJBJCJD00JEJF
#03311:0I0G00000C0B0000
#03312:00020F0D00020A09
#03313:02020202
#03314:000H000F00000200000C000B00000200
#03315:00020000000E000D00020000000A0009
#03316:KXKX
#03318:00000002000200000000000200020000
#03319:00000000000000020000000000000002
#03401:00
#03401:00
#03401:00
#03401:0004000400040004
#03401:00000505000005050000050500000505
#03401:0000060600000000000000000000000000000000000000000000000000000000
#03401:00
#03401:363E3B000000310037002L002Z003Q00
#03401:3Q3X3V0000000000000000003E004000
#03401:0000005N
#03401:00
#03401:006W006W006Y006Y
#03401:73007Z737Z0073737L00777L00777E00
#03401:00008600860000007Z00007Z00007L00
#03401:00
#03401:00
#03401:00
#03401:00
#03401:00
#03401:00
#03401:00
#03401:00
#03401:JGJHJIJJJK00JLJMJNJOJPJQJR00JSJT
#03411:01000007002Z0300
#03412:000707003R59006E
#03413:5U5Z003N5V000700
#03414:6E00035P005N0007
#03415:00006J00000000006F00000062000007
#03416:KX
#03418:0062000000006B000007000000070000
#03419:006L0007000000070000000700006O00
#03501:0000008C
#03501:00
#03501:00
#03501:00
#03501:00
#03501:00
#03501:00
#03501:00
#03501:00
#03501:00
#03501:00
#03501:0070007000700070
#03501:00
#03501:00
#03501:00
#03501:00
#03501:00
#03501:00
#03501:00
#03501:00
#03501:ZX
#03501:00
#03501:J2J3J4J5J600J7J8J9JAJBJCJD00JEJF
#03511:KZ
#03513:88
#03514:000000A8
#03516:KX
#03518:A4
#03601:850000008387837T
#03601:00
#03601:00
#03601:00
#03601:00
#03601:00
#03601:00
#03601:00
#03601:00
#03601:00
#03601:00
#03601:0070007000700070
#03601:00
#03601:00
#03601:00
#03601:00
#03601:00
#03601:00
#03601:00
#03601:00
#03601:00
#03601:00
#03601:JGJHJIJJJK00JLJMJNJOJPJQJR00JSJT
#03612:A2
#03613:000000000000009R
#03615:0000A0A0
#03619:0000000000A30000
#03701:7Q00007K00007W00
#03701:00
#03701:00
#03701:00
#03701:00
#03701:00
#03701:00
#03701:00
#03701:00
#03701:00
#03701:00
#03701:006Y006Y006Y006Y
#03701:00
#03701:00
#03701:00
#03701:00
#03701:00
#03701:00
#03701:00
#03701:00
#03701:00
#03701:00
#03701:J2J3J4J5J600J7J8J9JAJBJCJD00JEJF
#03711:9O
#03714:0000009J00000000
#03719:0000009U
#03801:7P0078007N7I7F7C
#03801:00
#03801:00
#03801:00
#03801:00
#03801:00
#03801:00
#03801:00
#03801:00
#03801:00
#03801:00
#03801:006Y006Y006W006W
#03801:00
#03801:00
#03801:00
#03801:00
#03801:00
#03801:00
#03801:00
#03801:00
#03801:00
#03801:00
#03801:JGJHJIJJJK00JLJMJNJOJPJQJR00JSJT
#03811:000000000000009C
#03812:009A0000
#03813:0000009E
#03815:9N000000009H0000
#03819:009L
#03901:7G00007J
#03901:00
#03901:00
#03901:00
#03901:00
#03901:00
#03901:00
#03901:00
#03901:00
#03901:00
#03901:00
#03901:006X006X006X006X
#03901:00
#03901:00
#03901:00
#03901:00
#03901:00
#03901:00
#03901:00
#03901:00
#03901:00
#03901:00
#03901:J2J3J4J5J600J7J8J9JAJBJCJD00JEJF
#03914:9F
#03915:0000009I
#04001:7D000000760000007V00007O00007I00
#04001:00
#04001:00
#04001:00
#04001:00
#04001:00
#04001:00
#04001:00
#04001:00
#04001:00
#04001:00
#04001:006X006X006X006X
#04001:00
#04001:00
#04001:00
#04001:00
#04001:00
#04001:00
#04001:00
#04001:00
#04001:00
#04001:00
#04001:JGJHJIJJJK00JLJMJNJOJPJQJR00JSJT
#04011:00990000
#04012:000000000000009H
#04013:9D
#04015:00000000000000000000009M00000000
#04019:009T
#04101:7R
#04101:00
#04101:00
#04101:00
#04101:00
#04101:00
#04101:00
#04101:00
#04101:00
#04101:00
#04101:00
#04101:006Y006Y006V006V
#04101:00
#04101:00
#04101:00
#04101:00
#04101:00
#04101:00
#04101:00
#04101:00
#04101:00
#04101:00
#04101:J2J3J4J5J600J7J8J9JAJBJCJD00JEJF
#04114:9P
#04201:000000000000000072757B7H7M7S828A
#04201:00
#04201:00
#04201:00
#04201:00
#04201:00
#04201:00
#04201:00
#04201:00
#04201:00
#04201:00
#04201:006Y006Y006Z006Z
#04201:00
#04201:00
#04201:00
#04201:00
#04201:00
#04201:00
#04201:00
#04201:00
#04201:00
#04201:00
#04201:JGJHJIJJJK00JLJMJNJOJPJQJR00JSJT
#04211:0097
#04212:00000000000000000000009G00000000
#04213:00000000000000000098000000009Z00
#04214:0000009K
#04215:000000000000000000009B00000000A6
#04218:000000000000000000000000009Q0000
#04301:88
#04301:0004000400040004
#04301:00
#04301:00000505000005050000050500000505
#04301:00
#04301:00
#04301:00
#04301:00
#04301:00
#04301:00
#04301:00
#04301:0070007000700070
#04301:0000008C
#04301:00
#04301:00
#04301:00
#04301:00
#04301:00
#04301:AHAIAJ00AK00ALAM00ANAOAP00AQAR00
#04301:00
#04301:00
#04301:00
#04301:J2J3J4J5J600J7J8J9JAJBJCJD00JEJF
#04316:KX
#04318:000000A8
#04319:A4
#04401:00
#04401:0004000400040004
#04401:00
#04401:00000505000005050000050500000505
#04401:00
#04401:00
#04401:00
#04401:00
#04401:00
#04401:00
#04401:00
#04401:0070007000700070
#04401:84000000000000007U0000000081898E8J00000000008G00000000008B000000
#04401:00
#04401:00
#04401:00
#04401:00
#04401:00
#04401:ASATAU00AV00AWAX00AYAZB000B1B2B3
#04401:00
#04401:00
#04401:00
#04401:JGJHJIJJJK00JLJMJNJOJPJQJR00JSJT
#04411:000000000000000000000000009Y000000000000000000000000000000000000
#04412:009S0000
#04413:00000000000000A5000000000000A700
#04414:A1
#04415:000000000000000000000000000000AA000000000000AC000000000000000000
#04419:00AF
#04501:00
#04501:0004000400040004
#04501:00
#04501:00000505000005050000050500000505
#04501:00
#04501:00
#04501:00
#04501:00
#04501:00
#04501:00
#04501:00
#04501:006Y006Y006Y006Y
#04501:8I00007W
#04501:00
#04501:00
#04501:00
#04501:00
#04501:00
#04501:B4B5B600B700B8B900BABBBC00BDBE00
#04501:00
#04501:00
#04501:00
#04501:J2J3J4J5J600J7J8J9JAJBJCJD00JEJF
#04512:0000009U
#04518:AE
#04601:00
#04601:0004000400040004
#04601:00
#04601:00000505000005050000050500000505
#04601:00
#04601:00
#04601:00
#04601:00
#04601:00
#04601:00
#04601:00
#04601:006Y006Y006W006W
#04601:8H0000008F8B8783
#04601:00
#04601:00
#04601:00
#04601:00
#04601:00
#04601:BFBGBH00BI00BJBK00BLBMBN00BOBPBQ
#04601:00
#04601:00
#04601:00
#04601:JGJHJIJJJK00JLJMJNJOJPJQJR00JSJT
#04612:00000000000000A0
#04614:000000A3
#04615:AD00000000A70000
#04619:00AB
#04701:00
#04701:00
#04701:00
#04701:0000000000050000
#04701:00
#04701:00
#04701:00
#04701:00
#04701:00
#04701:00
#04701:00
#04701:006X006X006X006X
#04701:8800008C
#04701:00
#04701:00
#04701:00
#04701:00
#04701:00
#04701:BRBSBT00BU00BVBW00BXBYBZ00C0C100
#04701:00
#04701:00
#04701:00
#04701:00J3J4J50000J7J80000JBJCJD00JEJF
#04711:1200000000000Z00000Y000X00000000
#04712:000004001000000000JA000000000V00
#04713:A40005000000050000000005000W0000
#04714:J2000000J60000050000040000000400
#04715:001100040Y00A805
#04716:KX
#04718:001200050000000Z00000X0000000005
#04719:0000001100100000J90000000W00000V
#04801:00
#04801:00
#04801:00000000000000050000000500000500
#04801:0005000000000000
#04801:00
#04801:00
#04801:00
#04801:00
#04801:00
#04801:00
#04801:00
#04801:006X006X006X006X
#04801:840000007Y0000007Y00008000008300
#04801:00
#04801:00
#04801:00
#04801:00
#04801:00
#04801:C2C3C400C500C6C700C8C9CA00CBCCCD
#04801:00
#04801:00
#04801:00
#04801:0000JIJJJK00JLJM00JOJPJQ0000JSJT
#04811:0U0T000R000O0M00
#04812:00040S009W00JR0K
#04813:JG009W05000500A0
#04814:A1000005000004000P00009X000L0000
#04815:00JH0000000S0000JN00040000000005
#04816:KX
#04818:0000000T0000000Q0000000N00000400
#04819:000U000000000000000P00000000000J
#04901:00
#04901:00000000000005050000000000000005
#04901:00
#04901:00
#04901:00
#04901:00
#04901:00
#04901:00
#04901:00
#04901:00
#04901:00
#04901:006Y006Y006Y006Y
#04901:7X000084
#04901:00
#04901:00
#04901:00
#04901:00
#04901:00
#04901:CECFCG00CH00CICJ00CKCLCM00CNCO00
#04901:00
#04901:00
#04901:00
#04901:00J3J4J50000J7J80000JBJC0000JEJF
#04911:0I000F000C0B0009
#04912:0004000D00040A00
#04913:J200J600J900JD05
#04914:9V05000400050004
#04915:00000G00000E000000JA0000A1000000
#04916:KXKX
#04918:000H00050000000D000C000500000009
#04919:0000000F000000000000000B000A0000
#05001:00
#05001:00
#05001:00
#05001:0004000400040004
#05001:00000505000005050000050500000505
#05001:00
#05001:00
#05001:00000000000000001M1R1Z282C2K2Y3D
#05001:00
#05001:00000000000000004A4F4N4W50585M61
#05001:00
#05001:006Y006Y006Y006Z
#05001:8D
#05001:00
#05001:00
#05001:A9
#05001:00
#05001:00
#05001:CPCQCR00CS00CTCU00CVCWCX00CYCZD0
#05001:00
#05001:00
#05001:00
#05001:JGJHJIJJJK00JLJMJNJOJPJQJR00JSJT
#05011:0808
#05012:000800000000080000000000000800000000080000000000
#05013:000008000000000800000000000008000000000800000000
#05014:000000080000000008000000000000080000000008000000
#05015:000000000800000000080000000000000800000000080000
#05016:KX
#05018:000000000008000000000800000000000008000000000800
#05019:000000000000000000000008000000000000000000000008
#05101:00
#05101:00
#05101:00
#05101:00
#05101:00000505000000000000050500000505
#05101:00
#05101:00
#05101:1W001W002E0000002E00282E00002000
#05101:2C002C00380000000000002R00002I00
#05101:00
#05101:00
#05101:0070007000700070
#05101:00
#05101:00
#05101:00
#05101:00
#05101:00
#05101:00
#05101:D2D3D400D500D6D700D8D9DA00DBDC00
#05101:00
#05101:00
#05101:00
#05101:J2J3J4J5J600J7J8J9JAJBJCJD00JEJF
#05111:01010101
#05112:0004000400040004
#05113:KZ033003
#05114:4K004K000000050000004W0000280000
#05115:00000000520000005200005200004O00
#05116:KX
#05118:500050000000000500000000004W0000
#05119:000000005W0000005O00005F00005600
#05201:00
#05201:00
#05201:00
#05201:00
#05201:00000505000005050000050500000505
#05201:00
#05201:00
#05201:2500001Y00001N001S001M1X001M2E00
#05201:2F00002B000024002000002A00002M00
#05201:00
#05201:00
#05201:0070007000700070
#05201:00
#05201:00
#05201:00
#05201:00
#05201:00
#05201:00
#05201:DDDEDF00DG00DHDI00DJDKDL00DMDNDO
#05201:00
#05201:00
#05201:00
#05201:00JH00JJ000000JM00JO00JQ0000JSJT
#05211:01010101
#05212:0004000400040300
#05213:JG000300JNJP0004
#05214:4TJI004B4O00JR00
#05215:0000004M00004S0000004A0000005200
#05218:53000000JK0000004G00004L004A0000
#05219:0000004Z0000JL000000004Y00005A00
#05301:00
#05301:00
#05301:00
#05301:0000000000040004
#05301:00000000000005050000050500000505
#05301:00
#05301:00
#05301:2700000000001K001M1P1R1W1Z1W1R1P
#05301:2G00000000001N001W1Z22282C28221Z
#05301:00
#05301:00
#05301:006Y006Y006Y006Y
#05301:00
#05301:00
#05301:00
#05301:00
#05301:00
#05301:00
#05301:DPDQDR00DS00DTDU00DVDWDX00DYDZ00
#05301:00
#05301:00
#05301:00
#05301:00J3J400J600J7J8J9JAJBJCJD00JEJF
#05311:01010101
#05312:000004000000040000004F000300004D
#05313:J20003004A4Q004F
#05314:4V000500000048004K00004K004K004N
#05315:000000J500000000004D00004N004Q00
#05318:5400000000004B000000004W004W0000
#05319:0000000500000000004N000050000000
#05401:00
#05401:00
#05401:00
#05401:0000000000000004
#05401:00000000000000000000050500000505
#05401:00
#05401:00
#05401:240000002V0000002P002C3000002A00
#05401:2E000000380000002Y00003G00002M00
#05401:00
#05401:00
#05401:006Y006Y006W006W
#05401:00
#05401:00
#05401:00
#05401:00
#05401:00
#05401:00
#05401:E0E1E200E300E4E500E6E7E800E9EAEB
#05401:00
#05401:00
#05401:00
#05401:JGJHJIJJJK00JL0000JO00JQ0000JSJT
#05411:01010101
#05412:0004000400040300
#05413:4S00000003000000JN00JP00002C0000
#05414:000500055D00JR4Y
#05415:000000005J0000JM0000500000500000
#05418:52000005000000005M00005O00005A00
#05419:000000005W0000050000006400000000
#05501:00
#05501:00
#05501:00
#05501:00
#05501:00000505000000000000050500000505
#05501:00
#05501:00
#05501:1P001P002E0000002E00282I00002A00
#05501:2C002C00380000000000002R00002I00
#05501:00
#05501:00
#05501:006X006X006X006X
#05501:00
#05501:00
#05501:00
#05501:00
#05501:00
#05501:00
#05501:ECEDEE00EF00EGEH00EIEJEK00ELEM00
#05501:00
#05501:00
#05501:00
#05501:J2J3J4J5J60000J8J9JA00JC0000JEJF
#05511:01010101
#05512:0000030400040004
#05513:4D4D00J730000300
#05514:00000000520000005200JB00002C0000
#05515:50500005004WJD4Y
#05518:000000005W0000005O00005600500000
#05519:00000400000000050000005F00005600
#05601:00
#05601:00
#05601:00
#05601:0000000000040004
#05601:00000505000005050000050500000505
#05601:00
#05601:00
#05601:20001M1Y00002E001M1P1R1W222C2S2Y
#05601:2E00002B00002M001R1W1Z282K2Y3D3Z
#05601:00
#05601:00
#05601:006X006X006X006X
#05601:00
#05601:00
#05601:00
#05601:00
#05601:00
#05601:00
#05601:ENEOEP00EQ00ERES00ETEUEV00EWEXEY
#05601:00
#05601:00
#05601:00
#05601:00JH00JJ0000JLJMJNJOJPJQJR00JSJT
#05611:01010101
#05612:000004000000040000004F0000500000
#05613:JG0003004A4N035G
#05614:4O00JI00000052004F00004K005M005M
#05615:00004A00JK000000004D004W00006100
#05618:5200004M00005A00004K00004Q00006N
#05619:0000004Z000000000000000058000000
#05701:00
#05701:00
#05701:00
#05701:00
#05701:00000000000005050000000000000505
#05701:00
#05701:00
#05701:3C00002E3C00002E
#05701:3W00002V3W00002V
#05701:00
#05701:00
#05701:006Y006Y006V006V
#05701:00
#05701:00
#05701:00
#05701:00
#05701:00
#05701:00
#05701:EZF0F100F200F3F400F5F6F700F8F900
#05701:00
#05701:00
#05701:00
#05701:J2J3J400000000J800JA00JC000000JF
#05711:01010101
#05712:000400J700040004
#05713:0003J903
#05714:00050052000500JE
#05715:600000J500005J0060000000JD005200
#05718:0000J6006KJB0000
#05719:6K000005000004000000000500005J00
#05801:00
#05801:00
#05801:00
#05801:0004000400000000
#05801:00000505000005050000050500000505
#05801:00
#05801:00
#05801:2P2S2Y352Y352Y2S2Y002C2V00002M00
#05801:2Y353D3L3P3L3D353P00003G00003000
#05801:00
#05801:00
#05801:006Y006Y006Z006Z
#05801:00
#05801:00
#05801:00
#05801:00
#05801:00
#05801:00
#05801:FAFBFC00FD00FEFF00FGFHFI00FJFKFL
#05801:00
#05801:00
#05801:00
#05801:JGJHJIJJJK00JLJMJNJO00JQ0000JSJT
#05811:0100010001000202
#05812:00005M000300005G0000040000000400
#05813:5D61005M5M000300
#05814:5M00005T005T005T0000JP00002C0000
#05815:005G00005M00610000005000JR005A00
#05818:00000069006900006D00005J00500000
#05819:005T00006D0000000000006400005O00
#05901:00
#05901:00
#05901:00
#05901:00
#05901:00000505000000000000050500000505
#05901:00
#05901:00
#05901:1W001W002E0000002E00282E00282000
#05901:2C002C00380000003000002R00002I00
#05901:00
#05901:00
#05901:0070007000700070
#05901:00
#05901:00
#05901:00
#05901:00
#05901:00
#05901:00
#05901:D2D3D400D500D6D700D8D9DA00DBDC00
#05901:00
#05901:00
#05901:00
#05901:J2J3J4J5J600J700J9JAJBJCJD00JEJF
#05911:01010101
#05912:0004000400000004
#05913:JV0000000300000500000400004W0000
#05914:4K004K00000005005200005200004O00
#05915:00000000520000J800004W0003000000
#05916:KX
#05918:50005000000000005O00005F00005600
#05919:005W00JW
#06001:00
#06001:00
#06001:00
#06001:00
#06001:00000505000005050000050500000505
#06001:00
#06001:00
#06001:2500001Y00001N001S001M1X001J1L00
#06001:2F00002B000024002000002A00001N00
#06001:00000000000000000000004L00004900
#06001:00
#06001:0070007000700070
#06001:00
#06001:00
#06001:00
#06001:00
#06001:00
#06001:00
#06001:DDDEDF00DG00DHDI00DJDKDL00DMDNDO
#06001:00
#06001:00
#06001:00
#06001:JGJHJI00JK0000JMJNJOJPJQ0000JSJT
#06011:01010101
#06012:000400JL0004JR00
#06013:JX000300JZ4A004B
#06014:000000JJ00004B004O00000003000000
#06015:4T000000JY004S000000004Y0000K100
#06018:0000004M000000004G00000000470000
#06019:5300004Z00000400000000K000000400
#06101:00
#06101:00
#06101:00
#06101:00
#06101:00
#06101:00
#06101:00
#06101:1V00001Q00001U00
#06101:2700002100002600
#06101:0000004E00004I00
#06101:00
#06101:006Y006Y006Y006Y
#06101:00
#06101:00
#06101:00
#06101:00
#06101:00
#06101:00
#06101:DPDQDR00DS00DTDU00DVDWDX00DYDZ00
#06101:00
#06101:00
#06101:00
#06101:J2J3J4000000J70000JAJB00JD0000JF
#06111:01010101
#06112:0004000400040004
#06113:4JJ6J903
#06114:4V000500000000J800000500K3000500
#06115:000000J500004P00000000050000JE00
#06118:K200000003000005000000004U000000
#06119:0000000500000500000000JC00000005
#06201:00
#06201:00
#06201:00000003
#06201:0000000000000004
#06201:00000505000005050000050500000505
#06201:00
#06201:00
#06201:1O00001T00002A00240020001W1Z2228
#06201:1Y00002500002I002E002A0022282C2H
#06201:00
#06201:00
#06201:006Y006Y006W006W
#06201:00
#06201:00
#06201:00
#06201:0000000000K6K7K8
#06201:00
#06201:00
#06201:E0E1E200E300E4E500E6E7E800E9EAEB
#06201:00
#06201:00
#06201:00
#06201:JGJHJIJJ000000JMJNJO00JQJR00JSJT
#06211:01010101
#06212:000400040004004Q
#06213:K4000000K5004K50
#06214:0000004H0000JL0000004O004Q000000
#06215:4C000000JK0000004S004Y000000004W
#06218:4M00004T00004Y0052000000004N0055
#06219:00000000030056000000JP00004W0000
#06301:00
#06301:00
#06301:00030000
#06301:0000000000000004
#06301:00000505000000000000050500000505
#06301:00
#06301:00
#06301:1P001P002E0000002E00282I002C2A00
#06301:2C002C00380000003000002R00002I00
#06301:4D004D00520000005200005600004Y00
#06301:00
#06301:006X006X006X006X
#06301:00
#06301:00
#06301:00
#06301:K90000KA
#06301:00
#06301:00
#06301:ECEDEE00EF00EGEH00EIEJEK00ELEM00
#06301:00
#06301:00
#06301:00
#06301:J2J3J4J5J600J7J8J9JAJBJCJD00JEJF
#06311:01010101
#06312:12000400000004000000040000500000
#06313:00005000001000000Y0000000300000V
#06314:500000001000000500004W00000W0000
#06315:00001100000005005O00005F00000V00
#06316:KX
#06318:001200005W00000Z00000X000W000000
#06319:0000001100000Z00000Y000X00005600
#06401:00
#06401:00
#06401:00000003
#06401:0004000400040004
#06401:00000505000005050000050500000505
#06401:00
#06401:00
#06401:20001P1Y00002E001M1P1R1W222C2S2Y
#06401:2E00002B00002M001R1W1Z282K2Y3D3Z
#06401:4O000000000000004A4D4F4K4Q505G5M
#06401:00
#06401:006X006X006X006X
#06401:00
#06401:00
#06401:00
#06401:KB000000KC000000KD0000KE0000KF00
#06401:00
#06401:00
#06401:ENEOEP00EQ00ERES00ETEUEV00EWEXEY
#06401:00
#06401:00
#06401:00
#06401:JGJHJIJJJK00JLJMJNJOJPJQJR00JSJT
#06411:01010101
#06412:0U00000T00000R0000000O0000000K00
#06413:000T03000P005861
#06414:5200004M0000520000004N000M00000J
#06415:00004D00000S00004F00004W000L0000
#06416:KX
#06418:000U00000S00000Q004K000N0000006N
#06419:0000004Z00005A00000P0000005M0000
#06501:00
#06501:00
#06501:00
#06501:0000000400000004
#06501:00000505000005050000000000000000
#06501:00
#06501:00
#06501:3C00002E3C00002E
#06501:3W00002V3W00002V
#06501:0000000000000052
#06501:00
#06501:006Y006Y006Y006Y
#06501:00
#06501:00
#06501:00
#06501:KG0000KHKI0000KJ
#06501:00
#06501:00
#06501:FNFOFP00FQ00FRFS00FTFUFV00FWFX00
#06501:00
#06501:00
#06501:00
#06501:J2J3J4J5J600J7J8J9JAJBJCJD000000
#06511:01010101
#06512:0I00030D00040005
#06513:00000G00000052000C00000003000005
#06514:000H00000F0000006000050000000900
#06515:6000000F00005J0000000B000A000009
#06516:KXKX
#06518:00000400000E00006K000005000A0000
#06519:6K0000000000000D000C000B00005J00
#06601:00
#06601:00
#06601:00030003
#06601:0004000400040004
#06601:00000505000005050000050500000505
#06601:0000000600000000000000000000000000000000000007000700070007000700
#06601:00
#06601:003800223000002V00002M0022282C2K
#06601:003S00003M00003G000038002C2J2P2Y
#06601:005O0000
#06601:00
#06601:006Y006Y006Y006Z
#06601:00
#06601:00
#06601:00
#06601:00KK0000KL00KM00KNKOKPKQKRKSKTKU
#06601:00
#06601:00
#06601:FYFZG000G100G2G300G4G5G600G7G8G9
#06611:00010000010000010000020002000200
#06612:0006000000002200000000004Q000000
#06613:000000070000000700070000004W0000
#06614:22000700000007000022000050005000
#06615:005W00000700005J00005A0000570058
#06616:00KY0000KY0000KY0000KY00KY00KY00
#06618:4Q00004Q00004Q00004Q000000005D00
#06619:006G00006A00006400005W000000005M
#06701:00
#06701:00
#06701:00
#06701:0000000400000000
#06701:00000005000005050000050500000505
#06701:00
#06701:00
#06701:2D00000023002L00000000002T0000002L0000002D002T002D002L002U000034
#06701:0000000000002Z0000000000360000002Z0000002L00360000002Z003F00003K
#06701:000000000000000000000000000000000000000000000000000000000000005S
#06701:0000000000000000000000000000000000000000000000000000000000000068
#06701:0070007000700070
#06701:7A007Z797Z0079797L00797L00797E00
#06701:00008600860000007Z00007Z00007L00
#06701:00
#06701:KV
#06701:00
#06701:00
#06701:00
#06701:00
#06701:ZY
#06701:00
#06701:J2J3J4J50000J7J800JAJBJCJD00JEJF
#06711:01010101
#06712:0004030000040004
#06713:2T000500002D00005900000003000000
#06714:51000000J6005H000000510000590000
#06715:00004R00005100005N00590051005I00
#06716:KX
#06718:5H00005900005U000000005H005N0000
#06719:0000005N00000000J900005U00006300
#06801:00
#06801:00
#06801:00
#06801:00
#06801:00000505000005050000050500000505
#06801:00
#06801:00
#06801:3A000032000039002D003T0039002W00
#06801:0000003O00003T002T0043003T003900
#06801:00
#06801:00
#06801:0070007000700070
#06801:79007Z797Z0079797L00797L00797E00
#06801:00008600860000007Z00007Z00007L00
#06801:00
#06801:00
#06801:00
#06801:00
#06801:00
#06801:00
#06801:00
#06801:00
#06801:JGJH00JJJK0000JM00JO00JQJR0000JT
#06811:01010101
#06812:000400JL00JP0004
#06813:3U0003005100035K
#06814:5YJI005X00045X00
#06815:0000005Q000000005H006H0000005X00
#06818:6I00006HJN006H00
#06819:0000006C0000040000006R000000JS00
#06901:00
#06901:00
#06901:00
#06901:0004000000000000
#06901:00000505000005050000000000000505
#06901:00
#06901:00
#06901:2Z36330000002W002O00002X00003900
#06901:3E3Q3J00000000000000003I00000000
#06901:00
#06901:00
#06901:006V006V006V006V
#06901:71007Z717Z0071717L00717L00717E00
#06901:00008600860000007Z00007Z00007L00
#06901:00
#06901:00
#06901:00
#06901:00
#06901:00
#06901:00
#06901:00
#06901:00
#06901:J2J3J4J50000J7J8J9JAJBJCJD00JEJF
#06911:01010101
#06912:5N000000000004000000000500000400
#06913:005R030032040300
#06914:62000000000039005C00005L00003Y00
#06915:0067005K00050000
#06918:005U0000J60000005Q00000000005X00
#06919:006E000000005X000000006600006M00
#07001:00
#07001:00
#07001:00
#07001:00
#07001:00000000000000000000050500000505
#07001:00
#07001:00
#07001:3H000000390000002Z00002T002D2900
#07001:000000003N0000000000003600002Q00
#07001:00
#07001:00
#07001:006W006W006W006W
#07001:73007Z737Z0073737L00737L00737E00
#07001:00008600860000007Z00007Z00007L00
#07001:00
#07001:00
#07001:00
#07001:00
#07001:00
#07001:00
#07001:00
#07001:00
#07001:JGJHJIJJJK00JL00JNJOJPJQ0000JSJT
#07011:01010101
#07012:0004000400040004
#07013:3T000000030000003E002D0000510000
#07014:00000500000005005N00005H00004X00
#07015:650000005X0000JM00005100JR000000
#07018:6H000005000000006200005U00005E00
#07019:000000006B0000050000000003000000
#07101:00
#07101:00
#07101:00
#07101:00
#07101:00000505000005050000050500000505
#07101:00
#07101:00
#07101:2D00000023002L00000000002T0000002L00000000002T002D002L002U000034
#07101:2T00000000002Z0000000000360000002Z0000000000360000002Z003F00003K
#07101:000000000000000000000000000000000000000000000000000000000000005S
#07101:0000000000000000000000000000000000000000000000000000000000000068
#07101:0070007000700070
#07101:79007Z797Z0079797L00797L00797E00
#07101:00008600860000007Z00007Z00007L00
#07101:00
#07101:00
#07101:00
#07101:00
#07101:00
#07101:00
#07101:00
#07101:00
#07101:00J3J4J5J600J7J800JAJBJCJD00JEJF
#07111:01010101
#07112:0004000400040004
#07113:J203J903
#07114:00004R00002D000059002L0000590000
#07115:5100005900005H000000590051005I00
#07118:00000000005100005N00005H005N0000
#07119:5H00005N00005U000000005U00006300
#07201:00
#07201:00
#07201:00000003
#07201:00
#07201:00000505000005050000050500000505
#07201:00
#07201:00
#07201:3A00003200003900000043003T003H00
#07201:0000003O00003T000000000000000000
#07201:00
#07201:00
#07201:0070007000700070
#07201:79007Z797Z0079797L00797L00797E00
#07201:00008600860000007Z00007Z00007L00
#07201:00
#07201:00
#07201:00
#07201:00
#07201:00
#07201:00
#07201:00
#07201:00
#07201:JGJH00JJJK0000JM00JOJPJQJR00JSJT
#07211:01010101
#07212:000400JL00040041
#07213:3U0003005H004565
#07214:5YJI005X00466H00
#07215:0000005Q00000000JN006R0000006P00
#07218:6I00006H2T006T00
#07219:0000006C0000040000006U0000000400
#07301:00
#07301:00
#07301:00
#07301:00
#07301:00000005000005050000050500000505
#07301:00
#07301:00
#07301:3U00003A000031002W002N002W003H00
#07301:0000003U00003H003900310039004100
#07301:00
#07301:00
#07301:006V006V006V006V
#07301:71007Z717Z0071717L00717L00717E00
#07301:00008600860000007Z00007Z00007L00
#07301:00
#07301:00
#07301:00
#07301:00
#07301:00
#07301:00
#07301:00
#07301:00
#07301:J2J3J4J5J60000J800JA00JCJD0000JF
#07311:01010101
#07312:000400J7005B0004
#07313:000003005K0003JE
#07314:4405005P005P5K00
#07315:0000005Y000000005X00JB0000006500
#07318:6I000065J9005X00
#07319:6S00006I000004000000040000006P00
#07401:00
#07401:00
#07401:00000003
#07401:0000000400000004
#07401:00000505000005050000050500000505
#07401:0000000600000000000000000000000000000000000000000000000000000000
#07401:00
#07401:363E3B000000310037002L002Z003Q00
#07401:3Q3X3V0000003N003R002Z003E004000
#07401:5U625Z00000000000000000000000000
#07401:00
#07401:006W006W006Y006Y
#07401:73007Z737Z0073737L00777L00777E00
#07401:00008600860000007Z00007Z00007L00
#07401:00
#07401:00
#07401:00
#07401:00
#07401:00
#07401:00
#07401:00
#07401:00
#07401:JGJHJIJJ0000JLJM00JOJPJQJR00JSJT
#07411:01000700000000000007000000070000
#07412:07000000070007000000000700000007
#07413:0004005PJN000700
#07414:6E0003005V590007
#07415:006J006B005N5N00
#07416:KX
#07418:00060000JK0000006F00000062006E00
#07419:006L0007000000070000040000006O00
#07501:00
#07501:00
#07501:00
#07501:0004000000000000
#07501:00000505000005050000050500000505
#07501:00
#07501:00
#07501:2D00000000002L00000000002T0000002L0000002D002T002D002L002U000034
#07501:2T00000000002Z0000000000360000002Z0000002L00360000002Z003F00003K
#07501:000000000000000000000000000000000000000000000000000000000000005S
#07501:0000000000000000000000000000000000000000000000000000000000000068
#07501:0070007000700070
#07501:7A007Z797Z0079797L00797L00797E00
#07501:00008600860000007Z00007Z00007L00
#07501:00
#07501:00
#07501:00
#07501:00
#07501:00
#07501:00
#07501:00
#07501:00
#07501:00J3J4J5J600J7J800JAJBJCJD00JEJF
#07511:01010101
#07512:0023000400040004
#07513:5103J903
#07514:00004R00002D00005900510000590000
#07515:5H00005900005H000000590051005I00
#07516:KX
#07518:00000000005100005N00005H005N0000
#07519:J200005N00005U000000005U00006300
#07601:00
#07601:00
#07601:00
#07601:00
#07601:00000505000005050000050500000505
#07601:00
#07601:00
#07601:00000032000039002D003T0039002W00
#07601:0000003O00003T002T0043003T003900
#07601:00
#07601:00
#07601:0070007000700070
#07601:79007Z797Z0079797L00797L00797E00
#07601:00008600860000007Z00007Z00007L00
#07601:00
#07601:00
#07601:00
#07601:00
#07601:00
#07601:00
#07601:00
#07601:00
#07601:JGJH00JJJK0000JM00JO00JQJR0000JT
#07611:01010101
#07612:000400JL00JP0004
#07613:3A0003005100035K
#07614:3UJI005X00045X00
#07615:0000005Q000000005H006H0000005X00
#07618:5Y00006HJN006H00
#07619:6I00006C0000040000006R000000JS00
#07701:00
#07701:00
#07701:00
#07701:0004000000000000
#07701:00000505000005050000050500000505
#07701:00
#07701:00
#07701:2Z36330000002W002O00002X00003900
#07701:3E3Q3J00000039003200003I00000000
#07701:00
#07701:00
#07701:006V006V006V006V
#07701:71007Z717Z0071717L00717L00717E00
#07701:00008600860000007Z00007Z00007L00
#07701:00
#07701:00
#07701:00
#07701:00
#07701:00
#07701:00
#07701:00
#07701:00
#07701:J2J3J4J50000J7J800JA00JCJD00JEJF
#07711:01010101
#07712:5N00000000040004
#07713:005R0004J9000300
#07714:620003005CJB003Y
#07715:0000670000005K000000005L00000000
#07718:005U0000J60000005Q00000000005X00
#07719:006E000000005X000000006600006M00
#07801:00
#07801:00
#07801:00
#07801:00
#07801:00000000000000000000050500000505
#07801:00
#07801:00
#07801:3H000000390000002Z002D2T002D2900
#07801:000000003N0000003E00003600002Q00
#07801:00
#07801:00
#07801:006W006W006W006W
#07801:73007Z737Z0073737L00737L00737E00
#07801:00008600860000007Z00007Z00007L00
#07801:00
#07801:00
#07801:00
#07801:00
#07801:00
#07801:00
#07801:00
#07801:00
#07801:JGJH00JJJK0000JM00JOJPJQ0000JSJT
#07811:01000000010000000100000100000100
#07812:00000400000004005N00000000510000
#07813:3T005XJL00040004
#07814:000005006B0000006200005H00004X00
#07815:65JI00050051JR00
#07818:6H00000003000000JN00005U00005E00
#07819:00000005000000050000000003000000
#07901:00
#07901:00
#07901:00000003
#07901:0004000400040004
#07901:00000505000005050000050500000505
#07901:00
#07901:00
#07901:2D00000023002L0000002D002T0000002L0000002L002T002D002L002U000034
#07901:2T00000000002Z0000000000360000002Z0000000000360000002Z003F00003K
#07901:0000000000005900000000005H0000005900000000005H00000059005I00005S
#07901:0000000000000000000000000000000000000000000000000000000000000068
#07901:0070007000700070
#07901:79007Z797Z0079797L00797L00797E00
#07901:00008600860000007Z00007Z00007L00
#07901:00
#07901:00
#07901:00
#07901:00
#07901:00
#07901:00
#07901:00
#07901:00
#07901:J2J3J4J5J600J7J8J9JAJBJCJD00JEJF
#07911:0202020002020202
#07912:5100000003000200000Y00000W000000
#07913:00004R000000000Z00000X0000000V00
#07914:5H000011005100000Y00000051006300
#07915:0012000010000Z0000005900000W0000
#07916:KX
#07918:00001100001000005N00000X0000000V
#07919:1200005N00005U000000005U005N0000
#08001:00
#08001:00
#08001:00000003
#08001:0004000400040004
#08001:00000505000005050000050500000505
#08001:00
#08001:00
#08001:3A000032000039002T0043003T003H00
#08001:3U00003O00003T000000460045004100
#08001:00000000006R6H65
#08001:00
#08001:0070007000700070
#08001:79007Z797Z0079797L00797L00797E00
#08001:00008600860000007Z00007Z00007L00
#08001:00
#08001:00
#08001:00
#08001:00
#08001:00
#08001:00
#08001:00
#08001:00
#08001:JGJHJIJJJK00JLJMJNJOJPJQJR00JSJT
#08011:0200020202000202
#08012:0U00000T00000R000000020000000K00
#08013:00000200000S00005H0000000M000000
#08014:000U00000S00000Q00000O0000006P00
#08015:5Y00005Q00005X00000P00006T000000
#08016:KX
#08018:00000T00030000000P00000N0000000J
#08019:6I00006C00006H0000006U00000L0000
#08101:00
#08101:00
#08101:00030003
#08101:0004000400040004
#08101:00000505000005050000050500000505
#08101:00
#08101:00
#08101:3U00003A000031002W002N002W003H00
#08101:4400003U00003H003900310039004100
#08101:6I00005Y00005P005K005B005K006500
#08101:6S00006I000065005X005P005X006P00
#08101:006V006V006V006V
#08101:71007Z717Z0071717L00717L00717E00
#08101:00008600860000007Z00007Z00007L00
#08101:00
#08101:00
#08101:00
#08101:00
#08101:00
#08101:00
#08101:00
#08101:00
#08101:J2J3J4J5J600J7J8J9JAJBJCJD00JEJF
#08111:0202000002000000
#08112:0I00020200020200
#08113:000G0F000C0B0002
#08114:0002000000000D00000200000A000900
#08115:00000002000200000000000200020000
#08116:KXKX
#08118:000H000F00000002000C000B00000002
#08119:00000000000E000D00000000000A0009
#08201:01
#08201:00
#08201:00030003
#08201:0004000400040004
#08201:00000505000005050000050500000505
#08201:00
#08201:00
#08201:363E3B0000002W003T00003T00003T00
#08201:3Q3X3V0000003H004100004200004300
#08201:5U625Z0000005K006H00006H00006H00
#08201:6E6L6J00000065006P00006Q00006R00
#08201:006W006W006Y006Y
#08201:73007Z737Z0073737L00777L00777E00
#08201:00008600860000007Z00007Z00007L00
#08201:00
#08201:00
#08201:00
#08201:00
#08201:00
#08201:00
#08201:00
#08201:00
#08201:JGJHJIJJJK00JLJMJNJOJPJQJR00JSJT
#08211:0808
#08212:000800000000080000000000000800000000080000000000
#08213:000008000000000800000000000008000000000800000000
#08214:000000080000000008000000000000080000000008000000
#08215:000000000800000000080000000000000800000000080000
#08216:KX
#08218:000000000008000000000800000000000008000000000800
#08219:000000000000000000000008000000000000000000000008
#08301:00
#08301:00
#08301:00
#08301:00
#08301:00
#08301:00
#08301:1900151B000000000000000000000000
#08301:00
#08301:00
#08301:00
#08301:00
#08301:0070007000700070
#08301:00
#08301:00
#08301:00
#08301:00
#08301:00
#08301:00
#08301:00000000GB00GCGD00GEGFGG00GHGI00
#08301:00
#08301:00
#08301:00
#08301:J2J3J4J50000J700J900JBJCJD00JE00
#08311:00010101
#08312:0000000400040004
#08313:00000000030000001500001500150000
#08314:00000000001500050000050003000005
#08315:00000000000005000019000500000500
#08316:00KX0000
#08318:00000000J60000J8000000001B0000JF
#08319:0000000000001D0000JA000000001D00
#08401:00
#08401:00
#08401:00
#08401:00
#08401:00
#08401:00
#08401:00
#08401:00
#08401:00
#08401:00
#08401:00
#08401:0070007000700070
#08401:00
#08401:00
#08401:00
#08401:00
#08401:00
#08401:00
#08401:GJGKGL00GM00GNGO00GPGQGR00GSGTGU
#08401:00
#08401:00
#08401:00
#08401:00JHJIJJJK00JLJM00JOJPJQJR00JSJT
#08411:01010101
#08412:0004000400040004
#08413:JG000000030000050000000003000000
#08414:0000150000000500JN00000500000500
#08415:1900001B000000150000150000150000
#08418:00000500001500001H00001F00000005
#08419:0000000500001D000000050000001D00
#08501:00
#08501:00
#08501:00
#08501:00
#08501:00
#08501:00
#08501:00
#08501:00
#08501:00
#08501:00
#08501:00
#08501:0070007000700070
#08501:00
#08501:00
#08501:00
#08501:00
#08501:00
#08501:00
#08501:GVGWGX00GY00GZH000H1H2H300H4H500
#08501:00
#08501:00
#08501:00
#08501:00J3J4J5J600J7J8J900JBJCJD00JEJF
#08511:01010101
#08512:0004000400040004
#08513:J20000050000000500JA000003000000
#08514:00001500001500001500001500000500
#08515:1900001B000005000000050000150000
#08518:0000000003000000001900001B000005
#08519:0000050000001D000000000500001D00
#08601:00
#08601:00
#08601:00
#08601:00
#08601:00
#08601:00
#08601:00
#08601:00
#08601:00
#08601:00
#08601:00
#08601:0070007000700070
#08601:00
#08601:00
#08601:00
#08601:00
#08601:00
#08601:00
#08601:H6H7H800H900HAHB00HCHDHE00HFHGHH
#08601:00
#08601:00
#08601:00
#08601:00JHJIJJJK00JLJM00JOJPJQJR00JSJT
#08611:01010101
#08612:0004000400040004
#08613:JG000000030000150000000003000000
#08614:00000500000005001700000500000500
#08615:19000005000000050000150000150000
#08618:0000150000150000JN00001B00000005
#08619:0000001B00001D000000050000001D00
#08701:00
#08701:00
#08701:00
#08701:00
#08701:00000505000005050000050500000505
#08701:00
#08701:00
#08701:00
#08701:00
#08701:00
#08701:00
#08701:0070007000700070
#08701:00
#08701:00
#08701:00
#08701:00
#08701:00
#08701:00
#08701:HIHJHK00HL00HMHN00HOHPHQ00HRHS00
#08701:00
#08701:00
#08701:00
#08701:00J3J4J5J600J7J800JAJB00JD00JEJF
#08711:1211000Z00000W00
#08712:00000400001000000Y00000X00000V00
#08713:J200001100000400000Y000003000000
#08714:000015000015000015000X001B000400
#08715:190000000300000Z0019001500001D00
#08716:KX
#08718:0000001B00001D000000040000150000
#08719:0012000010000000J90000JC000W000V
#08801:00
#08801:00
#08801:00
#08801:00
#08801:00000505000005050000050500000505
#08801:00
#08801:00
#08801:00
#08801:00
#08801:00
#08801:00
#08801:0070007000700070
#08801:00
#08801:00
#08801:00
#08801:00
#08801:00
#08801:00
#08801:HTHUHV00HW00HXHY00HZI0I100I2I3I4
#08801:00
#08801:00
#08801:00
#08801:00JHJIJJJK00JLJMJNJOJPJQJR00JSJT
#08811:0U000T000S00000Q00000000000L0000
#08812:00040004000O0004
#08813:19000000030000000P00000N00150000
#08814:00001500000S0015000015000300000J
#08815:JG00000T00000R00000P001F00000K00
#08818:000U0000001500001H0000000M000000
#08819:0000001B00001D000000040000001D00
#08901:00
#08901:00
#08901:00
#08901:0000000000000004
#08901:00000505000005050000050500000505
#08901:00
#08901:00
#08901:00
#08901:00
#08901:00
#08901:00
#08901:0070007000700070
#08901:00
#08901:00
#08901:00
#08901:00
#08901:00
#08901:00
#08901:I5I6I700I800I9IA00IBICID00IEIF00
#08901:00
#08901:00
#08901:00
#08901:00J3J4J50000J7J8J9JA00JCJD00JEJF
#08911:0I000G0000000D0000000B00000A0000
#08912:00040F000C000A00
#08913:J20000000300000D0000040000000900
#08914:00001500000E00001500000B00150000
#08915:000H0000J60004000000JB0003000009
#08918:1900001B00150000000C001500001D00
#08919:0000000F00001D00001900001B000000
#09001:00
#09001:0000000000000004
#09001:00
#09001:00
#09001:00000505000005050000050500000505
#09001:0000000600000000000000000000000000000000000000000000000000000000
#09001:00
#09001:00
#09001:00
#09001:00
#09001:00
#09001:0070007000700070
#09001:00
#09001:00
#09001:00
#09001:00
#09001:00
#09001:00
#09001:IGIHII00IJ00IKIL00IMINIO00IPIQIR
#09001:00
#09001:00
#09001:00
#09001:00JHJIJJ0000JLJM0000JPJQJR00JS00
#09011:07000707JN000007
#09012:JG0700040015031D
#09013:0004030017000700
#09014:19000000JK001D0000000400000000JT
#09015:000015000000001500JO000000150000
#09016:KX
#09018:00060007001500000007000700000007
#09019:0000001B000000070000001B00070000
#09116:KX
