3049 lines
68 KiB
Plaintext
3049 lines
68 KiB
Plaintext
|
|
*---------------------- HEADER FIELD
|
|
|
|
#PLAYER 1
|
|
#GENRE Immiscible
|
|
#TITLE Amethyst Moon
|
|
#ARTIST Rethisly
|
|
#BPM 165
|
|
#PLAYLEVEL 31
|
|
#RANK 3
|
|
|
|
#SUBTITLE [6K]
|
|
#SUBARTIST BGA:‚é‚Á‚©‚é‚© / OBJ: rainy
|
|
#STAGEFILE _stagefile.png
|
|
|
|
#DIFFICULTY 5
|
|
#TOTAL 833
|
|
#LNOBJ ZZ
|
|
|
|
#WAV01 b_kick1_v100l16o5c.wav
|
|
#WAV02 b_kick2_v100l16o5c.wav
|
|
#WAV03 b_clap_v100l16o5c.wav
|
|
#WAV04 b_openhh_v100l16o5c.wav
|
|
#WAV05 b_closehh_v100l16o5c.wav
|
|
#WAV06 b_snare_v100l32o5c.wav
|
|
#WAV07 b_snare_v100l16o5c.wav
|
|
#WAV08 b_snare_v97l24o5c.wav
|
|
#WAV09 b_snare_v97l16o5c.wav
|
|
#WAV0A b_snare_v96l16o5c.wav
|
|
#WAV0B b_snare_v95l16o5c.wav
|
|
#WAV0C b_snare_v94l16o5c.wav
|
|
#WAV0D b_snare_v93l16o5c.wav
|
|
#WAV0E b_snare_v92l16o5c.wav
|
|
#WAV0F b_snare_v91l16o5c.wav
|
|
#WAV0G b_snare_v90l16o5c.wav
|
|
#WAV0H b_snare_v88l16o5c.wav
|
|
#WAV0I b_snare_v87l16o5c.wav
|
|
#WAV0J b_snare_v85l16o5c.wav
|
|
#WAV0K b_snare_v84l16o5c.wav
|
|
#WAV0L b_snare_v82l16o5c.wav
|
|
#WAV0M b_snare_v81l16o5c.wav
|
|
#WAV0N b_snare_v80l16o5c.wav
|
|
#WAV0O b_snare_v79l16o5c.wav
|
|
#WAV0P b_snare_v78l16o5c.wav
|
|
#WAV0Q b_snare_v77l16o5c.wav
|
|
#WAV0R b_snare_v76l16o5c.wav
|
|
#WAV0S b_snare_v75l16o5c.wav
|
|
#WAV0T b_snare_v74l16o5c.wav
|
|
#WAV0U b_snare_v73l16o5c.wav
|
|
#WAV0V b_snare_v72l16o5c.wav
|
|
#WAV0W b_snare_v71l16o5c.wav
|
|
#WAV0X b_snare_v70l16o5c.wav
|
|
#WAV0Y b_snare_v68l16o5c.wav
|
|
#WAV0Z b_snare_v67l16o5c.wav
|
|
#WAV10 b_snare_v66l16o5c.wav
|
|
#WAV11 b_snare_v65l16o5c.wav
|
|
#WAV12 b_snare_v64l16o5c.wav
|
|
#WAV13 b_square_v100l192-11o4a.wav
|
|
#WAV14 b_square_v100l192-11o4b.wav
|
|
#WAV15 b_square_v100l128-7o5cp.wav
|
|
#WAV16 b_square_v100l192-11o5cp.wav
|
|
#WAV17 b_square_v100l128-7o5fp.wav
|
|
#WAV18 b_square_v100l192-11o5fp.wav
|
|
#WAV19 b_square_v100l128-7o5gp.wav
|
|
#WAV1A b_square_v100l192-11o5gp.wav
|
|
#WAV1B b_square_v100l128-7o5b.wav
|
|
#WAV1C b_square_v100l192-11o5b.wav
|
|
#WAV1D b_square_v100l128-7o6cp.wav
|
|
#WAV1E b_square_v100l192-11o6cp.wav
|
|
#WAV1F b_square_v100l128-7o6dp.wav
|
|
#WAV1G b_square_v100l192-11o6dp.wav
|
|
#WAV1H b_square_v100l128-7o6e.wav
|
|
#WAV1I b_square_v100l192-11o6e.wav
|
|
#WAV1J b_lead1_v100l96-5o4cp.wav
|
|
#WAV1K b_lead1_v100l96-11o4dp.wav
|
|
#WAV1L b_lead1_v100l96-11o4e.wav
|
|
#WAV1M b_lead1_v100l96-5o4gp.wav
|
|
#WAV1N b_lead1_v100l96-11o4gp.wav
|
|
#WAV1O b_lead1_v100l96-17o4gp.wav
|
|
#WAV1P b_lead1_v100l96-5o4a.wav
|
|
#WAV1Q b_lead1_v100l96-35o4a.wav
|
|
#WAV1R b_lead1_v100l96-5o4b.wav
|
|
#WAV1S b_lead1_v100l96-11o4b.wav
|
|
#WAV1T b_lead1_v100l96-17o4b.wav
|
|
#WAV1U b_lead1_v100l96-23o4b.wav
|
|
#WAV1V b_lead1_v100l96-35o4b.wav
|
|
#WAV1W b_lead1_v100l96-5o5cp.wav
|
|
#WAV1X b_lead1_v100l96-11o5cp.wav
|
|
#WAV1Y b_lead1_v100l96-17o5cp.wav
|
|
#WAV1Z b_lead1_v100l96-5o5dp.wav
|
|
#WAV20 b_lead1_v100l96-11o5dp.wav
|
|
#WAV21 b_lead1_v100l96-35o5dp.wav
|
|
#WAV22 b_lead1_v100l96-5o5e.wav
|
|
#WAV23 b_lead1_v100l192-11o5e.wav
|
|
#WAV24 b_lead1_v100l96-11o5e.wav
|
|
#WAV25 b_lead1_v100l96-17o5e.wav
|
|
#WAV26 b_lead1_v100l96-23o5e.wav
|
|
#WAV27 b_lead1_v100l96-35o5e.wav
|
|
#WAV28 b_lead1_v100l96-5o5fp.wav
|
|
#WAV29 b_lead1_v100l192-11o5fp.wav
|
|
#WAV2A b_lead1_v100l96-11o5fp.wav
|
|
#WAV2B b_lead1_v100l96-17o5fp.wav
|
|
#WAV2C b_lead1_v100l96-5o5gp.wav
|
|
#WAV2D b_lead1_v100l192-11o5gp.wav
|
|
#WAV2E b_lead1_v100l96-11o5gp.wav
|
|
#WAV2F b_lead1_v100l96-17o5gp.wav
|
|
#WAV2G b_lead1_v100l96-35o5gp.wav
|
|
#WAV2H b_lead1_v100l96-5o5a.wav
|
|
#WAV2I b_lead1_v100l96-11o5a.wav
|
|
#WAV2J b_lead1_v100l96-5o5ap.wav
|
|
#WAV2K b_lead1_v100l96-5o5b.wav
|
|
#WAV2L b_lead1_v100l192-11o5b.wav
|
|
#WAV2M b_lead1_v100l96-11o5b.wav
|
|
#WAV2N b_lead1_v100l192-23o5b.wav
|
|
#WAV2O b_lead1_v100l192-35o5b.wav
|
|
#WAV2P b_lead1_v100l96-5o6c.wav
|
|
#WAV2Q b_lead1_v100l192-11o6c.wav
|
|
#WAV2R b_lead1_v100l96-11o6c.wav
|
|
#WAV2S b_lead1_v100l96-5o6cp.wav
|
|
#WAV2T b_lead1_v100l192-11o6cp.wav
|
|
#WAV2U b_lead1_v100l192-17o6cp.wav
|
|
#WAV2V b_lead1_v100l96-11o6cp.wav
|
|
#WAV2W b_lead1_v100l192-23o6cp.wav
|
|
#WAV2X b_lead1_v100l192-35o6cp.wav
|
|
#WAV2Y b_lead1_v100l96-5o6dp.wav
|
|
#WAV2Z b_lead1_v100l192-11o6dp.wav
|
|
#WAV30 b_lead1_v100l96-11o6dp.wav
|
|
#WAV31 b_lead1_v100l192-23o6dp.wav
|
|
#WAV32 b_lead1_v100l192-35o6dp.wav
|
|
#WAV33 b_lead1_v100l192-47o6dp.wav
|
|
#WAV34 b_lead1_v100l192-5o6e.wav
|
|
#WAV35 b_lead1_v100l96-5o6e.wav
|
|
#WAV36 b_lead1_v100l192-11o6e.wav
|
|
#WAV37 b_lead1_v100l192-17o6e.wav
|
|
#WAV38 b_lead1_v100l96-11o6e.wav
|
|
#WAV39 b_lead1_v100l192-23o6e.wav
|
|
#WAV3A b_lead1_v100l192-35o6e.wav
|
|
#WAV3B b_lead1_v100l192-47o6e.wav
|
|
#WAV3C b_lead1_v100l96-35o6e.wav
|
|
#WAV3D b_lead1_v100l96-5o6fp.wav
|
|
#WAV3E b_lead1_v100l192-11o6fp.wav
|
|
#WAV3F b_lead1_v100l192-17o6fp.wav
|
|
#WAV3G b_lead1_v100l96-11o6fp.wav
|
|
#WAV3H b_lead1_v100l192-23o6fp.wav
|
|
#WAV3I b_lead1_v100l192-35o6fp.wav
|
|
#WAV3J b_lead1_v100l192-47o6fp.wav
|
|
#WAV3K b_lead1_v100l192-5o6g.wav
|
|
#WAV3L b_lead1_v100l96-5o6g.wav
|
|
#WAV3M b_lead1_v100l96-11o6g.wav
|
|
#WAV3N b_lead1_v100l192-23o6g.wav
|
|
#WAV3O b_lead1_v100l192-35o6g.wav
|
|
#WAV3P b_lead1_v100l96-5o6gp.wav
|
|
#WAV3Q b_lead1_v100l192-11o6gp.wav
|
|
#WAV3R b_lead1_v100l192-17o6gp.wav
|
|
#WAV3S b_lead1_v100l96-11o6gp.wav
|
|
#WAV3T b_lead1_v100l192-23o6gp.wav
|
|
#WAV3U b_lead1_v100l192-35o6gp.wav
|
|
#WAV3V b_lead1_v100l192-47o6gp.wav
|
|
#WAV3W b_lead1_v100l96-35o6gp.wav
|
|
#WAV3X b_lead1_v100l192-11o6a.wav
|
|
#WAV3Y b_lead1_v100l192-23o6a.wav
|
|
#WAV3Z b_lead1_v100l96-5o6b.wav
|
|
#WAV40 b_lead1_v100l192-11o6b.wav
|
|
#WAV41 b_lead1_v100l192-23o6b.wav
|
|
#WAV42 b_lead1_v100l192-23o7c.wav
|
|
#WAV43 b_lead1_v100l192-23o7cp.wav
|
|
#WAV44 b_lead1_v100l192-35o7cp.wav
|
|
#WAV45 b_lead1_v100l192-23o7dp.wav
|
|
#WAV46 b_lead1_v100l192-23o7e.wav
|
|
#WAV47 b_lead2_v100l96-5o4cp.wav
|
|
#WAV48 b_lead2_v100l96-11o4dp.wav
|
|
#WAV49 b_lead2_v100l96-11o4e.wav
|
|
#WAV4A b_lead2_v100l96-5o4gp.wav
|
|
#WAV4B b_lead2_v100l96-11o4gp.wav
|
|
#WAV4C b_lead2_v100l96-17o4gp.wav
|
|
#WAV4D b_lead2_v100l96-5o4a.wav
|
|
#WAV4E b_lead2_v100l96-35o4a.wav
|
|
#WAV4F b_lead2_v100l96-5o4b.wav
|
|
#WAV4G b_lead2_v100l96-11o4b.wav
|
|
#WAV4H b_lead2_v100l96-17o4b.wav
|
|
#WAV4I b_lead2_v100l96-23o4b.wav
|
|
#WAV4J b_lead2_v100l96-35o4b.wav
|
|
#WAV4K b_lead2_v100l96-5o5cp.wav
|
|
#WAV4L b_lead2_v100l96-11o5cp.wav
|
|
#WAV4M b_lead2_v100l96-17o5cp.wav
|
|
#WAV4N b_lead2_v100l96-5o5dp.wav
|
|
#WAV4O b_lead2_v100l96-11o5dp.wav
|
|
#WAV4P b_lead2_v100l96-35o5dp.wav
|
|
#WAV4Q b_lead2_v100l96-5o5e.wav
|
|
#WAV4R b_lead2_v100l192-11o5e.wav
|
|
#WAV4S b_lead2_v100l96-11o5e.wav
|
|
#WAV4T b_lead2_v100l96-17o5e.wav
|
|
#WAV4U b_lead2_v100l96-23o5e.wav
|
|
#WAV4V b_lead2_v100l96-35o5e.wav
|
|
#WAV4W b_lead2_v100l96-5o5fp.wav
|
|
#WAV4X b_lead2_v100l192-11o5fp.wav
|
|
#WAV4Y b_lead2_v100l96-11o5fp.wav
|
|
#WAV4Z b_lead2_v100l96-17o5fp.wav
|
|
#WAV50 b_lead2_v100l96-5o5gp.wav
|
|
#WAV51 b_lead2_v100l192-11o5gp.wav
|
|
#WAV52 b_lead2_v100l96-11o5gp.wav
|
|
#WAV53 b_lead2_v100l96-17o5gp.wav
|
|
#WAV54 b_lead2_v100l96-35o5gp.wav
|
|
#WAV55 b_lead2_v100l96-5o5a.wav
|
|
#WAV56 b_lead2_v100l96-11o5a.wav
|
|
#WAV57 b_lead2_v100l96-5o5ap.wav
|
|
#WAV58 b_lead2_v100l96-5o5b.wav
|
|
#WAV59 b_lead2_v100l192-11o5b.wav
|
|
#WAV5A b_lead2_v100l96-11o5b.wav
|
|
#WAV5B b_lead2_v100l192-23o5b.wav
|
|
#WAV5C b_lead2_v100l192-35o5b.wav
|
|
#WAV5D b_lead2_v100l96-5o6c.wav
|
|
#WAV5E b_lead2_v100l192-11o6c.wav
|
|
#WAV5F b_lead2_v100l96-11o6c.wav
|
|
#WAV5G b_lead2_v100l96-5o6cp.wav
|
|
#WAV5H b_lead2_v100l192-11o6cp.wav
|
|
#WAV5I b_lead2_v100l192-17o6cp.wav
|
|
#WAV5J b_lead2_v100l96-11o6cp.wav
|
|
#WAV5K b_lead2_v100l192-23o6cp.wav
|
|
#WAV5L b_lead2_v100l192-35o6cp.wav
|
|
#WAV5M b_lead2_v100l96-5o6dp.wav
|
|
#WAV5N b_lead2_v100l192-11o6dp.wav
|
|
#WAV5O b_lead2_v100l96-11o6dp.wav
|
|
#WAV5P b_lead2_v100l192-23o6dp.wav
|
|
#WAV5Q b_lead2_v100l192-35o6dp.wav
|
|
#WAV5R b_lead2_v100l192-47o6dp.wav
|
|
#WAV5S b_lead2_v100l192-5o6e.wav
|
|
#WAV5T b_lead2_v100l96-5o6e.wav
|
|
#WAV5U b_lead2_v100l192-11o6e.wav
|
|
#WAV5V b_lead2_v100l192-17o6e.wav
|
|
#WAV5W b_lead2_v100l96-11o6e.wav
|
|
#WAV5X b_lead2_v100l192-23o6e.wav
|
|
#WAV5Y b_lead2_v100l192-35o6e.wav
|
|
#WAV5Z b_lead2_v100l192-47o6e.wav
|
|
#WAV60 b_lead2_v100l96-35o6e.wav
|
|
#WAV61 b_lead2_v100l96-5o6fp.wav
|
|
#WAV62 b_lead2_v100l192-11o6fp.wav
|
|
#WAV63 b_lead2_v100l192-17o6fp.wav
|
|
#WAV64 b_lead2_v100l96-11o6fp.wav
|
|
#WAV65 b_lead2_v100l192-23o6fp.wav
|
|
#WAV66 b_lead2_v100l192-35o6fp.wav
|
|
#WAV67 b_lead2_v100l192-47o6fp.wav
|
|
#WAV68 b_lead2_v100l192-5o6g.wav
|
|
#WAV69 b_lead2_v100l96-5o6g.wav
|
|
#WAV6A b_lead2_v100l96-11o6g.wav
|
|
#WAV6B b_lead2_v100l192-23o6g.wav
|
|
#WAV6C b_lead2_v100l192-35o6g.wav
|
|
#WAV6D b_lead2_v100l96-5o6gp.wav
|
|
#WAV6E b_lead2_v100l192-11o6gp.wav
|
|
#WAV6F b_lead2_v100l192-17o6gp.wav
|
|
#WAV6G b_lead2_v100l96-11o6gp.wav
|
|
#WAV6H b_lead2_v100l192-23o6gp.wav
|
|
#WAV6I b_lead2_v100l192-35o6gp.wav
|
|
#WAV6J b_lead2_v100l192-47o6gp.wav
|
|
#WAV6K b_lead2_v100l96-35o6gp.wav
|
|
#WAV6L b_lead2_v100l192-11o6a.wav
|
|
#WAV6M b_lead2_v100l192-23o6a.wav
|
|
#WAV6N b_lead2_v100l96-5o6b.wav
|
|
#WAV6O b_lead2_v100l192-11o6b.wav
|
|
#WAV6P b_lead2_v100l192-23o6b.wav
|
|
#WAV6Q b_lead2_v100l192-23o7c.wav
|
|
#WAV6R b_lead2_v100l192-23o7cp.wav
|
|
#WAV6S b_lead2_v100l192-35o7cp.wav
|
|
#WAV6T b_lead2_v100l192-23o7dp.wav
|
|
#WAV6U b_lead2_v100l192-23o7e.wav
|
|
#WAV6V b_bass_v100l8o3fp.wav
|
|
#WAV6W b_bass_v100l8o3gp.wav
|
|
#WAV6X b_bass_v100l8o3a.wav
|
|
#WAV6Y b_bass_v100l8o3b.wav
|
|
#WAV6Z b_bass_v100l8o4c.wav
|
|
#WAV70 b_bass_v100l8o4cp.wav
|
|
#WAV71 b_piano1_v78l128-7o4fp.wav
|
|
#WAV72 b_piano1_v100l16o4gp.wav
|
|
#WAV73 b_piano1_v83l128-7o4gp.wav
|
|
#WAV74 b_piano1_v83l128-7o4a.wav
|
|
#WAV75 b_piano1_v100l16o4b.wav
|
|
#WAV76 b_piano1_v100l4o4b.wav
|
|
#WAV77 b_piano1_v83l128-7o4b.wav
|
|
#WAV78 b_piano1_v100l4o5c.wav
|
|
#WAV79 b_piano1_v83l128-7o5cp.wav
|
|
#WAV7A b_piano1_v78l128-7o5cp.wav
|
|
#WAV7B b_piano1_v100l16o5dp.wav
|
|
#WAV7C b_piano1_v100l8o5dp.wav
|
|
#WAV7D b_piano1_v100l4o5dp.wav
|
|
#WAV7E b_piano1_v100l128-7o5e.wav
|
|
#WAV7F b_piano1_v100l8o5e.wav
|
|
#WAV7G b_piano1_v100l4-3o5e.wav
|
|
#WAV7H b_piano1_v100l16o5fp.wav
|
|
#WAV7I b_piano1_v100l8o5fp.wav
|
|
#WAV7J b_piano1_v100l4o5fp.wav
|
|
#WAV7K b_piano1_v100l8-3o5fp.wav
|
|
#WAV7L b_piano1_v100l128-7o5gp.wav
|
|
#WAV7M b_piano1_v100l16o5gp.wav
|
|
#WAV7N b_piano1_v100l8o5gp.wav
|
|
#WAV7O b_piano1_v100l16-3o5gp.wav
|
|
#WAV7P b_piano1_v100l4o5gp.wav
|
|
#WAV7Q b_piano1_v100l8-3o5gp.wav
|
|
#WAV7R b_piano1_v100l2-3o5gp.wav
|
|
#WAV7S b_piano1_v100l16o5b.wav
|
|
#WAV7T b_piano1_v100l8o5b.wav
|
|
#WAV7U b_piano1_v100l32-5o5b.wav
|
|
#WAV7V b_piano1_v100l16-3o5b.wav
|
|
#WAV7W b_piano1_v100l4o5b.wav
|
|
#WAV7X b_piano1_v100l4-3o5b.wav
|
|
#WAV7Y b_piano1_v100l16-3o6c.wav
|
|
#WAV7Z b_piano1_v100l128-7o6cp.wav
|
|
#WAV80 b_piano1_v100l16-3o6cp.wav
|
|
#WAV81 b_piano1_v100l32o6dp.wav
|
|
#WAV82 b_piano1_v100l16o6dp.wav
|
|
#WAV83 b_piano1_v100l8o6dp.wav
|
|
#WAV84 b_piano1_v100l4o6dp.wav
|
|
#WAV85 b_piano1_v100l32-15o6dp.wav
|
|
#WAV86 b_piano1_v100l128-7o6e.wav
|
|
#WAV87 b_piano1_v100l8o6e.wav
|
|
#WAV88 b_piano1_v100l4-3o6e.wav
|
|
#WAV89 b_piano1_v100l32o6fp.wav
|
|
#WAV8A b_piano1_v100l16o6fp.wav
|
|
#WAV8B b_piano1_v100l8o6fp.wav
|
|
#WAV8C b_piano1_v100l4o6fp.wav
|
|
#WAV8D b_piano1_v100l2o6fp.wav
|
|
#WAV8E b_piano1_v100l32o6gp.wav
|
|
#WAV8F b_piano1_v100l8o6gp.wav
|
|
#WAV8G b_piano1_v100l16-3o6gp.wav
|
|
#WAV8H b_piano1_v100l16-7o6gp.wav
|
|
#WAV8I b_piano1_v100l4-3o6gp.wav
|
|
#WAV8J b_piano1_v100l16-3o6b.wav
|
|
#WAV8K b_lead3_v100l8o5cp.wav
|
|
#WAV8L b_lead3_v100l8o5dp.wav
|
|
#WAV8M b_lead3_v100l16o5e.wav
|
|
#WAV8N b_lead3_v100l16o5fp.wav
|
|
#WAV8O b_lead3_v100l32-3o5fp.wav
|
|
#WAV8P b_lead3_v100l96-17o5fp.wav
|
|
#WAV8Q b_lead3_v100l16o5gp.wav
|
|
#WAV8R b_lead3_v100l32-3o5gp.wav
|
|
#WAV8S b_lead3_v100l8-3o5gp.wav
|
|
#WAV8T b_lead3_v100l16o5b.wav
|
|
#WAV8U b_lead3_v100l8o5b.wav
|
|
#WAV8V b_lead3_v100l8o6cp.wav
|
|
#WAV8W b_lead3_v100l16o6dp.wav
|
|
#WAV8X b_lead3_v100l8o6dp.wav
|
|
#WAV8Y b_lead3_v100l16o6e.wav
|
|
#WAV8Z b_lead3_v100l8o6e.wav
|
|
#WAV91 b_lead3_v100l16-15o6e.wav
|
|
#WAV92 b_lead3_v100l8o6fp.wav
|
|
#WAV93 b_lead3_v100l96-17o6fp.wav
|
|
#WAV94 b_lead3_v100l8o6gp.wav
|
|
#WAV95 b_lead3_v100l8-3o6gp.wav
|
|
#WAV96 b_lead3_v100l8o6b.wav
|
|
#WAV97 b_piano2_v100l16o4gp.wav
|
|
#WAV98 b_piano2_v100l16o4b.wav
|
|
#WAV99 b_piano2_v100l4o4b.wav
|
|
#WAV9A b_piano2_v100l4o5c.wav
|
|
#WAV9B b_piano2_v100l16o5dp.wav
|
|
#WAV9C b_piano2_v100l8o5dp.wav
|
|
#WAV9D b_piano2_v100l4o5dp.wav
|
|
#WAV9E b_piano2_v100l8o5e.wav
|
|
#WAV9F b_piano2_v100l4-3o5e.wav
|
|
#WAV9G b_piano2_v100l16o5fp.wav
|
|
#WAV9H b_piano2_v100l8o5fp.wav
|
|
#WAV9I b_piano2_v100l4o5fp.wav
|
|
#WAV9J b_piano2_v100l8-3o5fp.wav
|
|
#WAV9K b_piano2_v100l16o5gp.wav
|
|
#WAV9L b_piano2_v100l8o5gp.wav
|
|
#WAV9M b_piano2_v100l16-3o5gp.wav
|
|
#WAV9N b_piano2_v100l4o5gp.wav
|
|
#WAV9O b_piano2_v100l8-3o5gp.wav
|
|
#WAV9P b_piano2_v100l2-3o5gp.wav
|
|
#WAV9Q b_piano2_v100l16o5b.wav
|
|
#WAV9R b_piano2_v100l8o5b.wav
|
|
#WAV9S b_piano2_v100l32-5o5b.wav
|
|
#WAV9T b_piano2_v100l16-3o5b.wav
|
|
#WAV9U b_piano2_v100l4o5b.wav
|
|
#WAV9V b_piano2_v100l4-3o5b.wav
|
|
#WAV9W b_piano2_v100l16-3o6c.wav
|
|
#WAV9X b_piano2_v100l16-3o6cp.wav
|
|
#WAV9Y b_piano2_v100l32o6dp.wav
|
|
#WAV9Z b_piano2_v100l16o6dp.wav
|
|
#WAVA0 b_piano2_v100l8o6dp.wav
|
|
#WAVA1 b_piano2_v100l4o6dp.wav
|
|
#WAVA2 b_piano2_v100l32-15o6dp.wav
|
|
#WAVA3 b_piano2_v100l8o6e.wav
|
|
#WAVA4 b_piano2_v100l4-3o6e.wav
|
|
#WAVA5 b_piano2_v100l32o6fp.wav
|
|
#WAVA6 b_piano2_v100l16o6fp.wav
|
|
#WAVA7 b_piano2_v100l8o6fp.wav
|
|
#WAVA8 b_piano2_v100l4o6fp.wav
|
|
#WAVA9 b_piano2_v100l2o6fp.wav
|
|
#WAVAA b_piano2_v100l32o6gp.wav
|
|
#WAVAB b_piano2_v100l8o6gp.wav
|
|
#WAVAC b_piano2_v100l16-3o6gp.wav
|
|
#WAVAD b_piano2_v100l16-7o6gp.wav
|
|
#WAVAE b_piano2_v100l4-3o6gp.wav
|
|
#WAVAF b_piano2_v100l16-3o6b.wav
|
|
#WAVAH acid_break_000.wav
|
|
#WAVAI acid_break_001.wav
|
|
#WAVAJ acid_break_002.wav
|
|
#WAVAK acid_break_003.wav
|
|
#WAVAL acid_break_004.wav
|
|
#WAVAM acid_break_005.wav
|
|
#WAVAN acid_break_006.wav
|
|
#WAVAO acid_break_007.wav
|
|
#WAVAP acid_break_008.wav
|
|
#WAVAQ acid_break_009.wav
|
|
#WAVAR acid_break_010.wav
|
|
#WAVAS acid_break_011.wav
|
|
#WAVAT acid_break_012.wav
|
|
#WAVAU acid_break_013.wav
|
|
#WAVAV acid_break_014.wav
|
|
#WAVAW acid_break_015.wav
|
|
#WAVAX acid_break_016.wav
|
|
#WAVAY acid_break_017.wav
|
|
#WAVAZ acid_break_018.wav
|
|
#WAVB0 acid_break_019.wav
|
|
#WAVB1 acid_break_020.wav
|
|
#WAVB2 acid_break_021.wav
|
|
#WAVB3 acid_break_022.wav
|
|
#WAVB4 acid_break_023.wav
|
|
#WAVB5 acid_break_024.wav
|
|
#WAVB6 acid_break_025.wav
|
|
#WAVB7 acid_break_026.wav
|
|
#WAVB8 acid_break_027.wav
|
|
#WAVB9 acid_break_028.wav
|
|
#WAVBA acid_break_029.wav
|
|
#WAVBB acid_break_030.wav
|
|
#WAVBC acid_break_031.wav
|
|
#WAVBD acid_break_032.wav
|
|
#WAVBE acid_break_033.wav
|
|
#WAVBF acid_break_034.wav
|
|
#WAVBG acid_break_035.wav
|
|
#WAVBH acid_break_036.wav
|
|
#WAVBI acid_break_037.wav
|
|
#WAVBJ acid_break_038.wav
|
|
#WAVBK acid_break_039.wav
|
|
#WAVBL acid_break_040.wav
|
|
#WAVBM acid_break_041.wav
|
|
#WAVBN acid_break_042.wav
|
|
#WAVBO acid_break_043.wav
|
|
#WAVBP acid_break_044.wav
|
|
#WAVBQ acid_break_045.wav
|
|
#WAVBR acid_break_046.wav
|
|
#WAVBS acid_break_047.wav
|
|
#WAVBT acid_break_048.wav
|
|
#WAVBU acid_break_049.wav
|
|
#WAVBV acid_break_050.wav
|
|
#WAVBW acid_break_051.wav
|
|
#WAVBX acid_break_052.wav
|
|
#WAVBY acid_break_053.wav
|
|
#WAVBZ acid_break_054.wav
|
|
#WAVC0 acid_break_055.wav
|
|
#WAVC1 acid_break_056.wav
|
|
#WAVC2 acid_break_057.wav
|
|
#WAVC3 acid_break_058.wav
|
|
#WAVC4 acid_break_059.wav
|
|
#WAVC5 acid_break_060.wav
|
|
#WAVC6 acid_break_061.wav
|
|
#WAVC7 acid_break_062.wav
|
|
#WAVC8 acid_break_063.wav
|
|
#WAVC9 acid_break_064.wav
|
|
#WAVCA acid_break_065.wav
|
|
#WAVCB acid_break_066.wav
|
|
#WAVCC acid_break_067.wav
|
|
#WAVCD acid_break_068.wav
|
|
#WAVCE acid_break_069.wav
|
|
#WAVCF acid_break_070.wav
|
|
#WAVCG acid_break_071.wav
|
|
#WAVCH acid_break_072.wav
|
|
#WAVCI acid_break_073.wav
|
|
#WAVCJ acid_break_074.wav
|
|
#WAVCK acid_break_075.wav
|
|
#WAVCL acid_break_076.wav
|
|
#WAVCM acid_break_077.wav
|
|
#WAVCN acid_break_078.wav
|
|
#WAVCO acid_break_079.wav
|
|
#WAVCP acid_break_080.wav
|
|
#WAVCQ acid_break_081.wav
|
|
#WAVCR acid_break_082.wav
|
|
#WAVCS acid_break_083.wav
|
|
#WAVCT acid_break_084.wav
|
|
#WAVCU acid_break_085.wav
|
|
#WAVCV acid_break_086.wav
|
|
#WAVCW acid_break_087.wav
|
|
#WAVCX acid_break_088.wav
|
|
#WAVCY acid_break_089.wav
|
|
#WAVCZ acid_break_090.wav
|
|
#WAVD0 acid_break_091.wav
|
|
#WAVD2 acid_main_000.wav
|
|
#WAVD3 acid_main_001.wav
|
|
#WAVD4 acid_main_002.wav
|
|
#WAVD5 acid_main_003.wav
|
|
#WAVD6 acid_main_004.wav
|
|
#WAVD7 acid_main_005.wav
|
|
#WAVD8 acid_main_006.wav
|
|
#WAVD9 acid_main_007.wav
|
|
#WAVDA acid_main_008.wav
|
|
#WAVDB acid_main_009.wav
|
|
#WAVDC acid_main_010.wav
|
|
#WAVDD acid_main_011.wav
|
|
#WAVDE acid_main_012.wav
|
|
#WAVDF acid_main_013.wav
|
|
#WAVDG acid_main_014.wav
|
|
#WAVDH acid_main_015.wav
|
|
#WAVDI acid_main_016.wav
|
|
#WAVDJ acid_main_017.wav
|
|
#WAVDK acid_main_018.wav
|
|
#WAVDL acid_main_019.wav
|
|
#WAVDM acid_main_020.wav
|
|
#WAVDN acid_main_021.wav
|
|
#WAVDO acid_main_022.wav
|
|
#WAVDP acid_main_023.wav
|
|
#WAVDQ acid_main_024.wav
|
|
#WAVDR acid_main_025.wav
|
|
#WAVDS acid_main_026.wav
|
|
#WAVDT acid_main_027.wav
|
|
#WAVDU acid_main_028.wav
|
|
#WAVDV acid_main_029.wav
|
|
#WAVDW acid_main_030.wav
|
|
#WAVDX acid_main_031.wav
|
|
#WAVDY acid_main_032.wav
|
|
#WAVDZ acid_main_033.wav
|
|
#WAVE0 acid_main_034.wav
|
|
#WAVE1 acid_main_035.wav
|
|
#WAVE2 acid_main_036.wav
|
|
#WAVE3 acid_main_037.wav
|
|
#WAVE4 acid_main_038.wav
|
|
#WAVE5 acid_main_039.wav
|
|
#WAVE6 acid_main_040.wav
|
|
#WAVE7 acid_main_041.wav
|
|
#WAVE8 acid_main_042.wav
|
|
#WAVE9 acid_main_043.wav
|
|
#WAVEA acid_main_044.wav
|
|
#WAVEB acid_main_045.wav
|
|
#WAVEC acid_main_046.wav
|
|
#WAVED acid_main_047.wav
|
|
#WAVEE acid_main_048.wav
|
|
#WAVEF acid_main_049.wav
|
|
#WAVEG acid_main_050.wav
|
|
#WAVEH acid_main_051.wav
|
|
#WAVEI acid_main_052.wav
|
|
#WAVEJ acid_main_053.wav
|
|
#WAVEK acid_main_054.wav
|
|
#WAVEL acid_main_055.wav
|
|
#WAVEM acid_main_056.wav
|
|
#WAVEN acid_main_057.wav
|
|
#WAVEO acid_main_058.wav
|
|
#WAVEP acid_main_059.wav
|
|
#WAVEQ acid_main_060.wav
|
|
#WAVER acid_main_061.wav
|
|
#WAVES acid_main_062.wav
|
|
#WAVET acid_main_063.wav
|
|
#WAVEU acid_main_064.wav
|
|
#WAVEV acid_main_065.wav
|
|
#WAVEW acid_main_066.wav
|
|
#WAVEX acid_main_067.wav
|
|
#WAVEY acid_main_068.wav
|
|
#WAVEZ acid_main_069.wav
|
|
#WAVF0 acid_main_070.wav
|
|
#WAVF1 acid_main_071.wav
|
|
#WAVF2 acid_main_072.wav
|
|
#WAVF3 acid_main_073.wav
|
|
#WAVF4 acid_main_074.wav
|
|
#WAVF5 acid_main_075.wav
|
|
#WAVF6 acid_main_076.wav
|
|
#WAVF7 acid_main_077.wav
|
|
#WAVF8 acid_main_078.wav
|
|
#WAVF9 acid_main_079.wav
|
|
#WAVFA acid_main_080.wav
|
|
#WAVFB acid_main_081.wav
|
|
#WAVFC acid_main_082.wav
|
|
#WAVFD acid_main_083.wav
|
|
#WAVFE acid_main_084.wav
|
|
#WAVFF acid_main_085.wav
|
|
#WAVFG acid_main_086.wav
|
|
#WAVFH acid_main_087.wav
|
|
#WAVFI acid_main_088.wav
|
|
#WAVFJ acid_main_089.wav
|
|
#WAVFK acid_main_090.wav
|
|
#WAVFL acid_main_091.wav
|
|
#WAVFN acid_main_093.wav
|
|
#WAVFO acid_main_094.wav
|
|
#WAVFP acid_main_095.wav
|
|
#WAVFQ acid_main_096.wav
|
|
#WAVFR acid_main_097.wav
|
|
#WAVFS acid_main_098.wav
|
|
#WAVFT acid_main_099.wav
|
|
#WAVFU acid_main_100.wav
|
|
#WAVFV acid_main_101.wav
|
|
#WAVFW acid_main_102.wav
|
|
#WAVFX acid_main_103.wav
|
|
#WAVFY acid_main_104.wav
|
|
#WAVFZ acid_main_105.wav
|
|
#WAVG0 acid_main_106.wav
|
|
#WAVG1 acid_main_107.wav
|
|
#WAVG2 acid_main_108.wav
|
|
#WAVG3 acid_main_109.wav
|
|
#WAVG4 acid_main_110.wav
|
|
#WAVG5 acid_main_111.wav
|
|
#WAVG6 acid_main_112.wav
|
|
#WAVG7 acid_main_113.wav
|
|
#WAVG8 acid_main_114.wav
|
|
#WAVG9 acid_main_115.wav
|
|
#WAVGB acid_outro_000.wav
|
|
#WAVGC acid_outro_001.wav
|
|
#WAVGD acid_outro_002.wav
|
|
#WAVGE acid_outro_003.wav
|
|
#WAVGF acid_outro_004.wav
|
|
#WAVGG acid_outro_005.wav
|
|
#WAVGH acid_outro_006.wav
|
|
#WAVGI acid_outro_007.wav
|
|
#WAVGJ acid_outro_008.wav
|
|
#WAVGK acid_outro_009.wav
|
|
#WAVGL acid_outro_010.wav
|
|
#WAVGM acid_outro_011.wav
|
|
#WAVGN acid_outro_012.wav
|
|
#WAVGO acid_outro_013.wav
|
|
#WAVGP acid_outro_014.wav
|
|
#WAVGQ acid_outro_015.wav
|
|
#WAVGR acid_outro_016.wav
|
|
#WAVGS acid_outro_017.wav
|
|
#WAVGT acid_outro_018.wav
|
|
#WAVGU acid_outro_019.wav
|
|
#WAVGV acid_outro_020.wav
|
|
#WAVGW acid_outro_021.wav
|
|
#WAVGX acid_outro_022.wav
|
|
#WAVGY acid_outro_023.wav
|
|
#WAVGZ acid_outro_024.wav
|
|
#WAVH0 acid_outro_025.wav
|
|
#WAVH1 acid_outro_026.wav
|
|
#WAVH2 acid_outro_027.wav
|
|
#WAVH3 acid_outro_028.wav
|
|
#WAVH4 acid_outro_029.wav
|
|
#WAVH5 acid_outro_030.wav
|
|
#WAVH6 acid_outro_031.wav
|
|
#WAVH7 acid_outro_032.wav
|
|
#WAVH8 acid_outro_033.wav
|
|
#WAVH9 acid_outro_034.wav
|
|
#WAVHA acid_outro_035.wav
|
|
#WAVHB acid_outro_036.wav
|
|
#WAVHC acid_outro_037.wav
|
|
#WAVHD acid_outro_038.wav
|
|
#WAVHE acid_outro_039.wav
|
|
#WAVHF acid_outro_040.wav
|
|
#WAVHG acid_outro_041.wav
|
|
#WAVHH acid_outro_042.wav
|
|
#WAVHI acid_outro_043.wav
|
|
#WAVHJ acid_outro_044.wav
|
|
#WAVHK acid_outro_045.wav
|
|
#WAVHL acid_outro_046.wav
|
|
#WAVHM acid_outro_047.wav
|
|
#WAVHN acid_outro_048.wav
|
|
#WAVHO acid_outro_049.wav
|
|
#WAVHP acid_outro_050.wav
|
|
#WAVHQ acid_outro_051.wav
|
|
#WAVHR acid_outro_052.wav
|
|
#WAVHS acid_outro_053.wav
|
|
#WAVHT acid_outro_054.wav
|
|
#WAVHU acid_outro_055.wav
|
|
#WAVHV acid_outro_056.wav
|
|
#WAVHW acid_outro_057.wav
|
|
#WAVHX acid_outro_058.wav
|
|
#WAVHY acid_outro_059.wav
|
|
#WAVHZ acid_outro_060.wav
|
|
#WAVI0 acid_outro_061.wav
|
|
#WAVI1 acid_outro_062.wav
|
|
#WAVI2 acid_outro_063.wav
|
|
#WAVI3 acid_outro_064.wav
|
|
#WAVI4 acid_outro_065.wav
|
|
#WAVI5 acid_outro_066.wav
|
|
#WAVI6 acid_outro_067.wav
|
|
#WAVI7 acid_outro_068.wav
|
|
#WAVI8 acid_outro_069.wav
|
|
#WAVI9 acid_outro_070.wav
|
|
#WAVIA acid_outro_071.wav
|
|
#WAVIB acid_outro_072.wav
|
|
#WAVIC acid_outro_073.wav
|
|
#WAVID acid_outro_074.wav
|
|
#WAVIE acid_outro_075.wav
|
|
#WAVIF acid_outro_076.wav
|
|
#WAVIG acid_outro_077.wav
|
|
#WAVIH acid_outro_078.wav
|
|
#WAVII acid_outro_079.wav
|
|
#WAVIJ acid_outro_080.wav
|
|
#WAVIK acid_outro_081.wav
|
|
#WAVIL acid_outro_082.wav
|
|
#WAVIM acid_outro_083.wav
|
|
#WAVIN acid_outro_084.wav
|
|
#WAVIO acid_outro_085.wav
|
|
#WAVIP acid_outro_086.wav
|
|
#WAVIQ acid_outro_087.wav
|
|
#WAVIR acid_outro_088.wav
|
|
#WAVIT fill_000.wav
|
|
#WAVIU fill_001.wav
|
|
#WAVIV fill_002.wav
|
|
#WAVIW fill_003.wav
|
|
#WAVIX fill_004.wav
|
|
#WAVIY fill_005.wav
|
|
#WAVIZ fill_006.wav
|
|
#WAVJ0 fill_007.wav
|
|
#WAVJ1 fill_008.wav
|
|
#WAVJ2 hhroop_000.wav
|
|
#WAVJ3 hhroop_001.wav
|
|
#WAVJ4 hhroop_002.wav
|
|
#WAVJ5 hhroop_003.wav
|
|
#WAVJ6 hhroop_004.wav
|
|
#WAVJ7 hhroop_005.wav
|
|
#WAVJ8 hhroop_006.wav
|
|
#WAVJ9 hhroop_007.wav
|
|
#WAVJA hhroop_008.wav
|
|
#WAVJB hhroop_009.wav
|
|
#WAVJC hhroop_010.wav
|
|
#WAVJD hhroop_011.wav
|
|
#WAVJE hhroop_012.wav
|
|
#WAVJF hhroop_013.wav
|
|
#WAVJG hhroop_014.wav
|
|
#WAVJH hhroop_015.wav
|
|
#WAVJI hhroop_016.wav
|
|
#WAVJJ hhroop_017.wav
|
|
#WAVJK hhroop_018.wav
|
|
#WAVJL hhroop_019.wav
|
|
#WAVJM hhroop_020.wav
|
|
#WAVJN hhroop_021.wav
|
|
#WAVJO hhroop_022.wav
|
|
#WAVJP hhroop_023.wav
|
|
#WAVJQ hhroop_024.wav
|
|
#WAVJR hhroop_025.wav
|
|
#WAVJS hhroop_026.wav
|
|
#WAVJT hhroop_027.wav
|
|
#WAVJV guitar_000.wav
|
|
#WAVJW guitar_001.wav
|
|
#WAVJX guitar_002.wav
|
|
#WAVJY guitar_003.wav
|
|
#WAVJZ guitar_004.wav
|
|
#WAVK0 guitar_005.wav
|
|
#WAVK1 guitar_006.wav
|
|
#WAVK2 guitar_007.wav
|
|
#WAVK3 guitar_008.wav
|
|
#WAVK4 guitar_009.wav
|
|
#WAVK5 guitar_010.wav
|
|
#WAVK6 guitar_011.wav
|
|
#WAVK7 guitar_012.wav
|
|
#WAVK8 guitar_013.wav
|
|
#WAVK9 guitar_014.wav
|
|
#WAVKA guitar_015.wav
|
|
#WAVKB guitar_016.wav
|
|
#WAVKC guitar_017.wav
|
|
#WAVKD guitar_018.wav
|
|
#WAVKE guitar_019.wav
|
|
#WAVKF guitar_020.wav
|
|
#WAVKG guitar_021.wav
|
|
#WAVKH guitar_022.wav
|
|
#WAVKI guitar_023.wav
|
|
#WAVKJ guitar_024.wav
|
|
#WAVKK guitar_025.wav
|
|
#WAVKL guitar_026.wav
|
|
#WAVKM guitar_027.wav
|
|
#WAVKN guitar_028.wav
|
|
#WAVKO guitar_029.wav
|
|
#WAVKP guitar_030.wav
|
|
#WAVKQ guitar_031.wav
|
|
#WAVKR guitar_032.wav
|
|
#WAVKS guitar_033.wav
|
|
#WAVKT guitar_034.wav
|
|
#WAVKU guitar_035.wav
|
|
#WAVKV guitar_036.wav
|
|
#WAVKX cymbal.wav
|
|
#WAVKY s_cymbal.wav
|
|
#WAVKZ impact.wav
|
|
#WAVZW BGM1.wav
|
|
#WAVZX BGM2.wav
|
|
#WAVZY BGM3.wav
|
|
#BMP01 _bga.wmv
|
|
|
|
|
|
*---------------------- EXPANSION FIELD
|
|
#6k
|
|
|
|
|
|
*---------------------- MAIN DATA FIELD
|
|
|
|
|
|
#00002:1.25
|
|
#00004:000000000000000000000000000000000000000000000000000000000000000000000000000000000000000000000001000000000000000000000000000000000000000000000000000000000000000000000000000000000000000000000000000000000000000000000000000000000000000000000000000000000000000000000000000000000000000000000000000000000000000000000000000000000000000000000000000000000000000000000000000000000000000000000000000000000000000000000000000000000000000000000000000000000000000000000000000000000000000000000000
|
|
|
|
|
|
#00201:0000IUIV000000000000000000000000
|
|
#00201:00
|
|
#00201:00
|
|
#00201:00
|
|
#00201:00
|
|
#00201:00
|
|
#00201:00
|
|
#00201:00
|
|
#00201:00
|
|
#00201:00
|
|
#00201:00
|
|
#00201:00
|
|
#00201:00
|
|
#00201:00
|
|
#00201:00
|
|
#00201:00
|
|
#00201:00
|
|
#00201:00
|
|
#00201:00
|
|
#00201:00
|
|
#00201:ZW
|
|
#00211:IT00IW00IX0000J0
|
|
#00212:OO00OO0000IY0000
|
|
#00213:000000000000IZOO
|
|
#00215:0000000000000000OO000000000000J1
|
|
#00218:OO00OO0000OO0000
|
|
#00219:OO000000OO00000000000000OO0000OO
|
|
|
|
#00301:00
|
|
#00301:00
|
|
#00301:00
|
|
#00301:00
|
|
#00301:0000000000000005
|
|
#00311:0100150001000500150004JC00007000
|
|
#00312:19000400J60070J8000070000300JE00
|
|
#00313:J20005050015000001000005001500JF
|
|
#00315:00J300000300040000JA00151B000400
|
|
#00318:KX0070J500001D0500190500JD001D00
|
|
#00319:0000J41B0000J700J900JB0001000005
|
|
|
|
#00401:00
|
|
#00401:00
|
|
#00401:00
|
|
#00401:00000000000000JS
|
|
#00411:0100701B001500000100700001OO0000
|
|
#00412:00000505000005150000050003000505
|
|
#00413:00JH000001001D001H001500JR001D00
|
|
#00415:JG0004JJ0000700500JO000500007000
|
|
#00418:0000150003000400JN00041F000004JT
|
|
#00419:1900JI00JK00JLJM0000JPJQ00150000
|
|
|
|
#00501:00
|
|
#00501:00
|
|
#00501:00
|
|
#00501:00000000000000JE
|
|
#00511:0100701B001500000100040500001D00
|
|
#00512:0000050001000500J900000001000505
|
|
#00513:1900150500001D001500051500150000
|
|
#00515:00J30000030070050019700003000000
|
|
#00518:000004J500000400000000JC1B0004JF
|
|
#00519:J200J400J600J7J800JAJB00JD007000
|
|
|
|
#00601:00
|
|
#00601:00
|
|
#00601:00
|
|
#00601:00
|
|
#00601:00
|
|
#00601:00000000000000JS
|
|
#00611:0100011D0115001D
|
|
#00612:00000505000005001700050500000005
|
|
#00613:1900151B0015001500JO001B03007000
|
|
#00615:00JH7000030070JM00007000011500JT
|
|
#00618:00000400JK000405000004JQ00000400
|
|
#00619:JG00JIJJ0000JL00JN00JP00JR000500
|
|
|
|
#00701:00
|
|
#00701:00
|
|
#00701:00
|
|
#00701:00
|
|
#00701:00000000000000JE
|
|
#00711:010070J500001D000100050001001D00
|
|
#00712:00000505000005000019000003000500
|
|
#00713:1900151B00150000150070001B150005
|
|
#00715:000000000100700500JA0015JD007000
|
|
#00718:00J3040003000400J900040500000400
|
|
#00719:J200J400J600J7J80000JBJC000000JF
|
|
|
|
#00801:00
|
|
#00801:00
|
|
#00801:00
|
|
#00801:00000000000000JS
|
|
#00811:0115017001150104
|
|
#00812:00JH00050000050500JO000003000005
|
|
#00813:000005000300001500000500JR000500
|
|
#00815:1900701B00151D001H00700500001D00
|
|
#00818:00000400JK000400JN0004JQ001500JT
|
|
#00819:JG00JIJJ0000JLJM0000JP1F00007000
|
|
|
|
#00901:00
|
|
#00901:00
|
|
#00901:00
|
|
#00901:00000000000000JE
|
|
#00911:0100040001001D050000JB0001001D00
|
|
#00912:00000505000005000100050003000500
|
|
#00913:1900151B001500001500701500150005
|
|
#00915:J200J4J50000700000JA000500000400
|
|
#00918:00700304J9041B70
|
|
#00919:00J30000J600J7J8001900JCJD0000JF
|
|
|
|
#01001:00
|
|
#01001:00
|
|
#01001:00000000000000JS
|
|
#01011:0115011D01JP0170
|
|
#01012:00JH0000030005050000050003000505
|
|
#01013:00000505001500001700151B00001D00
|
|
#01015:1900701B00007000JN007000JR000000
|
|
#01018:00000400JK0004150000040500150400
|
|
#01019:JG00JIJJ0000JLJM00JO00JQ000000JT
|
|
|
|
#01101:00
|
|
#01101:000000000000000000JA000000000005
|
|
#01101:000000000000000000000000000000JF
|
|
#01101:0000000000160000001A000000000000
|
|
#01101:00
|
|
#01101:00J9
|
|
#01101:0000000000000000000000JC00000000
|
|
#01101:00
|
|
#01101:00
|
|
#01101:0000000000000070
|
|
#01101:00
|
|
#01101:0070J60000000000
|
|
#01111:01000479010004050000791601000400
|
|
#01112:J2000505000005000100050003000500
|
|
#01113:91007Z00030079790000000500797E00
|
|
#01115:79J386007Z0070007L00JB7L00167L00
|
|
#01116:OO
|
|
#01118:1A00161C00001EJ8160070001C001E00
|
|
#01119:KX00J4J58600J7007Z00047ZJD00JE00
|
|
|
|
#01201:00
|
|
#01201:00000000000000000000000000000005
|
|
#01201:000000000016000000JO0000000000JT
|
|
#01201:00JK0000
|
|
#01201:000000JJ000000000000000000000000
|
|
#01201:00
|
|
#01201:00
|
|
#01201:00
|
|
#01201:00
|
|
#01201:00
|
|
#01201:00
|
|
#01201:0070007000700070
|
|
#01201:000000000000007L
|
|
#01211:0100048W010004790100047Z01000400
|
|
#01212:00000505030005007Z00050503000500
|
|
#01213:79007Z00000079007L00797L00797E00
|
|
#01215:8YJH860000008T168Q008N008M008T00
|
|
#01218:1A0016797Z001E051I00161G00161E00
|
|
#01219:JG00JI1C8600JLJMJN00JPJQJR00JS00
|
|
|
|
#01301:00
|
|
#01301:000000000000000000000000000000JF
|
|
#01301:00000000001600000000000000000005
|
|
#01301:00
|
|
#01301:00
|
|
#01301:00
|
|
#01301:00
|
|
#01301:00
|
|
#01301:00
|
|
#01301:00
|
|
#01301:00
|
|
#01301:0070007000000070
|
|
#01301:000000000000007L
|
|
#01311:010004790100040001JA040001000400
|
|
#01312:79000505030005057Z00050503000500
|
|
#01313:00J386007Z0079797L00797L00797E00
|
|
#01315:8S007Z0086008U008S1A007Z1C008K00
|
|
#01318:1A00161C00001E001600701600161E00
|
|
#01319:J200J4J5J600J7J8J900JBJCJD00JE00
|
|
|
|
#01401:00000000000000000000000000000005
|
|
#01401:00
|
|
#01401:000000000000000000JO0000000000JT
|
|
#01401:00
|
|
#01401:00
|
|
#01401:00
|
|
#01401:00
|
|
#01401:00
|
|
#01401:00
|
|
#01401:00
|
|
#01401:00
|
|
#01401:0070000000000070
|
|
#01401:000000000000007L
|
|
#01411:0100041C010004790100047Z01000400
|
|
#01412:00000505030005007Z00050500160500
|
|
#01413:79JH7Z007Z0079057L00797L00797E00
|
|
#01415:8O0086008R1670008P00708M00008L00
|
|
#01418:1A00167986001E161800161C03001E00
|
|
#01419:JG00JIJJJK00JLJMJN00JPJQJR00JS00
|
|
|
|
#01501:00
|
|
#01501:00
|
|
#01501:00
|
|
#01501:00
|
|
#01501:00
|
|
#01501:1212111110100Z0Z0Y0Y0X0X0W0W0V0V
|
|
#01501:00
|
|
#01501:00
|
|
#01501:00
|
|
#01501:00
|
|
#01501:00
|
|
#01501:0070007000700070
|
|
#01501:00008600860000007Z00007Z00007L00
|
|
#01511:0104010401040104
|
|
#01512:00000505030005050000050503000505
|
|
#01513:79007Z797Z0079797L00797L00797E00
|
|
#01515:91
|
|
#01518:1A00161C00161E00161A00161C161E00
|
|
#01519:J2J3J4J5J600J7J8J9JAJBJCJD00JEJF
|
|
|
|
#01601:00
|
|
#01601:00
|
|
#01601:00
|
|
#01601:00
|
|
#01601:00
|
|
#01601:0U0U0T0T0S0S0R0Q0P0P0O0N0M0L0K0J
|
|
#01601:00
|
|
#01601:00
|
|
#01601:00
|
|
#01601:00
|
|
#01601:00
|
|
#01601:0070007000700070
|
|
#01601:00008600860000007Z00007Z00007L00
|
|
#01611:0104010401040104
|
|
#01612:00000505030005050000050503000505
|
|
#01613:79007Z797Z0079797L00797L00797E00
|
|
#01615:8Y00008W00008T008Q008N0094009600
|
|
#01618:1A00161C00161E161I00161G00161E00
|
|
#01619:JGJHJIJJJK00JLJMJNJOJPJQJR00JSJT
|
|
|
|
#01701:00
|
|
#01701:00
|
|
#01701:00
|
|
#01701:00
|
|
#01701:00
|
|
#01701:0I0H0G0F0F0E0D0D0C0C0B0B0A0A0909
|
|
#01701:00
|
|
#01701:00
|
|
#01701:00
|
|
#01701:00
|
|
#01701:00
|
|
#01701:006X006X006X006X
|
|
#01701:00008600860000007Z00007Z00007L00
|
|
#01711:0104010401040104
|
|
#01712:00000505030005050000050503000505
|
|
#01713:74007Z747Z0074747L00747L00747E00
|
|
#01715:9500008V9500008Z
|
|
#01718:1A00131C00131E00131A00131C131E00
|
|
#01719:J2J3J4J5J600J7J8J9JAJBJCJD00JEJF
|
|
|
|
#01801:00
|
|
#01801:00
|
|
#01801:00
|
|
#01801:00
|
|
#01801:00
|
|
#01801:00000707070007070000000700070700
|
|
#01801:00
|
|
#01801:00
|
|
#01801:00
|
|
#01801:00
|
|
#01801:00
|
|
#01801:006Y006Y006Y006Y
|
|
#01801:00008600860000007Z00007Z00007L00
|
|
#01811:0100JI007Z000077JN00JP00JR007E00
|
|
#01812:KX00140000140000180014000700JSJT
|
|
#01813:77007Z77000077007L00777L00000007
|
|
#01815:9200000600001C00000000001E0000009300000000008Y00000000008X000000
|
|
#01818:1A0600JJ9400JL140007001C00141E00
|
|
#01819:JGJH0000JK0000JM00JO00JQ00770000
|
|
|
|
#01901:00
|
|
#01901:00
|
|
#01901:00
|
|
#01901:0004000400040004
|
|
#01901:00
|
|
#01901:00
|
|
#01901:00
|
|
#01901:00
|
|
#01901:00
|
|
#01901:00
|
|
#01901:00
|
|
#01901:0070007000700070
|
|
#01901:00
|
|
#01901:00008600860000007Z00007Z00007L00
|
|
#01911:01010101
|
|
#01912:2T00000023002Z0000002D00360000002Z0000002L0036002D002Z003F00003K
|
|
#01913:5H0000004R005N00000051005U0000005N00000059005U0051005N0063000068
|
|
#01915:J2007Z797Z0079797L00797L00797E00
|
|
#01916:OO
|
|
#01918:KXJ3J4J5J600J7J8J9JAJBJCJD00JEJF
|
|
#01919:7A000505030005050000050503000505
|
|
|
|
#02001:00
|
|
#02001:00
|
|
#02001:00
|
|
#02001:0004000400040004
|
|
#02001:00
|
|
#02001:00
|
|
#02001:00
|
|
#02001:00
|
|
#02001:00
|
|
#02001:00
|
|
#02001:00
|
|
#02001:0070007000700070
|
|
#02001:00
|
|
#02001:00008600860000007Z00007Z00007L00
|
|
#02011:01010101
|
|
#02012:3U000505030005050000050503000505
|
|
#02013:6I00003O00003T002T0043003T003900
|
|
#02015:7900006C00006H005H006R006H005X00
|
|
#02018:JG007Z797Z0079797L00797L00797E00
|
|
#02019:00JHJIJJJK00JLJMJNJOJPJQJR00JSJT
|
|
|
|
#02101:00
|
|
#02101:00
|
|
#02101:00
|
|
#02101:0004000400040004
|
|
#02101:00
|
|
#02101:00
|
|
#02101:00
|
|
#02101:00
|
|
#02101:00
|
|
#02101:00
|
|
#02101:00
|
|
#02101:006V006V006V006V
|
|
#02101:00
|
|
#02101:00008600860000007Z00007Z00007L00
|
|
#02111:01010101
|
|
#02112:00000505030005050000050503000505
|
|
#02113:3E3Q3J00000039003200003I00003Y00
|
|
#02115:626E670000005X005Q00006600006M00
|
|
#02118:71007Z717Z0071717L00717L00717E00
|
|
#02119:J2J3J4J5J600J7J8J9JAJBJCJD00JEJF
|
|
|
|
#02201:00
|
|
#02201:00
|
|
#02201:00
|
|
#02201:0004000400040004
|
|
#02201:00
|
|
#02201:00
|
|
#02201:00
|
|
#02201:00
|
|
#02201:00
|
|
#02201:00
|
|
#02201:00
|
|
#02201:006W006W006W006W
|
|
#02201:00
|
|
#02201:00008600860000007Z00007Z00007L00
|
|
#02211:01010101
|
|
#02212:00000505030005050000050503000505
|
|
#02213:3T0000003N0000003E002D36002D2Q00
|
|
#02215:6H0000006B0000006200515U00515E00
|
|
#02218:73007Z737Z0073737L00737L00737E00
|
|
#02219:JGJHJIJJJK00JLJMJNJOJPJQJR00JSJT
|
|
|
|
#02301:00
|
|
#02301:00
|
|
#02301:00
|
|
#02301:0004000400040004
|
|
#02301:00
|
|
#02301:00
|
|
#02301:00
|
|
#02301:00
|
|
#02301:00
|
|
#02301:00
|
|
#02301:00
|
|
#02301:0070007000700070
|
|
#02301:00
|
|
#02301:00008600860000007Z00007Z00007L00
|
|
#02311:01010101
|
|
#02312:00000505030005050000050503000505
|
|
#02313:2T00000023002Z0000002D00360000002Z0000002L0036002D002Z003F00003K
|
|
#02315:5H0000004R005N00000051005U0000005N00000059005U0051005N0063000068
|
|
#02318:79007Z797Z0079797L00797L00797E00
|
|
#02319:J2J3J4J5J600J7J8J9JAJBJCJD00JEJF
|
|
|
|
#02401:00
|
|
#02401:00
|
|
#02401:00
|
|
#02401:0004000400040004
|
|
#02401:00
|
|
#02401:00
|
|
#02401:00
|
|
#02401:00
|
|
#02401:00
|
|
#02401:00
|
|
#02401:00
|
|
#02401:0070007000700070
|
|
#02401:00
|
|
#02401:00008600860000007Z00007Z00007L00
|
|
#02411:01010101
|
|
#02412:00000505030005050000050503000505
|
|
#02413:3U00003O00003T002T00460045004100
|
|
#02415:6I00006C00006H005H006U006T006P00
|
|
#02418:79007Z797Z0079797L00797L00797E00
|
|
#02419:JGJHJIJJJK00JLJMJNJOJPJQJR00JSJT
|
|
|
|
#02501:00
|
|
#02501:00
|
|
#02501:00
|
|
#02501:0004000400040004
|
|
#02501:00
|
|
#02501:00
|
|
#02501:00
|
|
#02501:00
|
|
#02501:00
|
|
#02501:00
|
|
#02501:00
|
|
#02501:006V006V006V006V
|
|
#02501:00
|
|
#02501:00008600860000007Z00007Z00007L00
|
|
#02511:01010101
|
|
#02512:00000505030005050000050503000505
|
|
#02513:4400003U00003H003900310039004100
|
|
#02515:6S00006I000065005X005P005X006P00
|
|
#02518:71007Z717Z0071717L00717L00717E00
|
|
#02519:J2J3J4J5J600J7J8J9JAJBJCJD00JEJF
|
|
|
|
#02601:00
|
|
#02601:00
|
|
#02601:00
|
|
#02601:0004000400040004
|
|
#02601:00
|
|
#02601:0000060607000700070000000700070000000700000007000700070007000700
|
|
#02601:00
|
|
#02601:00
|
|
#02601:00
|
|
#02601:00
|
|
#02601:00
|
|
#02601:006W006W006Y006Y
|
|
#02601:00
|
|
#02601:00008600860000007Z00007Z00007L00
|
|
#02601:00
|
|
#02601:00
|
|
#02601:00
|
|
#02601:00
|
|
#02601:00
|
|
#02601:00
|
|
#02601:00
|
|
#02601:00
|
|
#02601:00
|
|
#02601:00
|
|
#02601:00
|
|
#02601:KX
|
|
#02611:01
|
|
#02612:00000505030005050000050503000505
|
|
#02613:3Q3X3V0000003N003T002Z003E004000
|
|
#02615:6E6L6J0000006B006H005N0062006O00
|
|
#02618:73007Z737Z0073737L00777L00777E00
|
|
#02619:JGJHJIJJJK00JLJMJNJOJPJQJR00JSJT
|
|
|
|
#02701:00
|
|
#02701:00
|
|
#02701:00
|
|
#02701:0004000400040004
|
|
#02701:00
|
|
#02701:00
|
|
#02701:00
|
|
#02701:00
|
|
#02701:2T00000000002Z0000000000360000002Z0000002L00360000002Z003F00003K
|
|
#02701:00
|
|
#02701:5H00000000005N00000000005U0000005N00000059005U0000005N0063000068
|
|
#02701:0070007000700070
|
|
#02701:00
|
|
#02701:00008600860000007Z00007Z00007L00
|
|
#02701:00
|
|
#02701:00
|
|
#02701:00
|
|
#02701:00
|
|
#02701:00
|
|
#02701:00
|
|
#02701:00
|
|
#02701:00
|
|
#02701:00
|
|
#02701:00
|
|
#02701:00
|
|
#02701:KX
|
|
#02711:01010101
|
|
#02712:00000505030005050000050503000505
|
|
#02713:2D00000023002L0000002D002T0000002L0000002D002T002D002L002U000034
|
|
#02715:510000004R005900000051005H0000005900000051005H00510059005I00005S
|
|
#02718:7A007Z797Z0079797L00797L00797E00
|
|
#02719:J2J3J4J5J600J7J8J9JAJBJCJD00JEJF
|
|
|
|
#02801:00
|
|
#02801:00
|
|
#02801:00
|
|
#02801:0004000400040004
|
|
#02801:00
|
|
#02801:00
|
|
#02801:00
|
|
#02801:00
|
|
#02801:3U00003O00003T002T0043003T003900
|
|
#02801:00
|
|
#02801:6I00006C00006H005H006R006H005X00
|
|
#02801:0070007000700070
|
|
#02801:00
|
|
#02801:00008600860000007Z00007Z00007L00
|
|
#02811:01010101
|
|
#02812:00000505030005050000050503000505
|
|
#02813:3A000032000039002D003T0039002W00
|
|
#02815:5Y00005Q00005X0051006H005X005K00
|
|
#02818:79007Z797Z0079797L00797L00797E00
|
|
#02819:JGJHJIJJJK00JLJMJNJOJPJQJR00JSJT
|
|
|
|
#02901:00
|
|
#02901:00
|
|
#02901:00
|
|
#02901:0004000400040004
|
|
#02901:00
|
|
#02901:00
|
|
#02901:00
|
|
#02901:00
|
|
#02901:3E3Q3J00000039003200003I00003Y00
|
|
#02901:00
|
|
#02901:626E670000005X005Q00006600006M00
|
|
#02901:006V006V006V006V
|
|
#02901:00
|
|
#02901:00008600860000007Z00007Z00007L00
|
|
#02911:01010101
|
|
#02912:00000505030005050000050503000505
|
|
#02913:2Z36330000002W002O00002X00003900
|
|
#02915:5N5U5R0000005K005C00005L00005X00
|
|
#02918:71007Z717Z0071717L00717L00717E00
|
|
#02919:J2J3J4J5J600J7J8J9JAJBJCJD00JEJF
|
|
|
|
#03001:00
|
|
#03001:00
|
|
#03001:00
|
|
#03001:0004000400040004
|
|
#03001:00
|
|
#03001:00
|
|
#03001:00
|
|
#03001:00
|
|
#03001:3T0000003N0000003E00003600002Q00
|
|
#03001:00
|
|
#03001:6H0000006B0000006200005U00005E00
|
|
#03001:006W006W006W006W
|
|
#03001:00
|
|
#03001:00008600860000007Z00007Z00007L00
|
|
#03011:01000000010000000100000100000100
|
|
#03012:00000505030005050000050503000505
|
|
#03013:3H000000390000002Z002D2T002D2900
|
|
#03015:650000005X0000005N00515H00514X00
|
|
#03018:73007Z737Z0073737L00737L00737E00
|
|
#03019:JGJHJIJJJK00JLJMJNJOJPJQJR00JSJT
|
|
|
|
#03101:00
|
|
#03101:00
|
|
#03101:00
|
|
#03101:0004000400040004
|
|
#03101:00
|
|
#03101:1212111110100Z0Z0Y0Y0X0X0W0W0V0V
|
|
#03101:00
|
|
#03101:00
|
|
#03101:2T00000000002Z0000000000360000002Z0000000000360000002Z003F00003K
|
|
#03101:00
|
|
#03101:5H00000000005N00000000005U0000005N00000000005U0000005N0063000068
|
|
#03101:0070007000700070
|
|
#03101:00
|
|
#03101:00008600860000007Z00007Z00007L00
|
|
#03101:00
|
|
#03101:00
|
|
#03101:00
|
|
#03101:00
|
|
#03101:00
|
|
#03101:00
|
|
#03101:00
|
|
#03101:00
|
|
#03101:00
|
|
#03101:00
|
|
#03101:00
|
|
#03101:KX
|
|
#03111:0202020202020202
|
|
#03112:00000505030005050000050503000505
|
|
#03113:2D00000023002L0000002D002T0000002L0000002L002T002D002L002U000034
|
|
#03115:510000004R005900000051005H0000005900000059005H00510059005I00005S
|
|
#03118:79007Z797Z0079797L00797L00797E00
|
|
#03119:J2J3J4J5J600J7J8J9JAJBJCJD00JEJF
|
|
|
|
#03201:00
|
|
#03201:00
|
|
#03201:00
|
|
#03201:0004000400040004
|
|
#03201:00
|
|
#03201:0U0U0T0T0S0S0R0Q0P0P0O0N0M0L0K0J
|
|
#03201:00
|
|
#03201:00
|
|
#03201:3U00003O00003T000000460045004100
|
|
#03201:00
|
|
#03201:6I00006C00006H0000006U006T006P00
|
|
#03201:0070007000700070
|
|
#03201:00
|
|
#03201:00008600860000007Z00007Z00007L00
|
|
#03201:00
|
|
#03201:00
|
|
#03201:00
|
|
#03201:00
|
|
#03201:00
|
|
#03201:00
|
|
#03201:00
|
|
#03201:00
|
|
#03201:00
|
|
#03201:00
|
|
#03201:00
|
|
#03201:KX
|
|
#03211:0202020202020202
|
|
#03212:00000505030005050000050503000505
|
|
#03213:3A000032000039002T0043003T003H00
|
|
#03215:5Y00005Q00005X005H006R006H006500
|
|
#03218:79007Z797Z0079797L00797L00797E00
|
|
#03219:JGJHJIJJJK00JLJMJNJOJPJQJR00JSJT
|
|
|
|
#03301:00
|
|
#03301:00
|
|
#03301:00
|
|
#03301:0004000400040004
|
|
#03301:00
|
|
#03301:0I0H0G0F0F0E0D0D0C0C0B0B0A0A0909
|
|
#03301:00
|
|
#03301:00
|
|
#03301:4400003U00003H003900310039004100
|
|
#03301:00
|
|
#03301:6S00006I000065005X005P005X006P00
|
|
#03301:006V006V006V006V
|
|
#03301:00
|
|
#03301:00008600860000007Z00007Z00007L00
|
|
#03301:00
|
|
#03301:00
|
|
#03301:00
|
|
#03301:00
|
|
#03301:00
|
|
#03301:00
|
|
#03301:00
|
|
#03301:00
|
|
#03301:00
|
|
#03301:00
|
|
#03301:00
|
|
#03301:KXKX
|
|
#03311:02020202020202020202020202020202
|
|
#03312:00000505030005050000050503000505
|
|
#03313:3U00003A000031002W002N002W003H00
|
|
#03315:6I00005Y00005P005K005B005K006500
|
|
#03318:71007Z717Z0071717L00717L00717E00
|
|
#03319:J2J3J4J5J600J7J8J9JAJBJCJD00JEJF
|
|
|
|
#03401:00
|
|
#03401:00
|
|
#03401:00
|
|
#03401:0004000400040004
|
|
#03401:00
|
|
#03401:0000060607000700070000000700070000000700000007000700070007000700
|
|
#03401:00
|
|
#03401:00
|
|
#03401:3Q3X3V0000003N003R002Z003E004000
|
|
#03401:00
|
|
#03401:6E6L6J0000006B006F005N0062006O00
|
|
#03401:006W006W006Y006Y
|
|
#03401:00
|
|
#03401:00008600860000007Z00007Z00007L00
|
|
#03401:00
|
|
#03401:00
|
|
#03401:00
|
|
#03401:00
|
|
#03401:00
|
|
#03401:00
|
|
#03401:00
|
|
#03401:00
|
|
#03401:00
|
|
#03401:00
|
|
#03401:00
|
|
#03401:KX
|
|
#03411:01
|
|
#03412:00000505030005050000050503000505
|
|
#03413:363E3B000000310037002L002Z003Q00
|
|
#03415:5U625Z0000005P005V0059005N006E00
|
|
#03418:73007Z737Z0073737L00777L00777E00
|
|
#03419:JGJHJIJJJK00JLJMJNJOJPJQJR00JSJT
|
|
|
|
#03501:00
|
|
#03501:00
|
|
#03501:00
|
|
#03501:00
|
|
#03501:00
|
|
#03501:00
|
|
#03501:00
|
|
#03501:00
|
|
#03501:00
|
|
#03501:00
|
|
#03501:00
|
|
#03501:0070007000700070
|
|
#03501:8800008C
|
|
#03501:00
|
|
#03501:00
|
|
#03501:00
|
|
#03501:00
|
|
#03501:00
|
|
#03501:00
|
|
#03501:00
|
|
#03501:ZX
|
|
#03501:00
|
|
#03501:J2J3J4J5J600J7J8J9JAJBJCJD00JEJF
|
|
#03501:00
|
|
#03501:00
|
|
#03501:KX
|
|
#03511:KZ
|
|
#03515:A4
|
|
#03518:000000A8
|
|
|
|
#03601:00
|
|
#03601:00
|
|
#03601:00
|
|
#03601:00
|
|
#03601:00
|
|
#03601:00
|
|
#03601:00
|
|
#03601:00
|
|
#03601:00
|
|
#03601:00
|
|
#03601:00
|
|
#03601:0070007000700070
|
|
#03601:850000008387837T
|
|
#03601:00
|
|
#03601:00
|
|
#03601:00
|
|
#03601:00
|
|
#03601:00
|
|
#03601:00
|
|
#03601:00
|
|
#03601:00
|
|
#03601:00
|
|
#03601:JGJHJIJJJK00JLJMJNJOJPJQJR00JSJT
|
|
#03612:000000000000009R
|
|
#03613:A200A0A0
|
|
#03615:0000000000A30000
|
|
|
|
#03701:00
|
|
#03701:00
|
|
#03701:00
|
|
#03701:00
|
|
#03701:00
|
|
#03701:00
|
|
#03701:00
|
|
#03701:00
|
|
#03701:00
|
|
#03701:00
|
|
#03701:00
|
|
#03701:006Y006Y006Y006Y
|
|
#03701:7Q00007K00007W00
|
|
#03701:00
|
|
#03701:00
|
|
#03701:00
|
|
#03701:00
|
|
#03701:00
|
|
#03701:00
|
|
#03701:00
|
|
#03701:00
|
|
#03701:00
|
|
#03701:J2J3J4J5J600J7J8J9JAJBJCJD00JEJF
|
|
#03711:9O
|
|
#03712:0000009J00000000
|
|
#03719:0000009U
|
|
|
|
#03801:00
|
|
#03801:00
|
|
#03801:00
|
|
#03801:00
|
|
#03801:00
|
|
#03801:00
|
|
#03801:00
|
|
#03801:00
|
|
#03801:00
|
|
#03801:00
|
|
#03801:00
|
|
#03801:006Y006Y006W006W
|
|
#03801:7P0078007N7I7F7C
|
|
#03801:00
|
|
#03801:00
|
|
#03801:00
|
|
#03801:00
|
|
#03801:00
|
|
#03801:00
|
|
#03801:00
|
|
#03801:00
|
|
#03801:00
|
|
#03801:JGJHJIJJJK00JLJMJNJOJPJQJR00JSJT
|
|
#03811:009A0000
|
|
#03812:000000000000009C
|
|
#03813:9N00009E
|
|
#03815:00000000009H0000
|
|
#03818:009L
|
|
|
|
#03901:00
|
|
#03901:00
|
|
#03901:00
|
|
#03901:00
|
|
#03901:00
|
|
#03901:00
|
|
#03901:00
|
|
#03901:00
|
|
#03901:00
|
|
#03901:00
|
|
#03901:00
|
|
#03901:006X006X006X006X
|
|
#03901:7G00007J
|
|
#03901:00
|
|
#03901:00
|
|
#03901:00
|
|
#03901:00
|
|
#03901:00
|
|
#03901:00
|
|
#03901:00
|
|
#03901:00
|
|
#03901:00
|
|
#03901:J2J3J4J5J600J7J8J9JAJBJCJD00JEJF
|
|
#03915:9F
|
|
#03918:0000009I
|
|
|
|
#04001:00
|
|
#04001:00
|
|
#04001:00
|
|
#04001:00
|
|
#04001:00
|
|
#04001:00
|
|
#04001:00
|
|
#04001:00
|
|
#04001:00
|
|
#04001:00
|
|
#04001:00
|
|
#04001:006X006X006X006X
|
|
#04001:7D000000760000007V00007O00007I00
|
|
#04001:00
|
|
#04001:00
|
|
#04001:00
|
|
#04001:00
|
|
#04001:00
|
|
#04001:00
|
|
#04001:00
|
|
#04001:00
|
|
#04001:00
|
|
#04001:JGJHJIJJJK00JLJMJNJOJPJQJR00JSJT
|
|
#04011:00990000
|
|
#04012:9D0000000000009H
|
|
#04015:00000000000000000000009M00000000
|
|
#04019:009T
|
|
|
|
#04101:00
|
|
#04101:00
|
|
#04101:00
|
|
#04101:00
|
|
#04101:00
|
|
#04101:00
|
|
#04101:00
|
|
#04101:00
|
|
#04101:00
|
|
#04101:00
|
|
#04101:00
|
|
#04101:006Y006Y006V006V
|
|
#04101:7R
|
|
#04101:00
|
|
#04101:00
|
|
#04101:00
|
|
#04101:00
|
|
#04101:00
|
|
#04101:00
|
|
#04101:00
|
|
#04101:00
|
|
#04101:00
|
|
#04101:J2J3J4J5J600J7J8J9JAJBJCJD00JEJF
|
|
#04118:9P
|
|
|
|
#04201:00
|
|
#04201:00
|
|
#04201:00
|
|
#04201:00
|
|
#04201:00
|
|
#04201:00
|
|
#04201:00
|
|
#04201:00
|
|
#04201:00
|
|
#04201:00
|
|
#04201:00
|
|
#04201:006Y006Y006Z006Z
|
|
#04201:000000000000000072757B7H7M7S828A
|
|
#04201:00
|
|
#04201:00
|
|
#04201:00
|
|
#04201:00
|
|
#04201:00
|
|
#04201:00
|
|
#04201:00
|
|
#04201:00
|
|
#04201:00
|
|
#04201:JGJHJIJJJK00JLJMJNJOJPJQJR00JSJT
|
|
#04211:0097
|
|
#04212:0000000000000000009800009K000000
|
|
#04213:000000000000000000000000009Q0000
|
|
#04215:00000000009B0000
|
|
#04218:00000000000000000000009G00009Z00
|
|
#04219:000000000000000000000000000000A6
|
|
|
|
#04301:00
|
|
#04301:00
|
|
#04301:00
|
|
#04301:0004000400040004
|
|
#04301:00000505000005050000050500000505
|
|
#04301:00
|
|
#04301:00
|
|
#04301:00
|
|
#04301:00
|
|
#04301:00
|
|
#04301:00
|
|
#04301:0070007000700070
|
|
#04301:8800008C
|
|
#04301:00
|
|
#04301:00
|
|
#04301:00
|
|
#04301:00
|
|
#04301:00
|
|
#04301:AHAIAJ00AK00ALAM00ANAOAP00AQAR00
|
|
#04301:00
|
|
#04301:00
|
|
#04301:00
|
|
#04301:J2J3J4J5J600J7J8J9JAJBJCJD00JEJF
|
|
#04301:00
|
|
#04301:00
|
|
#04301:KX
|
|
#04315:A4
|
|
#04318:000000A8
|
|
|
|
#04401:00
|
|
#04401:00
|
|
#04401:00
|
|
#04401:0004000400040004
|
|
#04401:00000505000005050000050500000505
|
|
#04401:00
|
|
#04401:00
|
|
#04401:00
|
|
#04401:00
|
|
#04401:00
|
|
#04401:00
|
|
#04401:0070007000700070
|
|
#04401:84000000000000007U0000000081898E8J00000000008G00000000008B000000
|
|
#04401:00
|
|
#04401:00
|
|
#04401:00
|
|
#04401:00
|
|
#04401:00
|
|
#04401:ASATAU00AV00AWAX00AYAZB000B1B2B3
|
|
#04401:00
|
|
#04401:00
|
|
#04401:00
|
|
#04401:JGJHJIJJJK00JLJMJNJOJPJQJR00JSJT
|
|
#04411:009S0000
|
|
#04413:A10000000000000000000000009Y0000000000000000000000000000A7000000
|
|
#04415:00000000000000A5000000AC00000000
|
|
#04418:000000000000000000000000000000AA00000000000000000000000000000000
|
|
#04419:00AF
|
|
|
|
#04501:00
|
|
#04501:00
|
|
#04501:00
|
|
#04501:0004000400040004
|
|
#04501:00000505000005050000050500000505
|
|
#04501:00
|
|
#04501:00
|
|
#04501:00
|
|
#04501:00
|
|
#04501:00
|
|
#04501:00
|
|
#04501:006Y006Y006Y006Y
|
|
#04501:8I00007W
|
|
#04501:00
|
|
#04501:00
|
|
#04501:00
|
|
#04501:00
|
|
#04501:00
|
|
#04501:B4B5B600B700B8B900BABBBC00BDBE00
|
|
#04501:00
|
|
#04501:00
|
|
#04501:00
|
|
#04501:J2J3J4J5J600J7J8J9JAJBJCJD00JEJF
|
|
#04511:0000009U
|
|
#04515:AE
|
|
|
|
#04601:00
|
|
#04601:00
|
|
#04601:00
|
|
#04601:0004000400040004
|
|
#04601:00000505000005050000050500000505
|
|
#04601:00
|
|
#04601:00
|
|
#04601:00
|
|
#04601:00
|
|
#04601:00
|
|
#04601:00
|
|
#04601:006Y006Y006W006W
|
|
#04601:8H0000008F8B8783
|
|
#04601:00
|
|
#04601:00
|
|
#04601:00
|
|
#04601:00
|
|
#04601:00
|
|
#04601:BFBGBH00BI00BJBK00BLBMBN00BOBPBQ
|
|
#04601:00
|
|
#04601:00
|
|
#04601:00
|
|
#04601:JGJHJIJJJK00JLJMJNJOJPJQJR00JSJT
|
|
#04613:00000000000000A0
|
|
#04615:000000A3
|
|
#04618:0000000000A70000
|
|
#04619:ADAB
|
|
|
|
#04701:00
|
|
#04701:00
|
|
#04701:00
|
|
#04701:0004000400040004
|
|
#04701:00000505000005050000050500000505
|
|
#04701:1212111110100Z0Z0Y0Y0X0X0W0W0V0V
|
|
#04701:00
|
|
#04701:00
|
|
#04701:00
|
|
#04701:00
|
|
#04701:00
|
|
#04701:006X006X006X006X
|
|
#04701:8800008C
|
|
#04701:00
|
|
#04701:00
|
|
#04701:00
|
|
#04701:00
|
|
#04701:00
|
|
#04701:BRBSBT00BU00BVBW00BXBYBZ00C0C100
|
|
#04701:00
|
|
#04701:00
|
|
#04701:00
|
|
#04701:J2J3J4J5J600J7J8J9JAJBJCJD00JEJF
|
|
#04701:00
|
|
#04701:00
|
|
#04701:KX
|
|
#04715:A4
|
|
#04718:000000A8
|
|
|
|
#04801:00
|
|
#04801:00
|
|
#04801:00
|
|
#04801:0004000400040004
|
|
#04801:00000505000005050000050500000505
|
|
#04801:0U0U0T0T0S0S0R0Q0P0P0O0N0M0L0K0J
|
|
#04801:00
|
|
#04801:00
|
|
#04801:00
|
|
#04801:00
|
|
#04801:00
|
|
#04801:006X006X006X006X
|
|
#04801:840000007Y0000007Y00008000008300
|
|
#04801:00
|
|
#04801:00
|
|
#04801:00
|
|
#04801:00
|
|
#04801:00
|
|
#04801:C2C3C400C500C6C700C8C9CA00CBCCCD
|
|
#04801:00
|
|
#04801:00
|
|
#04801:00
|
|
#04801:JGJHJIJJJK00JLJMJNJOJPJQJR00JSJT
|
|
#04801:00
|
|
#04801:00
|
|
#04801:KX
|
|
#04811:009W9W00
|
|
#04813:A1000000000000000000009X00000000
|
|
#04815:00000000000000A0
|
|
|
|
#04901:00
|
|
#04901:00
|
|
#04901:00
|
|
#04901:0004000400040004
|
|
#04901:00000505000005050000050500000505
|
|
#04901:0I0H0G0F0F0E0D0D0C0C0B0B0A0A0909
|
|
#04901:00
|
|
#04901:00
|
|
#04901:00
|
|
#04901:00
|
|
#04901:00
|
|
#04901:006Y006Y006Y006Y
|
|
#04901:7X000084
|
|
#04901:00
|
|
#04901:00
|
|
#04901:00
|
|
#04901:00
|
|
#04901:00
|
|
#04901:CECFCG00CH00CICJ00CKCLCM00CNCO00
|
|
#04901:00
|
|
#04901:00
|
|
#04901:00
|
|
#04901:J2J3J4J5J600J7J8J9JAJBJCJD00JEJF
|
|
#04901:00
|
|
#04901:00
|
|
#04901:KXKX
|
|
#04912:9V
|
|
#04913:000000A1
|
|
|
|
#05001:00
|
|
#05001:00
|
|
#05001:00
|
|
#05001:0004000400040004
|
|
#05001:00000505000005050000050500000505
|
|
#05001:080808080808080808080808080808080808080808080808
|
|
#05001:00
|
|
#05001:00
|
|
#05001:00
|
|
#05001:00
|
|
#05001:00
|
|
#05001:006Y006Y006Y006Z
|
|
#05001:8D
|
|
#05001:00
|
|
#05001:00
|
|
#05001:00
|
|
#05001:00
|
|
#05001:00
|
|
#05001:CPCQCR00CS00CTCU00CVCWCX00CYCZD0
|
|
#05001:00
|
|
#05001:00
|
|
#05001:00
|
|
#05001:JGJHJIJJJK00JLJMJNJOJPJQJR00JSJT
|
|
#05001:00
|
|
#05001:00
|
|
#05001:KX
|
|
#05011:001M
|
|
#05012:00000000000000004A1R00002C000000
|
|
#05013:0000000000000000004F1Z00502K0000
|
|
#05015:000000000000000000004N2800585M00
|
|
#05018:A9000000000000000000004W00002Y61
|
|
#05019:0000000000000000000000000000003D
|
|
|
|
#05101:0000000000000005
|
|
#05101:KZ00000000000004
|
|
#05101:00
|
|
#05101:0004000000040000
|
|
#05101:00000500000000000000000500000005
|
|
#05101:00
|
|
#05101:0000000000000070
|
|
#05101:00
|
|
#05101:00
|
|
#05101:00000000000000DC
|
|
#05101:00
|
|
#05101:0000007000000000
|
|
#05101:00
|
|
#05101:00
|
|
#05101:00
|
|
#05101:00
|
|
#05101:00
|
|
#05101:00
|
|
#05101:D2000000D500000000D8D9DA00000000
|
|
#05101:00
|
|
#05101:00
|
|
#05101:00
|
|
#05101:J200J400J600J70000JAJBJC0000JEJF
|
|
#05111:01002C00010000J801004W00JDOO0000
|
|
#05112:2CD3D400380004003000280001005600
|
|
#05113:1W001W052E0000D72E00052E03004O00
|
|
#05115:4KJ34K00520005005200705200DB2I00
|
|
#05118:500050J55W0000055O00005F004W2000
|
|
#05119:KX0070000300D600J900002ROO280000
|
|
|
|
#05201:00
|
|
#05201:00
|
|
#05201:00
|
|
#05201:0000000000000004
|
|
#05201:00000000000000000000000500000505
|
|
#05201:00
|
|
#05201:00
|
|
#05201:00
|
|
#05201:00
|
|
#05201:00
|
|
#05201:0000007000000070
|
|
#05201:00
|
|
#05201:00
|
|
#05201:00JI000000000000
|
|
#05201:00
|
|
#05201:00
|
|
#05201:00
|
|
#05201:00
|
|
#05201:000000000000DH00000000DL00DM00DO
|
|
#05201:00
|
|
#05201:00
|
|
#05201:00
|
|
#05201:JG0000000000JLJM0000JPJQ000000JT
|
|
#05211:01000005010004000100042A001MJS00
|
|
#05212:2FDE04JJ000024DI1S00051XOO005200
|
|
#05213:2500054Z03001N0020DJ1M0001002M00
|
|
#05215:4T00701YDG004B004OJO4A0003005A00
|
|
#05218:53JHDF2B00004S05JN00704YJR002E00
|
|
#05219:DD00004MJK0005004G00DK4L004ADN00
|
|
|
|
#05301:01000101
|
|
#05301:00
|
|
#05301:00000003
|
|
#05301:0000000000040004
|
|
#05301:00000000000005000000050500000505
|
|
#05301:00
|
|
#05301:00
|
|
#05301:00
|
|
#05301:00
|
|
#05301:00
|
|
#05301:00
|
|
#05301:006Y0000006Y006Y
|
|
#05301:00
|
|
#05301:00
|
|
#05301:00
|
|
#05301:00
|
|
#05301:00
|
|
#05301:00
|
|
#05301:DPDQ00000000DT0000DVDWDX00DYDZ00
|
|
#05301:00
|
|
#05301:00
|
|
#05301:00
|
|
#05301:J2J300000000J7J8J9JAJBJCJD00JEJF
|
|
#05311:2G000400010048001M00001W1Z4K0000
|
|
#05312:0000DR0500001K001W1P00002C1W2200
|
|
#05313:27000000DS001N004A1Z4Q0000284F1P
|
|
#05315:54000000J6004B004K4N1R28004W1R4D
|
|
#05318:000005J500006YDU004D224W4N004Q4N
|
|
#05319:4V00J4000300040500004F4K5000001Z
|
|
|
|
#05401:00
|
|
#05401:00
|
|
#05401:00
|
|
#05401:0000000000000004
|
|
#05401:00000005000000050000050500000505
|
|
#05401:00
|
|
#05401:00
|
|
#05401:00
|
|
#05401:00
|
|
#05401:00
|
|
#05401:00
|
|
#05401:006Y006Y00000000
|
|
#05401:000000000000006W
|
|
#05401:00
|
|
#05401:00
|
|
#05401:00
|
|
#05401:00
|
|
#05401:00
|
|
#05401:00E1E200E300E4E500E6E7E80000EAEB
|
|
#05401:00
|
|
#05401:00
|
|
#05401:00
|
|
#05401:JGJHJIJJJK00JLJM00JOJPJQ0000JSJT
|
|
#05411:01040100012C014Y
|
|
#05412:E0000000030000002P00503000502M00
|
|
#05413:240005002V0000002Y00003GJROO0000
|
|
#05415:4S0000005J0004005M006W00032C0000
|
|
#05418:520000005W0000005D00046400E92A00
|
|
#05419:2E00000038000500JN00005OOO005A00
|
|
|
|
#05501:00
|
|
#05501:00
|
|
#05501:00
|
|
#05501:0000000400040004
|
|
#05501:00000000000000000000000500000505
|
|
#05501:0000000500000000
|
|
#05501:00
|
|
#05501:00
|
|
#05501:00
|
|
#05501:00
|
|
#05501:00
|
|
#05501:006X00000000006X
|
|
#05501:00
|
|
#05501:00
|
|
#05501:00
|
|
#05501:00
|
|
#05501:00
|
|
#05501:00
|
|
#05501:0000EE00EF00000000EIEJEK0000EM00
|
|
#05501:00
|
|
#05501:00
|
|
#05501:00
|
|
#05501:J200J400J600000000JAJBJC0000JEJF
|
|
#05511:01000400010000J801004W2R00504Y00
|
|
#05512:2C002C050300EG00J900002IOO002A00
|
|
#05513:4DED1P002E0000055O00280001OO0000
|
|
#05515:1P004DJ53800J7002E006X00032C0000
|
|
#05518:50J35000520000EH3000005FJD005600
|
|
#05519:EC0005005W006X005200055600EL2I00
|
|
|
|
#05601:00000101
|
|
#05601:00
|
|
#05601:00000003
|
|
#05601:0004000000040004
|
|
#05601:00000505000000050000050500000505
|
|
#05601:00
|
|
#05601:00
|
|
#05601:00
|
|
#05601:00
|
|
#05601:00
|
|
#05601:00
|
|
#05601:0000006X006X006X
|
|
#05601:00
|
|
#05601:00
|
|
#05601:00
|
|
#05601:00
|
|
#05601:00
|
|
#05601:00
|
|
#05601:00EO00000000ERES00ETEUEV00EWEXEY
|
|
#05601:00
|
|
#05601:00
|
|
#05601:00
|
|
#05601:JGJHJIJJ0000JLJMJNJOJPJQJR00JSJT
|
|
#05611:0100EP00030004001M1P00282K002S2Y
|
|
#05612:EN001M0001002M00001W1R00222C003Z
|
|
#05613:20004A4M00002E001R001Z1W002Y3D00
|
|
#05615:2E006X2B000052004A4D004W5800616N
|
|
#05618:4O00004ZJK005A00004K4N004Q5M005M
|
|
#05619:5200001YEQ0005004F004F4K00505G00
|
|
|
|
#05701:01
|
|
#05701:00
|
|
#05701:00
|
|
#05701:0000000400000004
|
|
#05701:00000000000000000000000000000005
|
|
#05701:00
|
|
#05701:00
|
|
#05701:00
|
|
#05701:00
|
|
#05701:00
|
|
#05701:00
|
|
#05701:0000006Y00000000
|
|
#05701:00
|
|
#05701:00
|
|
#05701:00
|
|
#05701:00
|
|
#05701:00
|
|
#05701:00
|
|
#05701:EZF000000000000000F5000000F8F900
|
|
#05701:00
|
|
#05701:00
|
|
#05701:00
|
|
#05701:J2J3J400J600J7J800JAJB000000JEJF
|
|
#05711:0004002E01040052
|
|
#05712:3C00F1OO00002V053C006V0000002E00
|
|
#05713:3W0005J5F20005003W00F6F700000500
|
|
#05715:000000050300F300J900050501005J00
|
|
#05718:60000000010052F4600000JCJD006V00
|
|
#05719:6K6Y005J6K00032V
|
|
|
|
#05801:01010000
|
|
#05801:00
|
|
#05801:00030000
|
|
#05801:0004000400040004
|
|
#05801:00000505000005050000050500000505
|
|
#05801:00
|
|
#05801:00
|
|
#05801:00
|
|
#05801:00
|
|
#05801:00
|
|
#05801:00
|
|
#05801:006Y006Y00000000
|
|
#05801:00
|
|
#05801:00
|
|
#05801:00
|
|
#05801:00
|
|
#05801:00
|
|
#05801:00
|
|
#05801:FAFBFC00FD00FEFF00FG00FI0000FKFL
|
|
#05801:00
|
|
#05801:00
|
|
#05801:00
|
|
#05801:JGJHJIJJJK00JLJM00JOJPJQ0000JSJT
|
|
#05811:2P0000003P5T2Y000100FH0002000200
|
|
#05812:2Y2S00352Y003D352Y002C64002C3000
|
|
#05813:5M352Y3L5M00005TJN00002V03005A00
|
|
#05815:5D5T5M5T00355M003P00500000506Z00
|
|
#05818:005G61690069612S5M006Z5JJR002M00
|
|
#05819:00003D006D3L005G6D00003G00FJ5O00
|
|
|
|
#05901:00
|
|
#05901:00
|
|
#05901:00030000
|
|
#05901:0004000400040004
|
|
#05901:00000500000005000000050500000505
|
|
#05901:00
|
|
#05901:00
|
|
#05901:00
|
|
#05901:00
|
|
#05901:00
|
|
#05901:00
|
|
#05901:0070000000000070
|
|
#05901:00
|
|
#05901:00
|
|
#05901:00
|
|
#05901:JV0000JW
|
|
#05901:00
|
|
#05901:00
|
|
#05901:000000000000000000D800DA0000DC00
|
|
#05901:00
|
|
#05901:00
|
|
#05901:00
|
|
#05901:J2000000J600000000JAJBJC0000JEJF
|
|
#05901:00
|
|
#05901:00
|
|
#05901:KX
|
|
#05911:0100D4J5010070000100002R03002000
|
|
#05912:2C00J4002E00D600J9004W2E01002I00
|
|
#05913:1W001W05380000J85O002800OO280000
|
|
#05915:4KD32C005W00J7002E00005FJDOO0000
|
|
#05918:50004K00520000D73000705200DB5600
|
|
#05919:D2J35000D50000055200D900004W4O00
|
|
|
|
#06001:00
|
|
#06001:00
|
|
#06001:00
|
|
#06001:0000000000000004
|
|
#06001:00000005000000050000000500000505
|
|
#06001:00
|
|
#06001:00
|
|
#06001:00
|
|
#06001:00
|
|
#06001:00
|
|
#06001:00
|
|
#06001:0070007000000000
|
|
#06001:00
|
|
#06001:00
|
|
#06001:00JZ
|
|
#06001:JX000000JY000000000000K00000K100
|
|
#06001:00
|
|
#06001:00
|
|
#06001:000000000000DH00000000DL00DM00DO
|
|
#06001:00
|
|
#06001:00
|
|
#06001:00
|
|
#06001:JG0000JJ0000JL000000JPJQ0000JSJT
|
|
#06011:01DE0000030004001SDJ04000300DN00
|
|
#06012:2500042B0000240020JO052A001J1L00
|
|
#06013:2F00DF1YDG001N0001001M1XOO001N00
|
|
#06015:5300JI4MJK004B00JN004A4L01004B00
|
|
#06018:DD00054Z00004SDI4G00704Y00477000
|
|
#06019:4TJH0000010005JM4O00DK00JR004900
|
|
|
|
#06101:00
|
|
#06101:00
|
|
#06101:00
|
|
#06101:00000000000004050000000000000000
|
|
#06101:00000000000000000000000500000005
|
|
#06101:00
|
|
#06101:00
|
|
#06101:00
|
|
#06101:00
|
|
#06101:00
|
|
#06101:00
|
|
#06101:00
|
|
#06101:00
|
|
#06101:00
|
|
#06101:00
|
|
#06101:K20000K3
|
|
#06101:00
|
|
#06101:00
|
|
#06101:0000DR000000DT00000000DX00000000
|
|
#06101:00
|
|
#06101:00
|
|
#06101:00
|
|
#06101:J20000000000J7000000JBJCJD0000JF
|
|
#06111:4V00040000006YDU0000040026000500
|
|
#06112:2700050501001Q00OODV050001000400
|
|
#06113:4JDQ000003002100010000001UOOOO00
|
|
#06115:01006Y0000004PJ800006Y004IDYDZ00
|
|
#06118:1V00J4J5DS000500OOJADW004U006Y00
|
|
#06119:DPJ30000J6004E00J90000000300JE00
|
|
|
|
#06201:00
|
|
#06201:00
|
|
#06201:00
|
|
#06201:0000000000000004
|
|
#06201:00000005000000050000000500000505
|
|
#06201:00
|
|
#06201:00
|
|
#06201:00
|
|
#06201:00
|
|
#06201:00
|
|
#06201:00
|
|
#06201:006Y006Y006W006W
|
|
#06201:00
|
|
#06201:00
|
|
#06201:00
|
|
#06201:K4000000K5K6K7K8
|
|
#06201:00
|
|
#06201:00
|
|
#06201:000000000000E4E50000E70000E9EAEB
|
|
#06201:00
|
|
#06201:00
|
|
#06201:00
|
|
#06201:JG0000JJ0000JLJM0000JP00JR00JSJT
|
|
#06211:01E1001T01004Y0001E60400014W0000
|
|
#06212:1O00054HJK002A0024002A0022282200
|
|
#06213:1Y000400OO0004002EJO20001W1Z4Q28
|
|
#06215:4M00E200OO0056004S004OE84K4N504W
|
|
#06218:4C00JI4TE3000500JN004Y004Q002C55
|
|
#06219:E0JH002503002I00520005JQ0300002H
|
|
|
|
#06301:00
|
|
#06301:00
|
|
#06301:00030000
|
|
#06301:0004000000000004
|
|
#06301:00
|
|
#06301:1200000000000000000Y000000000000
|
|
#06301:00
|
|
#06301:00
|
|
#06301:00
|
|
#06301:00
|
|
#06301:00
|
|
#06301:006X00000000006X
|
|
#06301:00
|
|
#06301:00
|
|
#06301:000000KA
|
|
#06301:K9
|
|
#06301:00
|
|
#06301:00
|
|
#06301:EC00EE00EF00EGEH0000EJEK00ELEM00
|
|
#06301:00
|
|
#06301:00
|
|
#06301:00
|
|
#06301:J2J3J4J5J600J7J8J900JBJCJD00JE00
|
|
#06311:01ED05000100040001004W0X000W0500
|
|
#06312:2C1211005W00050030EI2805002C0V00
|
|
#06313:1P00500010OO00050Y00052I00502A00
|
|
#06315:4D001P002E10000Z2E000X2R010056JF
|
|
#06318:50002C0538000Z0052JA6X5603002I05
|
|
#06319:KX004D1152006X005O00045F0W004Y0V
|
|
|
|
#06401:00000101
|
|
#06401:00
|
|
#06401:00000003
|
|
#06401:0000000000040004
|
|
#06401:00000000000000000000050500000505
|
|
#06401:000000000S000R000P0P0O0N0M0L0K0J
|
|
#06401:00
|
|
#06401:00
|
|
#06401:00
|
|
#06401:00
|
|
#06401:00
|
|
#06401:0000006X006X006X
|
|
#06401:00
|
|
#06401:00
|
|
#06401:00
|
|
#06401:KB000000KC000000KD0000KE0000KF00
|
|
#06401:00
|
|
#06401:00
|
|
#06401:EN00EP00EQ00ERES00ETEUEV00EWEXEY
|
|
#06401:00
|
|
#06401:00
|
|
#06401:00
|
|
#06401:JGJHJIJJJK00JLJMJNJOJPJQJR00JSJT
|
|
#06401:00
|
|
#06401:00
|
|
#06401:KX
|
|
#06411:0100040500OO04001M1P1R00002C002Y
|
|
#06412:0U0U1P0T000005001R001Z1W002Y2S00
|
|
#06413:20EO0T1Y000S2E004A004F2822003D5M
|
|
#06415:4O004D2B0100520Q001W4N4W4Q5M006N
|
|
#06418:52006X4M00005A05004D004K58505G00
|
|
#06419:2E00054Z03002M004F4K00002K00613Z
|
|
|
|
#06501:00
|
|
#06501:00
|
|
#06501:00
|
|
#06501:0000000400000000
|
|
#06501:00
|
|
#06501:0I00000000000005
|
|
#06501:00
|
|
#06501:00
|
|
#06501:00
|
|
#06501:00
|
|
#06501:00
|
|
#06501:006Y006Y006Y006Y
|
|
#06501:00
|
|
#06501:00
|
|
#06501:00
|
|
#06501:KG0000KHKI0000KJ
|
|
#06501:00
|
|
#06501:00
|
|
#06501:FNFPFQFR00FU00FX
|
|
#06501:00
|
|
#06501:00
|
|
#06501:00
|
|
#06501:J200J400J600J7J8J900JBJCJD000000
|
|
#06501:00
|
|
#06501:00
|
|
#06501:00KX
|
|
#06511:010H0005000E0500010C0005000A0400
|
|
#06512:KX00040000OO0D000C00040000FW2E00
|
|
#06513:3CFO00J501002E053CFT000B01000905
|
|
#06515:3W000G0000OO2V003W000B0000OO2V00
|
|
#06518:60J3000F0F005JFS6KJA00FV0A0052OO
|
|
#06519:6K0005000300520D6000050003005J09
|
|
|
|
#06601:00
|
|
#06601:0000000000000002
|
|
#06601:00030000
|
|
#06601:0004000400040004
|
|
#06601:00000500000000050000000500000505
|
|
#06601:0000000607000000000000000000000000000000000007000700070007000700
|
|
#06601:00
|
|
#06601:00
|
|
#06601:00
|
|
#06601:00
|
|
#06601:00
|
|
#06601:006Y006Y006Y006Z
|
|
#06601:00
|
|
#06601:00
|
|
#06601:00
|
|
#06601:00KK0000KL00KM00KN00KPKQKRKSKTKU
|
|
#06601:00
|
|
#06601:00
|
|
#06601:00FZG000G100G2G300G4G5G600G7G8G9
|
|
#06601:00
|
|
#06601:00
|
|
#06601:00
|
|
#06601:00
|
|
#06601:00
|
|
#06601:00
|
|
#06601:00KY0000KY0000KY0000KY00KY00KY00
|
|
#06611:4Q0100000100000100070200022J2C00
|
|
#06612:2206000707000007002205000328002K
|
|
#06613:003800223000072V004Q2M002C002P2Y
|
|
#06615:FY5W004Q3M00225J00KO5A00504W5D00
|
|
#06618:006G00055O00056400005W0022570058
|
|
#06619:003S00006A004Q3G000038004Q00505M
|
|
|
|
#06701:00
|
|
#06701:00
|
|
#06701:00030003
|
|
#06701:0004000400040004
|
|
#06701:00
|
|
#06701:00
|
|
#06701:000000000000000000000000000000000000000000000000000000000000003K
|
|
#06701:0000000000000000000000000000000000000000000000000000000000000034
|
|
#06701:00
|
|
#06701:00
|
|
#06701:00
|
|
#06701:0070007000700070
|
|
#06701:7A007Z797Z0079797L00797L00797E00
|
|
#06701:00008600860000007Z00007Z00007L00
|
|
#06701:00
|
|
#06701:KV
|
|
#06701:00
|
|
#06701:00
|
|
#06701:00
|
|
#06701:00
|
|
#06701:ZY
|
|
#06701:00
|
|
#06701:00
|
|
#06701:00
|
|
#06701:00
|
|
#06701:J2
|
|
#06711:010005050100050001JA050501000505
|
|
#06712:2T00000023002L00000000002T0000002L0000002D002T002D002L002U000068
|
|
#06713:2D004R2Z002D36002Z002L36002Z3F00
|
|
#06715:51J3005900515H005900515H51595IJF
|
|
#06716:OO
|
|
#06718:5H000000J4005N00000000005U00J8005N00000059005U0000005N006300005S
|
|
#06719:KX0000J5J600J705J900JBJCJD00JE00
|
|
|
|
#06801:00
|
|
#06801:00
|
|
#06801:00000003
|
|
#06801:0000000400040004
|
|
#06801:6I
|
|
#06801:5Y
|
|
#06801:JG
|
|
#06801:3A
|
|
#06801:00
|
|
#06801:00
|
|
#06801:00
|
|
#06801:0070007000700070
|
|
#06801:79007Z797Z0079007L00790000007E00
|
|
#06801:008686007Z00007L
|
|
#06811:00JH0005010005050100057Z01000505
|
|
#06812:00000532000039002D003T0539002W00
|
|
#06813:0100003O03003TJM2T0043003T793900
|
|
#06815:0000JI5Q00005X0051006HJQ5X005K00
|
|
#06818:0000006CJK006H005HJO6R006H005X00
|
|
#06819:3U0004JJ0000JL79JN00JP7LJR00JSJT
|
|
|
|
#06901:00
|
|
#06901:00J30000000000000000000000000000
|
|
#06901:00
|
|
#06901:0004000400000004
|
|
#06901:00
|
|
#06901:00
|
|
#06901:00
|
|
#06901:00
|
|
#06901:00
|
|
#06901:00
|
|
#06901:00
|
|
#06901:006V006V006V006V
|
|
#06901:71007Z71000071007L00717L00007E00
|
|
#06901:00008600860000007Z00007Z00007L00
|
|
#06911:010005050000050501000005JD0005JF
|
|
#06912:2Z36330001002W002O00002X01003900
|
|
#06913:3E3Q3J00030039J83200053I00003Y05
|
|
#06915:5N5U5R007Z005K005CJA005L03005X00
|
|
#06918:626E6700J6005X715Q00046600006M00
|
|
#06919:J200J4J50000J700J900JBJC0071JE00
|
|
|
|
#07001:00
|
|
#07001:00
|
|
#07001:00030003
|
|
#07001:0000000000040004
|
|
#07001:00
|
|
#07001:00
|
|
#07001:00
|
|
#07001:00
|
|
#07001:00
|
|
#07001:00
|
|
#07001:00
|
|
#07001:006W006W006W006W
|
|
#07001:73007Z007Z0073007L00737L00737E00
|
|
#07001:00008600860000007Z00007Z00007L00
|
|
#07011:01000500010000050100050500000500
|
|
#07012:3H000005390005002Z002D2T002D2900
|
|
#07013:3T00JI003N0004003EJO003601002Q00
|
|
#07015:65JH00735X0000735N00515H00514X00
|
|
#07018:6H0004006B0000JM6200005UJR005E05
|
|
#07019:JG0000JJJK00JL00JN00JPJQ0000JSJT
|
|
|
|
#07101:00
|
|
#07101:00
|
|
#07101:00030003
|
|
#07101:0000000004000000000000000400000000000000040000000000000004000034
|
|
#07101:000000000000000000000000000000000000000000000000000000000000003K
|
|
#07101:00
|
|
#07101:00
|
|
#07101:00
|
|
#07101:00
|
|
#07101:00
|
|
#07101:00
|
|
#07101:0070007000700070
|
|
#07101:79007Z797Z0079797L00797L00797E00
|
|
#07101:00008600860000007Z00007Z00007L00
|
|
#07111:010023050051050001000505002Z0505
|
|
#07112:2D00J30000002L00000000002T0005002L0000002L002T002D0000002U00005S
|
|
#07113:2T00052Z002D36002Z000036012L3F00
|
|
#07115:5100005901005H0059JA005H51595IJF
|
|
#07118:5H0000004R005N00000000005U00J8005N00000059005U00JD00000063000068
|
|
#07119:J200J4J5J600J700J900JBJC005NJE00
|
|
|
|
#07201:00
|
|
#07201:5Y
|
|
#07201:6I000003
|
|
#07201:3A00000400040004
|
|
#07201:3U
|
|
#07201:00
|
|
#07201:00
|
|
#07201:00
|
|
#07201:00
|
|
#07201:00
|
|
#07201:00
|
|
#07201:0070007000700070
|
|
#07201:79007Z797Z0079797L00790000007E00
|
|
#07201:008686007Z00007L
|
|
#07211:00JH0005010005000100050501000500
|
|
#07212:00000032JK0039050000437L3T003H00
|
|
#07213:0100043O00003T002TJO460045004105
|
|
#07215:0000055Q00005X005HOO6R006H796500
|
|
#07218:0000006C03006HJM00006U7Z6T006PJT
|
|
#07219:JG00JIJJ0000JL00JN00JPJQJR00JS00
|
|
|
|
#07301:00
|
|
#07301:00
|
|
#07301:00000003
|
|
#07301:0000000400040004
|
|
#07301:00
|
|
#07301:00
|
|
#07301:00
|
|
#07301:00
|
|
#07301:00
|
|
#07301:00
|
|
#07301:00
|
|
#07301:006V006V006V006V
|
|
#07301:71007Z717Z0071007L00710000007E00
|
|
#07301:008686007Z00007L
|
|
#07311:01000505000005710100057Z01000505
|
|
#07312:3UJ3003A030031002WJA2N002W003H00
|
|
#07313:4400003U01003H0039003105390041JF
|
|
#07315:6I00J45Y00005P055K005B005K716500
|
|
#07318:6S00006IJ60065005X005PJC5X006P00
|
|
#07319:J20004J50000J7J8J900JB7LJD00JE00
|
|
|
|
#07401:00
|
|
#07401:00
|
|
#07401:00
|
|
#07401:0004000400040304
|
|
#07401:00
|
|
#07401:07000000000007070000000000000000
|
|
#07401:0005000000000000
|
|
#07401:00000000000000JS
|
|
#07401:003E3B00000000000000000500000000
|
|
#07401:003X3V00000000000000000000000000
|
|
#07401:0000000000000000000000JQ00000000
|
|
#07401:006W006W006Y006Y
|
|
#07401:73007Z73000073730000770000007E00
|
|
#07401:00008600860000007Z00007Z00007L00
|
|
#07401:00
|
|
#07401:00
|
|
#07401:00
|
|
#07401:00
|
|
#07401:00
|
|
#07401:00
|
|
#07401:00
|
|
#07401:00
|
|
#07401:00
|
|
#07401:00
|
|
#07401:00
|
|
#07401:KX
|
|
#07411:01060005070005007L07050007000505
|
|
#07412:360000060000JJ007Z00000031000500370000002L0000002Z0007003Q000000
|
|
#07413:3Q00070700003NJM3R002Z003E7740OO
|
|
#07415:5U625Z0000005P005V0059075N006E07
|
|
#07418:6E6L6J0003006B006F005N7L62006O00
|
|
#07419:JGJHJI00JK00JL00JNJOJP00JR0007JT
|
|
|
|
#07501:00
|
|
#07501:00
|
|
#07501:00030003
|
|
#07501:0004000400040004
|
|
#07501:00
|
|
#07501:0000000000000000000000000000000000000000000000000000000000000034
|
|
#07501:000000000000000000000000000000000000000000000000000000000000003K
|
|
#07501:00
|
|
#07501:00
|
|
#07501:00
|
|
#07501:00
|
|
#07501:0070007000700070
|
|
#07501:7A007Z797Z0079797L00797L00797E00
|
|
#07501:00008600860000007Z00007Z00007L00
|
|
#07501:00
|
|
#07501:00
|
|
#07501:00
|
|
#07501:00
|
|
#07501:00
|
|
#07501:00
|
|
#07501:00
|
|
#07501:00
|
|
#07501:00
|
|
#07501:00
|
|
#07501:00
|
|
#07501:KX
|
|
#07511:01000505000005000100050501000505
|
|
#07512:2D00000000002L00010000002T0000002L00JA002D002T0000002L002U00005S
|
|
#07513:2T00232Z002D36002Z002L362D2Z3F00
|
|
#07515:51004R5900515H005900515H51595IJF
|
|
#07518:5H00J30000005N00J60000005U0005005N00000059005U0000005N0063000068
|
|
#07519:J200J4J50000J7J8J900JBJCJD00JE00
|
|
|
|
#07601:00
|
|
#07601:00
|
|
#07601:00000003
|
|
#07601:5Y00000400040004
|
|
#07601:6I
|
|
#07601:3A
|
|
#07601:3U
|
|
#07601:00
|
|
#07601:00
|
|
#07601:00
|
|
#07601:00
|
|
#07601:0070007000700070
|
|
#07601:79007Z797Z0079007L00790000007E00
|
|
#07601:008686007Z00007L
|
|
#07611:00000505000005050100050501000505
|
|
#07612:00000032010039002D003T7L39002W00
|
|
#07613:0100JI3O00003T792T0043003T793900
|
|
#07615:0000045Q00005X0051JO6H005X005KJT
|
|
#07618:00JH006C03006HJM5H006R7Z6H005X00
|
|
#07619:JG0000JJJK00JL00JN00JPJQJR00JS00
|
|
|
|
#07701:00
|
|
#07701:00
|
|
#07701:00
|
|
#07701:0004000400000004
|
|
#07701:00
|
|
#07701:00
|
|
#07701:00
|
|
#07701:00J30000000000000000000000000000
|
|
#07701:00
|
|
#07701:00
|
|
#07701:00
|
|
#07701:006V006V006V006V
|
|
#07701:71007Z007Z0071007L00717L00717E00
|
|
#07701:00008600860000007Z00007Z00007L00
|
|
#07711:01000505000005050100050500000500
|
|
#07712:2Z36330001002W712O00002X01003900
|
|
#07713:3E5U3J71000039J83200JB3I00003Y05
|
|
#07715:5N005RJ500005K005C00045L00005X00
|
|
#07718:626E670003005X005Q00006603006M00
|
|
#07719:J23QJ400J600J700J9JA00JCJD00JEJF
|
|
|
|
#07801:00
|
|
#07801:00000000000000000000000500000500
|
|
#07801:00030000
|
|
#07801:0000000000040004
|
|
#07801:00
|
|
#07801:00
|
|
#07801:00
|
|
#07801:00
|
|
#07801:00
|
|
#07801:00
|
|
#07801:0000006W00000000
|
|
#07801:006W0000006W006W
|
|
#07801:73007Z007Z0000737L00737L00737E00
|
|
#07801:00008600860000007Z00007Z00007L00
|
|
#07811:01000500010000050100050100000105
|
|
#07812:3H000400390005002Z00002T030029JT
|
|
#07813:3T0000053N0004003E002D36002D2Q00
|
|
#07815:6500JI005X0073005NJO005HJR004X00
|
|
#07818:6HJH00JJ6B00JL006200515U00515E00
|
|
#07819:JG000073JK0000JMJN00JPJQ0000JS00
|
|
|
|
#07901:0005000500000005
|
|
#07901:00
|
|
#07901:00030000
|
|
#07901:0004000400000004
|
|
#07901:00
|
|
#07901:1200111110100Z0Z0Y0Y0X0X0W0W0V0V
|
|
#07901:00
|
|
#07901:00
|
|
#07901:0000000000000000000000000000000000000000000000000000000000000034
|
|
#07901:000000000000000000000000000000000000000000000000000000000000003K
|
|
#07901:00
|
|
#07901:0070007000700070
|
|
#07901:79007Z797Z0079797L00797L00797E00
|
|
#07901:00008600860000007Z00007Z00007L00
|
|
#07901:00
|
|
#07901:00
|
|
#07901:00
|
|
#07901:00
|
|
#07901:00
|
|
#07901:000000JD
|
|
#07901:00
|
|
#07901:00
|
|
#07901:00
|
|
#07901:00
|
|
#07901:00
|
|
#07901:KX
|
|
#07911:020002050000020002000205022Z0205
|
|
#07912:2D00000023002L00000000002T0005002L0000002L002T0000002L002U00005S
|
|
#07913:2T00J42Z002D36002Z0004362D003F00
|
|
#07915:51004R5900515H0059JA595H51005IJF
|
|
#07918:5H00J30000005N00020000005U00J8005N00000005005U0000005N0063000068
|
|
#07919:J21200J5J600J700J900JBJC0359JE00
|
|
|
|
#08001:00
|
|
#08001:0000000000000002
|
|
#08001:0000000500050300
|
|
#08001:0004000400040004
|
|
#08001:00
|
|
#08001:0U000T0T0S000R0000000O000M000K00
|
|
#08001:00
|
|
#08001:5Y
|
|
#08001:3A
|
|
#08001:3U
|
|
#08001:00
|
|
#08001:0070007000700070
|
|
#08001:79007Z797Z0079790000797L00007E00
|
|
#08001:00008600860000007Z00007Z00007L00
|
|
#08001:00
|
|
#08001:00
|
|
#08001:JG
|
|
#08001:00
|
|
#08001:00
|
|
#08001:00
|
|
#08001:00
|
|
#08001:00
|
|
#08001:00
|
|
#08001:00
|
|
#08001:00
|
|
#08001:KX
|
|
#08011:000U0005020002050200020002790500
|
|
#08012:00JH0032030039JM2T0043053T003H00
|
|
#08013:0200003OJK003T007LJO4600450L4100
|
|
#08015:0000055Q00005X0Q5H006R0N6H006505
|
|
#08018:0000026C000S6H000P0P6U006T006P0J
|
|
#08019:6I00JIJJ0000JL00JN00JPJQJR00JSJT
|
|
|
|
#08101:00
|
|
#08101:00000002000002000000020000000202
|
|
#08101:00030003
|
|
#08101:0004000400040004
|
|
#08101:00
|
|
#08101:0I000G0F0F000D000C0C0B0B0A000909
|
|
#08101:00
|
|
#08101:00
|
|
#08101:00
|
|
#08101:00
|
|
#08101:00
|
|
#08101:006V006V006V006V
|
|
#08101:71007Z717Z0071717L00717L00717E00
|
|
#08101:00008600860000007Z00007Z00007L00
|
|
#08101:00
|
|
#08101:00
|
|
#08101:00
|
|
#08101:00
|
|
#08101:00
|
|
#08101:00
|
|
#08101:00
|
|
#08101:00
|
|
#08101:00
|
|
#08101:00
|
|
#08101:00
|
|
#08101:KXKX
|
|
#08111:02020005020005050200050502000505
|
|
#08112:3U0H003AJ60031022W002N022W003H00
|
|
#08113:4400053U00003H0039023100390041JF
|
|
#08115:6IJ3005Y00005P005KJA5B005K026500
|
|
#08118:6S00026I000E650D5X005P005X006P00
|
|
#08119:J200J4J50002J7J8J900JBJCJD0AJE00
|
|
|
|
#08201:00
|
|
#08201:00
|
|
#08201:00
|
|
#08201:0004000400000004
|
|
#08201:00
|
|
#08201:080808080808080808080808080808080808080808080808
|
|
#08201:00
|
|
#08201:00
|
|
#08201:00
|
|
#08201:00
|
|
#08201:00000000006Y0000
|
|
#08201:006W006W0000006Y
|
|
#08201:73007Z73000073000000007L00777E00
|
|
#08201:00008600000000007Z00007Z00007L00
|
|
#08201:00
|
|
#08201:00
|
|
#08201:00
|
|
#08201:00JH0000000000000000000000000000
|
|
#08201:00
|
|
#08201:00
|
|
#08201:00
|
|
#08201:00
|
|
#08201:00
|
|
#08201:00
|
|
#08201:00
|
|
#08201:KX
|
|
#08211:01000505000005057L00050500000505
|
|
#08212:363E3B0003002W003T00043T00003T00
|
|
#08213:3Q3X3V007Z003H734100004203004300
|
|
#08215:5U625Z0086005K006HJO006HJR006H00
|
|
#08218:6E6L6J00JK0065JM6P00776Q00006R00
|
|
#08219:JG00JIJJ0000JL00JN00JPJQ0000JSJT
|
|
|
|
#08301:00
|
|
#08301:00
|
|
#08301:00
|
|
#08301:00
|
|
#08301:00
|
|
#08301:0070000000000000
|
|
#08301:00
|
|
#08301:00
|
|
#08301:00
|
|
#08301:00
|
|
#08301:00
|
|
#08301:0000007000700070
|
|
#08311:0000010401000100
|
|
#08312:J21503GC00040004
|
|
#08313:1900J400GB1500050000050503000505
|
|
#08315:00OO00J5OO001D00151900151B151D00
|
|
#08316:OO
|
|
#08318:00J3001BJ60005GD00GEGFGG00GHGI00
|
|
#08319:00000000KX00J7J8J9JAJBJCJD00JEJF
|
|
|
|
#08401:00
|
|
#08401:00
|
|
#08401:00
|
|
#08401:00
|
|
#08401:00
|
|
#08401:00
|
|
#08401:00
|
|
#08401:00
|
|
#08401:00
|
|
#08401:00
|
|
#08401:00
|
|
#08401:0070007000700070
|
|
#08411:01010101
|
|
#08412:0004000400040004
|
|
#08413:00000505030005050000050503000505
|
|
#08415:1900151B00151D151H00151F00151D00
|
|
#08418:GJGKGL00GM00GNGO00GPGQGR00GSGTGU
|
|
#08419:JGJHJIJJJK00JLJMJNJOJPJQJR00JSJT
|
|
|
|
#08501:00
|
|
#08501:00
|
|
#08501:00
|
|
#08501:00
|
|
#08501:00
|
|
#08501:00
|
|
#08501:00
|
|
#08501:00
|
|
#08501:00
|
|
#08501:00
|
|
#08501:00
|
|
#08501:0070007000700070
|
|
#08511:01010101
|
|
#08512:0004000400040004
|
|
#08513:00000505030005050000050503000505
|
|
#08515:1900151B00151D00151900151B151D00
|
|
#08518:GVGWGX00GY00GZH000H1H2H300H4H500
|
|
#08519:J2J3J4J5J600J7J8J9JAJBJCJD00JEJF
|
|
|
|
#08601:00
|
|
#08601:00
|
|
#08601:00
|
|
#08601:00
|
|
#08601:00
|
|
#08601:00
|
|
#08601:00
|
|
#08601:00
|
|
#08601:00
|
|
#08601:00
|
|
#08601:00
|
|
#08601:0070007000700070
|
|
#08611:01010101
|
|
#08612:0004000400040004
|
|
#08613:00000505030005050000050503000505
|
|
#08615:1900151B00151D151700151B00151D00
|
|
#08618:H6H7H800H900HAHB00HCHDHE00HFHGHH
|
|
#08619:JGJHJIJJJK00JLJMJNJOJPJQJR00JSJT
|
|
|
|
#08701:00
|
|
#08701:00
|
|
#08701:00
|
|
#08701:00
|
|
#08701:00
|
|
#08701:00
|
|
#08701:00
|
|
#08701:00
|
|
#08701:00
|
|
#08701:00
|
|
#08701:00
|
|
#08701:0070007000700070
|
|
#08701:00
|
|
#08701:00
|
|
#08701:00
|
|
#08701:00
|
|
#08701:00
|
|
#08701:00
|
|
#08701:00
|
|
#08701:00
|
|
#08701:00
|
|
#08701:00
|
|
#08701:00
|
|
#08701:00
|
|
#08701:00
|
|
#08701:KX
|
|
#08711:1212111110100Z0Z0Y0Y0X0X0W0W0V0V
|
|
#08712:0004000400040004
|
|
#08713:00000505030005050000050503000505
|
|
#08715:1900151B00151D00151900151B151D00
|
|
#08718:HIHJHK00HL00HMHN00HOHPHQ00HRHS00
|
|
#08719:J2J3J4J5J600J7J8J9JAJBJCJD00JEJF
|
|
|
|
#08801:00
|
|
#08801:00
|
|
#08801:00
|
|
#08801:00
|
|
#08801:00
|
|
#08801:00
|
|
#08801:00
|
|
#08801:00
|
|
#08801:00
|
|
#08801:00
|
|
#08801:00
|
|
#08801:0070007000700070
|
|
#08811:0U0U0T0T0S0S0R0Q0P0P0O0N0M0L0K0J
|
|
#08812:0004000400040004
|
|
#08813:00000505030005050000050503000505
|
|
#08815:1900151B00151D151H00151F00151D00
|
|
#08818:HTHUHV00HW00HXHY00HZI0I100I2I3I4
|
|
#08819:JGJHJIJJJK00JLJMJNJOJPJQJR00JSJT
|
|
|
|
#08901:00
|
|
#08901:00
|
|
#08901:00
|
|
#08901:00
|
|
#08901:00
|
|
#08901:00
|
|
#08901:00
|
|
#08901:00
|
|
#08901:00
|
|
#08901:00
|
|
#08901:00
|
|
#08901:0070007000700070
|
|
#08911:0I0H0G0F0F0E0D0D0C0C0B0B0A0A0909
|
|
#08912:0004000400040004
|
|
#08913:00000505030005050000050503000505
|
|
#08915:1900151B00151D00151900151B151D00
|
|
#08918:I5I6I700I800I9IA00IBICID00IEIF00
|
|
#08919:J2J3J4J5J600J7J8J9JAJBJCJD00JEJF
|
|
|
|
#09001:00
|
|
#09001:00
|
|
#09001:00
|
|
#09001:00
|
|
#09001:00
|
|
#09001:00
|
|
#09001:00
|
|
#09001:00
|
|
#09001:00
|
|
#09001:00
|
|
#09001:00
|
|
#09001:0070007000700070
|
|
#09001:00
|
|
#09001:00
|
|
#09001:00
|
|
#09001:00
|
|
#09001:00
|
|
#09001:00
|
|
#09001:00
|
|
#09001:00
|
|
#09001:00
|
|
#09001:00
|
|
#09001:00
|
|
#09001:00
|
|
#09001:00
|
|
#09001:KX
|
|
#09011:0700060607000700070000000700070000000700000007000700070007000700
|
|
#09012:0004000400040004
|
|
#09013:00000505030005050000050503000505
|
|
#09015:1900151B00151D151700151B00151D00
|
|
#09018:IGIHII00IJ00IKIL00IMINIO00IPIQIR
|
|
#09019:JGJHJIJJJK00JLJMJNJOJPJQJR00JSJT
|
|
|
|
#09101:00
|
|
#09101:00
|
|
#09101:00
|
|
#09101:00
|
|
#09101:00
|
|
#09101:00
|
|
#09101:00
|
|
#09101:00
|
|
#09101:00
|
|
#09101:00
|
|
#09101:00
|
|
#09101:00
|
|
#09101:00
|
|
#09101:00
|
|
#09101:00
|
|
#09101:00
|
|
#09101:00
|
|
#09101:00
|
|
#09101:00
|
|
#09101:00
|
|
#09101:00
|
|
#09101:00
|
|
#09101:00
|
|
#09101:00
|
|
#09101:00
|
|
#09101:KX
|
|
|
|
|