Files
admin-amethyst-moon/_Amethyst Moon_sph.bms
2026-02-21 20:20:25 +09:00

3436 lines
76 KiB
Plaintext
Raw Blame History

*---------------------- HEADER FIELD
#PLAYER 1
#GENRE Immiscible
#TITLE Amethyst Moon [SP Hyper]
#ARTIST Rethisly
#BPM 165
#PLAYLEVEL 9
#RANK 3
#TOTAL 442
#STAGEFILE _stagefile.png
#WAV01 b_kick1_v100l16o5c.wav
#WAV02 b_kick2_v100l16o5c.wav
#WAV03 b_clap_v100l16o5c.wav
#WAV04 b_openhh_v100l16o5c.wav
#WAV05 b_closehh_v100l16o5c.wav
#WAV06 b_snare_v100l32o5c.wav
#WAV07 b_snare_v100l16o5c.wav
#WAV08 b_snare_v97l24o5c.wav
#WAV09 b_snare_v97l16o5c.wav
#WAV0A b_snare_v96l16o5c.wav
#WAV0B b_snare_v95l16o5c.wav
#WAV0C b_snare_v94l16o5c.wav
#WAV0D b_snare_v93l16o5c.wav
#WAV0E b_snare_v92l16o5c.wav
#WAV0F b_snare_v91l16o5c.wav
#WAV0G b_snare_v90l16o5c.wav
#WAV0H b_snare_v88l16o5c.wav
#WAV0I b_snare_v87l16o5c.wav
#WAV0J b_snare_v85l16o5c.wav
#WAV0K b_snare_v84l16o5c.wav
#WAV0L b_snare_v82l16o5c.wav
#WAV0M b_snare_v81l16o5c.wav
#WAV0N b_snare_v80l16o5c.wav
#WAV0O b_snare_v79l16o5c.wav
#WAV0P b_snare_v78l16o5c.wav
#WAV0Q b_snare_v77l16o5c.wav
#WAV0R b_snare_v76l16o5c.wav
#WAV0S b_snare_v75l16o5c.wav
#WAV0T b_snare_v74l16o5c.wav
#WAV0U b_snare_v73l16o5c.wav
#WAV0V b_snare_v72l16o5c.wav
#WAV0W b_snare_v71l16o5c.wav
#WAV0X b_snare_v70l16o5c.wav
#WAV0Y b_snare_v68l16o5c.wav
#WAV0Z b_snare_v67l16o5c.wav
#WAV10 b_snare_v66l16o5c.wav
#WAV11 b_snare_v65l16o5c.wav
#WAV12 b_snare_v64l16o5c.wav
#WAV13 b_square_v100l192-11o4a.wav
#WAV14 b_square_v100l192-11o4b.wav
#WAV15 b_square_v100l128-7o5cp.wav
#WAV16 b_square_v100l192-11o5cp.wav
#WAV17 b_square_v100l128-7o5fp.wav
#WAV18 b_square_v100l192-11o5fp.wav
#WAV19 b_square_v100l128-7o5gp.wav
#WAV1A b_square_v100l192-11o5gp.wav
#WAV1B b_square_v100l128-7o5b.wav
#WAV1C b_square_v100l192-11o5b.wav
#WAV1D b_square_v100l128-7o6cp.wav
#WAV1E b_square_v100l192-11o6cp.wav
#WAV1F b_square_v100l128-7o6dp.wav
#WAV1G b_square_v100l192-11o6dp.wav
#WAV1H b_square_v100l128-7o6e.wav
#WAV1I b_square_v100l192-11o6e.wav
#WAV1J b_lead1_v100l96-5o4cp.wav
#WAV1K b_lead1_v100l96-11o4dp.wav
#WAV1L b_lead1_v100l96-11o4e.wav
#WAV1M b_lead1_v100l96-5o4gp.wav
#WAV1N b_lead1_v100l96-11o4gp.wav
#WAV1O b_lead1_v100l96-17o4gp.wav
#WAV1P b_lead1_v100l96-5o4a.wav
#WAV1Q b_lead1_v100l96-35o4a.wav
#WAV1R b_lead1_v100l96-5o4b.wav
#WAV1S b_lead1_v100l96-11o4b.wav
#WAV1T b_lead1_v100l96-17o4b.wav
#WAV1U b_lead1_v100l96-23o4b.wav
#WAV1V b_lead1_v100l96-35o4b.wav
#WAV1W b_lead1_v100l96-5o5cp.wav
#WAV1X b_lead1_v100l96-11o5cp.wav
#WAV1Y b_lead1_v100l96-17o5cp.wav
#WAV1Z b_lead1_v100l96-5o5dp.wav
#WAV20 b_lead1_v100l96-11o5dp.wav
#WAV21 b_lead1_v100l96-35o5dp.wav
#WAV22 b_lead1_v100l96-5o5e.wav
#WAV23 b_lead1_v100l192-11o5e.wav
#WAV24 b_lead1_v100l96-11o5e.wav
#WAV25 b_lead1_v100l96-17o5e.wav
#WAV26 b_lead1_v100l96-23o5e.wav
#WAV27 b_lead1_v100l96-35o5e.wav
#WAV28 b_lead1_v100l96-5o5fp.wav
#WAV29 b_lead1_v100l192-11o5fp.wav
#WAV2A b_lead1_v100l96-11o5fp.wav
#WAV2B b_lead1_v100l96-17o5fp.wav
#WAV2C b_lead1_v100l96-5o5gp.wav
#WAV2D b_lead1_v100l192-11o5gp.wav
#WAV2E b_lead1_v100l96-11o5gp.wav
#WAV2F b_lead1_v100l96-17o5gp.wav
#WAV2G b_lead1_v100l96-35o5gp.wav
#WAV2H b_lead1_v100l96-5o5a.wav
#WAV2I b_lead1_v100l96-11o5a.wav
#WAV2J b_lead1_v100l96-5o5ap.wav
#WAV2K b_lead1_v100l96-5o5b.wav
#WAV2L b_lead1_v100l192-11o5b.wav
#WAV2M b_lead1_v100l96-11o5b.wav
#WAV2N b_lead1_v100l192-23o5b.wav
#WAV2O b_lead1_v100l192-35o5b.wav
#WAV2P b_lead1_v100l96-5o6c.wav
#WAV2Q b_lead1_v100l192-11o6c.wav
#WAV2R b_lead1_v100l96-11o6c.wav
#WAV2S b_lead1_v100l96-5o6cp.wav
#WAV2T b_lead1_v100l192-11o6cp.wav
#WAV2U b_lead1_v100l192-17o6cp.wav
#WAV2V b_lead1_v100l96-11o6cp.wav
#WAV2W b_lead1_v100l192-23o6cp.wav
#WAV2X b_lead1_v100l192-35o6cp.wav
#WAV2Y b_lead1_v100l96-5o6dp.wav
#WAV2Z b_lead1_v100l192-11o6dp.wav
#WAV30 b_lead1_v100l96-11o6dp.wav
#WAV31 b_lead1_v100l192-23o6dp.wav
#WAV32 b_lead1_v100l192-35o6dp.wav
#WAV33 b_lead1_v100l192-47o6dp.wav
#WAV34 b_lead1_v100l192-5o6e.wav
#WAV35 b_lead1_v100l96-5o6e.wav
#WAV36 b_lead1_v100l192-11o6e.wav
#WAV37 b_lead1_v100l192-17o6e.wav
#WAV38 b_lead1_v100l96-11o6e.wav
#WAV39 b_lead1_v100l192-23o6e.wav
#WAV3A b_lead1_v100l192-35o6e.wav
#WAV3B b_lead1_v100l192-47o6e.wav
#WAV3C b_lead1_v100l96-35o6e.wav
#WAV3D b_lead1_v100l96-5o6fp.wav
#WAV3E b_lead1_v100l192-11o6fp.wav
#WAV3F b_lead1_v100l192-17o6fp.wav
#WAV3G b_lead1_v100l96-11o6fp.wav
#WAV3H b_lead1_v100l192-23o6fp.wav
#WAV3I b_lead1_v100l192-35o6fp.wav
#WAV3J b_lead1_v100l192-47o6fp.wav
#WAV3K b_lead1_v100l192-5o6g.wav
#WAV3L b_lead1_v100l96-5o6g.wav
#WAV3M b_lead1_v100l96-11o6g.wav
#WAV3N b_lead1_v100l192-23o6g.wav
#WAV3O b_lead1_v100l192-35o6g.wav
#WAV3P b_lead1_v100l96-5o6gp.wav
#WAV3Q b_lead1_v100l192-11o6gp.wav
#WAV3R b_lead1_v100l192-17o6gp.wav
#WAV3S b_lead1_v100l96-11o6gp.wav
#WAV3T b_lead1_v100l192-23o6gp.wav
#WAV3U b_lead1_v100l192-35o6gp.wav
#WAV3V b_lead1_v100l192-47o6gp.wav
#WAV3W b_lead1_v100l96-35o6gp.wav
#WAV3X b_lead1_v100l192-11o6a.wav
#WAV3Y b_lead1_v100l192-23o6a.wav
#WAV3Z b_lead1_v100l96-5o6b.wav
#WAV40 b_lead1_v100l192-11o6b.wav
#WAV41 b_lead1_v100l192-23o6b.wav
#WAV42 b_lead1_v100l192-23o7c.wav
#WAV43 b_lead1_v100l192-23o7cp.wav
#WAV44 b_lead1_v100l192-35o7cp.wav
#WAV45 b_lead1_v100l192-23o7dp.wav
#WAV46 b_lead1_v100l192-23o7e.wav
#WAV47 b_lead2_v100l96-5o4cp.wav
#WAV48 b_lead2_v100l96-11o4dp.wav
#WAV49 b_lead2_v100l96-11o4e.wav
#WAV4A b_lead2_v100l96-5o4gp.wav
#WAV4B b_lead2_v100l96-11o4gp.wav
#WAV4C b_lead2_v100l96-17o4gp.wav
#WAV4D b_lead2_v100l96-5o4a.wav
#WAV4E b_lead2_v100l96-35o4a.wav
#WAV4F b_lead2_v100l96-5o4b.wav
#WAV4G b_lead2_v100l96-11o4b.wav
#WAV4H b_lead2_v100l96-17o4b.wav
#WAV4I b_lead2_v100l96-23o4b.wav
#WAV4J b_lead2_v100l96-35o4b.wav
#WAV4K b_lead2_v100l96-5o5cp.wav
#WAV4L b_lead2_v100l96-11o5cp.wav
#WAV4M b_lead2_v100l96-17o5cp.wav
#WAV4N b_lead2_v100l96-5o5dp.wav
#WAV4O b_lead2_v100l96-11o5dp.wav
#WAV4P b_lead2_v100l96-35o5dp.wav
#WAV4Q b_lead2_v100l96-5o5e.wav
#WAV4R b_lead2_v100l192-11o5e.wav
#WAV4S b_lead2_v100l96-11o5e.wav
#WAV4T b_lead2_v100l96-17o5e.wav
#WAV4U b_lead2_v100l96-23o5e.wav
#WAV4V b_lead2_v100l96-35o5e.wav
#WAV4W b_lead2_v100l96-5o5fp.wav
#WAV4X b_lead2_v100l192-11o5fp.wav
#WAV4Y b_lead2_v100l96-11o5fp.wav
#WAV4Z b_lead2_v100l96-17o5fp.wav
#WAV50 b_lead2_v100l96-5o5gp.wav
#WAV51 b_lead2_v100l192-11o5gp.wav
#WAV52 b_lead2_v100l96-11o5gp.wav
#WAV53 b_lead2_v100l96-17o5gp.wav
#WAV54 b_lead2_v100l96-35o5gp.wav
#WAV55 b_lead2_v100l96-5o5a.wav
#WAV56 b_lead2_v100l96-11o5a.wav
#WAV57 b_lead2_v100l96-5o5ap.wav
#WAV58 b_lead2_v100l96-5o5b.wav
#WAV59 b_lead2_v100l192-11o5b.wav
#WAV5A b_lead2_v100l96-11o5b.wav
#WAV5B b_lead2_v100l192-23o5b.wav
#WAV5C b_lead2_v100l192-35o5b.wav
#WAV5D b_lead2_v100l96-5o6c.wav
#WAV5E b_lead2_v100l192-11o6c.wav
#WAV5F b_lead2_v100l96-11o6c.wav
#WAV5G b_lead2_v100l96-5o6cp.wav
#WAV5H b_lead2_v100l192-11o6cp.wav
#WAV5I b_lead2_v100l192-17o6cp.wav
#WAV5J b_lead2_v100l96-11o6cp.wav
#WAV5K b_lead2_v100l192-23o6cp.wav
#WAV5L b_lead2_v100l192-35o6cp.wav
#WAV5M b_lead2_v100l96-5o6dp.wav
#WAV5N b_lead2_v100l192-11o6dp.wav
#WAV5O b_lead2_v100l96-11o6dp.wav
#WAV5P b_lead2_v100l192-23o6dp.wav
#WAV5Q b_lead2_v100l192-35o6dp.wav
#WAV5R b_lead2_v100l192-47o6dp.wav
#WAV5S b_lead2_v100l192-5o6e.wav
#WAV5T b_lead2_v100l96-5o6e.wav
#WAV5U b_lead2_v100l192-11o6e.wav
#WAV5V b_lead2_v100l192-17o6e.wav
#WAV5W b_lead2_v100l96-11o6e.wav
#WAV5X b_lead2_v100l192-23o6e.wav
#WAV5Y b_lead2_v100l192-35o6e.wav
#WAV5Z b_lead2_v100l192-47o6e.wav
#WAV60 b_lead2_v100l96-35o6e.wav
#WAV61 b_lead2_v100l96-5o6fp.wav
#WAV62 b_lead2_v100l192-11o6fp.wav
#WAV63 b_lead2_v100l192-17o6fp.wav
#WAV64 b_lead2_v100l96-11o6fp.wav
#WAV65 b_lead2_v100l192-23o6fp.wav
#WAV66 b_lead2_v100l192-35o6fp.wav
#WAV67 b_lead2_v100l192-47o6fp.wav
#WAV68 b_lead2_v100l192-5o6g.wav
#WAV69 b_lead2_v100l96-5o6g.wav
#WAV6A b_lead2_v100l96-11o6g.wav
#WAV6B b_lead2_v100l192-23o6g.wav
#WAV6C b_lead2_v100l192-35o6g.wav
#WAV6D b_lead2_v100l96-5o6gp.wav
#WAV6E b_lead2_v100l192-11o6gp.wav
#WAV6F b_lead2_v100l192-17o6gp.wav
#WAV6G b_lead2_v100l96-11o6gp.wav
#WAV6H b_lead2_v100l192-23o6gp.wav
#WAV6I b_lead2_v100l192-35o6gp.wav
#WAV6J b_lead2_v100l192-47o6gp.wav
#WAV6K b_lead2_v100l96-35o6gp.wav
#WAV6L b_lead2_v100l192-11o6a.wav
#WAV6M b_lead2_v100l192-23o6a.wav
#WAV6N b_lead2_v100l96-5o6b.wav
#WAV6O b_lead2_v100l192-11o6b.wav
#WAV6P b_lead2_v100l192-23o6b.wav
#WAV6Q b_lead2_v100l192-23o7c.wav
#WAV6R b_lead2_v100l192-23o7cp.wav
#WAV6S b_lead2_v100l192-35o7cp.wav
#WAV6T b_lead2_v100l192-23o7dp.wav
#WAV6U b_lead2_v100l192-23o7e.wav
#WAV6V b_bass_v100l8o3fp.wav
#WAV6W b_bass_v100l8o3gp.wav
#WAV6X b_bass_v100l8o3a.wav
#WAV6Y b_bass_v100l8o3b.wav
#WAV6Z b_bass_v100l8o4c.wav
#WAV70 b_bass_v100l8o4cp.wav
#WAV71 b_piano1_v78l128-7o4fp.wav
#WAV72 b_piano1_v100l16o4gp.wav
#WAV73 b_piano1_v83l128-7o4gp.wav
#WAV74 b_piano1_v83l128-7o4a.wav
#WAV75 b_piano1_v100l16o4b.wav
#WAV76 b_piano1_v100l4o4b.wav
#WAV77 b_piano1_v83l128-7o4b.wav
#WAV78 b_piano1_v100l4o5c.wav
#WAV79 b_piano1_v83l128-7o5cp.wav
#WAV7A b_piano1_v78l128-7o5cp.wav
#WAV7B b_piano1_v100l16o5dp.wav
#WAV7C b_piano1_v100l8o5dp.wav
#WAV7D b_piano1_v100l4o5dp.wav
#WAV7E b_piano1_v100l128-7o5e.wav
#WAV7F b_piano1_v100l8o5e.wav
#WAV7G b_piano1_v100l4-3o5e.wav
#WAV7H b_piano1_v100l16o5fp.wav
#WAV7I b_piano1_v100l8o5fp.wav
#WAV7J b_piano1_v100l4o5fp.wav
#WAV7K b_piano1_v100l8-3o5fp.wav
#WAV7L b_piano1_v100l128-7o5gp.wav
#WAV7M b_piano1_v100l16o5gp.wav
#WAV7N b_piano1_v100l8o5gp.wav
#WAV7O b_piano1_v100l16-3o5gp.wav
#WAV7P b_piano1_v100l4o5gp.wav
#WAV7Q b_piano1_v100l8-3o5gp.wav
#WAV7R b_piano1_v100l2-3o5gp.wav
#WAV7S b_piano1_v100l16o5b.wav
#WAV7T b_piano1_v100l8o5b.wav
#WAV7U b_piano1_v100l32-5o5b.wav
#WAV7V b_piano1_v100l16-3o5b.wav
#WAV7W b_piano1_v100l4o5b.wav
#WAV7X b_piano1_v100l4-3o5b.wav
#WAV7Y b_piano1_v100l16-3o6c.wav
#WAV7Z b_piano1_v100l128-7o6cp.wav
#WAV80 b_piano1_v100l16-3o6cp.wav
#WAV81 b_piano1_v100l32o6dp.wav
#WAV82 b_piano1_v100l16o6dp.wav
#WAV83 b_piano1_v100l8o6dp.wav
#WAV84 b_piano1_v100l4o6dp.wav
#WAV85 b_piano1_v100l32-15o6dp.wav
#WAV86 b_piano1_v100l128-7o6e.wav
#WAV87 b_piano1_v100l8o6e.wav
#WAV88 b_piano1_v100l4-3o6e.wav
#WAV89 b_piano1_v100l32o6fp.wav
#WAV8A b_piano1_v100l16o6fp.wav
#WAV8B b_piano1_v100l8o6fp.wav
#WAV8C b_piano1_v100l4o6fp.wav
#WAV8D b_piano1_v100l2o6fp.wav
#WAV8E b_piano1_v100l32o6gp.wav
#WAV8F b_piano1_v100l8o6gp.wav
#WAV8G b_piano1_v100l16-3o6gp.wav
#WAV8H b_piano1_v100l16-7o6gp.wav
#WAV8I b_piano1_v100l4-3o6gp.wav
#WAV8J b_piano1_v100l16-3o6b.wav
#WAV8K b_lead3_v100l8o5cp.wav
#WAV8L b_lead3_v100l8o5dp.wav
#WAV8M b_lead3_v100l16o5e.wav
#WAV8N b_lead3_v100l16o5fp.wav
#WAV8O b_lead3_v100l32-3o5fp.wav
#WAV8P b_lead3_v100l96-17o5fp.wav
#WAV8Q b_lead3_v100l16o5gp.wav
#WAV8R b_lead3_v100l32-3o5gp.wav
#WAV8S b_lead3_v100l8-3o5gp.wav
#WAV8T b_lead3_v100l16o5b.wav
#WAV8U b_lead3_v100l8o5b.wav
#WAV8V b_lead3_v100l8o6cp.wav
#WAV8W b_lead3_v100l16o6dp.wav
#WAV8X b_lead3_v100l8o6dp.wav
#WAV8Y b_lead3_v100l16o6e.wav
#WAV8Z b_lead3_v100l8o6e.wav
#WAV91 b_lead3_v100l16-15o6e.wav
#WAV92 b_lead3_v100l8o6fp.wav
#WAV93 b_lead3_v100l96-17o6fp.wav
#WAV94 b_lead3_v100l8o6gp.wav
#WAV95 b_lead3_v100l8-3o6gp.wav
#WAV96 b_lead3_v100l8o6b.wav
#WAV97 b_piano2_v100l16o4gp.wav
#WAV98 b_piano2_v100l16o4b.wav
#WAV99 b_piano2_v100l4o4b.wav
#WAV9A b_piano2_v100l4o5c.wav
#WAV9B b_piano2_v100l16o5dp.wav
#WAV9C b_piano2_v100l8o5dp.wav
#WAV9D b_piano2_v100l4o5dp.wav
#WAV9E b_piano2_v100l8o5e.wav
#WAV9F b_piano2_v100l4-3o5e.wav
#WAV9G b_piano2_v100l16o5fp.wav
#WAV9H b_piano2_v100l8o5fp.wav
#WAV9I b_piano2_v100l4o5fp.wav
#WAV9J b_piano2_v100l8-3o5fp.wav
#WAV9K b_piano2_v100l16o5gp.wav
#WAV9L b_piano2_v100l8o5gp.wav
#WAV9M b_piano2_v100l16-3o5gp.wav
#WAV9N b_piano2_v100l4o5gp.wav
#WAV9O b_piano2_v100l8-3o5gp.wav
#WAV9P b_piano2_v100l2-3o5gp.wav
#WAV9Q b_piano2_v100l16o5b.wav
#WAV9R b_piano2_v100l8o5b.wav
#WAV9S b_piano2_v100l32-5o5b.wav
#WAV9T b_piano2_v100l16-3o5b.wav
#WAV9U b_piano2_v100l4o5b.wav
#WAV9V b_piano2_v100l4-3o5b.wav
#WAV9W b_piano2_v100l16-3o6c.wav
#WAV9X b_piano2_v100l16-3o6cp.wav
#WAV9Y b_piano2_v100l32o6dp.wav
#WAV9Z b_piano2_v100l16o6dp.wav
#WAVA0 b_piano2_v100l8o6dp.wav
#WAVA1 b_piano2_v100l4o6dp.wav
#WAVA2 b_piano2_v100l32-15o6dp.wav
#WAVA3 b_piano2_v100l8o6e.wav
#WAVA4 b_piano2_v100l4-3o6e.wav
#WAVA5 b_piano2_v100l32o6fp.wav
#WAVA6 b_piano2_v100l16o6fp.wav
#WAVA7 b_piano2_v100l8o6fp.wav
#WAVA8 b_piano2_v100l4o6fp.wav
#WAVA9 b_piano2_v100l2o6fp.wav
#WAVAA b_piano2_v100l32o6gp.wav
#WAVAB b_piano2_v100l8o6gp.wav
#WAVAC b_piano2_v100l16-3o6gp.wav
#WAVAD b_piano2_v100l16-7o6gp.wav
#WAVAE b_piano2_v100l4-3o6gp.wav
#WAVAF b_piano2_v100l16-3o6b.wav
#WAVAH acid_break_000.wav
#WAVAI acid_break_001.wav
#WAVAJ acid_break_002.wav
#WAVAK acid_break_003.wav
#WAVAL acid_break_004.wav
#WAVAM acid_break_005.wav
#WAVAN acid_break_006.wav
#WAVAO acid_break_007.wav
#WAVAP acid_break_008.wav
#WAVAQ acid_break_009.wav
#WAVAR acid_break_010.wav
#WAVAS acid_break_011.wav
#WAVAT acid_break_012.wav
#WAVAU acid_break_013.wav
#WAVAV acid_break_014.wav
#WAVAW acid_break_015.wav
#WAVAX acid_break_016.wav
#WAVAY acid_break_017.wav
#WAVAZ acid_break_018.wav
#WAVB0 acid_break_019.wav
#WAVB1 acid_break_020.wav
#WAVB2 acid_break_021.wav
#WAVB3 acid_break_022.wav
#WAVB4 acid_break_023.wav
#WAVB5 acid_break_024.wav
#WAVB6 acid_break_025.wav
#WAVB7 acid_break_026.wav
#WAVB8 acid_break_027.wav
#WAVB9 acid_break_028.wav
#WAVBA acid_break_029.wav
#WAVBB acid_break_030.wav
#WAVBC acid_break_031.wav
#WAVBD acid_break_032.wav
#WAVBE acid_break_033.wav
#WAVBF acid_break_034.wav
#WAVBG acid_break_035.wav
#WAVBH acid_break_036.wav
#WAVBI acid_break_037.wav
#WAVBJ acid_break_038.wav
#WAVBK acid_break_039.wav
#WAVBL acid_break_040.wav
#WAVBM acid_break_041.wav
#WAVBN acid_break_042.wav
#WAVBO acid_break_043.wav
#WAVBP acid_break_044.wav
#WAVBQ acid_break_045.wav
#WAVBR acid_break_046.wav
#WAVBS acid_break_047.wav
#WAVBT acid_break_048.wav
#WAVBU acid_break_049.wav
#WAVBV acid_break_050.wav
#WAVBW acid_break_051.wav
#WAVBX acid_break_052.wav
#WAVBY acid_break_053.wav
#WAVBZ acid_break_054.wav
#WAVC0 acid_break_055.wav
#WAVC1 acid_break_056.wav
#WAVC2 acid_break_057.wav
#WAVC3 acid_break_058.wav
#WAVC4 acid_break_059.wav
#WAVC5 acid_break_060.wav
#WAVC6 acid_break_061.wav
#WAVC7 acid_break_062.wav
#WAVC8 acid_break_063.wav
#WAVC9 acid_break_064.wav
#WAVCA acid_break_065.wav
#WAVCB acid_break_066.wav
#WAVCC acid_break_067.wav
#WAVCD acid_break_068.wav
#WAVCE acid_break_069.wav
#WAVCF acid_break_070.wav
#WAVCG acid_break_071.wav
#WAVCH acid_break_072.wav
#WAVCI acid_break_073.wav
#WAVCJ acid_break_074.wav
#WAVCK acid_break_075.wav
#WAVCL acid_break_076.wav
#WAVCM acid_break_077.wav
#WAVCN acid_break_078.wav
#WAVCO acid_break_079.wav
#WAVCP acid_break_080.wav
#WAVCQ acid_break_081.wav
#WAVCR acid_break_082.wav
#WAVCS acid_break_083.wav
#WAVCT acid_break_084.wav
#WAVCU acid_break_085.wav
#WAVCV acid_break_086.wav
#WAVCW acid_break_087.wav
#WAVCX acid_break_088.wav
#WAVCY acid_break_089.wav
#WAVCZ acid_break_090.wav
#WAVD0 acid_break_091.wav
#WAVD2 acid_main_000.wav
#WAVD3 acid_main_001.wav
#WAVD4 acid_main_002.wav
#WAVD5 acid_main_003.wav
#WAVD6 acid_main_004.wav
#WAVD7 acid_main_005.wav
#WAVD8 acid_main_006.wav
#WAVD9 acid_main_007.wav
#WAVDA acid_main_008.wav
#WAVDB acid_main_009.wav
#WAVDC acid_main_010.wav
#WAVDD acid_main_011.wav
#WAVDE acid_main_012.wav
#WAVDF acid_main_013.wav
#WAVDG acid_main_014.wav
#WAVDH acid_main_015.wav
#WAVDI acid_main_016.wav
#WAVDJ acid_main_017.wav
#WAVDK acid_main_018.wav
#WAVDL acid_main_019.wav
#WAVDM acid_main_020.wav
#WAVDN acid_main_021.wav
#WAVDO acid_main_022.wav
#WAVDP acid_main_023.wav
#WAVDQ acid_main_024.wav
#WAVDR acid_main_025.wav
#WAVDS acid_main_026.wav
#WAVDT acid_main_027.wav
#WAVDU acid_main_028.wav
#WAVDV acid_main_029.wav
#WAVDW acid_main_030.wav
#WAVDX acid_main_031.wav
#WAVDY acid_main_032.wav
#WAVDZ acid_main_033.wav
#WAVE0 acid_main_034.wav
#WAVE1 acid_main_035.wav
#WAVE2 acid_main_036.wav
#WAVE3 acid_main_037.wav
#WAVE4 acid_main_038.wav
#WAVE5 acid_main_039.wav
#WAVE6 acid_main_040.wav
#WAVE7 acid_main_041.wav
#WAVE8 acid_main_042.wav
#WAVE9 acid_main_043.wav
#WAVEA acid_main_044.wav
#WAVEB acid_main_045.wav
#WAVEC acid_main_046.wav
#WAVED acid_main_047.wav
#WAVEE acid_main_048.wav
#WAVEF acid_main_049.wav
#WAVEG acid_main_050.wav
#WAVEH acid_main_051.wav
#WAVEI acid_main_052.wav
#WAVEJ acid_main_053.wav
#WAVEK acid_main_054.wav
#WAVEL acid_main_055.wav
#WAVEM acid_main_056.wav
#WAVEN acid_main_057.wav
#WAVEO acid_main_058.wav
#WAVEP acid_main_059.wav
#WAVEQ acid_main_060.wav
#WAVER acid_main_061.wav
#WAVES acid_main_062.wav
#WAVET acid_main_063.wav
#WAVEU acid_main_064.wav
#WAVEV acid_main_065.wav
#WAVEW acid_main_066.wav
#WAVEX acid_main_067.wav
#WAVEY acid_main_068.wav
#WAVEZ acid_main_069.wav
#WAVF0 acid_main_070.wav
#WAVF1 acid_main_071.wav
#WAVF2 acid_main_072.wav
#WAVF3 acid_main_073.wav
#WAVF4 acid_main_074.wav
#WAVF5 acid_main_075.wav
#WAVF6 acid_main_076.wav
#WAVF7 acid_main_077.wav
#WAVF8 acid_main_078.wav
#WAVF9 acid_main_079.wav
#WAVFA acid_main_080.wav
#WAVFB acid_main_081.wav
#WAVFC acid_main_082.wav
#WAVFD acid_main_083.wav
#WAVFE acid_main_084.wav
#WAVFF acid_main_085.wav
#WAVFG acid_main_086.wav
#WAVFH acid_main_087.wav
#WAVFI acid_main_088.wav
#WAVFJ acid_main_089.wav
#WAVFK acid_main_090.wav
#WAVFL acid_main_091.wav
#WAVFN acid_main_093.wav
#WAVFO acid_main_094.wav
#WAVFP acid_main_095.wav
#WAVFQ acid_main_096.wav
#WAVFR acid_main_097.wav
#WAVFS acid_main_098.wav
#WAVFT acid_main_099.wav
#WAVFU acid_main_100.wav
#WAVFV acid_main_101.wav
#WAVFW acid_main_102.wav
#WAVFX acid_main_103.wav
#WAVFY acid_main_104.wav
#WAVFZ acid_main_105.wav
#WAVG0 acid_main_106.wav
#WAVG1 acid_main_107.wav
#WAVG2 acid_main_108.wav
#WAVG3 acid_main_109.wav
#WAVG4 acid_main_110.wav
#WAVG5 acid_main_111.wav
#WAVG6 acid_main_112.wav
#WAVG7 acid_main_113.wav
#WAVG8 acid_main_114.wav
#WAVG9 acid_main_115.wav
#WAVGB acid_outro_000.wav
#WAVGC acid_outro_001.wav
#WAVGD acid_outro_002.wav
#WAVGE acid_outro_003.wav
#WAVGF acid_outro_004.wav
#WAVGG acid_outro_005.wav
#WAVGH acid_outro_006.wav
#WAVGI acid_outro_007.wav
#WAVGJ acid_outro_008.wav
#WAVGK acid_outro_009.wav
#WAVGL acid_outro_010.wav
#WAVGM acid_outro_011.wav
#WAVGN acid_outro_012.wav
#WAVGO acid_outro_013.wav
#WAVGP acid_outro_014.wav
#WAVGQ acid_outro_015.wav
#WAVGR acid_outro_016.wav
#WAVGS acid_outro_017.wav
#WAVGT acid_outro_018.wav
#WAVGU acid_outro_019.wav
#WAVGV acid_outro_020.wav
#WAVGW acid_outro_021.wav
#WAVGX acid_outro_022.wav
#WAVGY acid_outro_023.wav
#WAVGZ acid_outro_024.wav
#WAVH0 acid_outro_025.wav
#WAVH1 acid_outro_026.wav
#WAVH2 acid_outro_027.wav
#WAVH3 acid_outro_028.wav
#WAVH4 acid_outro_029.wav
#WAVH5 acid_outro_030.wav
#WAVH6 acid_outro_031.wav
#WAVH7 acid_outro_032.wav
#WAVH8 acid_outro_033.wav
#WAVH9 acid_outro_034.wav
#WAVHA acid_outro_035.wav
#WAVHB acid_outro_036.wav
#WAVHC acid_outro_037.wav
#WAVHD acid_outro_038.wav
#WAVHE acid_outro_039.wav
#WAVHF acid_outro_040.wav
#WAVHG acid_outro_041.wav
#WAVHH acid_outro_042.wav
#WAVHI acid_outro_043.wav
#WAVHJ acid_outro_044.wav
#WAVHK acid_outro_045.wav
#WAVHL acid_outro_046.wav
#WAVHM acid_outro_047.wav
#WAVHN acid_outro_048.wav
#WAVHO acid_outro_049.wav
#WAVHP acid_outro_050.wav
#WAVHQ acid_outro_051.wav
#WAVHR acid_outro_052.wav
#WAVHS acid_outro_053.wav
#WAVHT acid_outro_054.wav
#WAVHU acid_outro_055.wav
#WAVHV acid_outro_056.wav
#WAVHW acid_outro_057.wav
#WAVHX acid_outro_058.wav
#WAVHY acid_outro_059.wav
#WAVHZ acid_outro_060.wav
#WAVI0 acid_outro_061.wav
#WAVI1 acid_outro_062.wav
#WAVI2 acid_outro_063.wav
#WAVI3 acid_outro_064.wav
#WAVI4 acid_outro_065.wav
#WAVI5 acid_outro_066.wav
#WAVI6 acid_outro_067.wav
#WAVI7 acid_outro_068.wav
#WAVI8 acid_outro_069.wav
#WAVI9 acid_outro_070.wav
#WAVIA acid_outro_071.wav
#WAVIB acid_outro_072.wav
#WAVIC acid_outro_073.wav
#WAVID acid_outro_074.wav
#WAVIE acid_outro_075.wav
#WAVIF acid_outro_076.wav
#WAVIG acid_outro_077.wav
#WAVIH acid_outro_078.wav
#WAVII acid_outro_079.wav
#WAVIJ acid_outro_080.wav
#WAVIK acid_outro_081.wav
#WAVIL acid_outro_082.wav
#WAVIM acid_outro_083.wav
#WAVIN acid_outro_084.wav
#WAVIO acid_outro_085.wav
#WAVIP acid_outro_086.wav
#WAVIQ acid_outro_087.wav
#WAVIR acid_outro_088.wav
#WAVIT fill_000.wav
#WAVIU fill_001.wav
#WAVIV fill_002.wav
#WAVIW fill_003.wav
#WAVIX fill_004.wav
#WAVIY fill_005.wav
#WAVIZ fill_006.wav
#WAVJ0 fill_007.wav
#WAVJ1 fill_008.wav
#WAVJ2 hhroop_000.wav
#WAVJ3 hhroop_001.wav
#WAVJ4 hhroop_002.wav
#WAVJ5 hhroop_003.wav
#WAVJ6 hhroop_004.wav
#WAVJ7 hhroop_005.wav
#WAVJ8 hhroop_006.wav
#WAVJ9 hhroop_007.wav
#WAVJA hhroop_008.wav
#WAVJB hhroop_009.wav
#WAVJC hhroop_010.wav
#WAVJD hhroop_011.wav
#WAVJE hhroop_012.wav
#WAVJF hhroop_013.wav
#WAVJG hhroop_014.wav
#WAVJH hhroop_015.wav
#WAVJI hhroop_016.wav
#WAVJJ hhroop_017.wav
#WAVJK hhroop_018.wav
#WAVJL hhroop_019.wav
#WAVJM hhroop_020.wav
#WAVJN hhroop_021.wav
#WAVJO hhroop_022.wav
#WAVJP hhroop_023.wav
#WAVJQ hhroop_024.wav
#WAVJR hhroop_025.wav
#WAVJS hhroop_026.wav
#WAVJT hhroop_027.wav
#WAVJV guitar_000.wav
#WAVJW guitar_001.wav
#WAVJX guitar_002.wav
#WAVJY guitar_003.wav
#WAVJZ guitar_004.wav
#WAVK0 guitar_005.wav
#WAVK1 guitar_006.wav
#WAVK2 guitar_007.wav
#WAVK3 guitar_008.wav
#WAVK4 guitar_009.wav
#WAVK5 guitar_010.wav
#WAVK6 guitar_011.wav
#WAVK7 guitar_012.wav
#WAVK8 guitar_013.wav
#WAVK9 guitar_014.wav
#WAVKA guitar_015.wav
#WAVKB guitar_016.wav
#WAVKC guitar_017.wav
#WAVKD guitar_018.wav
#WAVKE guitar_019.wav
#WAVKF guitar_020.wav
#WAVKG guitar_021.wav
#WAVKH guitar_022.wav
#WAVKI guitar_023.wav
#WAVKJ guitar_024.wav
#WAVKK guitar_025.wav
#WAVKL guitar_026.wav
#WAVKM guitar_027.wav
#WAVKN guitar_028.wav
#WAVKO guitar_029.wav
#WAVKP guitar_030.wav
#WAVKQ guitar_031.wav
#WAVKR guitar_032.wav
#WAVKS guitar_033.wav
#WAVKT guitar_034.wav
#WAVKU guitar_035.wav
#WAVKV guitar_036.wav
#WAVKX cymbal.wav
#WAVKY s_cymbal.wav
#WAVKZ impact.wav
#WAVZW BGM1.wav
#WAVZX BGM2.wav
#WAVZY BGM3.wav
#BMP01 _bga.wmv
#LNOBJ ZZ
#DIFFICULTY 3
#SUBARTIST BGA:<3A><><EFBFBD><EFBFBD><EFBFBD><EFBFBD><EFBFBD>
*---------------------- MAIN DATA FIELD
#00002:1.25
#00004:000000000000000000000000000000000000000000000000000000000000000000000000000000000000000000000001000000000000000000000000000000000000000000000000000000000000000000000000000000000000000000000000000000000000000000000000000000000000000000000000000000000000000000000000000000000000000000000000000000000000000000000000000000000000000000000000000000000000000000000000000000000000000000000000000000000000000000000000000000000000000000000000000000000000000000000000000000000000000000000000
#00201:00
#00201:00
#00201:00
#00201:00
#00201:00
#00201:00
#00201:00
#00201:00
#00201:00
#00201:00
#00201:00
#00201:00
#00201:00
#00201:00
#00201:00
#00201:00
#00201:00
#00201:00
#00201:00
#00201:00
#00201:ZW
#00213:000000IV000000000000000000000000
#00214:0000000000000000000000000000J0J1
#00215:00IU000000000000
#00216:IT00IW00IXIYIZ00
#00301:00
#00301:00
#00301:00030003
#00301:0004000400040004
#00301:00000505000005050000050500000505
#00301:00
#00301:00001500001500001500001500150000
#00301:00
#00301:00
#00301:00
#00301:00
#00301:0070007000700070
#00301:00
#00301:00
#00301:00
#00301:00
#00301:00
#00301:00
#00301:00
#00301:00
#00301:00
#00301:00
#00301:J2J3J4J5J600J7J8J9JAJBJCJD00JEJF
#00311:01010101
#00313:00000000000000000019000000000000
#00314:0000001B000000000000000000000000
#00315:0000001B
#00316:KX
#00318:0000001D00000000
#00319:190000000000001D
#00401:00
#00401:00
#00401:00030003
#00401:0004000400040004
#00401:00000505000005050000050500000505
#00401:00
#00401:00001500001500150000150000150000
#00401:00
#00401:00
#00401:00
#00401:00
#00401:0070007000700070
#00401:00
#00401:00
#00401:00
#00401:00
#00401:00
#00401:00
#00401:00
#00401:00
#00401:00
#00401:00
#00401:JGJHJIJJJK00JLJMJNJOJPJQJR00JSJT
#00411:01010101
#00413:000000000000001D
#00414:19
#00415:0000001B000000000000001F00000000
#00418:0000001D00000000
#00419:001H
#00501:00
#00501:00
#00501:00030003
#00501:0004000400040004
#00501:00000505000005050000050500000505
#00501:00
#00501:00001500001500001500001500150000
#00501:00
#00501:00
#00501:00
#00501:00
#00501:0070007000700070
#00501:00
#00501:00
#00501:00
#00501:00
#00501:00
#00501:00
#00501:00
#00501:00
#00501:00
#00501:00
#00501:J2J3J4J5J600J7J8J9JAJBJCJD00JEJF
#00511:01010101
#00513:00000000000000000019000000000000
#00514:19
#00515:0000001B00000000000000001B000000
#00518:0000001D00000000
#00519:000000000000001D
#00601:00
#00601:00
#00601:00030003
#00601:0004000400040004
#00601:00000505000005050000050500000505
#00601:00
#00601:00001500001500150000150000150000
#00601:00
#00601:00
#00601:00
#00601:00
#00601:0070007000700070
#00601:00
#00601:00
#00601:00
#00601:00
#00601:00
#00601:00
#00601:00
#00601:00
#00601:00
#00601:00
#00601:JGJHJIJJJK00JLJMJNJOJPJQJR00JSJT
#00611:01010101
#00613:0017
#00614:19000000000000000000001B00000000
#00615:0000001B000000000000000000000000
#00618:0000001D0000001D
#00701:01010101
#00701:00
#00701:00030003
#00701:0004000400040004
#00701:00000505000005050000050500000505
#00701:00
#00701:00000000000000000000000000150000
#00701:00
#00701:00
#00701:00
#00701:00
#00701:0070007000700070
#00701:00
#00701:00
#00701:00
#00701:00
#00701:00
#00701:00
#00701:00
#00701:00
#00701:00
#00701:00
#00701:J2J3J4J5J600J7J8J9JAJBJCJD00JEJF
#00711:0015
#00712:00000000000000000000001500000000
#00713:00001500001500000000000000000000
#00714:19000000000000000019000000000000
#00715:0000001B00000000000000001B000000
#00718:0000001D0000001D
#00801:01010101
#00801:00
#00801:00030003
#00801:0004000400040004
#00801:00000505000005050000050500000505
#00801:00
#00801:00
#00801:00
#00801:00
#00801:00
#00801:00
#00801:0070007000700070
#00801:00
#00801:00
#00801:00
#00801:00
#00801:00
#00801:00
#00801:00
#00801:00
#00801:00
#00801:00
#00801:JGJHJIJJJK00JLJMJNJOJPJQJR00JSJT
#00812:00000000000000000000000000150000
#00813:00001500001500150000000000000000
#00814:190000000015001D
#00815:0000001B000000000000000000000000
#00818:0000000000001D000000001F00000000
#00819:001H
#00901:01010101
#00901:00
#00901:00030003
#00901:0004000400040004
#00901:00000505000005050000050500000505
#00901:00
#00901:00000000000000000000000000150000
#00901:00
#00901:00
#00901:00
#00901:00
#00901:0070007000700070
#00901:00
#00901:00
#00901:00
#00901:00
#00901:00
#00901:00
#00901:00
#00901:00
#00901:00
#00901:00
#00901:J2J3J4J5J600J7J8J9JAJBJCJD00JEJF
#00911:1915
#00912:00000000000000000000001500000000
#00913:00001500001500000000000000000000
#00914:00000000000000000019000000000000
#00915:0000001B00000000000000001B000000
#00918:0000001D0000001D
#01001:01010101
#01001:00
#01001:00030003
#01001:0004000400040004
#01001:00000505000005050000050500000505
#01001:00
#01001:00000000000000150000000000000000
#01001:00
#01001:00
#01001:00
#01001:00
#01001:0070007000700070
#01001:00
#01001:00
#01001:00
#01001:00
#01001:00
#01001:00
#01001:00
#01001:00
#01001:00
#01001:00
#01001:JGJHJIJJJK00JLJMJNJOJPJQJR00JSJT
#01011:1900000000150000
#01012:0017
#01013:00001500001500000000000000150000
#01014:00000000000000000000001B00000000
#01015:0000001B000000000000000000000000
#01018:0000001D0000001D
#01101:00
#01101:00
#01101:00
#01101:0004000400040004
#01101:00000505000005050000050500000505
#01101:00
#01101:1A00161C00161E00161A00161C161E00
#01101:00
#01101:00
#01101:00
#01101:00
#01101:0070007000700070
#01101:79007Z797Z0079797L00797L00797E00
#01101:00008600860000007Z00007Z00007L00
#01101:00
#01101:00
#01101:00
#01101:00
#01101:00
#01101:00
#01101:00
#01101:00
#01101:J2J3J4J5J600J7J8J9JAJBJCJD00JEJF
#01111:01010101
#01113:00030003
#01116:KX
#01119:910000000000000000000000000000ZZ
#01201:00
#01201:00
#01201:00030003
#01201:0004000400040004
#01201:00000505000005050000050500000505
#01201:00
#01201:1A00161C00161E161I00161G00161E00
#01201:00
#01201:00
#01201:00
#01201:00
#01201:0070007000700070
#01201:79007Z797Z0079797L00797L00797E00
#01201:00008600860000007Z00007Z00007L00
#01201:00
#01201:00
#01201:00
#01201:00
#01201:00
#01201:00
#01201:00
#01201:00
#01201:JGJHJIJJJK00JLJMJNJOJPJQJR00JSJT
#01211:01010101
#01213:0000008T00008M00
#01214:0000008W000000000000000000000000
#01215:8Y000000008N0000
#01219:000000008Q00008T
#01301:00
#01301:00
#01301:00
#01301:0004000400040004
#01301:00000505000005050000050500000505
#01301:00
#01301:1A00161C00161E00161A00161C161E00
#01301:00
#01301:00
#01301:00
#01301:00
#01301:0070007000700070
#01301:79007Z797Z0079797L00797L00797E00
#01301:00008600860000007Z00007Z00007L00
#01301:00
#01301:00
#01301:00
#01301:00
#01301:00
#01301:00
#01301:00
#01301:00
#01301:J2J3J4J5J600J7J8J9JAJBJCJD00JEJF
#01311:01010101
#01312:000000000000008K
#01313:00030003
#01315:8S0000ZZ8S0000ZZ
#01319:0000008U00000000
#01401:00
#01401:00
#01401:00030003
#01401:0004000400040004
#01401:00000505000005050000050500000505
#01401:00
#01401:1A00161C00161E161800161C00161E00
#01401:00
#01401:00
#01401:00
#01401:00
#01401:0070007000700070
#01401:79007Z797Z0079797L00797L00797E00
#01401:00008600860000007Z00007Z00007L00
#01401:00
#01401:00
#01401:00
#01401:00
#01401:00
#01401:00
#01401:00
#01401:00
#01401:JGJHJIJJJK00JLJMJNJOJPJQJR00JSJT
#01411:01010101
#01413:000000000000008L
#01414:8O
#01415:000000008R0000000000008M00000000
#01419:00000000000000008P0000ZZ00000000
#01501:00
#01501:00
#01501:00
#01501:0004000400040004
#01501:00000505000005050000050500000505
#01501:1212111110100Z0Z0Y0Y0X0X0W0W0V0V
#01501:1A00161C00161E00161A00161C161E00
#01501:00
#01501:00
#01501:00
#01501:00
#01501:0070007000700070
#01501:79007Z797Z0079797L00797L00797E00
#01501:00008600860000007Z00007Z00007L00
#01501:00
#01501:00
#01501:00
#01501:00
#01501:00
#01501:00
#01501:00
#01501:00
#01501:J2J3J4J5J600J7J8J9JAJBJCJD00JEJF
#01511:01010101
#01513:00030003
#01519:910000000000000000000000000000ZZ
#01601:00
#01601:00
#01601:00030003
#01601:0004000400040004
#01601:00000505000005050000050500000505
#01601:0U0U0T0T0S0S0R0Q0P0P0O0N0M0L0K0J
#01601:1A00161C00161E161I00161G00161E00
#01601:00
#01601:00
#01601:00
#01601:00
#01601:0070007000700070
#01601:79007Z797Z0079797L00797L00797E00
#01601:00008600860000007Z00007Z00007L00
#01601:00
#01601:00
#01601:00
#01601:00
#01601:00
#01601:00
#01601:00
#01601:00
#01601:JGJHJIJJJK00JLJMJNJOJPJQJR00JSJT
#01611:01010101
#01612:0000008T00000000
#01613:00000000008N0000
#01614:0000008W000000000000000000000000
#01615:8Y000094
#01618:008Q
#01619:0000000000000096
#01701:00
#01701:00
#01701:00
#01701:0004000400040004
#01701:00000505000005050000050500000505
#01701:0I0H0G0F0F0E0D0D0C0C0B0B0A0A0909
#01701:1A00131C00131E00131A00131C131E00
#01701:00
#01701:00
#01701:00
#01701:00
#01701:006X006X006X006X
#01701:74007Z747Z0074747L00747L00747E00
#01701:00008600860000007Z00007Z00007L00
#01701:00
#01701:00
#01701:00
#01701:00
#01701:00
#01701:00
#01701:00
#01701:00
#01701:J2J3J4J5J600J7J8J9JAJBJCJD00JEJF
#01711:01010101
#01713:00030003
#01714:0000008V0000008Z
#01718:950000ZZ950000ZZ
#01801:00
#01801:00
#01801:00
#01801:00
#01801:00
#01801:0000060607000700070000000700070000000700000007000700070007000700
#01801:1A00141C00141E141800141C00141E00
#01801:00
#01801:00
#01801:00
#01801:00
#01801:006Y006Y006Y006Y
#01801:77007Z777Z0077777L00777L00777E00
#01801:00008600860000007Z00007Z00007L00
#01801:00
#01801:00
#01801:00
#01801:00
#01801:00
#01801:00
#01801:00
#01801:00
#01801:JGJHJIJJJK00JLJMJNJOJPJQJR00JSJT
#01811:01
#01814:000000000000008X
#01815:92000000000000000000008Y00000000
#01816:KX
#01818:00940000
#01819:0000000000000000930000ZZ00000000
#01901:00
#01901:00030003
#01901:00
#01901:0004000400040004
#01901:00000505000005050000050500000505
#01901:00
#01901:00
#01901:000000002300000000002D00000000000000000000000000000000000000003K
#01901:00
#01901:5H0000004R005N00000051005U0000005N00000059005U0051005N0063000068
#01901:00
#01901:0070007000700070
#01901:7A007Z797Z0079797L00797L00797E00
#01901:00008600860000007Z00007Z00007L00
#01901:00
#01901:00
#01901:00
#01901:00
#01901:00
#01901:00
#01901:00
#01901:00
#01901:J2J3J4J5J600J7J8J9JAJBJCJD00JEJF
#01911:01010101
#01912:00000000000000000000003600000000
#01913:2T
#01914:00002Z2D
#01915:0000002Z0000000000002L00002Z0000
#01916:KX
#01918:000000000000003F
#01919:0000003600000000
#02001:00
#02001:00030000
#02001:00000003
#02001:0004000400040004
#02001:00000505000005050000050500000505
#02001:00
#02001:00
#02001:00
#02001:00
#02001:6I00006C00006H005H006R006H005X00
#02001:00
#02001:0070007000700070
#02001:79007Z797Z0079797L00797L00797E00
#02001:00008600860000007Z00007Z00007L00
#02001:00
#02001:00
#02001:00
#02001:00
#02001:00
#02001:00
#02001:00
#02001:00
#02001:JGJHJIJJJK00JLJMJNJOJPJQJR00JSJT
#02011:01010101
#02012:0000000000000039
#02013:002T
#02014:0000003O00000000000000003T000000
#02018:0000003T00000000
#02019:3U00000000430000
#02101:00
#02101:00
#02101:00030003
#02101:0004000400040004
#02101:00000505000005050000050500000505
#02101:00
#02101:00
#02101:00
#02101:00
#02101:626E670000005X005Q00006600006M00
#02101:00
#02101:006V006V006V006V
#02101:71007Z717Z0071717L00717L00717E00
#02101:00008600860000007Z00007Z00007L00
#02101:00
#02101:00
#02101:00
#02101:00
#02101:00
#02101:00
#02101:00
#02101:00
#02101:J2J3J4J5J600J7J8J9JAJBJCJD00JEJF
#02111:01010101
#02113:0000003900000000
#02114:0032
#02115:3E003J000000ZZ000000003I00000000
#02118:000000000000003Y
#02119:003Q0000000000000000000000000000
#02201:00000001
#02201:00
#02201:00030003
#02201:0004000400040004
#02201:00000505000005050000050500000505
#02201:00
#02201:00
#02201:00
#02201:00
#02201:6H0000006B0000006200515U00515E00
#02201:00
#02201:006W006W006W006W
#02201:73007Z737Z0073737L00737L00737E00
#02201:00008600860000007Z00007Z00007L00
#02201:00
#02201:00
#02201:00
#02201:00
#02201:00
#02201:00
#02201:00
#02201:00
#02201:JGJHJIJJJK00JLJMJNJOJPJQJR00JSJT
#02211:01010100
#02212:000000000000000000000000002D0000
#02213:00000000002D0000
#02214:003E
#02215:00003N000000002Q
#02218:00000000000000000000003600000000
#02219:3T
#02301:00
#02301:00
#02301:00030003
#02301:0004000400040004
#02301:00000505000005050000050500000505
#02301:00
#02301:00
#02301:000000002300000000002D0000000000000000002L0000002D0000000000003K
#02301:00
#02301:5H0000004R005N00000051005U0000005N00000059005U0051005N0063000068
#02301:00
#02301:0070007000700070
#02301:79007Z797Z0079797L00797L00797E00
#02301:00008600860000007Z00007Z00007L00
#02301:00
#02301:00
#02301:00
#02301:00
#02301:00
#02301:00
#02301:00
#02301:00
#02301:J2J3J4J5J600J7J8J9JAJBJCJD00JEJF
#02311:01010101
#02313:2T0000000000000000000000002Z0000
#02314:0000002Z000000000000003600000000
#02315:000000002Z00003F
#02318:0000003600000000
#02401:00
#02401:00
#02401:00030003
#02401:0004000400040004
#02401:00000505000005050000050500000505
#02401:00
#02401:00
#02401:002T
#02401:00
#02401:6I00006C00006H005H006U006T006P00
#02401:00
#02401:0070007000700070
#02401:79007Z797Z0079797L00797L00797E00
#02401:00008600860000007Z00007Z00007L00
#02401:00
#02401:00
#02401:00
#02401:00
#02401:00
#02401:00
#02401:00
#02401:00
#02401:JGJHJIJJJK00JLJMJNJOJPJQJR00JSJT
#02411:01010101
#02412:0000000000000041
#02414:0000003O000000000000000000000000
#02415:00000045
#02418:3U00003T00000000
#02419:0000000000460000
#02501:00
#02501:00
#02501:00030003
#02501:0004000400040004
#02501:00000505000005050000050500000505
#02501:00
#02501:00
#02501:00
#02501:00
#02501:6S00006I000065005X005P005X006P00
#02501:00
#02501:006V006V006V006V
#02501:71007Z717Z0071717L00717L00717E00
#02501:00008600860000007Z00007Z00007L00
#02501:00
#02501:00
#02501:00
#02501:00
#02501:00
#02501:00
#02501:00
#02501:00
#02501:J2J3J4J5J600J7J8J9JAJBJCJD00JEJF
#02511:01010101
#02512:0000000000310000
#02513:0000003H00000000
#02514:0000003U000000000000000039000000
#02515:0039
#02518:440000ZZ000000000000000000004100
#02601:00
#02601:00
#02601:00030003
#02601:0004000400040004
#02601:00000505000005050000050500000505
#02601:0000000600000000000000000000000000000000000000000000000000000000
#02601:00
#02601:3Q3X3V0000003N003T002Z003E004000
#02601:00
#02601:6E6L6J0000006B006H005N0062006O00
#02601:00
#02601:006W006W006Y006Y
#02601:73007Z737Z0073737L00777L00777E00
#02601:00008600860000007Z00007Z00007L00
#02601:00
#02601:00
#02601:00
#02601:00
#02601:00
#02601:00
#02601:00
#02601:00
#02601:JGJHJIJJJK00JLJMJNJOJPJQJR00JSJT
#02611:01
#02612:0000000700000007
#02613:0007070000000700
#02615:00060007000000000000000700000007
#02616:KX
#02618:00000000000000070007000000070000
#02701:01010101
#02701:00
#02701:00030003
#02701:0004000400040004
#02701:00000505000005050000050500000505
#02701:00
#02701:00
#02701:2D00000000002L00000000002T0000002L0000002D002T0000002L002U000034
#02701:000000000000000000000000000000000000000000000000000000000000003K
#02701:510000004R005900000051005H0000005900000051005H00510059005I00005S
#02701:5H00000000005N00000000005U0000005N00000059005U0000005N0063000068
#02701:0070007000700070
#02701:7A007Z797Z0079797L00797L00797E00
#02701:00008600860000007Z00007Z00007L00
#02701:00
#02701:00
#02701:00
#02701:00
#02701:00
#02701:00
#02701:00
#02701:00
#02701:J2J3J4J5J600J7J8J9JAJBJCJD00JEJF
#02711:2T000000002L0000
#02712:0023000000002D00
#02713:00000000002D000000000000002Z0000
#02714:0000002Z000000002Z00000000000000
#02715:000000000000003F
#02716:KX
#02718:00000000000036000000003600000000
#02801:01010101
#02801:00
#02801:00030003
#02801:0004000400040004
#02801:00000505000005050000050500000505
#02801:00
#02801:00
#02801:3A000032000039002D003T0039002W00
#02801:002T
#02801:5Y00005Q00005X0051006H005X005K00
#02801:6I00006C00006H005H00000000000000
#02801:0070007000700070
#02801:79007Z797Z0079797L00797L00797E00
#02801:00008600860000007Z00007Z00007L00
#02801:00
#02801:00
#02801:00
#02801:00
#02801:00
#02801:00
#02801:00
#02801:00
#02801:JGJHJIJJJK00JLJMJNJOJPJQJR00JSJT
#02811:000000000000005X
#02812:0000006H
#02813:0000003O0000000000006R0000003900
#02814:0000003T
#02815:0000000000430000
#02819:3U00003T00000000
#02901:01010101
#02901:00
#02901:00030003
#02901:0004000400040004
#02901:00000505000005050000050500000505
#02901:00
#02901:00
#02901:2Z36330000002W002O00002X00003900
#02901:00
#02901:5N5U5R0000005K005C00005L00005X00
#02901:626E670000005X000000000000000000
#02901:006V006V006V006V
#02901:71007Z717Z0071717L00717L00717E00
#02901:00008600860000007Z00007Z00007L00
#02901:00
#02901:00
#02901:00
#02901:00
#02901:00
#02901:00
#02901:00
#02901:00
#02901:J2J3J4J5J600J7J8J9JAJBJCJD00JEJF
#02911:0032
#02912:00000000000039000000003I00000000
#02913:000000000000003Y
#02914:005Q
#02915:3E003J000000ZZ000000006600000000
#02918:000000000000006M
#02919:003Q0000000000000000000000000000
#03001:01000000010000000100000100000100
#03001:00
#03001:00030003
#03001:0004000400040004
#03001:00000505000005050000050500000505
#03001:00
#03001:00
#03001:3H000000390000002Z00002T00002900
#03001:00
#03001:650000005X0000005N00515H00514X00
#03001:00000000000000006200005U00005E00
#03001:006W006W006W006W
#03001:73007Z737Z0073737L00737L00737E00
#03001:00008600860000007Z00007Z00007L00
#03001:00
#03001:00
#03001:00
#03001:00
#03001:00
#03001:00
#03001:00
#03001:00
#03001:JGJHJIJJJK00JLJMJNJOJPJQJR00JSJT
#03011:003N0000
#03012:000000000000000000000000002D0000
#03013:00006B00002D0000
#03014:3T0000000000002Q
#03015:00000000000000000000003600000000
#03018:003E
#03019:6H
#03101:00
#03101:00
#03101:00030003
#03101:0004000400040004
#03101:00000505000005050000050500000505
#03101:1212111110100Z0Z0Y0Y0X0X0W0W0V0V
#03101:00
#03101:2D00000023002L0000002D002T0000002L0000002L002T002D002L002U000034
#03101:00000000000000000000000000000000000000000000000000002Z000000003K
#03101:510000004R005900000051005H0000005900000059005H00510059005I00005S
#03101:5H00000000005N00000000005U0000005N00000000005U0000005N0063000068
#03101:0070007000700070
#03101:79007Z797Z0079797L00797L00797E00
#03101:00008600860000007Z00007Z00007L00
#03101:00
#03101:00
#03101:00
#03101:00
#03101:00
#03101:00
#03101:00
#03101:00
#03101:J2J3J4J5J600J7J8J9JAJBJCJD00JEJF
#03111:02020202
#03113:0002000200020002
#03114:002Z
#03115:2T000000000000000000003600000000
#03116:KX
#03118:0000002Z000000000000000000003F00
#03119:0000003600000000
#03201:00
#03201:00
#03201:00030003
#03201:0004000400040004
#03201:00000505000005050000050500000505
#03201:0U0U0T0T0S0S0R0Q0P0P0O0N0M0L0K0J
#03201:00
#03201:3A000032000039002T0043003T003H00
#03201:00
#03201:5Y00005Q00005X005H006R006H006500
#03201:6I00006C00006H0000006U006T006P00
#03201:0070007000700070
#03201:79007Z797Z0079797L00797L00797E00
#03201:00008600860000007Z00007Z00007L00
#03201:00
#03201:00
#03201:00
#03201:00
#03201:00
#03201:00
#03201:00
#03201:00
#03201:JGJHJIJJJK00JLJMJNJOJPJQJR00JSJT
#03211:3U00000000000041
#03212:0000003T00004500
#03213:0000003O000000000000460000000000
#03215:0002000200020002
#03216:KX
#03219:02020202
#03301:00
#03301:00
#03301:00030003
#03301:0004000400040004
#03301:00000505000005050000050500000505
#03301:0I0H0G0F0F0E0D0D0C0C0B0B0A0A0909
#03301:00
#03301:3U00003A000031002W002N002W003H00
#03301:4400003U00003H003900310039004100
#03301:6I00005Y00005P005K005B005K006500
#03301:6S00006I000065005X005P005X006P00
#03301:006V006V006V006V
#03301:71007Z717Z0071717L00717L00717E00
#03301:00008600860000007Z00007Z00007L00
#03301:00
#03301:00
#03301:00
#03301:00
#03301:00
#03301:00
#03301:00
#03301:00
#03301:J2J3J4J5J600J7J8J9JAJBJCJD00JEJF
#03311:0000020000020000
#03312:0002000200000200
#03313:0200000002000002
#03315:00000002000000020000000200000002
#03316:KXKX
#03318:00020000000000000002000000020000
#03319:00000000000200000000000000000000
#03401:00
#03401:00
#03401:00030003
#03401:0004000400040004
#03401:00000505000005050000050500000505
#03401:0000000600000000000000000000000000000000000000000000000000000000
#03401:00
#03401:363E3B000000310037002L002Z003Q00
#03401:3Q3X3V0000003N003R002Z003E004000
#03401:5U625Z0000005P005V0059005N006E00
#03401:6E6L6J0000006B006F005N0062006O00
#03401:006W006W006Y006Y
#03401:73007Z737Z0073737L00777L00777E00
#03401:00008600860000007Z00007Z00007L00
#03401:00
#03401:00
#03401:00
#03401:00
#03401:00
#03401:00
#03401:00
#03401:00
#03401:JGJHJIJJJK00JLJMJNJOJPJQJR00JSJT
#03411:00000007
#03412:0000000700000000
#03413:00000700070000000000000000070000
#03414:01
#03415:00000007000000000000000000000700
#03416:KX
#03418:00060000000000070007000000000000
#03419:00000000000000000000000700000007
#03501:KZ
#03501:00
#03501:00
#03501:00
#03501:00
#03501:00
#03501:00
#03501:00
#03501:00
#03501:00
#03501:00
#03501:0070007000700070
#03501:00
#03501:00
#03501:00
#03501:A40000A8
#03501:00
#03501:00
#03501:00
#03501:00
#03501:ZX
#03501:00
#03501:J2J3J4J5J600J7J8J9JAJBJCJD00JEJF
#03514:88
#03516:KX
#03518:0000008C
#03601:00
#03601:00
#03601:00
#03601:00
#03601:00
#03601:00
#03601:00
#03601:00
#03601:00
#03601:00
#03601:00
#03601:0070007000700070
#03601:00
#03601:00
#03601:00
#03601:A2000000A0A3A09R
#03601:00
#03601:00
#03601:00
#03601:00
#03601:00
#03601:00
#03601:JGJHJIJJJK00JLJMJNJOJPJQJR00JSJT
#03612:000000000000007T
#03614:8583
#03615:00000083
#03619:0000000000870000
#03701:00
#03701:00
#03701:00
#03701:00
#03701:00
#03701:00
#03701:00
#03701:00
#03701:00
#03701:00
#03701:00
#03701:006Y006Y006Y006Y
#03701:00
#03701:00
#03701:00
#03701:9O00009J00009U00
#03701:00
#03701:00
#03701:00
#03701:00
#03701:00
#03701:00
#03701:J2J3J4J5J600J7J8J9JAJBJCJD00JEJF
#03711:0000007K00000000
#03713:7Q
#03715:0000007W
#03801:00
#03801:00
#03801:00
#03801:00
#03801:00
#03801:00
#03801:00
#03801:00
#03801:00
#03801:00
#03801:00
#03801:006Y006Y006W006W
#03801:00
#03801:00
#03801:00
#03801:9N009A009L9H9E9C
#03801:00
#03801:00
#03801:00
#03801:00
#03801:00
#03801:00
#03801:JGJHJIJJJK00JLJMJNJOJPJQJR00JSJT
#03811:000000000000007C
#03812:00780000
#03813:0000007F
#03814:7P
#03815:00000000007I0000
#03819:007N
#03901:00
#03901:00
#03901:00
#03901:00
#03901:00
#03901:00
#03901:00
#03901:00
#03901:00
#03901:00
#03901:00
#03901:006X006X006X006X
#03901:00
#03901:00
#03901:00
#03901:9F00009I
#03901:00
#03901:00
#03901:00
#03901:00
#03901:00
#03901:00
#03901:J2J3J4J5J600J7J8J9JAJBJCJD00JEJF
#03913:7G
#03918:0000007J
#04001:00
#04001:00
#04001:00
#04001:00
#04001:00
#04001:00
#04001:00
#04001:00
#04001:00
#04001:00
#04001:00
#04001:006X006X006X006X
#04001:00
#04001:00
#04001:00
#04001:9D000000990000009T00009M00009H00
#04001:00
#04001:00
#04001:00
#04001:00
#04001:00
#04001:00
#04001:JGJHJIJJJK00JLJMJNJOJPJQJR00JSJT
#04011:00760000
#04012:000000000000007I
#04013:7D
#04014:00000000000000000000007O00000000
#04018:007V
#04101:00
#04101:00
#04101:00
#04101:00
#04101:00
#04101:00
#04101:00
#04101:00
#04101:00
#04101:00
#04101:00
#04101:006Y006Y006V006V
#04101:00
#04101:00
#04101:00
#04101:9P
#04101:00
#04101:00
#04101:00
#04101:00
#04101:00
#04101:00
#04101:J2J3J4J5J600J7J8J9JAJBJCJD00JEJF
#04118:7R
#04201:00
#04201:00
#04201:00
#04201:00
#04201:00
#04201:00
#04201:00
#04201:00
#04201:00
#04201:00
#04201:00
#04201:006Y006Y006Z006Z
#04201:00
#04201:00
#04201:00
#04201:000000000000000097989B9G9K9Q9ZA6
#04201:00
#04201:00
#04201:00
#04201:00
#04201:00
#04201:00
#04201:JGJHJIJJJK00JLJMJNJOJPJQJR00JSJT
#04211:0072
#04212:0000000000000000007500007M000000
#04213:000000000000000000000000007S0000
#04214:00000000007B0000
#04215:0000000000000082
#04218:00000000000000000000007H0000008A
#04301:00
#04301:00
#04301:00
#04301:0004000400040004
#04301:00000505000005050000050500000505
#04301:00
#04301:00
#04301:00
#04301:00
#04301:00
#04301:00
#04301:0070007000700070
#04301:00
#04301:00
#04301:00
#04301:00
#04301:00
#04301:00
#04301:AHAIAJ00AK00ALAM00ANAOAP00AQAR00
#04301:00
#04301:00
#04301:00
#04301:J2J3J4J5J600J7J8J9JAJBJCJD00JEJF
#04314:000000A8
#04315:A4
#04316:KX
#04318:0000008C
#04319:88
#04401:00
#04401:00
#04401:00
#04401:0004000400040004
#04401:00000505000005050000050500000505
#04401:00
#04401:00
#04401:00
#04401:00
#04401:00
#04401:00
#04401:0070007000700070
#04401:00
#04401:00
#04401:00
#04401:000000000000000000000000009YA5AA00000000000000000000000000000000
#04401:00
#04401:00
#04401:ASATAU00AV00AWAX00AYAZB000B1B2B3
#04401:00
#04401:00
#04401:00
#04401:JGJHJIJJJK00JLJMJNJOJPJQJR00JSJT
#04411:00009S00000000A7
#04412:0000000000000000000000000081000000000000000000000000000000000000
#04413:A10000007U000089000000AC00008B00
#04414:0000000000000000000000000000008E00000000000000000000000000000000
#04415:8400000000000000AF00008G00000000
#04419:008J
#04501:00
#04501:00
#04501:00
#04501:0004000400040004
#04501:00000505000005050000050500000505
#04501:00
#04501:00
#04501:00
#04501:00
#04501:00
#04501:00
#04501:006Y006Y006Y006Y
#04501:00
#04501:00
#04501:00
#04501:00
#04501:00
#04501:00
#04501:B4B5B600B700B8B900BABBBC00BDBE00
#04501:00
#04501:00
#04501:00
#04501:J2J3J4J5J600J7J8J9JAJBJCJD00JEJF
#04511:0000009U
#04514:AE
#04515:0000007W
#04518:8I
#04601:00
#04601:00
#04601:00
#04601:0004000400040004
#04601:00000505000005050000050500000505
#04601:00
#04601:00
#04601:00
#04601:00
#04601:00
#04601:00
#04601:006Y006Y006W006W
#04601:00
#04601:00
#04601:00
#04601:00
#04601:00
#04601:00
#04601:BFBGBH00BI00BJBK00BLBMBN00BOBPBQ
#04601:00
#04601:00
#04601:00
#04601:JGJHJIJJJK00JLJMJNJOJPJQJR00JSJT
#04612:00000000000000A0
#04613:AD0000A3
#04614:0000000000A70083
#04615:0000AB87
#04618:00000000008B0000
#04619:8H8F
#04701:00
#04701:00
#04701:00
#04701:0004000400040004
#04701:00000505000005050000050500000505
#04701:1212111110100Z0Z0Y0Y0X0X0W0W0V0V
#04701:00
#04701:00
#04701:00
#04701:00
#04701:00
#04701:006X006X006X006X
#04701:00
#04701:00
#04701:00
#04701:00
#04701:00
#04701:00
#04701:BRBSBT00BU00BVBW00BXBYBZ00C0C100
#04701:00
#04701:00
#04701:00
#04701:J2J3J4J5J600J7J8J9JAJBJCJD00JEJF
#04711:A4
#04714:000000A8
#04715:88
#04716:KX
#04719:0000008C
#04801:00
#04801:00
#04801:00
#04801:0004000400040004
#04801:00000505000005050000050500000505
#04801:0U0U0T0T0S0S0R0Q0P0P0O0N0M0L0K0J
#04801:00
#04801:00
#04801:00
#04801:00
#04801:00
#04801:006X006X006X006X
#04801:00
#04801:00
#04801:00
#04801:00
#04801:00
#04801:00
#04801:C2C3C400C500C6C700C8C9CA00CBCCCD
#04801:00
#04801:00
#04801:00
#04801:JGJHJIJJJK00JLJMJNJOJPJQJR00JSJT
#04811:009W0000
#04813:A19W
#04814:000000007Y0000000000009X00000000
#04815:000000007Y0000A0
#04816:KX
#04818:84000000000000000000008000000000
#04819:0000000000000083
#04901:00
#04901:00
#04901:00
#04901:0004000400040004
#04901:00000505000005050000050500000505
#04901:0I0H0G0F0F0E0D0D0C0C0B0B0A0A0909
#04901:00
#04901:00
#04901:00
#04901:00
#04901:00
#04901:006Y006Y006Y006Y
#04901:00
#04901:00
#04901:00
#04901:00
#04901:00
#04901:00
#04901:CECFCG00CH00CICJ00CKCLCM00CNCO00
#04901:00
#04901:00
#04901:00
#04901:J2J3J4J5J600J7J8J9JAJBJCJD00JEJF
#04912:9V
#04913:000000A1
#04914:7X
#04915:00000084
#04916:KXKX
#05001:00
#05001:00
#05001:00
#05001:0004000400040004
#05001:00000505000005050000050500000505
#05001:080808080808080808080808080808080808080808080808
#05001:00
#05001:00
#05001:00
#05001:00000000000000004A4F4N4W50585M61
#05001:00
#05001:006Y006Y006Y006Z
#05001:00
#05001:00
#05001:00
#05001:00
#05001:00
#05001:00
#05001:CPCQCR00CS00CTCU00CVCWCX00CYCZD0
#05001:00
#05001:00
#05001:00
#05001:JGJHJIJJJK00JLJMJNJOJPJQJR00JSJT
#05011:001M
#05012:0000002C
#05013:0000000000000000001R000000000000
#05014:000000000000000000001Z00002K0000
#05015:A90000000000002Y
#05016:KX
#05018:00000000000000000000002800000000
#05019:8D00000000000000000000000000003D
#05101:01010101
#05101:KZ
#05101:00030003
#05101:0004000400040004
#05101:00000505000005050000050500000505
#05101:00
#05101:00
#05101:1W001W002E0000002E00002E00002000
#05101:00
#05101:4K004K005200000052004W52004W4O00
#05101:00
#05101:0070007000700070
#05101:00
#05101:00
#05101:00
#05101:00
#05101:00
#05101:00
#05101:D2D3D400D500D6D700D8D9DA00DBDC00
#05101:00
#05101:00
#05101:00
#05101:J2J3J4J5J600J7J8J9JAJBJCJD00JEJF
#05111:2C002C00000000000000000000280000
#05112:0000380000280000
#05113:505000000000002I
#05114:00000000000000000000002R00000000
#05115:0000000030000056
#05116:KX
#05118:000000005W0000000000005F00000000
#05119:005O
#05201:01010101
#05201:00
#05201:00
#05201:0004000400040004
#05201:00000505000005050000050500000505
#05201:00
#05201:00
#05201:2500001Y00001N001S001M1X001M2E00
#05201:00
#05201:4T00004M00004B004G004A4L004A5200
#05201:00
#05201:0070007000700070
#05201:00
#05201:00
#05201:00
#05201:00
#05201:00
#05201:00
#05201:DDDEDF00DG00DHDI00DJDKDL00DMDNDO
#05201:00
#05201:00
#05201:00
#05201:JGJHJIJJJK00JLJMJNJOJPJQJR00JSJT
#05211:000003002000002M
#05212:2F000003
#05213:0000002B000000004O00000000000000
#05214:00000000000024000000002A00000000
#05215:0000004S00000000
#05218:0000004Z000000000000004Y00000000
#05219:530000000000005A
#05301:01010101
#05301:00
#05301:00030003
#05301:0004000400040004
#05301:00000505000005050000050500000505
#05301:00
#05301:00
#05301:2700000000001K001M1P1R1W1Z1W1R1P
#05301:00
#05301:4V000000000048004A4D4F4K4N4K4F4D
#05301:0000000000004B004K4N4Q4W504W4Q4N
#05301:006Y006Y006Y006Y
#05301:00
#05301:00
#05301:00
#05301:00
#05301:00
#05301:00
#05301:DPDQDR00DS00DTDU00DVDWDX00DYDZ00
#05301:00
#05301:00
#05301:00
#05301:J2J3J4J5J600J7J8J9JAJBJCJD00JEJF
#05311:001W
#05312:0000000000001N00000000000000001Z
#05313:0000000000000000001Z000000000000
#05314:2G0000ZZ00220022
#05315:00000000000000000000000000280000
#05318:540000000000ZZ000000002800000000
#05319:0000002C
#05401:01010101
#05401:00
#05401:00030003
#05401:0004000400040004
#05401:00000505000005050000050500000505
#05401:00
#05401:00
#05401:240000002V0000002P00003000002A00
#05401:00
#05401:4S0000005J0000005D00005O00004Y00
#05401:52
#05401:006Y006Y006W006W
#05401:00
#05401:00
#05401:00
#05401:00
#05401:00
#05401:00
#05401:E0E1E200E300E4E500E6E7E800E9EAEB
#05401:00
#05401:00
#05401:00
#05401:JGJHJIJJJK00JLJMJNJOJPJQJR00JSJT
#05411:2E
#05412:000000002Y2C0000
#05413:000038000000002M
#05414:00000000000000005M005000002C0000
#05415:00000000000000000000003G00005A00
#05418:00000000000000000000000000500000
#05419:000000005W0000000000006400000000
#05501:01010101
#05501:00
#05501:00030003
#05501:0004000400040004
#05501:00000505000005050000050500000505
#05501:00
#05501:00
#05501:1P001P002E0000002E00002I00002A00
#05501:00
#05501:4D004D005200000052004W5600504Y00
#05501:00
#05501:006X006X006X006X
#05501:00
#05501:00
#05501:00
#05501:00
#05501:00
#05501:00
#05501:ECEDEE00EF00EGEH00EIEJEK00ELEM00
#05501:00
#05501:00
#05501:00
#05501:J2J3J4J5J600J7J8J9JAJBJCJD00JEJF
#05511:2C002C000000000000000000002C0000
#05512:000000000000002I
#05513:5050000000280000
#05514:00000000380000000000002R00005600
#05515:0030
#05518:000000005W0000000000005F00000000
#05519:005O
#05601:01010101
#05601:00
#05601:00030003
#05601:0004000400040004
#05601:00000505000005050000050500000505
#05601:00
#05601:00
#05601:2000001Y00002E001M1P1R1W222C2S2Y
#05601:00
#05601:4O004A4M000052004A4D4F4K4Q505G5M
#05601:00000000000000004F4K4N4W585M616N
#05601:006X006X006X006X
#05601:00
#05601:00
#05601:00
#05601:00
#05601:00
#05601:00
#05601:ENEOEP00EQ00ERES00ETEUEV00EWEXEY
#05601:00
#05601:00
#05601:00
#05601:JGJHJIJJJK00JLJMJNJOJPJQJR00JSJT
#05611:001R
#05612:0000002B0000000000001Z0000000000
#05613:2E00002M00002K00
#05614:00001M0000000000001W000000003D00
#05615:0000000000005A000000002800000000
#05618:0000004Z0000000000000000002Y003Z
#05619:52
#05701:01010101
#05701:00
#05701:00030003
#05701:0004000400040004
#05701:00000505000005050000050500000505
#05701:00
#05701:00
#05701:3C00002E3C00002E
#05701:00
#05701:6000005260000052
#05701:00
#05701:006Y006Y006V006V
#05701:00
#05701:00
#05701:00
#05701:00
#05701:00
#05701:00
#05701:EZF0F100F200F3F400F5F6F700F8F900
#05701:00
#05701:00
#05701:00
#05701:J2J3J4J5J600J7J8J9JAJBJCJD00JEJF
#05711:6K0000ZZ3W0000ZZ
#05713:0000002V0000002V
#05715:0000005J0000005J
#05719:3W0000ZZ6K0000ZZ
#05801:01010100
#05801:0000000000000202
#05801:00030003
#05801:0004000400040004
#05801:00000505000005050000050500000505
#05801:00
#05801:00
#05801:2P2S2Y352Y352Y2S2Y00002V00002M00
#05801:00
#05801:5D5G5M5T5M5T5M5G5M00005J00005A00
#05801:5M5T61696D69615T6D00000000000000
#05801:006Y006Y006Z006Z
#05801:00
#05801:00
#05801:00
#05801:00
#05801:00
#05801:00
#05801:FAFBFC00FD00FEFF00FGFHFI00FJFKFL
#05801:00
#05801:00
#05801:00
#05801:JGJHJIJJJK00JLJMJNJOJPJQJR00JSJT
#05812:2Y000000000000350000000000003000
#05813:0000003L000000000000006400000000
#05814:0035000000003D000000500000005O00
#05815:00000000003L00000000003G002C0000
#05818:003D00003P2C0000
#05819:000000003P0000000000000000500000
#05901:00
#05901:00
#05901:00
#05901:0004000400040004
#05901:00000505000005050000050500000505
#05901:00
#05901:00
#05901:1W001W002E0000002E00282E00282000
#05901:2C002C00380000003000002R00002I00
#05901:4K004K005200000052004W52004W4O00
#05901:500050005W0000005O00005F00005600
#05901:0070007000700070
#05901:00
#05901:00
#05901:00
#05901:00
#05901:00
#05901:00
#05901:D2D3D400D500D6D700D8D9DA00DBDC00
#05901:00
#05901:00
#05901:00
#05901:J2J3J4J5J600J7J8J9JAJBJCJD00JEJF
#05911:01010101
#05913:00030003
#05915:JV0000ZZ
#05916:KX
#05919:000000JW
#06001:00
#06001:00
#06001:00
#06001:0004000400040004
#06001:00000505000005050000050500000505
#06001:00
#06001:00
#06001:2500001Y00001N001S001M1X001J1L00
#06001:2F00002B000024002000002A00001N00
#06001:4T00004M00004B004G004A4L00474900
#06001:5300004Z00004S004O00004Y00004B00
#06001:0070007000700070
#06001:00
#06001:00
#06001:00
#06001:00
#06001:00
#06001:00
#06001:DDDEDF00DG00DHDI00DJDKDL00DMDNDO
#06001:00
#06001:00
#06001:00
#06001:JGJHJIJJJK00JLJMJNJOJPJQJR00JSJT
#06011:01010101
#06013:00030003
#06014:00000000000000K1
#06015:00000000JY000000ZZ0000K00000ZZ00
#06018:JXZZ0000
#06019:ZZ00000000000000JZ0000ZZ00000000
#06101:00
#06101:00
#06101:00
#06101:0004000400040004
#06101:00000505000005050000050500000505
#06101:00
#06101:00
#06101:1V00001Q00001U00
#06101:2700002100002600
#06101:4J00004E00004I00
#06101:4V00004P00004U00
#06101:006Y006Y006Y006Y
#06101:00
#06101:00
#06101:00
#06101:00
#06101:00
#06101:00
#06101:DPDQDR00DS00DTDU00DVDWDX00DYDZ00
#06101:00
#06101:00
#06101:00
#06101:J2J3J4J5J600J7J8J9JAJBJCJD00JEJF
#06111:01010101
#06113:00030003
#06114:ZZ0000K3
#06118:K20000ZZ
#06201:00
#06201:00
#06201:00
#06201:0004000400040004
#06201:00000505000005050000050500000505
#06201:00
#06201:00
#06201:1O00001T00002A00240020001W1Z2228
#06201:1Y00002500002I002E002A0022282C2H
#06201:4C00004H00004Y004S004O004K4N4Q4W
#06201:4M00004T0000560052004Y004Q4W5055
#06201:006Y006Y006W006W
#06201:00
#06201:00
#06201:00
#06201:00
#06201:00
#06201:00
#06201:E0E1E200E300E4E500E6E7E800E9EAEB
#06201:00
#06201:00
#06201:00
#06201:JGJHJIJJJK00JLJMJNJOJPJQJR00JSJT
#06211:01010101
#06213:00030003
#06214:ZZ000000000000K8
#06215:000000000000K7ZZ
#06218:K4000000ZZK6ZZ00
#06219:00000000K5ZZ0000
#06301:00
#06301:00
#06301:00
#06301:0004000400040004
#06301:00000505000005050000050500000505
#06301:1212111110100Z0Z0Y0Y0X0X0W0W0V0V
#06301:00
#06301:1P001P002E0000002E00282I002C2A00
#06301:2C002C00380000003000002R00002I00
#06301:4D004D005200000052004W5600504Y00
#06301:500050005W0000005O00005F00005600
#06301:006X006X006X006X
#06301:00
#06301:00
#06301:00
#06301:00
#06301:00
#06301:00
#06301:ECEDEE00EF00EGEH00EIEJEK00ELEM00
#06301:00
#06301:00
#06301:00
#06301:J2J3J4J5J600J7J8J9JAJBJCJD00JEJF
#06311:01010101
#06313:00030003
#06314:ZZ
#06316:KX
#06318:K90000ZZ
#06319:000000KA
#06401:00
#06401:00
#06401:00
#06401:0004000400040004
#06401:00000505000005050000050500000505
#06401:0U0U0T0T0S0S0R0Q0P0P0O0N0M0L0K0J
#06401:00
#06401:20001P1Y00002E001M1P1R1W222C2S2Y
#06401:2E00002B00002M001R1W1Z282K2Y3D3Z
#06401:4O004D4M000052004A4D4F4K4Q505G5M
#06401:5200004Z00005A004F4K4N4W585M616N
#06401:006X006X006X006X
#06401:00
#06401:00
#06401:00
#06401:00
#06401:00
#06401:00
#06401:ENEOEP00EQ00ERES00ETEUEV00EWEXEY
#06401:00
#06401:00
#06401:00
#06401:JGJHJIJJJK00JLJMJNJOJPJQJR00JSJT
#06411:01010101
#06413:00030003
#06414:0000000000000000KD0000ZZ00000000
#06415:00000000KC000000ZZ0000KE0000ZZ00
#06416:KX
#06418:KBZZ0000
#06419:ZZ000000000000KF
#06501:01010101
#06501:00KX
#06501:00030003
#06501:0004000400040004
#06501:00000505000005050000050500000505
#06501:0I0H0G0F0F0E0D0D0C0C0B0B0A0A0909
#06501:00
#06501:3C00002E3C00002E
#06501:000000000000002V
#06501:6000005260000052
#06501:6K00005J6K00005J
#06501:006Y006Y006Y006Y
#06501:00
#06501:00
#06501:00
#06501:00
#06501:00
#06501:00
#06501:FNFOFP00FQ00FRFS00FTFUFV00FWFX00
#06501:00
#06501:00
#06501:00
#06501:J2J3J4J5J600J7J8J9JAJBJCJD000000
#06511:0000002V00000000
#06512:000000003W0000ZZ
#06513:3W0000ZZ00000000
#06514:00000000000000KJ
#06515:KG0000ZZ00000000
#06516:KX
#06518:00000000KI0000ZZ
#06519:ZZ0000KH00000000
#06601:00
#06601:00
#06601:00030003
#06601:0004000400040004
#06601:00000505000005050000050500000505
#06601:0000060607000700070000000700070000000700000007000700070007000700
#06601:00
#06601:223800223000222V00222M0022282C2K
#06601:000000000000000000000000002J002Y
#06601:4Q5W004Q5O004Q5J004Q5A004Q4W5058
#06601:000000000000000000005W0050575D5M
#06601:006Y006Y006Y006Z
#06601:00
#06601:00
#06601:00
#06601:00KK0000KL00KM00KNKOKPKQKRKSKTKU
#06601:00
#06601:00
#06601:FYFZG000G100G2G300G4G5G600G7G8G9
#06611:00010000010000010000000000000000
#06612:0000000000000002
#06613:000000000000003G0000000002000000
#06614:00003M0000020000
#06615:003S0000000000640000000000002P00
#06616:00KY0000KY0000KY0000KY00KY00KY00
#06618:006A002C
#06619:006G0000000000000000380000000000
#06701:00
#06701:00
#06701:00030003
#06701:0004000400040004
#06701:00000505000005050000050500000505
#06701:00
#06701:00
#06701:2D00000000002L00000000002T0000002L00000000002T002D002L002U000034
#06701:00000000000000000000000000000000000000002L000000000000000000003K
#06701:510000004R005900000051005H0000005900000051005H00510059005I00005S
#06701:5H00000000005N00000000005U0000005N00000059005U0000005N0063000068
#06701:0070007000700070
#06701:7A007Z797Z0079797L00797L00797E00
#06701:00008600860000007Z00007Z00007L00
#06701:00
#06701:KV
#06701:00
#06701:00
#06701:00
#06701:00
#06701:ZY
#06701:00
#06701:J2J3J4J5J600J7J8J9JAJBJCJD00JEJF
#06711:01010101
#06713:002300002Z00003F
#06714:2T000000002D000000002D0000000000
#06715:0000002Z0000000000000000002Z0000
#06716:KX
#06718:00000000000036000000003600000000
#06801:00
#06801:00
#06801:00030000
#06801:0004000400040004
#06801:00000505000005050000050500000505
#06801:00
#06801:00
#06801:3A000032000039002D003T0039002W00
#06801:002T
#06801:5Y00005Q00005X0051006H005X005K00
#06801:6I00006C00006H005H006R006H005X00
#06801:0070007000700070
#06801:79007Z797Z0079797L00797L00797E00
#06801:00008600860000007Z00007Z00007L00
#06801:00
#06801:00
#06801:00
#06801:00
#06801:00
#06801:00
#06801:00
#06801:00
#06801:JGJHJIJJJK00JLJMJNJOJPJQJR00JSJT
#06811:01010101
#06813:00000003
#06814:0000003O000000000000000000003900
#06818:3U00003T00003T00
#06819:0000000000430000
#06901:00
#06901:00
#06901:00030000
#06901:0004000400040004
#06901:00000505000005050000050500000505
#06901:00
#06901:00
#06901:2Z36330000002W002O00002X00003900
#06901:00
#06901:5N5U5R0000005K005C00005L00005X00
#06901:626E670000005X005Q00006600006M00
#06901:006V006V006V006V
#06901:71007Z717Z0071717L00717L00717E00
#06901:00008600860000007Z00007Z00007L00
#06901:00
#06901:00
#06901:00
#06901:00
#06901:00
#06901:00
#06901:00
#06901:00
#06901:J2J3J4J5J600J7J8J9JAJBJCJD00JEJF
#06911:01010101
#06913:0000003900000300
#06914:0032
#06915:3E003J000000ZZ000000003I00000000
#06919:003Q0000000000000000000000003Y00
#07001:00
#07001:00
#07001:00030003
#07001:0004000400040004
#07001:00000505000005050000050500000505
#07001:00
#07001:00
#07001:3H000000390000002Z00002T00002900
#07001:00
#07001:650000005X0000005N00515H00514X00
#07001:00000000000000000000005U00005E00
#07001:006W006W006W006W
#07001:73007Z737Z0073737L00737L00737E00
#07001:00008600860000007Z00007Z00007L00
#07001:00
#07001:00
#07001:00
#07001:00
#07001:00
#07001:00
#07001:00
#07001:00
#07001:JGJHJIJJJK00JLJMJNJOJPJQJR00JSJT
#07011:01010101
#07012:00000000002D0000
#07013:000000003N00000000000000002D0000
#07014:3T3E
#07015:000000006B0000000000003600000000
#07018:6H0000006200002Q
#07101:00
#07101:00
#07101:00030003
#07101:0004000400040004
#07101:00000505000005050000050500000505
#07101:00
#07101:00
#07101:2D00000000002L00000000002T0000002L00000000002T002D002L002U000034
#07101:000000000000000000000000000000000000000000000000000000000000003K
#07101:510000004R005900000051005H0000005900000059005H00510059005I00005S
#07101:5H00000000005N00000000005U0000005N00000000005U0000005N0063000068
#07101:0070007000700070
#07101:79007Z797Z0079797L00797L00797E00
#07101:00008600860000007Z00007Z00007L00
#07101:00
#07101:00
#07101:00
#07101:00
#07101:00
#07101:00
#07101:00
#07101:00
#07101:J2J3J4J5J600J7J8J9JAJBJCJD00JEJF
#07111:01010101
#07112:0023000000000000
#07113:00000000002D000000002L0000000000
#07114:2T0000000000000000000000002Z0000
#07115:0000002Z000000002Z00000000000000
#07118:00000000000036000000003600000000
#07119:000000000000003F
#07201:00
#07201:00
#07201:00030000
#07201:0004000400040004
#07201:00000505000005050000050500000505
#07201:00
#07201:00
#07201:3A000032000039002T0043003T003H00
#07201:00
#07201:5Y00005Q00005X005H006R006H006500
#07201:6I00006C00006H0000006U006T006P00
#07201:0070007000700070
#07201:79007Z797Z0079797L00797L00797E00
#07201:00008600860000007Z00007Z00007L00
#07201:00
#07201:00
#07201:00
#07201:00
#07201:00
#07201:00
#07201:00
#07201:00
#07201:JGJHJIJJJK00JLJMJNJOJPJQJR00JSJT
#07211:01010101
#07213:00000003
#07214:0000003O000000000000000000004100
#07215:00000045
#07218:3U00003T00000000
#07219:0000000000460000
#07301:00
#07301:00
#07301:00030003
#07301:0004000400040004
#07301:00000505000005050000050500000505
#07301:00
#07301:00
#07301:3U00003A000031002W002N002W003H00
#07301:00
#07301:6I00005Y00005P005K005B005K006500
#07301:6S00006I000065005X005P005X006P00
#07301:006V006V006V006V
#07301:71007Z717Z0071717L00717L00717E00
#07301:00008600860000007Z00007Z00007L00
#07301:00
#07301:00
#07301:00
#07301:00
#07301:00
#07301:00
#07301:00
#07301:00
#07301:J2J3J4J5J600J7J8J9JAJBJCJD00JEJF
#07311:01010101
#07312:0000000000310000
#07313:0000003H00000000
#07314:0000003U000000000000000000000000
#07315:00003939
#07318:440000ZZ000000000000000000000000
#07319:0000000000000041
#07401:01
#07401:00
#07401:00030003
#07401:0004000400040004
#07401:00000505000005050000050500000505
#07401:0000000600000000000000000000000000000000000000000000000000000000
#07401:00
#07401:363E3B000000310037002L002Z003Q00
#07401:3Q3X3V0000003N003R002Z003E004000
#07401:5U625Z0000005P005V0059005N006E00
#07401:6E6L6J0000006B006F005N0062006O00
#07401:006W006W006Y006Y
#07401:73007Z737Z0073737L00777L00777E00
#07401:00008600860000007Z00007Z00007L00
#07401:00
#07401:00
#07401:00
#07401:00
#07401:00
#07401:00
#07401:00
#07401:00
#07401:JGJHJIJJJK00JLJMJNJOJPJQJR00JSJT
#07411:07
#07412:0007000000000007
#07413:00000000000000070007000007000000
#07414:00000007000000000000000000000000
#07415:00060000000007000000000700000000
#07416:KX
#07418:00000000070000000000000000070000
#07419:00000000000000000000000000000007
#07501:00
#07501:00
#07501:00030003
#07501:0004000400040004
#07501:00000505000005050000050500000505
#07501:00
#07501:00
#07501:2D00000000002L00000000002T0000002L0000002D002T002D002L002U000034
#07501:000000000000000000000000000000000000000000000000000000000000003K
#07501:510000004R005900000051005H0000005900000051005H00510059005I00005S
#07501:5H00000000005N00000000005U0000005N00000059005U0000005N0063000068
#07501:0070007000700070
#07501:7A007Z797Z0079797L00797L00797E00
#07501:00008600860000007Z00007Z00007L00
#07501:00
#07501:00
#07501:00
#07501:00
#07501:00
#07501:00
#07501:00
#07501:00
#07501:J2J3J4J5J600J7J8J9JAJBJCJD00JEJF
#07511:01010101
#07512:00000000002D00000000000000000000
#07513:00230000002L0000
#07514:2T0000000000000000000000002Z0000
#07515:0000002Z000000002Z00000000003F00
#07516:KX
#07518:00000000000036000000003600000000
#07601:00
#07601:00
#07601:00000003
#07601:0004000400040004
#07601:00000505000005050000050500000505
#07601:00
#07601:00
#07601:3A000032000039002D003T0039002W00
#07601:002T
#07601:5Y00005Q00005X0051006H005X005K00
#07601:6I00006C00006H005H006R006H005X00
#07601:0070007000700070
#07601:79007Z797Z0079797L00797L00797E00
#07601:00008600860000007Z00007Z00007L00
#07601:00
#07601:00
#07601:00
#07601:00
#07601:00
#07601:00
#07601:00
#07601:00
#07601:JGJHJIJJJK00JLJMJNJOJPJQJR00JSJT
#07611:01010101
#07613:0000030000000039
#07614:0000003O000000000000000000000000
#07615:0000003T
#07618:3U00003T00000000
#07619:0000000000430000
#07701:00
#07701:00
#07701:00030000
#07701:0004000400040004
#07701:00000505000005050000050500000505
#07701:00
#07701:00
#07701:2Z36330000002W002O00002X00003900
#07701:00
#07701:5N5U5R0000005K005C00005L00005X00
#07701:626E670000005X005Q00006600006M00
#07701:006V006V006V006V
#07701:71007Z717Z0071717L00717L00717E00
#07701:00008600860000007Z00007Z00007L00
#07701:00
#07701:00
#07701:00
#07701:00
#07701:00
#07701:00
#07701:00
#07701:00
#07701:J2J3J4J5J600J7J8J9JAJBJCJD00JEJF
#07711:01010101
#07712:0000003900000000
#07713:00000003
#07714:3E3J00ZZ00000000
#07715:0032
#07718:003Q0000000000000000003I00000000
#07719:000000000000003Y
#07801:00
#07801:00
#07801:00000003
#07801:0004000400040004
#07801:00000505000005050000050500000505
#07801:00
#07801:00
#07801:3H000000390000002Z002D2T002D2900
#07801:00
#07801:650000005X0000005N00515H00514X00
#07801:006B0000
#07801:006W006W006W006W
#07801:73007Z737Z0073737L00737L00737E00
#07801:00008600860000007Z00007Z00007L00
#07801:00
#07801:00
#07801:00
#07801:00
#07801:00
#07801:00
#07801:00
#07801:00
#07801:JGJHJIJJJK00JLJMJNJOJPJQJR00JSJT
#07811:0100010000000001
#07812:00000000000000000000000100000000
#07813:000003000100002Q
#07814:6H000000000000000000003600000000
#07815:00003N003E00005E
#07818:3T000000000000000000005U00000000
#07819:0062
#07901:00
#07901:00
#07901:00030003
#07901:0004000400040004
#07901:00000505000005050000050500000505
#07901:1212111110100Z0Z0Y0Y0X0X0W0W0V0V
#07901:00
#07901:2D00000023002L0000002D002T0000002L0000002L002T002D002L002U000034
#07901:00000000000000000000000000000000000000000000000000002Z000000003K
#07901:510000004R005900000051005H0000005900000059005H00510059005I00005S
#07901:5H00000000005N00000000005U0000005N00000000005U0000005N0063000068
#07901:0070007000700070
#07901:79007Z797Z0079797L00797L00797E00
#07901:00008600860000007Z00007Z00007L00
#07901:00
#07901:00
#07901:00
#07901:00
#07901:00
#07901:00
#07901:00
#07901:00
#07901:J2J3J4J5J600J7J8J9JAJBJCJD00JEJF
#07911:0202020202020202
#07913:002Z
#07914:2T000000000000000000003600000000
#07915:0000002Z000000000000000000003F00
#07916:KX
#07918:0000003600000000
#08001:00
#08001:00
#08001:00030003
#08001:0004000400040004
#08001:00000505000005050000050500000505
#08001:0U0U0T0T0S0S0R0Q0P0P0O0N0M0L0K0J
#08001:00
#08001:3A000032000039002T0043003T003H00
#08001:00
#08001:5Y00005Q00005X005H006R006H006500
#08001:6I00006C00006H0000006U006T006P00
#08001:0070007000700070
#08001:79007Z797Z0079797L00797L00797E00
#08001:00008600860000007Z00007Z00007L00
#08001:00
#08001:00
#08001:00
#08001:00
#08001:00
#08001:00
#08001:00
#08001:00
#08001:JGJHJIJJJK00JLJMJNJOJPJQJR00JSJT
#08011:3U00003T00000000
#08013:0000003O000000000000000000004100
#08014:00000045
#08015:0000000000460000
#08016:KX
#08019:0202020202020202
#08101:00
#08101:00
#08101:00030003
#08101:0004000400040004
#08101:00000505000005050000050500000505
#08101:0I0H0G0F0F0E0D0D0C0C0B0B0A0A0909
#08101:00
#08101:3U00003A000031002W002N002W003H00
#08101:4400003U00003H003900310039004100
#08101:6I00005Y00005P005K005B005K006500
#08101:6S00006I000065005X005P005X006P00
#08101:006V006V006V006V
#08101:71007Z717Z0071717L00717L00717E00
#08101:00008600860000007Z00007Z00007L00
#08101:00
#08101:00
#08101:00
#08101:00
#08101:00
#08101:00
#08101:00
#08101:00
#08101:J2J3J4J5J600J7J8J9JAJBJCJD00JEJF
#08111:0202000000000000
#08112:0000020200000202
#08113:0000000002020000
#08115:00020002000000000000000000000000
#08116:KXKX
#08118:00000000000200020000000000020002
#08119:00000000000000000002000200000000
#08201:01
#08201:00
#08201:00030003
#08201:0004000400040004
#08201:00000505000005050000050500000505
#08201:080808080808080808080808080808080808080808080808
#08201:00
#08201:363E3B0000002W003T00003T00003T00
#08201:00
#08201:5U625Z0000005K000000000000000000
#08201:6E6L6J00000065000000000000000000
#08201:006W006W006Y006Y
#08201:73007Z737Z0073737L00777L00777E00
#08201:00008600860000007Z00007Z00007L00
#08201:00
#08201:00
#08201:00
#08201:00
#08201:00
#08201:00
#08201:00
#08201:00
#08201:JGJHJIJJJK00JLJMJNJOJPJQJR00JSJT
#08211:0041
#08212:0000000000003H000000004200000000
#08213:000000006H000043
#08214:00000000000000000000006H00000000
#08215:3Q3V00ZZ6P00006H
#08216:KX
#08218:00000000000000000000006Q00000000
#08219:003X0000000000000000000000006R00
#08301:00
#08301:00
#08301:00000003
#08301:0000000400040004
#08301:00000000000005050000050500000505
#08301:00
#08301:1900151B001500001500001500150000
#08301:00
#08301:00
#08301:00
#08301:00
#08301:0070007000700070
#08301:00
#08301:00
#08301:00
#08301:00
#08301:00
#08301:00
#08301:00000000GB00GCGD00GEGFGG00GHGI00
#08301:00
#08301:00
#08301:00
#08301:J2J3J4J5J600J7J8J9JAJBJCJD00JEJF
#08311:00010101
#08313:00030000
#08314:00000000000000000019000000000000
#08315:0000001D00001B00
#08316:00KX0000
#08319:000000000000001D
#08401:00
#08401:00
#08401:00030003
#08401:0004000400040004
#08401:00000505000005050000050500000505
#08401:00
#08401:00001500001500150000150000150000
#08401:00
#08401:00
#08401:00
#08401:00
#08401:0070007000700070
#08401:00
#08401:00
#08401:00
#08401:00
#08401:00
#08401:00
#08401:GJGKGL00GM00GNGO00GPGQGR00GSGTGU
#08401:00
#08401:00
#08401:00
#08401:JGJHJIJJJK00JLJMJNJOJPJQJR00JSJT
#08411:01010101
#08413:19
#08414:0000001B000000000000000000001D00
#08415:0000001D00000000
#08418:00000000000000000000001F00000000
#08419:001H
#08501:00
#08501:00
#08501:00030003
#08501:0004000400040004
#08501:00000505000005050000050500000505
#08501:00
#08501:00001500001500001500001500150000
#08501:00
#08501:00
#08501:00
#08501:00
#08501:0070007000700070
#08501:00
#08501:00
#08501:00
#08501:00
#08501:00
#08501:00
#08501:GVGWGX00GY00GZH000H1H2H300H4H500
#08501:00
#08501:00
#08501:00
#08501:J2J3J4J5J600J7J8J9JAJBJCJD00JEJF
#08511:01010101
#08513:19
#08514:0000001B000000000019000000000000
#08518:0000001D00001B00
#08519:000000000000001D
#08601:00
#08601:00
#08601:00030003
#08601:0004000400040004
#08601:00000505000005050000050500000505
#08601:00
#08601:00001500001500150000150000150000
#08601:00
#08601:00
#08601:00
#08601:00
#08601:0070007000700070
#08601:00
#08601:00
#08601:00
#08601:00
#08601:00
#08601:00
#08601:H6H7H800H900HAHB00HCHDHE00HFHGHH
#08601:00
#08601:00
#08601:00
#08601:JGJHJIJJJK00JLJMJNJOJPJQJR00JSJT
#08611:01010101
#08613:19
#08614:0017
#08615:0000001B000000000000000000000000
#08618:00000000000000000000001B00000000
#08619:0000001D0000001D
#08701:00
#08701:00
#08701:00030003
#08701:0004000400040004
#08701:00000505000005050000050500000505
#08701:1212111110100Z0Z0Y0Y0X0X0W0W0V0V
#08701:00001500001500001500001500150000
#08701:00
#08701:00
#08701:00
#08701:00
#08701:0070007000700070
#08701:00
#08701:00
#08701:00
#08701:00
#08701:00
#08701:00
#08701:HIHJHK00HL00HMHN00HOHPHQ00HRHS00
#08701:00
#08701:00
#08701:00
#08701:J2J3J4J5J600J7J8J9JAJBJCJD00JEJF
#08711:19000000000000000019000000000000
#08713:0000001B00000000000000001B000000
#08715:0000001D0000001D
#08716:KX
#08801:00
#08801:00
#08801:00030003
#08801:0004000400040004
#08801:00000505000005050000050500000505
#08801:0U0U0T0T0S0S0R0Q0P0P0O0N0M0L0K0J
#08801:00001500001500150000150000150000
#08801:00
#08801:00
#08801:00
#08801:00
#08801:0070007000700070
#08801:00
#08801:00
#08801:00
#08801:00
#08801:00
#08801:00
#08801:HTHUHV00HW00HXHY00HZI0I100I2I3I4
#08801:00
#08801:00
#08801:00
#08801:JGJHJIJJJK00JLJMJNJOJPJQJR00JSJT
#08812:19
#08813:000000000000001D
#08814:0000001B000000000000000000000000
#08815:00000000000000000000001F00000000
#08818:0000001D00000000
#08819:001H
#08901:00
#08901:00
#08901:00030003
#08901:0004000400040004
#08901:00000505000005050000050500000505
#08901:0I0H0G0F0F0E0D0D0C0C0B0B0A0A0909
#08901:00001500001500001500001500150000
#08901:00
#08901:00
#08901:00
#08901:00
#08901:0070007000700070
#08901:00
#08901:00
#08901:00
#08901:00
#08901:00
#08901:00
#08901:I5I6I700I800I9IA00IBICID00IEIF00
#08901:00
#08901:00
#08901:00
#08901:J2J3J4J5J600J7J8J9JAJBJCJD00JEJF
#08911:19000000000000000019000000000000
#08913:0000001B00000000000000001B000000
#08915:0000001D0000001D
#09001:00
#09001:00
#09001:00030003
#09001:0004000400040004
#09001:00000505000005050000050500000505
#09001:0000000600000000000000000000000000000000000000000000000000000000
#09001:0000151B00151D151700151B00151D00
#09001:00
#09001:00
#09001:00
#09001:00
#09001:0070007000700070
#09001:00
#09001:00
#09001:00
#09001:00
#09001:00
#09001:00
#09001:IGIHII00IJ00IKIL00IMINIO00IPIQIR
#09001:00
#09001:00
#09001:00
#09001:JGJHJIJJJK00JLJMJNJOJPJQJR00JSJT
#09011:19
#09012:00000007000007000000000000000000
#09013:00060000000000000000000007000700
#09015:00000000070000000000000700070007
#09016:KX
#09018:00000700000000070007000000000000
#09019:07
#09116:KX