Files
admin-amethyst-moon/_Amethyst Moon_spi.bms
2026-02-21 20:20:25 +09:00

3533 lines
79 KiB
Plaintext
Raw Blame History

*---------------------- HEADER FIELD
#PLAYER 1
#GENRE Immiscible
#TITLE Amethyst Moon [SP Insane]
#ARTIST Rethisly
#BPM 165
#PLAYLEVEL 12
#RANK 3
#TOTAL 610
#STAGEFILE _stagefile.png
#WAV01 b_kick1_v100l16o5c.wav
#WAV02 b_kick2_v100l16o5c.wav
#WAV03 b_clap_v100l16o5c.wav
#WAV04 b_openhh_v100l16o5c.wav
#WAV05 b_closehh_v100l16o5c.wav
#WAV06 b_snare_v100l32o5c.wav
#WAV07 b_snare_v100l16o5c.wav
#WAV08 b_snare_v97l24o5c.wav
#WAV09 b_snare_v97l16o5c.wav
#WAV0A b_snare_v96l16o5c.wav
#WAV0B b_snare_v95l16o5c.wav
#WAV0C b_snare_v94l16o5c.wav
#WAV0D b_snare_v93l16o5c.wav
#WAV0E b_snare_v92l16o5c.wav
#WAV0F b_snare_v91l16o5c.wav
#WAV0G b_snare_v90l16o5c.wav
#WAV0H b_snare_v88l16o5c.wav
#WAV0I b_snare_v87l16o5c.wav
#WAV0J b_snare_v85l16o5c.wav
#WAV0K b_snare_v84l16o5c.wav
#WAV0L b_snare_v82l16o5c.wav
#WAV0M b_snare_v81l16o5c.wav
#WAV0N b_snare_v80l16o5c.wav
#WAV0O b_snare_v79l16o5c.wav
#WAV0P b_snare_v78l16o5c.wav
#WAV0Q b_snare_v77l16o5c.wav
#WAV0R b_snare_v76l16o5c.wav
#WAV0S b_snare_v75l16o5c.wav
#WAV0T b_snare_v74l16o5c.wav
#WAV0U b_snare_v73l16o5c.wav
#WAV0V b_snare_v72l16o5c.wav
#WAV0W b_snare_v71l16o5c.wav
#WAV0X b_snare_v70l16o5c.wav
#WAV0Y b_snare_v68l16o5c.wav
#WAV0Z b_snare_v67l16o5c.wav
#WAV10 b_snare_v66l16o5c.wav
#WAV11 b_snare_v65l16o5c.wav
#WAV12 b_snare_v64l16o5c.wav
#WAV13 b_square_v100l192-11o4a.wav
#WAV14 b_square_v100l192-11o4b.wav
#WAV15 b_square_v100l128-7o5cp.wav
#WAV16 b_square_v100l192-11o5cp.wav
#WAV17 b_square_v100l128-7o5fp.wav
#WAV18 b_square_v100l192-11o5fp.wav
#WAV19 b_square_v100l128-7o5gp.wav
#WAV1A b_square_v100l192-11o5gp.wav
#WAV1B b_square_v100l128-7o5b.wav
#WAV1C b_square_v100l192-11o5b.wav
#WAV1D b_square_v100l128-7o6cp.wav
#WAV1E b_square_v100l192-11o6cp.wav
#WAV1F b_square_v100l128-7o6dp.wav
#WAV1G b_square_v100l192-11o6dp.wav
#WAV1H b_square_v100l128-7o6e.wav
#WAV1I b_square_v100l192-11o6e.wav
#WAV1J b_lead1_v100l96-5o4cp.wav
#WAV1K b_lead1_v100l96-11o4dp.wav
#WAV1L b_lead1_v100l96-11o4e.wav
#WAV1M b_lead1_v100l96-5o4gp.wav
#WAV1N b_lead1_v100l96-11o4gp.wav
#WAV1O b_lead1_v100l96-17o4gp.wav
#WAV1P b_lead1_v100l96-5o4a.wav
#WAV1Q b_lead1_v100l96-35o4a.wav
#WAV1R b_lead1_v100l96-5o4b.wav
#WAV1S b_lead1_v100l96-11o4b.wav
#WAV1T b_lead1_v100l96-17o4b.wav
#WAV1U b_lead1_v100l96-23o4b.wav
#WAV1V b_lead1_v100l96-35o4b.wav
#WAV1W b_lead1_v100l96-5o5cp.wav
#WAV1X b_lead1_v100l96-11o5cp.wav
#WAV1Y b_lead1_v100l96-17o5cp.wav
#WAV1Z b_lead1_v100l96-5o5dp.wav
#WAV20 b_lead1_v100l96-11o5dp.wav
#WAV21 b_lead1_v100l96-35o5dp.wav
#WAV22 b_lead1_v100l96-5o5e.wav
#WAV23 b_lead1_v100l192-11o5e.wav
#WAV24 b_lead1_v100l96-11o5e.wav
#WAV25 b_lead1_v100l96-17o5e.wav
#WAV26 b_lead1_v100l96-23o5e.wav
#WAV27 b_lead1_v100l96-35o5e.wav
#WAV28 b_lead1_v100l96-5o5fp.wav
#WAV29 b_lead1_v100l192-11o5fp.wav
#WAV2A b_lead1_v100l96-11o5fp.wav
#WAV2B b_lead1_v100l96-17o5fp.wav
#WAV2C b_lead1_v100l96-5o5gp.wav
#WAV2D b_lead1_v100l192-11o5gp.wav
#WAV2E b_lead1_v100l96-11o5gp.wav
#WAV2F b_lead1_v100l96-17o5gp.wav
#WAV2G b_lead1_v100l96-35o5gp.wav
#WAV2H b_lead1_v100l96-5o5a.wav
#WAV2I b_lead1_v100l96-11o5a.wav
#WAV2J b_lead1_v100l96-5o5ap.wav
#WAV2K b_lead1_v100l96-5o5b.wav
#WAV2L b_lead1_v100l192-11o5b.wav
#WAV2M b_lead1_v100l96-11o5b.wav
#WAV2N b_lead1_v100l192-23o5b.wav
#WAV2O b_lead1_v100l192-35o5b.wav
#WAV2P b_lead1_v100l96-5o6c.wav
#WAV2Q b_lead1_v100l192-11o6c.wav
#WAV2R b_lead1_v100l96-11o6c.wav
#WAV2S b_lead1_v100l96-5o6cp.wav
#WAV2T b_lead1_v100l192-11o6cp.wav
#WAV2U b_lead1_v100l192-17o6cp.wav
#WAV2V b_lead1_v100l96-11o6cp.wav
#WAV2W b_lead1_v100l192-23o6cp.wav
#WAV2X b_lead1_v100l192-35o6cp.wav
#WAV2Y b_lead1_v100l96-5o6dp.wav
#WAV2Z b_lead1_v100l192-11o6dp.wav
#WAV30 b_lead1_v100l96-11o6dp.wav
#WAV31 b_lead1_v100l192-23o6dp.wav
#WAV32 b_lead1_v100l192-35o6dp.wav
#WAV33 b_lead1_v100l192-47o6dp.wav
#WAV34 b_lead1_v100l192-5o6e.wav
#WAV35 b_lead1_v100l96-5o6e.wav
#WAV36 b_lead1_v100l192-11o6e.wav
#WAV37 b_lead1_v100l192-17o6e.wav
#WAV38 b_lead1_v100l96-11o6e.wav
#WAV39 b_lead1_v100l192-23o6e.wav
#WAV3A b_lead1_v100l192-35o6e.wav
#WAV3B b_lead1_v100l192-47o6e.wav
#WAV3C b_lead1_v100l96-35o6e.wav
#WAV3D b_lead1_v100l96-5o6fp.wav
#WAV3E b_lead1_v100l192-11o6fp.wav
#WAV3F b_lead1_v100l192-17o6fp.wav
#WAV3G b_lead1_v100l96-11o6fp.wav
#WAV3H b_lead1_v100l192-23o6fp.wav
#WAV3I b_lead1_v100l192-35o6fp.wav
#WAV3J b_lead1_v100l192-47o6fp.wav
#WAV3K b_lead1_v100l192-5o6g.wav
#WAV3L b_lead1_v100l96-5o6g.wav
#WAV3M b_lead1_v100l96-11o6g.wav
#WAV3N b_lead1_v100l192-23o6g.wav
#WAV3O b_lead1_v100l192-35o6g.wav
#WAV3P b_lead1_v100l96-5o6gp.wav
#WAV3Q b_lead1_v100l192-11o6gp.wav
#WAV3R b_lead1_v100l192-17o6gp.wav
#WAV3S b_lead1_v100l96-11o6gp.wav
#WAV3T b_lead1_v100l192-23o6gp.wav
#WAV3U b_lead1_v100l192-35o6gp.wav
#WAV3V b_lead1_v100l192-47o6gp.wav
#WAV3W b_lead1_v100l96-35o6gp.wav
#WAV3X b_lead1_v100l192-11o6a.wav
#WAV3Y b_lead1_v100l192-23o6a.wav
#WAV3Z b_lead1_v100l96-5o6b.wav
#WAV40 b_lead1_v100l192-11o6b.wav
#WAV41 b_lead1_v100l192-23o6b.wav
#WAV42 b_lead1_v100l192-23o7c.wav
#WAV43 b_lead1_v100l192-23o7cp.wav
#WAV44 b_lead1_v100l192-35o7cp.wav
#WAV45 b_lead1_v100l192-23o7dp.wav
#WAV46 b_lead1_v100l192-23o7e.wav
#WAV47 b_lead2_v100l96-5o4cp.wav
#WAV48 b_lead2_v100l96-11o4dp.wav
#WAV49 b_lead2_v100l96-11o4e.wav
#WAV4A b_lead2_v100l96-5o4gp.wav
#WAV4B b_lead2_v100l96-11o4gp.wav
#WAV4C b_lead2_v100l96-17o4gp.wav
#WAV4D b_lead2_v100l96-5o4a.wav
#WAV4E b_lead2_v100l96-35o4a.wav
#WAV4F b_lead2_v100l96-5o4b.wav
#WAV4G b_lead2_v100l96-11o4b.wav
#WAV4H b_lead2_v100l96-17o4b.wav
#WAV4I b_lead2_v100l96-23o4b.wav
#WAV4J b_lead2_v100l96-35o4b.wav
#WAV4K b_lead2_v100l96-5o5cp.wav
#WAV4L b_lead2_v100l96-11o5cp.wav
#WAV4M b_lead2_v100l96-17o5cp.wav
#WAV4N b_lead2_v100l96-5o5dp.wav
#WAV4O b_lead2_v100l96-11o5dp.wav
#WAV4P b_lead2_v100l96-35o5dp.wav
#WAV4Q b_lead2_v100l96-5o5e.wav
#WAV4R b_lead2_v100l192-11o5e.wav
#WAV4S b_lead2_v100l96-11o5e.wav
#WAV4T b_lead2_v100l96-17o5e.wav
#WAV4U b_lead2_v100l96-23o5e.wav
#WAV4V b_lead2_v100l96-35o5e.wav
#WAV4W b_lead2_v100l96-5o5fp.wav
#WAV4X b_lead2_v100l192-11o5fp.wav
#WAV4Y b_lead2_v100l96-11o5fp.wav
#WAV4Z b_lead2_v100l96-17o5fp.wav
#WAV50 b_lead2_v100l96-5o5gp.wav
#WAV51 b_lead2_v100l192-11o5gp.wav
#WAV52 b_lead2_v100l96-11o5gp.wav
#WAV53 b_lead2_v100l96-17o5gp.wav
#WAV54 b_lead2_v100l96-35o5gp.wav
#WAV55 b_lead2_v100l96-5o5a.wav
#WAV56 b_lead2_v100l96-11o5a.wav
#WAV57 b_lead2_v100l96-5o5ap.wav
#WAV58 b_lead2_v100l96-5o5b.wav
#WAV59 b_lead2_v100l192-11o5b.wav
#WAV5A b_lead2_v100l96-11o5b.wav
#WAV5B b_lead2_v100l192-23o5b.wav
#WAV5C b_lead2_v100l192-35o5b.wav
#WAV5D b_lead2_v100l96-5o6c.wav
#WAV5E b_lead2_v100l192-11o6c.wav
#WAV5F b_lead2_v100l96-11o6c.wav
#WAV5G b_lead2_v100l96-5o6cp.wav
#WAV5H b_lead2_v100l192-11o6cp.wav
#WAV5I b_lead2_v100l192-17o6cp.wav
#WAV5J b_lead2_v100l96-11o6cp.wav
#WAV5K b_lead2_v100l192-23o6cp.wav
#WAV5L b_lead2_v100l192-35o6cp.wav
#WAV5M b_lead2_v100l96-5o6dp.wav
#WAV5N b_lead2_v100l192-11o6dp.wav
#WAV5O b_lead2_v100l96-11o6dp.wav
#WAV5P b_lead2_v100l192-23o6dp.wav
#WAV5Q b_lead2_v100l192-35o6dp.wav
#WAV5R b_lead2_v100l192-47o6dp.wav
#WAV5S b_lead2_v100l192-5o6e.wav
#WAV5T b_lead2_v100l96-5o6e.wav
#WAV5U b_lead2_v100l192-11o6e.wav
#WAV5V b_lead2_v100l192-17o6e.wav
#WAV5W b_lead2_v100l96-11o6e.wav
#WAV5X b_lead2_v100l192-23o6e.wav
#WAV5Y b_lead2_v100l192-35o6e.wav
#WAV5Z b_lead2_v100l192-47o6e.wav
#WAV60 b_lead2_v100l96-35o6e.wav
#WAV61 b_lead2_v100l96-5o6fp.wav
#WAV62 b_lead2_v100l192-11o6fp.wav
#WAV63 b_lead2_v100l192-17o6fp.wav
#WAV64 b_lead2_v100l96-11o6fp.wav
#WAV65 b_lead2_v100l192-23o6fp.wav
#WAV66 b_lead2_v100l192-35o6fp.wav
#WAV67 b_lead2_v100l192-47o6fp.wav
#WAV68 b_lead2_v100l192-5o6g.wav
#WAV69 b_lead2_v100l96-5o6g.wav
#WAV6A b_lead2_v100l96-11o6g.wav
#WAV6B b_lead2_v100l192-23o6g.wav
#WAV6C b_lead2_v100l192-35o6g.wav
#WAV6D b_lead2_v100l96-5o6gp.wav
#WAV6E b_lead2_v100l192-11o6gp.wav
#WAV6F b_lead2_v100l192-17o6gp.wav
#WAV6G b_lead2_v100l96-11o6gp.wav
#WAV6H b_lead2_v100l192-23o6gp.wav
#WAV6I b_lead2_v100l192-35o6gp.wav
#WAV6J b_lead2_v100l192-47o6gp.wav
#WAV6K b_lead2_v100l96-35o6gp.wav
#WAV6L b_lead2_v100l192-11o6a.wav
#WAV6M b_lead2_v100l192-23o6a.wav
#WAV6N b_lead2_v100l96-5o6b.wav
#WAV6O b_lead2_v100l192-11o6b.wav
#WAV6P b_lead2_v100l192-23o6b.wav
#WAV6Q b_lead2_v100l192-23o7c.wav
#WAV6R b_lead2_v100l192-23o7cp.wav
#WAV6S b_lead2_v100l192-35o7cp.wav
#WAV6T b_lead2_v100l192-23o7dp.wav
#WAV6U b_lead2_v100l192-23o7e.wav
#WAV6V b_bass_v100l8o3fp.wav
#WAV6W b_bass_v100l8o3gp.wav
#WAV6X b_bass_v100l8o3a.wav
#WAV6Y b_bass_v100l8o3b.wav
#WAV6Z b_bass_v100l8o4c.wav
#WAV70 b_bass_v100l8o4cp.wav
#WAV71 b_piano1_v78l128-7o4fp.wav
#WAV72 b_piano1_v100l16o4gp.wav
#WAV73 b_piano1_v83l128-7o4gp.wav
#WAV74 b_piano1_v83l128-7o4a.wav
#WAV75 b_piano1_v100l16o4b.wav
#WAV76 b_piano1_v100l4o4b.wav
#WAV77 b_piano1_v83l128-7o4b.wav
#WAV78 b_piano1_v100l4o5c.wav
#WAV79 b_piano1_v83l128-7o5cp.wav
#WAV7A b_piano1_v78l128-7o5cp.wav
#WAV7B b_piano1_v100l16o5dp.wav
#WAV7C b_piano1_v100l8o5dp.wav
#WAV7D b_piano1_v100l4o5dp.wav
#WAV7E b_piano1_v100l128-7o5e.wav
#WAV7F b_piano1_v100l8o5e.wav
#WAV7G b_piano1_v100l4-3o5e.wav
#WAV7H b_piano1_v100l16o5fp.wav
#WAV7I b_piano1_v100l8o5fp.wav
#WAV7J b_piano1_v100l4o5fp.wav
#WAV7K b_piano1_v100l8-3o5fp.wav
#WAV7L b_piano1_v100l128-7o5gp.wav
#WAV7M b_piano1_v100l16o5gp.wav
#WAV7N b_piano1_v100l8o5gp.wav
#WAV7O b_piano1_v100l16-3o5gp.wav
#WAV7P b_piano1_v100l4o5gp.wav
#WAV7Q b_piano1_v100l8-3o5gp.wav
#WAV7R b_piano1_v100l2-3o5gp.wav
#WAV7S b_piano1_v100l16o5b.wav
#WAV7T b_piano1_v100l8o5b.wav
#WAV7U b_piano1_v100l32-5o5b.wav
#WAV7V b_piano1_v100l16-3o5b.wav
#WAV7W b_piano1_v100l4o5b.wav
#WAV7X b_piano1_v100l4-3o5b.wav
#WAV7Y b_piano1_v100l16-3o6c.wav
#WAV7Z b_piano1_v100l128-7o6cp.wav
#WAV80 b_piano1_v100l16-3o6cp.wav
#WAV81 b_piano1_v100l32o6dp.wav
#WAV82 b_piano1_v100l16o6dp.wav
#WAV83 b_piano1_v100l8o6dp.wav
#WAV84 b_piano1_v100l4o6dp.wav
#WAV85 b_piano1_v100l32-15o6dp.wav
#WAV86 b_piano1_v100l128-7o6e.wav
#WAV87 b_piano1_v100l8o6e.wav
#WAV88 b_piano1_v100l4-3o6e.wav
#WAV89 b_piano1_v100l32o6fp.wav
#WAV8A b_piano1_v100l16o6fp.wav
#WAV8B b_piano1_v100l8o6fp.wav
#WAV8C b_piano1_v100l4o6fp.wav
#WAV8D b_piano1_v100l2o6fp.wav
#WAV8E b_piano1_v100l32o6gp.wav
#WAV8F b_piano1_v100l8o6gp.wav
#WAV8G b_piano1_v100l16-3o6gp.wav
#WAV8H b_piano1_v100l16-7o6gp.wav
#WAV8I b_piano1_v100l4-3o6gp.wav
#WAV8J b_piano1_v100l16-3o6b.wav
#WAV8K b_lead3_v100l8o5cp.wav
#WAV8L b_lead3_v100l8o5dp.wav
#WAV8M b_lead3_v100l16o5e.wav
#WAV8N b_lead3_v100l16o5fp.wav
#WAV8O b_lead3_v100l32-3o5fp.wav
#WAV8P b_lead3_v100l96-17o5fp.wav
#WAV8Q b_lead3_v100l16o5gp.wav
#WAV8R b_lead3_v100l32-3o5gp.wav
#WAV8S b_lead3_v100l8-3o5gp.wav
#WAV8T b_lead3_v100l16o5b.wav
#WAV8U b_lead3_v100l8o5b.wav
#WAV8V b_lead3_v100l8o6cp.wav
#WAV8W b_lead3_v100l16o6dp.wav
#WAV8X b_lead3_v100l8o6dp.wav
#WAV8Y b_lead3_v100l16o6e.wav
#WAV8Z b_lead3_v100l8o6e.wav
#WAV91 b_lead3_v100l16-15o6e.wav
#WAV92 b_lead3_v100l8o6fp.wav
#WAV93 b_lead3_v100l96-17o6fp.wav
#WAV94 b_lead3_v100l8o6gp.wav
#WAV95 b_lead3_v100l8-3o6gp.wav
#WAV96 b_lead3_v100l8o6b.wav
#WAV97 b_piano2_v100l16o4gp.wav
#WAV98 b_piano2_v100l16o4b.wav
#WAV99 b_piano2_v100l4o4b.wav
#WAV9A b_piano2_v100l4o5c.wav
#WAV9B b_piano2_v100l16o5dp.wav
#WAV9C b_piano2_v100l8o5dp.wav
#WAV9D b_piano2_v100l4o5dp.wav
#WAV9E b_piano2_v100l8o5e.wav
#WAV9F b_piano2_v100l4-3o5e.wav
#WAV9G b_piano2_v100l16o5fp.wav
#WAV9H b_piano2_v100l8o5fp.wav
#WAV9I b_piano2_v100l4o5fp.wav
#WAV9J b_piano2_v100l8-3o5fp.wav
#WAV9K b_piano2_v100l16o5gp.wav
#WAV9L b_piano2_v100l8o5gp.wav
#WAV9M b_piano2_v100l16-3o5gp.wav
#WAV9N b_piano2_v100l4o5gp.wav
#WAV9O b_piano2_v100l8-3o5gp.wav
#WAV9P b_piano2_v100l2-3o5gp.wav
#WAV9Q b_piano2_v100l16o5b.wav
#WAV9R b_piano2_v100l8o5b.wav
#WAV9S b_piano2_v100l32-5o5b.wav
#WAV9T b_piano2_v100l16-3o5b.wav
#WAV9U b_piano2_v100l4o5b.wav
#WAV9V b_piano2_v100l4-3o5b.wav
#WAV9W b_piano2_v100l16-3o6c.wav
#WAV9X b_piano2_v100l16-3o6cp.wav
#WAV9Y b_piano2_v100l32o6dp.wav
#WAV9Z b_piano2_v100l16o6dp.wav
#WAVA0 b_piano2_v100l8o6dp.wav
#WAVA1 b_piano2_v100l4o6dp.wav
#WAVA2 b_piano2_v100l32-15o6dp.wav
#WAVA3 b_piano2_v100l8o6e.wav
#WAVA4 b_piano2_v100l4-3o6e.wav
#WAVA5 b_piano2_v100l32o6fp.wav
#WAVA6 b_piano2_v100l16o6fp.wav
#WAVA7 b_piano2_v100l8o6fp.wav
#WAVA8 b_piano2_v100l4o6fp.wav
#WAVA9 b_piano2_v100l2o6fp.wav
#WAVAA b_piano2_v100l32o6gp.wav
#WAVAB b_piano2_v100l8o6gp.wav
#WAVAC b_piano2_v100l16-3o6gp.wav
#WAVAD b_piano2_v100l16-7o6gp.wav
#WAVAE b_piano2_v100l4-3o6gp.wav
#WAVAF b_piano2_v100l16-3o6b.wav
#WAVAH acid_break_000.wav
#WAVAI acid_break_001.wav
#WAVAJ acid_break_002.wav
#WAVAK acid_break_003.wav
#WAVAL acid_break_004.wav
#WAVAM acid_break_005.wav
#WAVAN acid_break_006.wav
#WAVAO acid_break_007.wav
#WAVAP acid_break_008.wav
#WAVAQ acid_break_009.wav
#WAVAR acid_break_010.wav
#WAVAS acid_break_011.wav
#WAVAT acid_break_012.wav
#WAVAU acid_break_013.wav
#WAVAV acid_break_014.wav
#WAVAW acid_break_015.wav
#WAVAX acid_break_016.wav
#WAVAY acid_break_017.wav
#WAVAZ acid_break_018.wav
#WAVB0 acid_break_019.wav
#WAVB1 acid_break_020.wav
#WAVB2 acid_break_021.wav
#WAVB3 acid_break_022.wav
#WAVB4 acid_break_023.wav
#WAVB5 acid_break_024.wav
#WAVB6 acid_break_025.wav
#WAVB7 acid_break_026.wav
#WAVB8 acid_break_027.wav
#WAVB9 acid_break_028.wav
#WAVBA acid_break_029.wav
#WAVBB acid_break_030.wav
#WAVBC acid_break_031.wav
#WAVBD acid_break_032.wav
#WAVBE acid_break_033.wav
#WAVBF acid_break_034.wav
#WAVBG acid_break_035.wav
#WAVBH acid_break_036.wav
#WAVBI acid_break_037.wav
#WAVBJ acid_break_038.wav
#WAVBK acid_break_039.wav
#WAVBL acid_break_040.wav
#WAVBM acid_break_041.wav
#WAVBN acid_break_042.wav
#WAVBO acid_break_043.wav
#WAVBP acid_break_044.wav
#WAVBQ acid_break_045.wav
#WAVBR acid_break_046.wav
#WAVBS acid_break_047.wav
#WAVBT acid_break_048.wav
#WAVBU acid_break_049.wav
#WAVBV acid_break_050.wav
#WAVBW acid_break_051.wav
#WAVBX acid_break_052.wav
#WAVBY acid_break_053.wav
#WAVBZ acid_break_054.wav
#WAVC0 acid_break_055.wav
#WAVC1 acid_break_056.wav
#WAVC2 acid_break_057.wav
#WAVC3 acid_break_058.wav
#WAVC4 acid_break_059.wav
#WAVC5 acid_break_060.wav
#WAVC6 acid_break_061.wav
#WAVC7 acid_break_062.wav
#WAVC8 acid_break_063.wav
#WAVC9 acid_break_064.wav
#WAVCA acid_break_065.wav
#WAVCB acid_break_066.wav
#WAVCC acid_break_067.wav
#WAVCD acid_break_068.wav
#WAVCE acid_break_069.wav
#WAVCF acid_break_070.wav
#WAVCG acid_break_071.wav
#WAVCH acid_break_072.wav
#WAVCI acid_break_073.wav
#WAVCJ acid_break_074.wav
#WAVCK acid_break_075.wav
#WAVCL acid_break_076.wav
#WAVCM acid_break_077.wav
#WAVCN acid_break_078.wav
#WAVCO acid_break_079.wav
#WAVCP acid_break_080.wav
#WAVCQ acid_break_081.wav
#WAVCR acid_break_082.wav
#WAVCS acid_break_083.wav
#WAVCT acid_break_084.wav
#WAVCU acid_break_085.wav
#WAVCV acid_break_086.wav
#WAVCW acid_break_087.wav
#WAVCX acid_break_088.wav
#WAVCY acid_break_089.wav
#WAVCZ acid_break_090.wav
#WAVD0 acid_break_091.wav
#WAVD2 acid_main_000.wav
#WAVD3 acid_main_001.wav
#WAVD4 acid_main_002.wav
#WAVD5 acid_main_003.wav
#WAVD6 acid_main_004.wav
#WAVD7 acid_main_005.wav
#WAVD8 acid_main_006.wav
#WAVD9 acid_main_007.wav
#WAVDA acid_main_008.wav
#WAVDB acid_main_009.wav
#WAVDC acid_main_010.wav
#WAVDD acid_main_011.wav
#WAVDE acid_main_012.wav
#WAVDF acid_main_013.wav
#WAVDG acid_main_014.wav
#WAVDH acid_main_015.wav
#WAVDI acid_main_016.wav
#WAVDJ acid_main_017.wav
#WAVDK acid_main_018.wav
#WAVDL acid_main_019.wav
#WAVDM acid_main_020.wav
#WAVDN acid_main_021.wav
#WAVDO acid_main_022.wav
#WAVDP acid_main_023.wav
#WAVDQ acid_main_024.wav
#WAVDR acid_main_025.wav
#WAVDS acid_main_026.wav
#WAVDT acid_main_027.wav
#WAVDU acid_main_028.wav
#WAVDV acid_main_029.wav
#WAVDW acid_main_030.wav
#WAVDX acid_main_031.wav
#WAVDY acid_main_032.wav
#WAVDZ acid_main_033.wav
#WAVE0 acid_main_034.wav
#WAVE1 acid_main_035.wav
#WAVE2 acid_main_036.wav
#WAVE3 acid_main_037.wav
#WAVE4 acid_main_038.wav
#WAVE5 acid_main_039.wav
#WAVE6 acid_main_040.wav
#WAVE7 acid_main_041.wav
#WAVE8 acid_main_042.wav
#WAVE9 acid_main_043.wav
#WAVEA acid_main_044.wav
#WAVEB acid_main_045.wav
#WAVEC acid_main_046.wav
#WAVED acid_main_047.wav
#WAVEE acid_main_048.wav
#WAVEF acid_main_049.wav
#WAVEG acid_main_050.wav
#WAVEH acid_main_051.wav
#WAVEI acid_main_052.wav
#WAVEJ acid_main_053.wav
#WAVEK acid_main_054.wav
#WAVEL acid_main_055.wav
#WAVEM acid_main_056.wav
#WAVEN acid_main_057.wav
#WAVEO acid_main_058.wav
#WAVEP acid_main_059.wav
#WAVEQ acid_main_060.wav
#WAVER acid_main_061.wav
#WAVES acid_main_062.wav
#WAVET acid_main_063.wav
#WAVEU acid_main_064.wav
#WAVEV acid_main_065.wav
#WAVEW acid_main_066.wav
#WAVEX acid_main_067.wav
#WAVEY acid_main_068.wav
#WAVEZ acid_main_069.wav
#WAVF0 acid_main_070.wav
#WAVF1 acid_main_071.wav
#WAVF2 acid_main_072.wav
#WAVF3 acid_main_073.wav
#WAVF4 acid_main_074.wav
#WAVF5 acid_main_075.wav
#WAVF6 acid_main_076.wav
#WAVF7 acid_main_077.wav
#WAVF8 acid_main_078.wav
#WAVF9 acid_main_079.wav
#WAVFA acid_main_080.wav
#WAVFB acid_main_081.wav
#WAVFC acid_main_082.wav
#WAVFD acid_main_083.wav
#WAVFE acid_main_084.wav
#WAVFF acid_main_085.wav
#WAVFG acid_main_086.wav
#WAVFH acid_main_087.wav
#WAVFI acid_main_088.wav
#WAVFJ acid_main_089.wav
#WAVFK acid_main_090.wav
#WAVFL acid_main_091.wav
#WAVFN acid_main_093.wav
#WAVFO acid_main_094.wav
#WAVFP acid_main_095.wav
#WAVFQ acid_main_096.wav
#WAVFR acid_main_097.wav
#WAVFS acid_main_098.wav
#WAVFT acid_main_099.wav
#WAVFU acid_main_100.wav
#WAVFV acid_main_101.wav
#WAVFW acid_main_102.wav
#WAVFX acid_main_103.wav
#WAVFY acid_main_104.wav
#WAVFZ acid_main_105.wav
#WAVG0 acid_main_106.wav
#WAVG1 acid_main_107.wav
#WAVG2 acid_main_108.wav
#WAVG3 acid_main_109.wav
#WAVG4 acid_main_110.wav
#WAVG5 acid_main_111.wav
#WAVG6 acid_main_112.wav
#WAVG7 acid_main_113.wav
#WAVG8 acid_main_114.wav
#WAVG9 acid_main_115.wav
#WAVGB acid_outro_000.wav
#WAVGC acid_outro_001.wav
#WAVGD acid_outro_002.wav
#WAVGE acid_outro_003.wav
#WAVGF acid_outro_004.wav
#WAVGG acid_outro_005.wav
#WAVGH acid_outro_006.wav
#WAVGI acid_outro_007.wav
#WAVGJ acid_outro_008.wav
#WAVGK acid_outro_009.wav
#WAVGL acid_outro_010.wav
#WAVGM acid_outro_011.wav
#WAVGN acid_outro_012.wav
#WAVGO acid_outro_013.wav
#WAVGP acid_outro_014.wav
#WAVGQ acid_outro_015.wav
#WAVGR acid_outro_016.wav
#WAVGS acid_outro_017.wav
#WAVGT acid_outro_018.wav
#WAVGU acid_outro_019.wav
#WAVGV acid_outro_020.wav
#WAVGW acid_outro_021.wav
#WAVGX acid_outro_022.wav
#WAVGY acid_outro_023.wav
#WAVGZ acid_outro_024.wav
#WAVH0 acid_outro_025.wav
#WAVH1 acid_outro_026.wav
#WAVH2 acid_outro_027.wav
#WAVH3 acid_outro_028.wav
#WAVH4 acid_outro_029.wav
#WAVH5 acid_outro_030.wav
#WAVH6 acid_outro_031.wav
#WAVH7 acid_outro_032.wav
#WAVH8 acid_outro_033.wav
#WAVH9 acid_outro_034.wav
#WAVHA acid_outro_035.wav
#WAVHB acid_outro_036.wav
#WAVHC acid_outro_037.wav
#WAVHD acid_outro_038.wav
#WAVHE acid_outro_039.wav
#WAVHF acid_outro_040.wav
#WAVHG acid_outro_041.wav
#WAVHH acid_outro_042.wav
#WAVHI acid_outro_043.wav
#WAVHJ acid_outro_044.wav
#WAVHK acid_outro_045.wav
#WAVHL acid_outro_046.wav
#WAVHM acid_outro_047.wav
#WAVHN acid_outro_048.wav
#WAVHO acid_outro_049.wav
#WAVHP acid_outro_050.wav
#WAVHQ acid_outro_051.wav
#WAVHR acid_outro_052.wav
#WAVHS acid_outro_053.wav
#WAVHT acid_outro_054.wav
#WAVHU acid_outro_055.wav
#WAVHV acid_outro_056.wav
#WAVHW acid_outro_057.wav
#WAVHX acid_outro_058.wav
#WAVHY acid_outro_059.wav
#WAVHZ acid_outro_060.wav
#WAVI0 acid_outro_061.wav
#WAVI1 acid_outro_062.wav
#WAVI2 acid_outro_063.wav
#WAVI3 acid_outro_064.wav
#WAVI4 acid_outro_065.wav
#WAVI5 acid_outro_066.wav
#WAVI6 acid_outro_067.wav
#WAVI7 acid_outro_068.wav
#WAVI8 acid_outro_069.wav
#WAVI9 acid_outro_070.wav
#WAVIA acid_outro_071.wav
#WAVIB acid_outro_072.wav
#WAVIC acid_outro_073.wav
#WAVID acid_outro_074.wav
#WAVIE acid_outro_075.wav
#WAVIF acid_outro_076.wav
#WAVIG acid_outro_077.wav
#WAVIH acid_outro_078.wav
#WAVII acid_outro_079.wav
#WAVIJ acid_outro_080.wav
#WAVIK acid_outro_081.wav
#WAVIL acid_outro_082.wav
#WAVIM acid_outro_083.wav
#WAVIN acid_outro_084.wav
#WAVIO acid_outro_085.wav
#WAVIP acid_outro_086.wav
#WAVIQ acid_outro_087.wav
#WAVIR acid_outro_088.wav
#WAVIT fill_000.wav
#WAVIU fill_001.wav
#WAVIV fill_002.wav
#WAVIW fill_003.wav
#WAVIX fill_004.wav
#WAVIY fill_005.wav
#WAVIZ fill_006.wav
#WAVJ0 fill_007.wav
#WAVJ1 fill_008.wav
#WAVJ2 hhroop_000.wav
#WAVJ3 hhroop_001.wav
#WAVJ4 hhroop_002.wav
#WAVJ5 hhroop_003.wav
#WAVJ6 hhroop_004.wav
#WAVJ7 hhroop_005.wav
#WAVJ8 hhroop_006.wav
#WAVJ9 hhroop_007.wav
#WAVJA hhroop_008.wav
#WAVJB hhroop_009.wav
#WAVJC hhroop_010.wav
#WAVJD hhroop_011.wav
#WAVJE hhroop_012.wav
#WAVJF hhroop_013.wav
#WAVJG hhroop_014.wav
#WAVJH hhroop_015.wav
#WAVJI hhroop_016.wav
#WAVJJ hhroop_017.wav
#WAVJK hhroop_018.wav
#WAVJL hhroop_019.wav
#WAVJM hhroop_020.wav
#WAVJN hhroop_021.wav
#WAVJO hhroop_022.wav
#WAVJP hhroop_023.wav
#WAVJQ hhroop_024.wav
#WAVJR hhroop_025.wav
#WAVJS hhroop_026.wav
#WAVJT hhroop_027.wav
#WAVJV guitar_000.wav
#WAVJW guitar_001.wav
#WAVJX guitar_002.wav
#WAVJY guitar_003.wav
#WAVJZ guitar_004.wav
#WAVK0 guitar_005.wav
#WAVK1 guitar_006.wav
#WAVK2 guitar_007.wav
#WAVK3 guitar_008.wav
#WAVK4 guitar_009.wav
#WAVK5 guitar_010.wav
#WAVK6 guitar_011.wav
#WAVK7 guitar_012.wav
#WAVK8 guitar_013.wav
#WAVK9 guitar_014.wav
#WAVKA guitar_015.wav
#WAVKB guitar_016.wav
#WAVKC guitar_017.wav
#WAVKD guitar_018.wav
#WAVKE guitar_019.wav
#WAVKF guitar_020.wav
#WAVKG guitar_021.wav
#WAVKH guitar_022.wav
#WAVKI guitar_023.wav
#WAVKJ guitar_024.wav
#WAVKK guitar_025.wav
#WAVKL guitar_026.wav
#WAVKM guitar_027.wav
#WAVKN guitar_028.wav
#WAVKO guitar_029.wav
#WAVKP guitar_030.wav
#WAVKQ guitar_031.wav
#WAVKR guitar_032.wav
#WAVKS guitar_033.wav
#WAVKT guitar_034.wav
#WAVKU guitar_035.wav
#WAVKV guitar_036.wav
#WAVKX cymbal.wav
#WAVKY s_cymbal.wav
#WAVKZ impact.wav
#WAVZW BGM1.wav
#WAVZX BGM2.wav
#WAVZY BGM3.wav
#BMP01 _bga.wmv
#LNOBJ ZZ
#DIFFICULTY 5
#SUBARTIST BGA:<3A><><EFBFBD><EFBFBD><EFBFBD><EFBFBD><EFBFBD>
*---------------------- MAIN DATA FIELD
#00002:1.25
#00004:000000000000000000000000000000000000000000000000000000000000000000000000000000000000000000000001000000000000000000000000000000000000000000000000000000000000000000000000000000000000000000000000000000000000000000000000000000000000000000000000000000000000000000000000000000000000000000000000000000000000000000000000000000000000000000000000000000000000000000000000000000000000000000000000000000000000000000000000000000000000000000000000000000000000000000000000000000000000000000000000
#00201:00
#00201:00
#00201:00
#00201:00
#00201:00
#00201:00
#00201:00
#00201:00
#00201:IT00IUIVIW000000IX00IY00IZ00J0J1
#00201:00
#00201:00
#00201:00
#00201:00
#00201:00
#00201:00
#00201:00
#00201:00
#00201:00
#00201:00
#00201:00
#00201:ZW
#00301:00
#00301:00
#00301:00
#00301:00
#00301:00000500000000050000000000000005
#00301:00
#00301:00
#00301:00
#00301:00
#00301:00
#00301:00
#00301:0070007000700070
#00301:00
#00301:00
#00301:00
#00301:00
#00301:00
#00301:00
#00301:00
#00301:00
#00301:00
#00301:00
#00301:0000J4J5J600J7J8J9JAJBJCJD00JEJF
#00311:01010101
#00312:0004000400040004
#00313:J2000000030000000019000003000000
#00314:00001500000005000000001500000500
#00315:00J30005001500000000050000150000
#00316:KX
#00318:0000001B00000000150000001B000000
#00319:1900000000001D000000000500001D00
#00401:00
#00401:00
#00401:00
#00401:00
#00401:00000000000000000000000000000005
#00401:00
#00401:00
#00401:00
#00401:00
#00401:00
#00401:00
#00401:0070007000700070
#00401:00
#00401:00
#00401:00
#00401:00
#00401:00
#00401:00
#00401:00
#00401:00
#00401:00
#00401:00
#00401:JGJHJIJJJK00JLJMJNJOJPJQJR00JSJT
#00411:01010101
#00412:0004000400040004
#00413:00001500030000050000150003000000
#00414:1900001B000005000000000000150000
#00415:00000000001500150000001F00000500
#00418:0000000500001D000000050000001D00
#00419:00000500000000001H00000500000000
#00501:00
#00501:00
#00501:00
#00501:00
#00501:00000000000000050000000000000005
#00501:00
#00501:00
#00501:00
#00501:00
#00501:00
#00501:00
#00501:0070007000700070
#00501:00
#00501:00
#00501:00
#00501:00
#00501:00
#00501:00
#00501:00
#00501:00
#00501:00
#00501:00
#00501:J2J3J4J5J600J7J8J9JAJBJCJD00JEJF
#00511:01010101
#00512:00000500030000000000000500000500
#00513:19000005000005000019000003000000
#00514:00001500001500000000001500150000
#00515:0000001B00001D001500050000001D00
#00518:0000001B
#00519:0004000400040004
#00601:00
#00601:00
#00601:00
#00601:00
#00601:00000005000000050000000000000005
#00601:00
#00601:00000000000000150000000000000000
#00601:00
#00601:00
#00601:00
#00601:00
#00601:0070007000700070
#00601:00
#00601:00
#00601:00
#00601:00
#00601:00
#00601:00
#00601:00
#00601:00
#00601:00
#00601:00
#00601:JGJHJIJJJK00JLJMJNJOJPJQJR00JSJT
#00611:01010101
#00612:0015000500150005
#00613:0005030017000300
#00614:19000000001500000000001B00150000
#00615:0000001B00001D000000050000001D00
#00618:00000000000000000000000500000000
#00619:0004000400040004
#00701:00
#00701:00
#00701:00
#00701:00
#00701:00
#00701:00
#00701:00
#00701:00
#00701:00
#00701:00
#00701:00
#00701:0070007000700070
#00701:00
#00701:00
#00701:00
#00701:00
#00701:00
#00701:00
#00701:00
#00701:00
#00701:00
#00701:00
#00701:J2J3J4J5J600J7J8J9JAJBJCJD00JEJF
#00711:01010101
#00712:00001500001500000019000000150000
#00713:00000500030005000000050003000005
#00714:19000000000004001500001500000400
#00715:0000001B00000005000004001B000000
#00718:0000040000001D000000000500000500
#00719:00000005000000000000000000001D00
#00801:00
#00801:00
#00801:00
#00801:00
#00801:00
#00801:00
#00801:00
#00801:00
#00801:00
#00801:00
#00801:00
#00801:0070007000700070
#00801:00
#00801:00
#00801:00
#00801:00
#00801:00
#00801:00
#00801:00
#00801:00
#00801:00
#00801:00
#00801:JGJHJIJJJK00JLJMJNJOJPJQJR00JSJT
#00811:01010101
#00812:0015000400040300
#00813:00000000030000150000000500000500
#00814:1900001B000005000000150000001D00
#00815:00000500001500050000050000150000
#00818:0000040000001D000000001F00000400
#00819:00000005000000001H00000000000005
#00901:00
#00901:00
#00901:00
#00901:00
#00901:00
#00901:00
#00901:00
#00901:00
#00901:00
#00901:00
#00901:00
#00901:0070007000700070
#00901:00
#00901:00
#00901:00
#00901:00
#00901:00
#00901:00
#00901:00
#00901:00
#00901:00
#00901:00
#00901:J2J3J4J5J600J7J8J9JAJBJCJD00JEJF
#00911:01010101
#00912:00001500001500000000001500000400
#00913:00000500030000050000050003000500
#00914:19000000000004000000040000150000
#00915:0000001B000000001500000500000000
#00918:0000040000001D00001900001B000005
#00919:00000005000005000000000000001D00
#01001:00
#01001:00
#01001:00
#01001:00
#01001:00000000000000000000000000000005
#01001:00
#01001:00
#01001:00
#01001:00
#01001:00
#01001:00
#01001:0070007000700070
#01001:00
#01001:00
#01001:00
#01001:00
#01001:00
#01001:00
#01001:00
#01001:00
#01001:00
#01001:00
#01001:JGJHJIJJJK00JLJMJNJOJPJQJR00JSJT
#01011:01010101
#01012:00000000030000050000000003000400
#01013:19000500000005001700000500150000
#01014:00001500001500150000150000000500
#01015:0000001B000004000000001B00000000
#01018:0004001D0005001D
#01019:00000005000000000000040000000000
#01101:01010101
#01101:00030000
#01101:00
#01101:0004000400040004
#01101:00000000000005050000050500000505
#01101:00
#01101:0000160000000000001A000000001E00
#01101:00
#01101:00
#01101:00
#01101:00
#01101:0070007000700070
#01101:00
#01101:00
#01101:00
#01101:00
#01101:00
#01101:00
#01101:00
#01101:00
#01101:00
#01101:00
#01101:J2J3J4J5J600J7J8J9JAJBJCJD00JEJF
#01111:79000079000079000000790000160000
#01112:00000500001600001600000000007E00
#01113:1A00001C00001E000000001600790000
#01114:007Z7Z000000037L
#01115:00000005000000007L00007L00000000
#01116:KX
#01118:0000860086000079000000001C000000
#01119:91000000000000007Z00007Z00000000
#01201:01010101
#01201:00
#01201:0000000000000004
#01201:0004000400000000
#01201:00000000000005050000050500000505
#01201:00
#01201:0000161C00161E161I00161G00161E00
#01201:00
#01201:00
#01201:00
#01201:00
#01201:00007000000070000000707L00790000
#01201:00000000000000790000007Z00007000
#01201:00
#01201:00
#01201:00
#01201:00
#01201:00
#01201:00
#01201:00
#01201:00
#01201:00
#01201:JGJHJIJJJK00JLJMJNJOJPJQ0000JSJT
#01211:1A03008M
#01212:0005008T0079007E
#01213:79000005000000000000000003000000
#01214:0000008W000079007L008N0000007L00
#01215:007Z7Z000000JR00
#01218:8Y000079000000007Z00040000000000
#01219:008686008Q00008T
#01301:01010101
#01301:00
#01301:00030000
#01301:0004000000000000
#01301:00000500000005050000050500000505
#01301:00
#01301:0000161C00161E00161A001600001E00
#01301:00
#01301:00
#01301:00
#01301:00
#01301:0070007000700070
#01301:00000000000000790000000000007E00
#01301:00
#01301:00
#01301:00
#01301:00
#01301:00
#01301:00
#01301:00
#01301:00
#01301:00
#01301:J2J3J4J5J600J7J8J9JAJBJCJD00JEJF
#01311:79000000000079000000000000160000
#01312:00000005000000007L00007L00007L00
#01313:1A000000000004000000790000790000
#01314:00000079000000007Z00007Z00008K00
#01315:007Z7Z0000041C00
#01318:8S0000008S000004
#01319:0086868U00000300
#01401:00
#01401:00
#01401:00030000
#01401:0004000000000004
#01401:00000505000005050000050500000505
#01401:00
#01401:1A00161C00161E161800160000160000
#01401:00
#01401:00
#01401:00
#01401:00
#01401:0070000000700070
#01401:00000079000070797L00007L00007E00
#01401:00000000000000000000000000790000
#01401:00
#01401:00
#01401:00
#01401:00
#01401:00
#01401:00
#01401:00
#01401:00
#01401:JGJHJIJJJK00JLJMJNJOJPJQJR00JSJT
#01411:01010101
#01412:008600040079007L
#01413:790000007Z0000000000001C00008L00
#01414:00007Z00000000007Z00007Z00000000
#01415:8O00007900040300
#01418:00000000860000000000008M00001E00
#01419:008R8P00
#01501:01010101
#01501:00030003
#01501:00
#01501:0004000000040004
#01501:00000505000005050000050500000505
#01501:00
#01501:1A00161C00160000160000161C161E00
#01501:00
#01501:00
#01501:00
#01501:00
#01501:0070007000700070
#01501:00000000000079790000000000000000
#01501:00
#01501:00
#01501:00
#01501:00
#01501:00
#01501:00
#01501:00
#01501:00
#01501:00
#01501:J2J3J4J5J600J7J8J9JAJBJCJD00JEJF
#01511:790000007Z0000000000790000790000
#01512:00007Z0000000400001A007L00000000
#01513:00000079000000007L00000000007E00
#01514:1200110086001E007Z00000X000W000V
#01515:000086000010000Z000Y007Z00007L00
#01518:001200110000000000000X000W000V00
#01519:9100100Z0Y000000
#01601:00
#01601:00000003
#01601:00030000
#01601:0004000400040004
#01601:00000505000005050000050000000505
#01601:00
#01601:1A00161C00161E161I00161G00161E00
#01601:00
#01601:00
#01601:00
#01601:00
#01601:0070007000700070
#01601:00000079000000797L00007L00790000
#01601:00000000000000000000007Z00007E00
#01601:00
#01601:00
#01601:00
#01601:00
#01601:00
#01601:00
#01601:00
#01601:00
#01601:JGJHJIJJJK00JLJMJNJOJPJQJR00JSJT
#01611:01010101
#01612:0U000T0086000000000P000N00007L00
#01613:79000S0R7Z790M0K
#01614:000U000T000079000P000O0000000000
#01615:8Y00008W000S000Q00000005000L000J
#01618:00867Z8T8Q009400
#01619:007Z0000008N0096
#01701:01010101
#01701:00030003
#01701:00
#01701:0004000400040004
#01701:00000505000005050000050500000505
#01701:00
#01701:1A00131C00131E00131A00131C131E00
#01701:00
#01701:00
#01701:00
#01701:00
#01701:006X006X006X006X
#01701:00
#01701:00
#01701:00
#01701:00
#01701:00
#01701:00
#01701:00
#01701:00
#01701:00
#01701:00
#01701:J2J3J4J5J600J7J8J9JAJBJCJD00JEJF
#01711:0I0G0F0D7L000000
#01712:000000740C0B0A09
#01713:000H000F000E000D0000000000008Z00
#01714:7400007400008V00000C000B000A0009
#01715:00007Z007Z0000007Z00007L00007E00
#01718:95000000000000740000740000740000
#01719:00008600860000009500007Z00007L00
#01801:01
#01801:00
#01801:00
#01801:00
#01801:00
#01801:00
#01801:1A00141C00141E141800001C00001E00
#01801:00
#01801:007Z000000000000
#01801:00
#01801:00
#01801:006Y006Y006Y006Y
#01801:000000000000007E
#01801:00
#01801:00
#01801:00
#01801:00
#01801:00
#01801:00
#01801:00
#01801:00
#01801:00
#01801:JGJHJIJJJK00JLJMJNJOJPJQJR00JSJT
#01811:770000007Z0077000000770000770000
#01812:00008600860000007L00007L00007L00
#01813:92000000000000770000140000008X00
#01814:00060000070000007Z00007Z00140000
#01815:000000060000770000000000070000009300000000008Y000000000000000000
#01816:KX
#01818:00000700940000000000000700070007
#01819:00000007000000070007000007000700
#01901:00
#01901:00030000
#01901:00
#01901:00000405000004000000000000000400
#01901:00000000000005000000050500000505
#01901:00
#01901:00
#01901:00
#01901:00
#01901:000000000000000000000000515N0000
#01901:00
#01901:0070007000700070
#01901:7A007Z79000000797L00797L00797E00
#01901:00
#01901:00
#01901:00
#01901:00
#01901:00
#01901:00
#01901:00
#01901:00
#01901:00
#01901:J2J3J4J5J600J7J8J9JAJBJCJD00JEJF
#01911:01010101
#01912:00000500000079005N00005U00006300
#01913:5H004R0000510005000004002D007L00
#01914:0000000000005N0000000000000000002Z0000000000360000002Z000000003K
#01915:2T237Z5U0059003F
#01916:KX
#01918:0000000000002Z0000002D00000000007Z00000000007Z000000000000000068
#01919:00868636002L0300
#02001:00
#02001:00
#02001:0000000000000004
#02001:00
#02001:00000505000005050000050500000505
#02001:00
#02001:00
#02001:002T
#02001:00
#02001:005H
#02001:00
#02001:0070007000700070
#02001:79000079000079000000007L00797E00
#02001:00000000000000000000007Z00000000
#02001:00
#02001:00
#02001:00
#02001:00
#02001:00
#02001:00
#02001:00
#02001:00
#02001:JGJHJIJJJK00JLJMJNJOJPJQJR00JSJT
#02011:01010101
#02012:000400040004007L
#02013:00000000030000790000000003000000
#02014:0000003O000000007L00790000005X00
#02015:6I7Z7Z6H00006H39
#02018:0000006C000000007Z006R003T000000
#02019:3U86863T00430000
#02101:00
#02101:00
#02101:0000000400000000
#02101:0000000000000004
#02101:00000505000005050000050500000500
#02101:00
#02101:00
#02101:00
#02101:00
#02101:00
#02101:00
#02101:006V006V006V006V
#02101:71007Z00000000007L00007L00007E00
#02101:00008600000000000000007Z00007L00
#02101:00
#02101:00
#02101:00
#02101:00
#02101:00
#02101:00
#02101:00
#02101:00
#02101:J2J3J4J5J600J7J8J9JAJBJCJD00JEJF
#02111:01010101
#02112:00000400000071005Q00000000710000
#02113:00000071000000710000710003000005
#02114:62677Z007Z000000
#02115:006E000086005X003200006600006M00
#02118:3E003J00000039000000003I00000000
#02119:003Q0000030000000000040000003Y00
#02201:00
#02201:00
#02201:00030000
#02201:0000000000040004
#02201:00000505000005050000050500000505
#02201:00
#02201:00
#02201:00
#02201:00
#02201:00
#02201:00
#02201:006W006W006W006W
#02201:730000007Z0000007L00737L00737E00
#02201:00867Z00
#02201:00
#02201:00
#02201:00
#02201:00
#02201:00
#02201:00
#02201:00
#02201:00
#02201:JGJHJIJJJK00JLJMJNJOJPJQJR00JSJT
#02211:01010101
#02212:000400040000005E
#02213:00006B00002D0300
#02214:6H000073000000730000005U00002Q00
#02215:00007Z003N0000006200510000510000
#02218:3T000000000073000000003600007L00
#02219:00008600000000003E00007Z002D0000
#02301:00
#02301:00
#02301:00030003
#02301:0004000400040004
#02301:00000505000005050000050500000505
#02301:00
#02301:00
#02301:00
#02301:004R000000000000
#02301:0000000000590063
#02301:00
#02301:0070007000700070
#02301:79000079000079007L00007L00790000
#02301:00
#02301:00
#02301:00
#02301:00
#02301:00
#02301:00
#02301:00
#02301:00
#02301:00
#02301:J2J3J4J5J600J7J8J9JAJBJCJD00JEJF
#02311:01010101
#02312:00002300002D00000000005U00003F00
#02313:5H000000005100005N002L0051007E00
#02314:0000000000005N00000000005U0000007Z00000000007Z0000005N000000003K
#02315:2T007Z007Z000079000000002D007L00
#02318:0000000000002Z0000000000360000002Z000000000036000000000000000068
#02319:000086008600000000007900002Z0000
#02401:00
#02401:00
#02401:00
#02401:0004000400000004
#02401:00000505000005000000050500000505
#02401:00
#02401:00
#02401:00
#02401:002T
#02401:00
#02401:00
#02401:0070007000700070
#02401:790000797Z0079007L00790000797E00
#02401:00
#02401:00
#02401:00
#02401:00
#02401:00
#02401:00
#02401:00
#02401:00
#02401:00
#02401:JGJHJIJJJK00JLJMJNJOJPJQJR00JSJT
#02411:01010101
#02412:0000006C000000050000007L00006P00
#02413:007Z03005H00037L
#02414:0000003O000000790000040045000000
#02415:6I00000000006H007Z00007Z00004100
#02418:0086860000466T00
#02419:3U00003T006U0000
#02501:00
#02501:00
#02501:00
#02501:0004000000000000
#02501:00000505000005050000050500000505
#02501:00
#02501:00
#02501:00
#02501:00
#02501:00
#02501:00
#02501:006V006V006V006V
#02501:71007Z71000071717L00717L00717E00
#02501:00008600000000000000007Z00000000
#02501:00
#02501:00
#02501:00
#02501:00
#02501:00
#02501:00
#02501:00
#02501:00
#02501:J2J3J4J5J600J7J8J9JAJBJCJD00JEJF
#02511:01010101
#02512:00000304005P0004
#02513:0000006I00006500000004005X000000
#02514:6S007Z005X00036P
#02515:0000003H7Z31007L
#02518:0000003U000000000000000039000000
#02519:4400860039000041
#02601:00
#02601:00
#02601:00000003
#02601:0004000000040004
#02601:00000505000005050000050500000505
#02601:00
#02601:00
#02601:00
#02601:00
#02601:6E6L6J00000000000000000000000000
#02601:00
#02601:006W006W006Y006Y
#02601:73007Z73000073737L00777L00007E00
#02601:0086000000000000
#02601:00
#02601:00
#02601:00
#02601:00
#02601:00
#02601:00
#02601:00
#02601:00
#02601:JGJHJIJJJK00JLJMJNJOJPJQJR00JSJT
#02611:0100000003006B0000005N0000770000
#02612:003X00007Z0000006H002Z0062007L00
#02613:3Q3V003N3T003E00
#02614:00060000860000000000007Z00006O00
#02615:000000060000000000000000040000007Z000000000000000000000040000000
#02616:KX
#02618:00000700070007000007000700070007
#02619:00000007000000070000000007000700
#02701:01010101
#02701:00
#02701:00
#02701:0000000400040004
#02701:00000505000005000000050500000505
#02701:00
#02701:00
#02701:2D00000000002L00000000002T0000002L0000002D002T0000002L002U000034
#02701:00
#02701:000000000000000000000000000000005900000051005H00000059005I00005S
#02701:00
#02701:0070007000700070
#02701:7A007Z79000079007L00000000007E00
#02701:0086000000000000
#02701:00
#02701:00
#02701:00
#02701:00
#02701:00
#02701:00
#02701:00
#02701:00
#02701:J2J3J4J5J600J7J8J9JAJBJCJD00JEJF
#02711:2T0000000300000500002L002D000000
#02712:000000002300000000002D00000000005N00000000005U0000002Z000000003K
#02713:514R7Z5H0059513F
#02714:0000000000002Z0000005100000000002Z0000000000360000005N0000000068
#02715:5H000059000000790000007Z00006300
#02716:KX
#02718:000486367Z79037L
#02719:0000005N00005U000000007L00790000
#02801:01010101
#02801:00
#02801:00030003
#02801:0000000400040004
#02801:00000500000005000000050500000505
#02801:00
#02801:00
#02801:3A000032000039002D00000039000000
#02801:002T
#02801:5Y00005Q00005X0000006H005X005K00
#02801:00
#02801:0070007000700070
#02801:79000079000000007L00790000007E00
#02801:00
#02801:00
#02801:00
#02801:00
#02801:00
#02801:00
#02801:00
#02801:00
#02801:00
#02801:JGJHJIJJJK00JLJMJNJOJPJQJR00JSJT
#02811:0000006C000000050000430000003900
#02812:0000040000006H000000007L00007L00
#02813:0000003O00003T007Z00000000790000
#02814:00007Z007Z0000790000007Z00002W00
#02815:6I00000500007900510000003T005X00
#02818:008686005H3T6H00
#02819:3U000000006R0000
#02901:01010101
#02901:00
#02901:00000003
#02901:0004000400000004
#02901:00000500000005050000000500000505
#02901:00
#02901:00
#02901:00360000000000000000000000000000
#02901:00
#02901:00
#02901:00
#02901:006V006V0000006V
#02901:71007Z00000071717L006V7L00007E00
#02901:00008600000000007Z00007Z00717L00
#02901:00
#02901:00
#02901:00
#02901:00
#02901:00
#02901:00
#02901:00
#02901:00
#02901:J2J3J4J5J600J7J8J9JAJBJCJD00JEJF
#02911:3E003J00000000003200003I00000000
#02912:2Z3303002O040000
#02913:003Q000500002W000000002X00003Y00
#02914:5N5R005K5C710039
#02915:620067007Z0000000000005L00000000
#02918:005U0071000039005Q00006600005X00
#02919:006E000086005X000000050000006M00
#03001:01000000010000000100000100000100
#03001:00
#03001:0005030000000300
#03001:0000000000000004
#03001:00000000000000000000000000000505
#03001:00
#03001:00
#03001:00000000000000002Z00002T00002900
#03001:00
#03001:00000000000000005N00005H00004X00
#03001:007Z000000000000
#03001:0000006W006W006W
#03001:730000737Z0073737L00737L00007E00
#03001:00006W00860000007Z00007Z00000000
#03001:00
#03001:00
#03001:00
#03001:00
#03001:00
#03001:00
#03001:00
#03001:00
#03001:JGJHJIJJJK00JLJMJNJOJPJQJR00JSJT
#03011:000000003N00000000000400002D0000
#03012:3H0000006B0000003E00000500002Q00
#03013:3T0000050000040000002D0000007L00
#03014:00000400390000006200003600730000
#03015:65005X000005005E
#03018:6H000000000000050000510000510000
#03019:00008600000005000000005U00000000
#03101:00
#03101:00
#03101:00030003
#03101:0004000400040004
#03101:00000505000005050000050500000505
#03101:00
#03101:00
#03101:2D00000023002L0000002D002T0000002L00000000002T002D002L002U000034
#03101:000000000000000000000000000000000000000000000000000000000000003K
#03101:5100000000005900000000005H0000005900000059005H00510059005I00005S
#03101:00000000000000000000000000000000000000000000000000005N0000000068
#03101:0070007000700070
#03101:79007Z797Z0079797L00797L00797E00
#03101:00008600860000007Z00007Z00007L00
#03101:00
#03101:00
#03101:00
#03101:00
#03101:00
#03101:00
#03101:00
#03101:00
#03101:J2J3J4J5J600J7J8J9JAJBJCJD00JEJF
#03111:0202020202020202
#03112:00004R00000000005N000000002Z0000
#03113:5H0000000051000Z0000005U00000000
#03114:2T00005N00000Z002Z000X000W006300
#03115:0012002Z001000000Y000036000W000V
#03116:KX
#03118:0011105U002L003F
#03119:1200001100003600000Y000X00000V00
#03201:00
#03201:0000000000000004
#03201:0000000000040300
#03201:00
#03201:00000505000005050000050000000500
#03201:00
#03201:00
#03201:3A00003200003900000043003T003H00
#03201:00
#03201:5Y00005Q00005X0000006R006H006500
#03201:00
#03201:0070007000700070
#03201:79007Z797Z0079797L00797L00007E00
#03201:008686007Z00007L
#03201:00
#03201:00
#03201:00
#03201:00
#03201:00
#03201:00
#03201:00
#03201:00
#03201:JG00JIJJJK00JLJMJN00JPJQJR00JSJT
#03211:3U00000003003T002T00000N000L0000
#03212:000U006C0000000Q00000O000M004100
#03213:6I000T000S006H00000P007Z0079000J
#03214:0U00000T00000R005H006U006T006P00
#03215:00JH003O000S00000P00460045000005
#03216:KX
#03218:000004000000040000JO000500000K00
#03219:0202020202020202
#03301:00
#03301:00
#03301:00030003
#03301:0004000400040004
#03301:00000505000005050000050500000505
#03301:00
#03301:00
#03301:3U00003A000031002W002N002W003H00
#03301:00
#03301:6I00005Y00005P005K005B005K006500
#03301:000000650000006P
#03301:006V006V006V006V
#03301:71007Z717Z0000717L00717L00717E00
#03301:00008600000000007Z00007Z00007L00
#03301:00
#03301:00
#03301:00
#03301:00
#03301:00
#03301:00
#03301:00
#03301:00
#03301:J2J3J4J5J600J7J8J9JAJBJCJD00JEJF
#03311:02020202390B5X00
#03312:0I00000F00000D0000005P0000004100
#03313:0002000200020002000C000B000A0009
#03314:440G0F715X313909
#03315:000H003U000E000D0002000200020002
#03316:KXKX
#03318:00860C0A
#03319:6S00006I00003H000200020002000200
#03401:00
#03401:00
#03401:00030003
#03401:0004000400040004
#03401:00000505000005050000050500000505
#03401:00
#03401:00
#03401:363E3B000000310037002L002Z003Q00
#03401:00
#03401:5U625Z0000005P005V0059005N006E00
#03401:00
#03401:006W006W006Y006Y
#03401:73007Z73000073737L00777L00777E00
#03401:00008600000000007Z00007Z00007L00
#03401:00
#03401:00
#03401:00
#03401:00
#03401:00
#03401:00
#03401:00
#03401:00
#03401:JGJHJIJJJK00JLJMJNJOJPJQJR00JSJT
#03411:0100000600000700000000000700000000000700000007000000070000000000
#03412:00000700000000070000000007000700
#03413:000600000700000000002Z0000000007
#03414:3Q3V003N00003E00
#03415:003X00007Z0000003R005N0000004000
#03416:KX
#03418:6E6J006B00006200
#03419:006L0000860000006F00000000006O00
#03501:KZ
#03501:00
#03501:00
#03501:00
#03501:00
#03501:00
#03501:00
#03501:00
#03501:00
#03501:00
#03501:00
#03501:0070007000700070
#03501:00
#03501:A40000A8
#03501:00
#03501:00
#03501:00
#03501:00
#03501:00
#03501:00
#03501:ZX
#03501:00
#03501:J2J3J4J5J600J7J8J9JAJBJCJD00JEJF
#03514:88
#03516:KX
#03518:0000008C
#03601:00
#03601:00
#03601:00
#03601:00
#03601:00
#03601:00
#03601:00
#03601:00
#03601:00
#03601:00
#03601:00
#03601:0070007000700070
#03601:00
#03601:A2000000A0A3A09R
#03601:00
#03601:00
#03601:00
#03601:00
#03601:00
#03601:00
#03601:00
#03601:00
#03601:JGJHJIJJJK00JLJMJNJOJPJQJR00JSJT
#03613:850000008300007T
#03615:00000083
#03619:0000000000870000
#03701:00
#03701:00
#03701:00
#03701:00
#03701:00
#03701:00
#03701:00
#03701:00
#03701:00
#03701:00
#03701:00
#03701:006Y006Y006Y006Y
#03701:00
#03701:9O00009J00009U00
#03701:00
#03701:00
#03701:00
#03701:00
#03701:00
#03701:00
#03701:00
#03701:00
#03701:J2J3J4J5J600J7J8J9JAJBJCJD00JEJF
#03711:0000007K00000000
#03712:7Q
#03714:0000007W
#03801:00
#03801:00
#03801:00
#03801:00
#03801:00
#03801:00
#03801:00
#03801:00
#03801:00
#03801:00
#03801:00
#03801:006Y006Y006W006W
#03801:00
#03801:9N009A009L9H9E9C
#03801:00
#03801:00
#03801:00
#03801:00
#03801:00
#03801:00
#03801:00
#03801:00
#03801:JGJHJIJJJK00JLJMJNJOJPJQJR00JSJT
#03811:000000000000007C
#03812:00780000
#03813:7P00007F
#03815:00000000007I0000
#03819:007N
#03901:00
#03901:00
#03901:00
#03901:00
#03901:00
#03901:00
#03901:00
#03901:00
#03901:00
#03901:00
#03901:00
#03901:006X006X006X006X
#03901:00
#03901:9F00009I
#03901:00
#03901:00
#03901:00
#03901:00
#03901:00
#03901:00
#03901:00
#03901:00
#03901:J2J3J4J5J600J7J8J9JAJBJCJD00JEJF
#03913:7G
#03918:0000007J
#04001:00
#04001:00
#04001:00
#04001:00
#04001:00
#04001:00
#04001:00
#04001:00
#04001:00
#04001:00
#04001:00
#04001:006X006X006X006X
#04001:00
#04001:9D000000990000009T00009M00009H00
#04001:00
#04001:00
#04001:00
#04001:00
#04001:00
#04001:00
#04001:00
#04001:00
#04001:JGJHJIJJJK00JLJMJNJOJPJQJR00JSJT
#04011:00760000
#04012:000000000000007I
#04013:00000000000000000000007O00000000
#04014:7D
#04015:007V
#04101:00
#04101:00
#04101:00
#04101:00
#04101:00
#04101:00
#04101:00
#04101:00
#04101:00
#04101:00
#04101:00
#04101:006Y006Y006V006V
#04101:00
#04101:9P
#04101:00
#04101:00
#04101:00
#04101:00
#04101:00
#04101:00
#04101:00
#04101:00
#04101:J2J3J4J5J600J7J8J9JAJBJCJD00JEJF
#04115:7R
#04201:00
#04201:00
#04201:00
#04201:00
#04201:00
#04201:00
#04201:00
#04201:00
#04201:00
#04201:00
#04201:00
#04201:006Y006Y006Z006Z
#04201:00
#04201:00
#04201:00
#04201:00
#04201:00
#04201:00
#04201:00
#04201:00
#04201:00
#04201:00
#04201:JGJHJIJJJK00JLJMJNJOJPJQJR00JSJT
#04211:0072
#04212:000000000000000000750000007S0000
#04213:00000000977B0082
#04214:00000000000000000098007H009Q008A
#04215:00000000009B7M9Z
#04218:00000000000000000000009G000000A6
#04219:0000009K
#04301:00
#04301:00
#04301:00
#04301:0004000400040004
#04301:00000505000005050000050500000505
#04301:00
#04301:00
#04301:00
#04301:00
#04301:00
#04301:00
#04301:0070007000700070
#04301:00
#04301:00
#04301:00
#04301:00
#04301:00
#04301:00
#04301:00
#04301:00
#04301:00
#04301:00
#04301:J2J3J4J5J600J7J8J9JAJBJCJD00JEJF
#04311:AH
#04313:88
#04314:000000A8
#04315:A4
#04316:KXAIAJ00AK00ALAM00ANAOAP00AQAR00
#04318:0000008C
#04401:00
#04401:00
#04401:00
#04401:0004000400040004
#04401:00000505000005050000050500000505
#04401:00
#04401:00
#04401:00
#04401:00
#04401:00
#04401:00
#04401:0070007000700070
#04401:00
#04401:00
#04401:00
#04401:000000000000000000000000009YA5AA00000000000000000000000000000000
#04401:00
#04401:00
#04401:00
#04401:00
#04401:00
#04401:00
#04401:JGJHJIJJJK00JLJMJNJOJPJQJR00JSJT
#04411:00009S00000000A7
#04412:00000000000000000000000000810000000000000000AC000000000000000000
#04413:A10000007U0000890000000000008B00
#04414:0000000000000000000000000000008E0000000000008G000000000000000000
#04415:84AF
#04416:ASATAU00AV00AWAX00AYAZB000B1B2B3
#04419:008J
#04501:00
#04501:00
#04501:00
#04501:0004000400040004
#04501:00000505000005050000050500000505
#04501:00
#04501:00
#04501:00
#04501:00
#04501:00
#04501:00
#04501:006Y006Y006Y006Y
#04501:00
#04501:00
#04501:00
#04501:00
#04501:00
#04501:00
#04501:00
#04501:00
#04501:00
#04501:00
#04501:J2J3J4J5J600J7J8J9JAJBJCJD00JEJF
#04513:0000009U
#04515:AE00007W
#04516:B4B5B600B700B8B900BABBBC00BDBE00
#04519:8I
#04601:00
#04601:00
#04601:00
#04601:0004000400040004
#04601:00000505000005050000050500000505
#04601:00
#04601:00
#04601:00
#04601:00
#04601:00
#04601:00
#04601:006Y006Y006W006W
#04601:00
#04601:00
#04601:00
#04601:00
#04601:00
#04601:00
#04601:00
#04601:00
#04601:00
#04601:00
#04601:JGJHJIJJJK00JLJMJNJOJPJQJR00JSJT
#04612:00000000000000A0
#04613:000000A3
#04614:0000000000A70083
#04615:AD00AB87
#04616:BFBGBH00BI00BJBK00BLBMBN00BOBPBQ
#04618:00000000008B0000
#04619:8H8F
#04701:00
#04701:00
#04701:00
#04701:0004000400040004
#04701:00000505000005050000050500000505
#04701:1212111110100Z0Z0Y0Y0X0X0W0W0V0V
#04701:00
#04701:00
#04701:00
#04701:00
#04701:00
#04701:006X006X006X006X
#04701:00
#04701:00
#04701:00
#04701:00
#04701:00
#04701:00
#04701:00
#04701:00
#04701:00
#04701:00
#04701:J2J3J4J5J600J7J8J9JAJBJCJD00JEJF
#04711:BR
#04713:A4
#04715:000000A8
#04716:KXBSBT00BU00BVBW00BXBYBZ00C0C100
#04718:88
#04719:0000008C
#04801:00
#04801:00
#04801:00
#04801:0004000400040004
#04801:00000505000005050000050500000505
#04801:0U0U0T0T0S0S0R0Q0P0P0O0N0M0L0K0J
#04801:00
#04801:00
#04801:00
#04801:00
#04801:00
#04801:006X006X006X006X
#04801:00
#04801:00
#04801:C2
#04801:00
#04801:00
#04801:00
#04801:00
#04801:00
#04801:00
#04801:00
#04801:JGJHJIJJJK00JLJMJNJOJPJQJR00JSJT
#04812:009W0000
#04813:A19W
#04814:000000007Y0000000000009X00000000
#04815:840000007Y0000A0
#04816:KXC3C400C500C6C700C8C9CA00CBCCCD
#04818:00000000000000000000008000000000
#04819:0000000000000083
#04901:00
#04901:00
#04901:00
#04901:0004000400040004
#04901:00000505000005050000050500000505
#04901:00
#04901:00
#04901:00
#04901:00
#04901:00
#04901:00
#04901:006Y006Y006Y006Y
#04901:00
#04901:00
#04901:00
#04901:00
#04901:00
#04901:00
#04901:00
#04901:00
#04901:00
#04901:00
#04901:J2J3J4J5J600J7J8J9JAJBJCJD00JEJF
#04911:0I000000000000CJ000C00000A000000
#04912:00000G0000000D000000000B00000009
#04913:CE000F000C00A1CO
#04914:9V00CG000000CI000000CL00000A0000
#04915:00CF000F0000000D000000CM00000900
#04916:KXKX
#04918:7X000000000E000000CK000084000000
#04919:000H0000CH00000000000B0000CN0000
#05001:00
#05001:00
#05001:00
#05001:0004000400040004
#05001:00000505000005050000050500000505
#05001:00
#05001:00
#05001:00
#05001:00
#05001:000000000000005M
#05001:00
#05001:006Y006Y006Y006Z
#05001:00
#05001:00
#05001:00
#05001:00
#05001:00
#05001:00
#05001:CPCQCR00CS00CTCU00CVCWCX00CYCZD0
#05001:00
#05001:00
#05001:00
#05001:JGJHJIJJJK00JLJMJNJOJPJQJR00JSJT
#05011:080000001M4N2C00
#05012:0000080000000000000000000800000000000000000000000000001R00000000004W00000000002K0000000000610000
#05013:0000080000000008000000004A00001Z00005000002Y0000
#05014:0000000000000800000000000000000008000000000000000000004F00000000002800000000005800000000003D0000
#05015:A90000000800000000080000080000000800000008000000
#05016:KX
#05018:000000000008000000000800000800080008000800080008
#05019:8D0000000000000000000008000008000000080000000800
#05101:00
#05101:KZ
#05101:00030000
#05101:0004000000040004
#05101:00000500000000000000050500000505
#05101:00
#05101:00
#05101:1W001W002E0000002E00002E00002000
#05101:00
#05101:4K004K00520000005200005200004O00
#05101:00
#05101:0070007000700070
#05101:00
#05101:00
#05101:00
#05101:00
#05101:00
#05101:00
#05101:D2D3D400D50000000000000000000000
#05101:00
#05101:00
#05101:00
#05101:J2J3J400J600J7J8J9JAJBJCJD00JEJF
#05111:01010101
#05112:000000050000050000D800DA00280000
#05113:2C2C38000028002I
#05114:000000J5000000050000002R004W0000
#05115:50500004304W0356
#05116:KX
#05118:000000005W0000D70000005F0000DC00
#05119:000000000000D6005O00D90000DB0000
#05201:00
#05201:00
#05201:00
#05201:0000000400000004
#05201:00000005000005050000050500000505
#05201:00
#05201:00
#05201:2500001Y00001N001S00001X00002E00
#05201:00
#05201:4T00004M00004B004G00004L00000000
#05201:00
#05201:0070007000700070
#05201:00
#05201:00
#05201:00
#05201:00
#05201:00
#05201:00
#05201:00DE0000000000DI00DJDKDL00DMDNDO
#05201:00
#05201:00
#05201:00
#05201:JGJHJIJJJK00JLJMJNJOJPJQ0000JSJT
#05211:01010101
#05212:0005002400040300
#05213:00000400030000002000002A00005200
#05214:DD00002B0000DH0000001M00001M0000
#05215:2F00DF00DG0000004O00004Y00002M00
#05218:0000004Z00004S0000004A00004A0000
#05219:530000000000JR5A
#05301:00000101
#05301:00
#05301:00000003
#05301:0004000400040004
#05301:00000505000005050000050500000505
#05301:00
#05301:00
#05301:2700001K00000000
#05301:00
#05301:4V000000000048004A4D4F004N4K4F00
#05301:0000004B00000000
#05301:006Y006Y006Y006Y
#05301:00
#05301:00
#05301:00
#05301:00
#05301:00
#05301:00
#05301:000000000000000000DVDWDX00DYDZ00
#05301:00
#05301:00
#05301:00
#05301:J2J300000000J7J8J9JAJBJCJD00JEJF
#05311:01000000010000001W00004K00004Q00
#05312:0000000003000000001Z004W004W001P
#05313:DPDR001N1M22501R
#05314:2G000000J6000000001P0028001W001Z
#05315:00DQ00J50000DT004K001R001Z002200
#05318:54000000DS000000004N001W0028004D
#05319:0000J400000000DU00004Q002C00004N
#05401:01
#05401:00
#05401:00030000
#05401:0000000000000004
#05401:00000005000000050000050500000505
#05401:00
#05401:00
#05401:00002V000000002A
#05401:00
#05401:000000005J0000000000005O00004Y00
#05401:52
#05401:006Y006Y006W006W
#05401:00
#05401:00
#05401:00
#05401:00
#05401:00
#05401:00
#05401:E0E10000E300E4E500E6E7E8000000EB
#05401:00
#05401:00
#05401:00
#05401:JGJHJIJJJK00JLJMJNJOJPJQJR00JSJT
#05411:24010101
#05412:000400002Y2C002M
#05413:2E000005000403EA
#05414:00000500000000002P00003G002C0000
#05415:4S000000380000005M00500000E90000
#05418:0000E200000004000000003000005A00
#05419:000000005W0000005D00006400500000
#05501:00
#05501:00
#05501:00030000
#05501:0004000000040000
#05501:00000500000000000000000000000505
#05501:00
#05501:00
#05501:1P001P002E0000002E00002I00002A00
#05501:00
#05501:00000000000000005200005600004Y00
#05501:00
#05501:006X006X006X006X
#05501:00
#05501:00
#05501:00
#05501:00
#05501:00
#05501:00
#05501:ECEDEE00EF00EGEH00EIEJEK00ELEM00
#05501:00
#05501:00
#05501:00
#05501:J2J3J400J600J700J9JAJBJC0000JEJF
#05511:01010101
#05512:00000005000000050000000500000400
#05513:4D4D000430280300
#05514:2C002C00380000J800004W00002C0000
#05515:000000J5000005005O00002R00500000
#05518:50005000520000000000005F00002I00
#05519:00005W000005JD56
#05601:00000101
#05601:00
#05601:00000003
#05601:0000000400040004
#05601:00000505000005050000050500000505
#05601:00
#05601:00
#05601:2000001Y00002E000000000000000000
#05601:00
#05601:4O00000000000000004D4F4W4Q5M5G2Y
#05601:00
#05601:006X006X006X006X
#05601:00
#05601:00
#05601:00
#05601:00
#05601:00
#05601:00
#05601:ENEOEP00EQ00ERES00ETEUEV00EWEXEY
#05601:00
#05601:00
#05601:00
#05601:JGJHJIJJ0000JLJMJNJOJPJQJR00JSJT
#05611:01000000010000001R00002800003D00
#05612:00004A00030000004F001Z002K00005M
#05613:0000002B00005200001W001W002Y0000
#05614:00000400JK0000001M001R000050003Z
#05615:2E00004M00002M00004K000022002S00
#05618:00001M0000005A00001P004K002C006N
#05619:5200004Z000000004A004N0058006100
#05701:01010101
#05701:00
#05701:00
#05701:0000000400000004
#05701:00000000000005050000000000000505
#05701:00
#05701:00
#05701:000000000000002E
#05701:00
#05701:0000005200000000
#05701:00
#05701:006Y006Y006V006V
#05701:00
#05701:00
#05701:00
#05701:00
#05701:00
#05701:00
#05701:EZF0F100F200F3F400F5F6F700F8F900
#05701:00
#05701:00
#05701:00
#05701:J2J3J4000000J7J8J9JAJB000000JEJF
#05711:60000000030000003C00000500000000
#05712:0004002E00040052
#05713:3C000005000000006000000003000000
#05714:0000005J0000002V
#05715:6K0000J5000000003W000000JD000000
#05718:0005002V0005005J
#05719:3W000000J60000006K0000JC00000000
#05801:01010100
#05801:0000000000000202
#05801:00030003
#05801:0004000400000004
#05801:00000505000005050000050500000505
#05801:00
#05801:00
#05801:00000000000000000000002V00002M00
#05801:00
#05801:5D5G5M005M5T5M005M00000000000000
#05801:00
#05801:006Y006Y006Z006Z
#05801:00
#05801:00
#05801:00
#05801:00
#05801:00
#05801:00
#05801:FAFBFC00FD00FEFF00FGFHFI0000FKFL
#05801:00
#05801:00
#05801:00
#05801:JGJHJIJJJK00JLJMJNJOJPJQJR00JSJT
#05811:2Y00005T00002Y003P00040000000000
#05812:0035003L0069005G0000005J00005A00
#05813:2P003D006D003D006D00500000FJ0000
#05814:002S00350035002S0000006400003000
#05815:5M002Y002Y0061002Y002C00002C0000
#05818:005T0069003L00350000003G00005O00
#05819:000061003P00005T0000000000500000
#05901:00
#05901:00
#05901:00030000
#05901:00
#05901:00000500000000000000050500000500
#05901:00
#05901:00
#05901:1W001W002E0000002E00002E00002000
#05901:00
#05901:4K004K00520000005200005200004O00
#05901:00
#05901:0070007000700070
#05901:00
#05901:00
#05901:00
#05901:00
#05901:00
#05901:00
#05901:D2D3D400D500D6D700D8D9DA00DBDC00
#05901:00
#05901:00
#05901:00
#05901:J2J3J400J600J7J8J9JAJBJCJD00JEJF
#05911:01010101
#05912:2C002C00000004000000280000280005
#05913:00000005000000050000002R00002I00
#05914:50005000000005005O000000004W0000
#05915:JV003800004W0356
#05916:KX
#05918:000000J5000000003000005F00000400
#05919:00045W000004JW00
#06001:00
#06001:00000003
#06001:00
#06001:0000000000040004
#06001:00000000000005000000050500000505
#06001:00
#06001:00
#06001:2500001Y00001N001S00001X00001L00
#06001:00
#06001:4T00004M00004B004G00004L00004900
#06001:00
#06001:0070007000700070
#06001:00
#06001:00
#06001:00
#06001:00
#06001:00
#06001:00
#06001:DDDEDF00DG00DHDI00DJDKDL00DMDNDO
#06001:00
#06001:00
#06001:00
#06001:JGJHJIJJJK00JL00JNJOJPJQJR00JSJT
#06011:01010101
#06012:00040300201M001N
#06013:2F00002B000000050000002A001J0000
#06014:53000000JY0024004O00004Y00004B00
#06015:0000004Z00004S0000004A000000K100
#06018:JX000500000000JM000000K000470000
#06019:0000000500000400JZ00000000000000
#06101:00
#06101:00000003
#06101:00
#06101:0000000400000000
#06101:00000000000005050000000500000000
#06101:00
#06101:00
#06101:1V00001Q00001U00
#06101:00
#06101:4J00004I
#06101:00
#06101:006Y006Y006Y006Y
#06101:00
#06101:00
#06101:00
#06101:00
#06101:00
#06101:00
#06101:DPDQ0000DS00DTDU0000DWDX00DYDZ00
#06101:00
#06101:00
#06101:00
#06101:J2J3J4000000J7J8000000JCJD00JE00
#06111:01010101
#06112:0004002100JB0004
#06113:27000000030000000000000026000005
#06114:0000050000004P0000DV000000000000
#06115:4V00000500000000J90004004U0000JF
#06118:0000DR00J6004E0000JA0000K3000500
#06119:K20000J5000000000000050000000000
#06201:00000001
#06201:00000003
#06201:00
#06201:0000000400040004
#06201:00000000000005050000050500000505
#06201:00
#06201:00
#06201:1O00001T00002A00240020001W1Z2228
#06201:00
#06201:4C00004H000000004S004O0000000000
#06201:00
#06201:006Y006Y006W006W
#06201:00
#06201:00
#06201:00
#06201:000000000000K7K8
#06201:00
#06201:00
#06201:E0E1E200E300E4E500E6E7E800E9EAEB
#06201:00
#06201:00
#06201:00
#06201:JGJHJIJJJK00JLJMJNJOJPJQJR00JSJT
#06211:01010122
#06212:1Y0000050000000000002A0000002C00
#06213:0000002500002I000000K6000028004W
#06214:4M040300K5004K4Q
#06215:0000004T000000002E000000004N002H
#06218:00050056004Y4Q50
#06219:K400000000004Y0052000000004W0055
#06301:00
#06301:00030003
#06301:00
#06301:0004000400040004
#06301:00000505000000000000050500000505
#06301:00
#06301:00
#06301:1P001P002E0000002E00002I00002A00
#06301:00380000
#06301:4D004D00000000005200005600004Y00
#06301:00
#06301:006X006X006X006X
#06301:00
#06301:00
#06301:00
#06301:K90000KA
#06301:00
#06301:00
#06301:ECEDEE00EF00EGEH00EIEJEK00ELEM00
#06301:00
#06301:00
#06301:00
#06301:J2J3J4J5J600J7J8J9JAJBJCJD00JEJF
#06311:01010101
#06312:2C002C00000000050000280000002I00
#06313:0000000010000Z000Y000X00002C000V
#06314:5000500000000500000Y000X00005600
#06315:001200110010000Z0000002R00500000
#06316:KX
#06318:12115W00304W0W0V
#06319:00000000520000005O00005F000W0000
#06401:00
#06401:00
#06401:00030003
#06401:0004000400040004
#06401:00000505000005050000050500000505
#06401:0000000000000000000P000N0M000000
#06401:00
#06401:2000001Y00002E001M1P1R1W222C2S2Y
#06401:00
#06401:4O00004M000052004A4D4F4K4Q505G5M
#06401:00
#06401:006X006X006X006X
#06401:00
#06401:00
#06401:00
#06401:KB000000KC000000KD0000KE0000KF00
#06401:00
#06401:00
#06401:ENEOEP00EQ00ERES00ETEUEV00EWEXEY
#06401:00
#06401:00
#06401:00
#06401:JGJHJIJJJK00JLJMJNJOJPJQJR00JSJT
#06411:010001000100010K
#06412:0U001P0000002M001R000O00002Y0000
#06413:0000002B000S00004F000028005M000J
#06414:2E004D000S00000Q001W004W00003D00
#06415:000U000T00000R00004K00002K006100
#06416:KX
#06418:00000T0000005A000P001Z005800003Z
#06419:5200004Z0000000000004N00000L006N
#06501:00
#06501:00
#06501:00
#06501:0000000400000004
#06501:00000000000005050000000000000500
#06501:00
#06501:00
#06501:3C00002E3C00002E
#06501:00
#06501:6000005260000052
#06501:00
#06501:006Y006Y006Y006Y
#06501:00
#06501:00
#06501:00
#06501:KG0000KHKI0000KJ
#06501:00
#06501:00
#06501:FNFOFP00FQ00FRFS00FTFUFV00FWFX00
#06501:00
#06501:00
#06501:00
#06501:J2J3J4J5J600J7J8J9JAJBJCJD000000
#06511:01010101
#06512:3W000G0000002V00000C000003000000
#06513:000H000F000000003W000B0000002V00
#06514:0I0004000F005J000C00000B00000005
#06515:6K000500000E000D000004000A005J00
#06516:KXKX
#06518:0000000003000D006K000500000A0009
#06519:00000005000000000000000500000900
#06601:00
#06601:00
#06601:00030003
#06601:0000000400040004
#06601:00000505000005050000050000000505
#06601:00060000000000000000000007070707
#06601:00
#06601:223800223000002V00002M0022282C2K
#06601:4Q5O0000
#06601:005W00000000005J00005A004Q4W5058
#06601:00
#06601:006Y006Y006Y006Z
#06601:00
#06601:00
#06601:00
#06601:00KK0000KL00KM00KNKOKPKQKRKSKTKU
#06601:00
#06601:00
#06601:FYFZG000G100G2G300G4G5G600G7G8G9
#06611:00010000010000010000020002000200
#06612:0000000600000000000000000700000000000700000000005000000000000000
#06613:003S004Q0000003G0000000500570000
#06614:0000070007000064002200002C005D00
#06615:0000000700002200004Q0007002J005M
#06616:00KY0000KY0000KY0000KY00KY00KY00
#06618:006G00003M004Q0000005W0000002P00
#06619:000004006A000007000038000000002Y
#06701:00
#06701:00
#06701:00
#06701:0004000400000004
#06701:00000505000005050000050500000505
#06701:00
#06701:00
#06701:2D00000000002L00000000002T0000002L0000002L002T002D002L002U000034
#06701:00
#06701:5100000000005900000000005H0000005900000051005H00510059005I00005S
#06701:00
#06701:0070007000700070
#06701:7A007Z797Z0079797L00797L00797E00
#06701:00
#06701:00
#06701:KV
#06701:00
#06701:00
#06701:00
#06701:00
#06701:ZY
#06701:00
#06701:J2J3J4J5J600J7J8J9JAJBJC0000JEJF
#06711:01010101
#06712:5H000000005100000000590003006300
#06713:00004R00030000005N00005U00007L00
#06714:2T00000000005N0000002D00000000002Z0000002D00000000005N0000000068
#06715:0000230000005U000000003600003F00
#06716:KX
#06718:0000000000002Z0000000000000000007Z00000000007Z0000002Z000000003K
#06719:008686360004JD00
#06801:00
#06801:00
#06801:0004000000000300
#06801:0000000000000004
#06801:00000005000005000000050000000505
#06801:00
#06801:00
#06801:3A000032000039002D003T0039002W00
#06801:00
#06801:5Y00005Q00005X0051006H005X005K00
#06801:00
#06801:0070007000700070
#06801:79007Z797Z0079797L00797L00797E00
#06801:00
#06801:00
#06801:00
#06801:00
#06801:00
#06801:00
#06801:00
#06801:00
#06801:00
#06801:JGJHJIJJJK00JLJMJNJOJPJQJR00JSJT
#06811:01010101
#06812:0000006C000004000000040000005X00
#06813:00000500030000002T00000500003900
#06814:0000003O00000005000000006H000000
#06815:6I00006H7Z6R3T7L
#06818:00008600860000005H00007Z00000000
#06819:3U00003T00430000
#06901:00
#06901:00
#06901:0000000000000004
#06901:0004000400000000
#06901:00000505000005000000000000000505
#06901:00
#06901:00
#06901:2Z36330000002W002O00002X00003900
#06901:00
#06901:0000000000005K005C00005L00005X00
#06901:00
#06901:006V006V006V006V
#06901:71007Z717Z0071717L00717L00717E00
#06901:0086000000000000
#06901:00
#06901:00
#06901:00
#06901:00
#06901:00
#06901:00
#06901:00
#06901:00
#06901:J2J3J4J5J600J7J8J9JAJBJCJD00JEJF
#06911:01010101
#06912:005U0000000000005Q00040003000000
#06913:5N005R00030000003200006600000000
#06914:62006700000000050000003I00007L00
#06915:006E0000000039007Z00007Z00000000
#06918:3E3J86000005006M
#06919:003Q000000005X000000000500003Y00
#07001:00
#07001:00
#07001:00030000
#07001:0000000400040004
#07001:00000005000005050000050500000505
#07001:00
#07001:00
#07001:3H000000390000002Z00002T00002900
#07001:00
#07001:650000005X0000005N00005H00004X00
#07001:00
#07001:006W006W006W006W
#07001:73007Z007Z0000007L00737L00737E00
#07001:00
#07001:00
#07001:00
#07001:00
#07001:00
#07001:00
#07001:00
#07001:00
#07001:00
#07001:JGJHJIJJJK00JLJMJNJOJPJQJR00JSJT
#07011:01010101
#07012:000004000000007300002D0000007L00
#07013:000000003N0073000000005U00005E00
#07014:00000500000000007Z00007Z00510000
#07015:3T006B003E510300
#07018:6H000073000000000000003600002Q00
#07019:000086008600000062000000002D0000
#07101:00
#07101:00
#07101:0004000000000000
#07101:0000000400040004
#07101:00000505000005050000050500000500
#07101:00
#07101:00
#07101:2D00000000002L00000000002T0000002L00000000002T002D002L002U000034
#07101:00
#07101:5100000000005900000000005H0000005900000000005H00510059005I00005S
#07101:00
#07101:0070007000700070
#07101:79007Z797Z0079797L00797L00797E00
#07101:00
#07101:00
#07101:00
#07101:00
#07101:00
#07101:00
#07101:00
#07101:00
#07101:00
#07101:J2J3J4J5J600J7J8J9JAJBJCJD00JEJF
#07111:01010101
#07112:00004R000300000000005900005N0005
#07113:0000005N005100005N00005U00006300
#07114:0000000023000000000000005U0000002Z0000000000000000002Z000000003K
#07115:5H00002Z002D000000002L0003003F00
#07118:000000008600000086000000360000000000000000003600000000007L000068
#07119:2T000000000000007Z00007Z00000000
#07201:00
#07201:00
#07201:00
#07201:0000000000000004
#07201:00000505000005000000000500000505
#07201:00
#07201:00
#07201:3A000032000039002T0043003T003H00
#07201:00
#07201:5Y00005Q00005X005H006R006H006500
#07201:00
#07201:0070007000700070
#07201:79007Z797Z0079000000797L00797E00
#07201:00
#07201:00
#07201:00
#07201:00
#07201:00
#07201:00
#07201:00
#07201:00
#07201:00
#07201:JGJHJIJJJK00JLJMJNJOJPJQJR00JSJT
#07211:01010101
#07212:00000000000000050000040000006P00
#07213:0000006C000004007L00007Z00004100
#07214:0000040003000079000005006T000000
#07215:6I00003O00006H007Z00000045007L00
#07218:00868600006U0000
#07219:3U00003T00460300
#07301:00
#07301:00
#07301:00000003
#07301:0000000000040004
#07301:00000505000005000000050500000505
#07301:00
#07301:00
#07301:3U00003A000031002W002N002W003H00
#07301:00
#07301:6I00005Y00005P005K005B005K000000
#07301:00
#07301:006V006V006V006V
#07301:00007Z717Z0071717L00717L00717E00
#07301:00000000000000007Z00007Z00007L00
#07301:00
#07301:00
#07301:00
#07301:00
#07301:00
#07301:00
#07301:00
#07301:00
#07301:J2J3J4J5J600J7J8J9JAJBJCJD00JEJF
#07311:01010101
#07312:0000003U0000040000005P0000006500
#07313:7100040000000005000000005X000000
#07314:0000006I000065000000310000000000
#07315:6S8686005X00006P
#07318:0000003H00003900
#07319:4400030039000041
#07401:00
#07401:00
#07401:00000003
#07401:0004000400040004
#07401:00000505000005050000050500000505
#07401:00
#07401:00
#07401:363E3B000000310037002L002Z003Q00
#07401:00
#07401:5U625Z0000005P005V0059005N006E00
#07401:6E6L6J00000000000000000000000000
#07401:006W006W006Y006Y
#07401:73007Z737Z0073737L00777L00777E00
#07401:008600000000007L
#07401:00
#07401:00
#07401:00
#07401:00
#07401:00
#07401:00
#07401:00
#07401:00
#07401:JGJHJIJJJK00JLJMJNJOJPJQJR00JSJT
#07411:0100003N002Z0000
#07412:003X0000030000003R0000003E000000
#07413:3Q3V006B005N0040
#07414:00060000860000006F00000062000000
#07415:000000060000000000000000000000007Z00000000007Z00000000006O000000
#07416:KX
#07418:00000700070007000007000007000700
#07419:07000007000000070000000700070007
#07501:00
#07501:00
#07501:00000003
#07501:0004000400040004
#07501:00000505000005050000050500000500
#07501:00
#07501:00
#07501:2D00000000002L00000000002T0000002L0000002D002T0000002L002U000034
#07501:00
#07501:5100000000005900000000005H0000005900000051005H00000059005I00005S
#07501:00
#07501:0070007000700070
#07501:7A007Z797Z0079797L00797L00797E00
#07501:00
#07501:00
#07501:00
#07501:00
#07501:00
#07501:00
#07501:00
#07501:00
#07501:00
#07501:J2J3J4J5J600J7J8J9JAJBJCJD00JEJF
#07511:01010101
#07512:5H004R0000510000000059002D007L00
#07513:0000005N00005U005N00005U005N0005
#07514:2T0000000000000000002D0000000000000000002L000000510000000000003K
#07515:00002300030036002Z00003600006300
#07516:KX
#07518:0000000000002Z0000000000000000007Z00000000007Z0000002Z0000000068
#07519:008686000000003F
#07601:00
#07601:00
#07601:00000003
#07601:0004000400000004
#07601:00000000000005050000050500000505
#07601:00
#07601:00
#07601:3A000032000039002D003T0039002W00
#07601:002T
#07601:5Y00005Q00005X0000006H005X005K00
#07601:00
#07601:0070007000700070
#07601:79000079000079797L00797L00797E00
#07601:00
#07601:00
#07601:00
#07601:00
#07601:00
#07601:00
#07601:00
#07601:00
#07601:00
#07601:JGJHJIJJJK00JLJMJNJOJPJQJR00JSJT
#07611:01010101
#07612:00000005000000005100007Z00005X00
#07613:0005030000040039
#07614:0000006C00006H005H0000006H000000
#07615:3U7Z7Z0000003T00
#07618:0000003O00003T007Z006R0000007L00
#07619:6I86860000430000
#07701:00
#07701:00
#07701:00
#07701:0004000000000000
#07701:00000505000005050000000500000000
#07701:00
#07701:00
#07701:2Z36330000002W002O00002X00003900
#07701:00
#07701:0000000000005K005C00005L00005X00
#07701:00
#07701:006V006V006V006V
#07701:71007Z717Z0000717L00717L00007E00
#07701:008600000000007L
#07701:00
#07701:00
#07701:00
#07701:00
#07701:00
#07701:00
#07701:00
#07701:00
#07701:J2J3J4J5J600J7J8J9JAJBJCJD00JE00
#07711:01010101
#07712:5N5R000400040004
#07713:005U0000030000005Q00007Z00710005
#07714:6267007132050305
#07715:006E00000000390000000066000000JF
#07718:3E003J00860000007Z00003I00006M00
#07719:003Q000000005X000000000000003Y00
#07801:00
#07801:00
#07801:00
#07801:0000000000040004
#07801:00000000000000000000050500000505
#07801:00
#07801:00
#07801:3H000000390000002Z00002T00002900
#07801:00
#07801:650000005X0000005N00005H00004X00
#07801:006B0000
#07801:006W006W006W006W
#07801:73007Z737Z0073737L00737L00737E00
#07801:00000000000000007Z00007Z00007L00
#07801:00
#07801:00
#07801:00
#07801:00
#07801:00
#07801:00
#07801:00
#07801:00
#07801:JGJHJIJJJK00JLJMJNJOJPJQ0000JSJT
#07811:01000000010000000100000100000100
#07812:000004000000050000000000002D0000
#07813:00000300002D032Q
#07814:6H000005000000050000003600510000
#07815:00053N003E51005E
#07818:3T000000000004000000005U00000000
#07819:008686006200JR00
#07901:00
#07901:00
#07901:00
#07901:0004000400040004
#07901:00000505000005050000050500000505
#07901:00
#07901:00
#07901:2D00000023002L0000002D002T0000002L0000002L002T002D002L002U000034
#07901:000000000000000000000000000000000000000000000000000000000000003K
#07901:5100000000005900000000005H0000005900000000005H00510059005I00005S
#07901:00000000000000000000000000000000000000000000000000005N0000000068
#07901:0070007000700070
#07901:79007Z797Z0079797L00797L00797E00
#07901:00008600860000007Z00007Z00007L00
#07901:00
#07901:00
#07901:00
#07901:00
#07901:00
#07901:00
#07901:00
#07901:00
#07901:J2J3J4J5J600J7J8J9JAJBJCJD00JEJF
#07911:0202020202020202
#07912:5H030003
#07913:0000005N00510000000Y000X002Z0000
#07914:2T004R0000005U005N00005U00006300
#07915:0000002Z0010000Z00005900000W000V
#07916:KX
#07918:00120011000036002Z00003600003F00
#07919:1211100Z0Y0X0W0V
#08001:00
#08001:0004000400040004
#08001:00030003
#08001:00
#08001:00000505000005000000050500000505
#08001:00
#08001:00
#08001:3A000032000039002T0043003T003H00
#08001:00
#08001:5Y00005Q00005X005H006R006H006500
#08001:00
#08001:0070007000700070
#08001:79007Z797Z0079797L00797L00797E00
#08001:00008600860000007Z00007Z00007L00
#08001:00
#08001:00
#08001:00
#08001:00
#08001:00
#08001:00
#08001:00
#08001:00
#08001:JG00JIJJJK00JLJMJN00JPJQJR00JSJT
#08011:3U00000T00003T0000000O00000L0000
#08012:000U00000S00000500006U000M000000
#08013:6I00003O00006H00000P00006T000K00
#08014:0U000T00000S00000000460000006P00
#08015:00JH006C00000R000P0000004500000J
#08016:KX
#08018:000000000000000Q00JO000N00004100
#08019:0202020202020202
#08101:00
#08101:00
#08101:00030003
#08101:0004000400040004
#08101:00000505000005050000050500000505
#08101:00
#08101:00
#08101:3U00003A000031002W002N002W003H00
#08101:00
#08101:6I00005Y00005P005K005B005K006500
#08101:0000006500005X6P
#08101:006V006V5X6V006V
#08101:71007Z717Z0071717L00717L00717E00
#08101:6S00866I860000007Z005P7Z00007L00
#08101:00
#08101:00
#08101:00
#08101:00
#08101:00
#08101:00
#08101:00
#08101:00
#08101:J2J3J4J5J600J7J8J9JAJBJCJD00JEJF
#08111:0202020202020202
#08112:0000003U000000000000310000000000
#08113:00020002000200020002000200020002
#08114:0I000G000000000039000000000A0000
#08115:000000000F000D00000C000039000900
#08116:KXKX
#08118:000H000F00003H000C000B000A000009
#08119:44000000000E000D0000000B00004100
#08201:01
#08201:00
#08201:00030003
#08201:0004000400040004
#08201:00000505000005050000050500000505
#08201:080808080808080808080808080808080808080808080808
#08201:00
#08201:363E3B0000002W003T00003T00003T00
#08201:00
#08201:5U625Z0000005K000000000000000000
#08201:00
#08201:006W006W006Y006Y
#08201:73007Z737Z0073737L00777L00777E00
#08201:00008600860000007Z00007Z00007L00
#08201:00
#08201:00
#08201:00
#08201:00
#08201:00
#08201:00
#08201:00
#08201:00
#08201:JGJHJIJJJK00JLJMJNJOJPJQJR00JSJT
#08211:3Q3V000041000000
#08212:0000000000003H000000004200000000
#08213:003X0000000000006H00000000004300
#08214:00000000000065000000006H00000000
#08215:6E6J00006P00006H
#08216:KX
#08218:00000000000000000000006Q00000000
#08219:006L0000000000000000000000006R00
#08301:00
#08301:00
#08301:00030000
#08301:00
#08301:00000000000005000000050000000505
#08301:00
#08301:00001500001500001500001500150000
#08301:00
#08301:00
#08301:00
#08301:00
#08301:0070007000700070
#08301:00
#08301:00
#08301:00
#08301:00
#08301:00
#08301:00
#08301:00
#08301:00
#08301:00
#08301:00
#08301:J2J3J4J5J600J7J8J9JAJBJCJD00JEJF
#08311:00010101
#08312:000000000000GC00000000GG0000GI00
#08313:00000000GB0000GD00GE000003000000
#08314:19000000000004000000GF0000GH0000
#08315:0000001B000000000019000500000400
#08316:00KX0000
#08318:0000001D00041B00
#08319:00000000000000050000000000001D00
#08401:00
#08401:00
#08401:00
#08401:0000000000000004
#08401:00000500000005000000050500000505
#08401:00
#08401:00001500001500150000150000150000
#08401:00
#08401:00
#08401:00
#08401:00
#08401:0070007000700070
#08401:00
#08401:00
#08401:00
#08401:00
#08401:00
#08401:00
#08401:00
#08401:00
#08401:00
#08401:00
#08401:JGJHJIJJJK00JLJM00JOJPJQJR00JSJT
#08411:01010101
#08412:00GK0000GM0000GO000004000000GT00
#08413:0000GL000000GN0000GP000003000000
#08414:1900000003000400JN0000GR00GS00GU
#08415:0000001B000000050000GQ0000001D00
#08418:GJ00000500001D000000001F00000000
#08419:000400001H000000
#08501:00
#08501:00
#08501:00
#08501:00
#08501:00000500000005000000050000000505
#08501:00
#08501:00001500001500001500001500150000
#08501:00
#08501:00
#08501:00
#08501:00
#08501:0070007000700070
#08501:00
#08501:00
#08501:00
#08501:00
#08501:00
#08501:00
#08501:00
#08501:00
#08501:00
#08501:00
#08501:J200J4J5J600J7J8J9JAJBJCJD00JEJF
#08511:01010101
#08512:00040004000400H5
#08513:19000000030000H00000000003000000
#08514:00J3001B0000GZ00001900H300000400
#08515:00000000GY0000050000H2001B000000
#08518:GV00GX0000001D000000000000H40000
#08519:00GW00050000000000H1000500001D00
#08601:00
#08601:00
#08601:00
#08601:00
#08601:00000500000005000000050500000505
#08601:00
#08601:00001500001500150000150000150000
#08601:00
#08601:00
#08601:00
#08601:00
#08601:0070007000700070
#08601:00
#08601:00
#08601:00
#08601:00
#08601:00
#08601:00
#08601:00
#08601:00
#08601:00
#08601:00
#08601:JGJHJIJJJK00JLJM0000JPJQJR00JSJT
#08611:01010101
#08612:00000000H90000HB00JO00HE00000400
#08613:190000050000000017000000030000HH
#08614:00H700000300HA000000HD000000HG00
#08615:0000040000000400JN00001B00HF0000
#08618:H600001B000000050000040000001D00
#08619:0000H80000001D0000HC000000000000
#08701:00
#08701:00
#08701:00
#08701:0004000400040004
#08701:00000505000005050000050500000505
#08701:00
#08701:00001500001500001500001500150000
#08701:00
#08701:00
#08701:00
#08701:00
#08701:0070007000700070
#08701:00
#08701:00
#08701:00
#08701:00
#08701:00
#08701:00
#08701:00
#08701:00
#08701:00
#08701:00
#08701:J2J3J4J5J600J7J8J9JAJBJCJD00JEJF
#08701:00
#08701:00
#08701:00
#08701:00
#08701:HIHJHK00HL00HMHN00HOHPHQ00HRHS00
#08711:19000000000000000019000000000000
#08712:0000001B00000000000000001B000000
#08713:0000001D0000001D
#08714:00030003
#08715:001200110010000Z000Y000X000W000V
#08716:KX
#08719:1211100Z0Y0X0W0V
#08801:00
#08801:00
#08801:00
#08801:0004000400040004
#08801:00000505000005050000050500000505
#08801:00
#08801:00001500001500150000150000150000
#08801:00
#08801:00
#08801:00
#08801:00
#08801:0070007000700070
#08801:00
#08801:00
#08801:00
#08801:00
#08801:00
#08801:00
#08801:00
#08801:00
#08801:00
#08801:00
#08801:JGJHJIJJJK00JLJMJNJOJPJQJR00JSJT
#08801:00
#08801:00
#08801:00
#08801:00
#08801:HTHUHV00HW00HXHY00HZI0I100I2I3I4
#08811:19
#08812:0000001B000000000000000000001D00
#08813:0000000000001D000000001F00000000
#08814:00031H03
#08815:000U000T000S000Q000P000N000L000J
#08819:0U0T0S0R0P0O0M0K
#08901:00
#08901:00
#08901:00
#08901:0004000400040004
#08901:00000505000005050000050500000505
#08901:00
#08901:00001500001500001500001500150000
#08901:00
#08901:00
#08901:00
#08901:00
#08901:0070007000700070
#08901:00
#08901:00
#08901:00
#08901:00
#08901:00
#08901:00
#08901:I5I6I700I800I9IA00IBICID00IEIF00
#08901:00
#08901:00
#08901:00
#08901:J2J3J4J5J600J7J8J9JAJBJCJD00JEJF
#08911:0I0G0F0D0C0B0A09
#08913:000H000F000E000D000C000B000A0009
#08914:00030003
#08915:0000001D0000001D
#08918:0000001B000000000000000000000000
#08919:1900000000000000001900001B000000
#09001:0015000000000000
#09001:00
#09001:00
#09001:0004000400040004
#09001:00000505000005050000050500000505
#09001:00
#09001:00
#09001:00
#09001:00
#09001:00
#09001:00
#09001:0070007000700070
#09001:00
#09001:00
#09001:00
#09001:00
#09001:00
#09001:00
#09001:IGIHII00IJ00IKIL00IMINIO00IPIQIR
#09001:00
#09001:00
#09001:00
#09001:JGJHJIJJJK00JLJMJNJOJPJQJR00JSJT
#09011:0700070700150707
#09012:00060000000000000000000000000000
#09013:00000000000000070007000700070007
#09014:0000000600000000030000000000000000000000000000000300000000000000
#09015:0000001B00001D000000001B00001D00
#09016:KX
#09018:00000700001500001700000000150000
#09019:19000007000000150000000000000000
#09116:KX