Files
admin-d-j-nero-joker/Joker[DOUKESHI].bme

2742 lines
55 KiB
Plaintext
Raw Permalink Normal View History

2026-01-30 16:10:38 +09:00
*---------------------- HEADER FIELD
#PLAYER 1
#GENRE RENAISSANCE
#TITLE Joker [<5B>{<7B><EFBFBD><EC93B9><EFBFBD>t]
#ARTIST D.J.Nero / <20><><EFBFBD><EFBFBD> (Object)
#BPM 184
#PLAYLEVEL 12
#RANK 3
#TOTAL 595.8
#STAGEFILE title.jpg
#WAV01 opHH.wav
#WAV02 close.wav
#WAV03 close.wav
#WAV04 kickA.wav
#WAV05 kickB.wav
#WAV06 kickB.wav
#WAV07 kick32.wav
#WAV08 FXkick.wav
#WAV09 snare.wav
#WAV0A snare.wav
#WAV0B reverse.wav
#WAV0C SE1.wav
#WAV0D bell.wav
#WAV0E ride.wav
#WAV0F snare-Fill.wav
#WAV0G SE3.wav
#WAV0H snare-Fill.wav
#WAV0I clashA.wav
#WAV0J clashB.wav
#WAV0K clashC.wav
#WAV0L clap.wav
#WAV0M clap-deep.wav
#WAV0N clashB.wav
#WAV0O bgm1.wav
#WAV0P bgm1.wav
#WAV0Q bgm2.wav
#WAV0R bgm2.wav
#WAV0S bgm3.wav
#WAV0T str01.wav
#WAV0U str01.wav
#WAV0V str02.wav
#WAV0W str03.wav
#WAV0X str03.wav
#WAV0Y str04.wav
#WAV0Z str05.wav
#WAV10 str-01.wav
#WAV11 str-01.wav
#WAV12 str-02.wav
#WAV13 str-03.wav
#WAV14 str-03.wav
#WAV15 str-04.wav
#WAV16 str-05.wav
#WAV17 harp1.wav
#WAV18 harp2.wav
#WAV19 harp3.wav
#WAV1A harp4.wav
#WAV1B harp5.wav
#WAV1C harp6.wav
#WAV1D harp16-01.wav
#WAV1E harp16-02.wav
#WAV1F harp16-03.wav
#WAV1G harp16-04.wav
#WAV1H harp16-05.wav
#WAV1I harp16-06.wav
#WAV1J core1.wav
#WAV1K core1.wav
#WAV1L core1b.wav
#WAV1M core2.wav
#WAV1N core2.wav
#WAV1O core2b.wav
#WAV1P core3.wav
#WAV1Q core3.wav
#WAV1R core3b.wav
#WAV1S core4.wav
#WAV1T core4.wav
#WAV1U core4b.wav
#WAV1V core5.wav
#WAV1W core5.wav
#WAV1X core5b.wav
#WAV1Y core6.wav
#WAV1Z core6.wav
#WAV20 core6b.wav
#WAV21 core7.wav
#WAV22 core7.wav
#WAV23 core7b.wav
#WAV24 core8.wav
#WAV25 core8.wav
#WAV26 core8b.wav
#WAV27 core9.wav
#WAV28 core9.wav
#WAV29 core9b.wav
#WAV2A arp-bgm.wav
#WAV2B arp1.wav
#WAV2C arp2.wav
#WAV2D arp3.wav
#WAV2E arp4.wav
#WAV2F arp5.wav
#WAV2G arp6.wav
#WAV2H p-8-1.wav
#WAV2I p-8-2.wav
#WAV2J p-8-3.wav
#WAV2K p-8-4.wav
#WAV2L p-8-5.wav
#WAV2M p-8-6.wav
#WAV2N p-8-7.wav
#WAV2O p-8-8.wav
#WAV2P p-8-9.wav
#WAV2Q p-8-10.wav
#WAV2R p-8-11.wav
#WAV2S p-8-12.wav
#WAV2T p-8-13.wav
#WAV2U pA-1.wav
#WAV2V pA-2.wav
#WAV2W pA-2b.wav
#WAV2X pA-3.wav
#WAV2Y pA-4.wav
#WAV2Z pA-4b.wav
#WAV30 pA-5.wav
#WAV31 pA-6.wav
#WAV32 pA-7.wav
#WAV33 pA-8.wav
#WAV34 pA-9.wav
#WAV35 pA-10.wav
#WAV36 pA-11.wav
#WAV37 pA-12.wav
#WAV38 pA-12b.wav
#WAV39 pA-13.wav
#WAV3A pA-13b.wav
#WAV3B pA-14.wav
#WAV3C pA-14b.wav
#WAV3D pA-15.wav
#WAV3E pA-15b.wav
#WAV3F p-16-1.wav
#WAV3G p-16-2.wav
#WAV3H p-16-3.wav
#WAV3I p-16-4.wav
#WAV3J p-16-5.wav
#WAV3K p-16-6.wav
#WAV3L p-16-7.wav
#WAV3M p-16-8.wav
#WAV3N p-16-9.wav
#WAV3O p-16-10.wav
#WAV3P p-16-11.wav
#WAV3Q p-16-12.wav
#WAV3R p-16-13.wav
#WAV3S p-16-14.wav
#WAV3T p-16-15.wav
#WAV3U p-16-16.wav
#WAV3V p-16-17.wav
#WAV3W ps-16-2.wav
#WAV3X ps-16-1.wav
#WAV3Y ps-16-1.wav
#WAV3Z ps-16-2.wav
#WAV40 ps-16-3.wav
#WAV41 ps-16-4.wav
#WAV42 ps-16-5.wav
#WAV43 ps-16-6.wav
#WAV44 ps-16-3.wav
#WAV45 ps-16-7.wav
#WAV46 ps-16-8.wav
#WAV47 ps-16-9.wav
#WAV48 ps-16-10.wav
#WAV49 ps-16-5.wav
#WAV4A ps-16-8.wav
#WAV4B ps-16-2.wav
#WAV4C ps-16-11.wav
#WAV4D ps-16-12.wav
#WAV4E ps-16-13.wav
#WAV4F ps-16-14.wav
#WAV4G ps-16-15.wav
#WAV4H ps-16-16.wav
#WAV4I ps-16-17.wav
#WAV4J ps-16-18.wav
#WAV4K ps-16-19.wav
#WAV4L ps-16-20.wav
#WAV4M ps-16-7.wav
#WAV4N ps-16-21.wav
#WAV4O ps-16-22.wav
#WAV4P ps-16-23.wav
#WAV4Q ps-16-24.wav
#WAV4R ps-16-25.wav
#WAV4S ps-16-26.wav
#WAV4T ps-16-27.wav
#WAV4U ps-16-28.wav
#WAV4V ps-16-29.wav
#WAV4W ps-16-30.wav
#WAV4X ps-16-23.wav
#WAV4Y ps-16-31.wav
#WAV4Z ps-32-1.wav
#WAV50 ps-32-1.wav
#WAV51 ps-32-1b.wav
#WAV52 ps-32-1b.wav
#WAV53 ps-32-2.wav
#WAV54 ps-32-2.wav
#WAV55 ps-32-2b.wav
#WAV56 ps-32-2b.wav
#WAV57 ps-32-3.wav
#WAV58 ps-32-4.wav
#WAV59 ps-32-5.wav
#WAV5A ps-32-6.wav
#WAV5B ps-32-7.wav
#WAV5C ps-32-8.wav
#WAV5D ps-32-9.wav
#WAV5E ps-32-10.wav
#WAV5F ps-32-10.wav
#WAV5G ps-32-10b.wav
#WAV5H ps-32-10b.wav
#WAV5I SE2.wav
#WAV5J chero 1.wav
#WAV5K chero 2.wav
#WAV5L chero 3.wav
#WAV5M chero 4.wav
#WAV5N chero 9.wav
#WAV5O chero 10.wav
#WAV5P chero 11.wav
#WAV5Q chero 12.wav
#WAV5R chero 13.wav
#WAV5S chero 14.wav
#WAV5T chero 15.wav
#WAV5U chero 16.wav
#WAV5V chero 17.wav
#WAV5W chero 18.wav
#WAV5X chero 19.wav
#WAV5Y chero 20.wav
#WAV5Z chero 21.wav
#WAV60 chero 22.wav
#WAV61 solo 1.wav
#WAV62 solo 2.wav
#WAV63 solo 3.wav
#WAV64 solo 4.wav
#WAV65 solo 5.wav
#WAV66 solo 6.wav
#WAV67 solo 7.wav
#WAV68 solo 8.wav
#WAV69 solo 9.wav
#WAV6A solo 10.wav
#WAV6B solo 11.wav
#WAV6C solo 12.wav
#WAV6D solo 13.wav
#WAV6E solo 14.wav
#WAV6F solo 15.wav
#WAV6G solo 16.wav
#WAV6H solo 17.wav
#WAV6I solo 18.wav
#WAV6J solo 19.wav
#WAV6K solo 20.wav
#WAV6L solo 21.wav
#WAV6M solo 22.wav
#WAV6N solo 23.wav
#WAV6O solo 24.wav
#WAV6P solo 25.wav
#WAV6Q solo 26.wav
#WAV6R solo 27.wav
#WAV6S solo 28.wav
#WAV6T solo 29.wav
#WAV6U solo 30.wav
#WAV6V solo 31.wav
#WAV6W solo 32.wav
#WAV6X solo 33.wav
#WAV6Y solo 34.wav
#WAV6Z solo 35.wav
#WAV70 solo 36.wav
#WAV71 solo 37.wav
#WAV72 solo 38.wav
#WAV73 solo 39.wav
#WAV74 solo 40.wav
#WAV75 solo 41.wav
#WAV76 solo 42.wav
#WAV77 solo 43.wav
#WAV78 solo 44.wav
#WAV79 solo 45.wav
#WAV7A solo 46.wav
#WAV7B bass1.wav
#WAV7C bass2.wav
#WAV7D bass3.wav
#WAV7E bass4.wav
#WAV7F bass5.wav
#WAV7G bass6.wav
#WAV7H bass7.wav
#WAV7I bass8.wav
#WAV7J bass9.wav
#WAV7K bass10.wav
#WAV7L bass11.wav
#WAV7M bass12.wav
#WAV7N bass13.wav
#WAV7O bass14.wav
#WAV7P bass15.wav
#WAV7Q bass16.wav
#WAV7R bass17.wav
#WAV7S bass18.wav
#WAV7T bass19.wav
#WAV7U bass20.wav
#WAV7V bass1.wav
#WAV7W bass3.wav
#WAV7X bass5.wav
#WAV7Y bass7.wav
#WAV7Z bass9.wav
#WAV80 bass11.wav
#WAV81 bass13.wav
#WAV82 bass15.wav
#WAV83 bass17.wav
#WAV84 bass19.wav
#WAV85 chero1.wav
#WAV86 chero2.wav
#WAV87 chero3.wav
#WAV88 chero4.wav
#WAV89 vio1.wav
#WAV8A vio2.wav
#WAV8B vio3.wav
#WAV8C vio4.wav
#WAV8D tim.wav
#WAV8E tanbarin.wav
#WAV8F suzu.wav
#WAV8G suzu32.wav
#WAV8H syuooo.wav
#WAV8I SE5.wav
#WAV8J horn.wav
#WAV8K suzu.wav
#WAV8L suzu32.wav
#WAV8M cym B.wav
#WAV8N cym C.wav
#WAV8O SE4.wav
#BMP01 joker.mpg
#BMP03 miss 01.bmp
#BMP04 miss 02.bmp
#BMP05 miss 03.bmp
#BMP06 miss 04.bmp
#BMP07 miss 05.bmp
#BMP08 miss 06.bmp
#BMP09 miss 07.bmp
#BMP0A miss 08.bmp
#BMP0B miss 09.bmp
#BMP0C miss 10.bmp
#BMP0D miss 11.bmp
#BMP0E miss 12.bmp
#BMP0F miss 13.bmp
#BMP0G miss 14.bmp
#BMP0H miss 15.bmp
#BMP0I miss 16.bmp
#DIFFICULTY 4
#BACKBMP logo.jpg
*---------------------- MAIN DATA FIELD
#00104:01
#00106:030405060708090A0B0C0D0E0F0G0H0I030405060708090A0B0C0D0E0F0G0H0I
#00116:000B000000000000
#00201:00
#00201:00
#00201:00
#00201:00
#00201:00
#00201:00
#00201:00
#00201:00
#00201:00
#00201:00
#00201:00
#00201:00
#00201:00
#00201:7B7C7B7V7C7B7V7C7B7C7B7V7C7B7V7C
#00206:030405060708090A0B0C0D0E0F0G0H0I030405060708090A0B0C0D0E0F0G0H0I
#00211:0400000400040000
#00213:1011000000000000
#00214:0000001200000000
#00215:0T0U000000000000
#00218:0000000V00000000
#00219:00000L00000L0000
#00301:00
#00301:00
#00301:00
#00301:00
#00301:00
#00301:00
#00301:00
#00301:00
#00301:00
#00301:00
#00301:00
#00301:00
#00301:00
#00301:7B7C7B7V7C7B7V7C7B7C7B7V7C7B7V7C
#00306:030405060708090A0B0C0D0E0F0G0H0I030405060708090A0B0C0D0E0F0G0H0I
#00311:0400000400040000
#00313:00000L00000L0000
#00314:1314000000000000
#00315:0000001500000000
#00318:0W0X000000000000
#00319:0000000Y00000000
#00401:00
#00401:00
#00401:00
#00401:00
#00401:00
#00401:00
#00401:00
#00401:0000000F00000000
#00401:00
#00401:00
#00401:00
#00401:00
#00401:00
#00401:7B7C7B7V7C007V7C7B007B7V007B7V7C
#00401:00
#00401:0T
#00401:00
#00401:1011001200000000
#00406:030405060708090A0B0C0D0E0F0G0H0I030405060708090A0B0C0D0E0F0G0H0I
#00411:0400000400040000
#00412:000U00000F007C00
#00413:0F000F0V000F000F
#00414:000F000000000F00
#00415:00000000000H0000000H000000000000
#00416:0K00000J000J0000
#00418:0000000H0000000H0000000H0000000H
#00419:000H0000007B0000007C0000000H0000
#00501:00
#00501:00
#00501:00
#00501:00
#00501:00
#00501:00
#00501:00
#00501:00
#00501:00
#00501:00
#00501:00
#00501:00
#00501:00
#00501:7B7C7B7V007B7V7C007C7B7V007B7V00
#00501:00
#00501:0W00000Y00000000
#00501:00
#00501:1314001500000000
#00506:030405060708090A0B0C0D0E0F0G0H0I030405060708090A0B0C0D0E0F0G0H0I
#00511:0400000400040007
#00512:007C7B7C
#00513:000F000F000F000F
#00514:0F0F0F0F
#00515:00000X0000000000000000000000000H
#00516:0K00000J000J0000
#00518:00000000000H0000000H0000000H0000
#00519:000H000H0000000H0000000H0000007C
#00601:00
#00601:00
#00601:00
#00601:00
#00601:00
#00601:00
#00601:00
#00601:00
#00601:00
#00601:00
#00601:02030203020302030203020302030203
#00601:00
#00601:00
#00601:7B7C7B7V7C7B7V7C7B7C7B7V7C7B7V7C
#00601:00
#00601:00
#00601:00
#00601:00
#00601:00
#00601:00
#00601:00
#00601:00
#00601:00
#00601:00
#00601:00
#00601:00
#00601:00
#00601:00
#00601:00
#00601:00
#00601:00
#00601:0O
#00606:030405060708090A0B0C0D0E0F0G0H0I030405060708090A0B0C0D0E0F0G0H0I
#00611:04040404
#00612:0001000100010001
#00613:2H0L000L
#00614:002I002I0000002I
#00615:00002J00002J0000
#00616:0C
#00618:0000002K
#00619:002L
#00701:00
#00701:00
#00701:00
#00701:00
#00701:00
#00701:00
#00701:00
#00701:00
#00701:00
#00701:00
#00701:02030203020302030203020302030203
#00701:00
#00701:00
#00701:7B7C7B7V7C7B7V7C7B7C7B7V7C7B7V7C
#00706:030405060708090A0B0C0D0E0F0G0H0I030405060708090A0B0C0D0E0F0G0H0I
#00711:04040404
#00712:0001000100010001
#00713:2H0L000L
#00714:002J0000002I002J
#00715:002K0000
#00718:0000002L00002L00
#00719:002M
#00801:00
#00801:00
#00801:00
#00801:00
#00801:00
#00801:00
#00801:00
#00801:00
#00801:00
#00801:00
#00801:02030203020302030203020302030203
#00801:00
#00801:00
#00801:7D7E7D7W7E7D7W7E7D7E7D7W7E7D7W7E
#00806:030405060708090A0B0C0D0E0F0G0H0I030405060708090A0B0C0D0E0F0G0H0I
#00811:04040404
#00812:0001000100010001
#00813:000L000L
#00814:0000002I00000000
#00815:2K000000002L0000
#00818:002L000000002M00
#00819:00002M002N00002N
#00901:00
#00901:00
#00901:00
#00901:00
#00901:00
#00901:00
#00901:00
#00901:00
#00901:00
#00901:00
#00901:02030203020302030203020302030203
#00901:00
#00901:00
#00901:7D7E7D7W7E7D7W7E7D7E7D7W7E7D7W7E
#00906:030405060708090A0B0C0D0E0F0G0H0I030405060708090A0B0C0D0E0F0G0H0I
#00911:04040404
#00912:0001000100010001
#00913:2I0L000L
#00914:0000002J002K002O
#00915:002L2L2J
#00918:002M000000000000
#01001:00
#01001:00
#01001:00
#01001:00
#01001:00
#01001:00
#01001:00
#01001:00
#01001:00
#01001:00
#01001:02030203020302030203020302030203
#01001:00
#01001:00
#01001:7F7G7F7X7G7F7X7G7F7G7F7X7G7F7X7G
#01006:030405060708090A0B0C0D0E0F0G0H0I030405060708090A0B0C0D0E0F0G0H0I
#01011:04040404
#01012:0001000100010001
#01013:2H0L000L
#01014:002I002I0000002I
#01015:00002J00002J0000
#01018:002L
#01019:0000002K
#01101:00
#01101:00
#01101:00
#01101:00
#01101:00
#01101:00
#01101:00
#01101:00
#01101:00
#01101:00
#01101:02030203020302030203020302030203
#01101:00
#01101:00
#01101:7F7G7F7X7G7F7X7G7F7G7F7X7G7F7X7G
#01106:030405060708090A0B0C0D0E0F0G0H0I030405060708090A0B0C0D0E0F0G0H0I
#01111:04040404
#01112:0001000100010001
#01113:2H0L000L
#01114:002J0000002I002J
#01115:002K0000
#01118:0000002L00002L00
#01119:002M
#01201:00
#01201:00
#01201:00
#01201:00
#01201:00
#01201:00
#01201:00
#01201:00
#01201:00
#01201:00
#01201:02030203020302030203020302030203
#01201:00
#01201:00
#01201:7B7C7B7V7C7B7V7C7B7C7B7V7C7B7V7C
#01206:030405060708090A0B0C0D0E0F0G0H0I030405060708090A0B0C0D0E0F0G0H0I
#01211:04040404
#01212:0001000100010001
#01213:000L000L
#01214:0000002I00000000
#01215:2K000000002L0000
#01218:002L000000002M00
#01219:00002M002N00002N
#01301:00
#01301:00
#01301:00
#01301:00
#01301:00
#01301:00
#01301:00
#01301:00
#01301:00
#01301:00
#01301:02030203020302030203020302030203
#01301:00
#01301:00
#01301:7B7C7B7V7C7B7V7C7B7C7B7V7C7B7V7C
#01306:030405060708090A0B0C0D0E0F0G0H0I030405060708090A0B0C0D0E0F0G0H0I
#01311:04040404
#01312:0001000100010001
#01313:000L000L
#01314:2I00002J0000002O
#01315:002L2L2J
#01316:000000000000000000000000008M0000
#01318:002M0000002K0000
#01401:00
#01401:00
#01401:00
#01401:00
#01401:00
#01401:00
#01401:00
#01401:00
#01401:00
#01401:00
#01401:02030203020302030203020302030203
#01401:00
#01401:00
#01401:7B7C7B7V7C7B7V7C7B7C7B7V7C7B7V7C
#01406:030405060708090A0B0C0D0E0F0G0H0I030405060708090A0B0C0D0E0F0G0H0I
#01411:04040404
#01412:0001000100010001
#01413:2H0L000L
#01414:002I002I0000002I
#01415:00002J00002J0000
#01418:0000002K
#01419:002L
#01501:00
#01501:00
#01501:00
#01501:00
#01501:00
#01501:00
#01501:00
#01501:00
#01501:00
#01501:00
#01501:02030203020302030203020302030203
#01501:00
#01501:00
#01501:7B7C7B7V7C7B7V7C7B7C7B7V7C7B7V7C
#01506:030405060708090A0B0C0D0E0F0G0H0I030405060708090A0B0C0D0E0F0G0H0I
#01511:04040404
#01512:0001000100010001
#01513:2H0L000L
#01514:002J0000002I002J
#01515:002K0000
#01518:0000002L00002L00
#01519:002M
#01601:00
#01601:00
#01601:00
#01601:00
#01601:00
#01601:00
#01601:00
#01601:00
#01601:00
#01601:00
#01601:02030203020302030203020302030203
#01601:00
#01601:00
#01601:7D7E7D7W7E7D7W7E7D7E7D7W7E7D7W7E
#01606:030405060708090A0B0C0D0E0F0G0H0I030405060708090A0B0C0D0E0F0G0H0I
#01611:04040404
#01612:0001000100010001
#01613:000L000L
#01614:0000002I00000000
#01615:2K000000002L0000
#01618:002L000000002M00
#01619:00002M002N00002N
#01701:00
#01701:00
#01701:00
#01701:00
#01701:00
#01701:00
#01701:00
#01701:00
#01701:00
#01701:00
#01701:02030203020302030203020302030203
#01701:00
#01701:00
#01701:7D7E7D7W7E7D7W7E7D7E7D7W7E7D7W7E
#01706:030405060708090A0B0C0D0E0F0G0H0I030405060708090A0B0C0D0E0F0G0H0I
#01711:04040404
#01712:0001000100010001
#01713:000L000L
#01714:2I00002J002K002O
#01715:0000002J
#01718:002L2L00
#01719:002M000000000000
#01801:00
#01801:00
#01801:00
#01801:00
#01801:00
#01801:00
#01801:00
#01801:00
#01801:00
#01801:00
#01801:02030203020302030203020302030203
#01801:00
#01801:00
#01801:7F7G7F7X7G7F7X7G7F7G7F7X7G7F7X7G
#01806:030405060708090A0B0C0D0E0F0G0H0I030405060708090A0B0C0D0E0F0G0H0I
#01811:04040404
#01812:0001000100010001
#01813:2H0L000L
#01814:002I002I0000002I
#01815:00002J00002J0000
#01818:0000002K
#01819:002L
#01901:00
#01901:00
#01901:00
#01901:00
#01901:00
#01901:00
#01901:00
#01901:00
#01901:00
#01901:00
#01901:02030203020302030203020302030203
#01901:00
#01901:00
#01901:7F7G7F7X7G7F7X7G7F7G7F7X7G7F7X7G
#01906:030405060708090A0B0C0D0E0F0G0H0I030405060708090A0B0C0D0E0F0G0H0I
#01911:04040404
#01912:0001000100010001
#01913:2H0L000L
#01914:002J0000002I002J
#01915:002K0000
#01918:0000002L00002L00
#01919:002M
#02001:00
#02001:00
#02001:00
#02001:00
#02001:00
#02001:00
#02001:00
#02001:00
#02001:00
#02001:00
#02001:02030203020302030203020302030203
#02001:00
#02001:00
#02001:7B7C7B7V7C7B7V7C7B7C7B7V7C7B7V7C
#02006:030405060708090A0B0C0D0E0F0G0H0I030405060708090A0B0C0D0E0F0G0H0I
#02011:04040404
#02012:0001000100010001
#02013:000L000L
#02014:0000002I00000000
#02015:2K000000002L0000
#02018:002L000000002M00
#02019:00002M002N00002N
#02101:00
#02101:00
#02101:00
#02101:00
#02101:00
#02101:00
#02101:00
#02101:00
#02101:00
#02101:0000000000000001
#02101:02030203020302030203020302030203
#02101:00
#02101:00
#02101:7B7C7B7V7C7B7V7C7B7C7B7V7C7B7V7C
#02106:030405060708090A0B0C0D0E0F0G0H0I030405060708090A0B0C0D0E0F0G0H0I
#02111:04000500000400050000040005000700
#02112:000000000L0000000400000000060000
#02113:2I000004000001000000010000002O00
#02114:0000002J
#02115:0001002J002K0000
#02116:0J000N0K00000I00
#02118:002L2L00
#02119:002M000000000L00
#02201:00
#02201:00
#02201:00
#02201:00
#02201:00
#02201:00
#02201:00
#02201:00
#02201:00
#02201:0001000000010001
#02201:02030203020302030203020302030203
#02201:00
#02201:00
#02201:7B7C7B7V7C7B7V7C7B7C7B7V7C7B7V7C
#02201:00
#02201:00
#02201:00
#02201:8F8K8F008F8K8F008F8K8F008F8K0000
#02201:000000000000008E
#02201:00
#02201:00
#02201:00
#02201:00
#02201:00
#02201:00
#02201:00
#02201:00
#02201:00
#02201:00
#02201:00
#02201:00
#02201:0P
#02206:030405060708090A0B0C0D0E0F0G0H0I030405060708090A0B0C0D0E0F0G0H0I
#02211:04040404
#02212:0000000100190000
#02213:0018181J
#02214:001L001J001K0018
#02215:1J1J001A
#02216:0C
#02218:000000000000001K0000000000001L00
#02219:170000000L000000001J00000L000000
#02301:00
#02301:00
#02301:00
#02301:00
#02301:00
#02301:00
#02301:00
#02301:00
#02301:00
#02301:0001000100000000
#02301:02030203020302030203020302030203
#02301:00
#02301:00
#02301:7B7C7B7V7C7B7V7C7B7C7B7V7C7B7V7C
#02301:00
#02301:00
#02301:00
#02301:8F008K008F0000008F008K008G8L8G8L8F0000008K0000008F008K0000000000
#02301:000000000000008E
#02306:030405060708090A0B0C0D0E0F0G0H0I030405060708090A0B0C0D0E0F0G0H0I
#02311:04040404
#02312:001L001J001K0000
#02313:001J1B17
#02314:0000001800010001
#02315:1919001J
#02318:00001A000000001K0000000000001L00
#02319:1J0000000L000000001J00000L000000
#02401:00
#02401:00
#02401:00
#02401:00
#02401:00
#02401:00
#02401:00
#02401:00
#02401:00
#02401:0000000000010001
#02401:02030203020302030203020302030203
#02401:00
#02401:00
#02401:7D7E7D7W7E7D7W7E7D7E7D7W7E7D7W7E
#02401:00
#02401:00
#02401:00
#02401:8F8K8F008F8K8F008F8K8F008F8K0000
#02401:000000000000008E
#02406:030405060708090A0B0C0D0E0F0G0H0I030405060708090A0B0C0D0E0F0G0H0I
#02411:04040404
#02412:0000000100190000
#02413:1718181M
#02414:0001001M001N0018
#02415:1M1M001A
#02418:00001O000000001N0000000000001O00
#02419:000000000L000000001M00000L000000
#02501:00
#02501:00
#02501:00
#02501:00
#02501:00
#02501:00
#02501:00
#02501:00
#02501:00
#02501:0001000100010001
#02501:02030203020302030203020302030203
#02501:00
#02501:00
#02501:7D7E7D7W7E7D7W7E7D7E7D7W7E7D7W7E
#02501:00
#02501:00
#02501:00
#02501:8F008K008F0000008F008K008G8L8G8L8F0000008K0000008F008K0000000000
#02501:000000000000008E
#02506:030405060708090A0B0C0D0E0F0G0H0I030405060708090A0B0C0D0E0F0G0H0I
#02511:04040404
#02512:0000001M001N0000
#02513:1M1M1B1M
#02514:001O00180018001B
#02515:00190019
#02518:00001A000000001N0000000000001O00
#02519:1C0000000L000000001M00000L000000
#02601:00
#02601:00
#02601:00
#02601:00
#02601:00
#02601:00
#02601:00
#02601:00
#02601:00
#02601:0000000000010001
#02601:02030203020302030203020302030203
#02601:00
#02601:00
#02601:7F7G7F7X7G7F7X7G7F7G7F7X7G7F7X7G
#02601:00
#02601:00
#02601:00
#02601:8F8K8F008F8K8F008F8K8F008F8K0000
#02601:000000000000008E
#02606:030405060708090A0B0C0D0E0F0G0H0I030405060708090A0B0C0D0E0F0G0H0I
#02611:04040404
#02612:0000001P001Q0000
#02613:1718181P
#02614:0001000100190018
#02615:001P001A
#02618:00001R000000001Q0000000000001R00
#02619:1P0000000L000000001P00000L000000
#02701:00
#02701:00
#02701:00
#02701:00
#02701:00
#02701:00
#02701:000L000L
#02701:00
#02701:00
#02701:0001000100010001
#02701:02030203020302030203020302030203
#02701:00
#02701:00
#02701:7F7G7F7X7G7F7X7G7F7G7F7X7G7F7X7G
#02701:00
#02701:00
#02701:00
#02701:8F008K008F0000008F008K008G8L8G8L8F0000008K0000008F008K0000000000
#02701:000000000000008E
#02706:030405060708090A0B0C0D0E0F0G0H0I030405060708090A0B0C0D0E0F0G0H0I
#02711:04040404
#02712:0000001P001D0000
#02713:001P1D1P
#02714:001R0018001Q001G
#02715:1919001F
#02718:00001A0000000000001P000000001R00
#02719:1P0000000000001Q0000001E00000000
#02801:00
#02801:00
#02801:00
#02801:00
#02801:00
#02801:00
#02801:00
#02801:00
#02801:00
#02801:0000000000010001
#02801:02030203020302030203020302030203
#02801:00
#02801:00
#02801:7B7C7B7V7C7B7V7C7B7C7B7V7C7B7V7C
#02801:00
#02801:00
#02801:00
#02801:8F8K8F008F8K8F008F8K8F008F8K0000
#02801:000000000000008E
#02806:030405060708090A0B0C0D0E0F0G0H0I030405060708090A0B0C0D0E0F0G0H0I
#02811:04040404
#02812:00000001001T0000
#02813:171S181S
#02814:0001001S00190018
#02815:0018001A
#02818:00001U000000001T0000000000001U00
#02819:1S0000000L000000001S00000L000000
#02901:00
#02901:00
#02901:00
#02901:00
#02901:00
#02901:00
#02901:000L0000
#02901:00
#02901:00
#02901:0001000100010001
#02901:02030203020302030203020302030203
#02901:00
#02901:00
#02901:7B7C7B7V7C7B7V7C7B7C7B7V7C7B7V7C
#02901:00
#02901:00
#02901:00
#02901:8F008K008F0000008F008K008G8L8G8L8F0000008K0000008F008K0000000000
#02906:030405060708090A0B0C0D0E0F0G0H0I030405060708090A0B0C0D0E0F0G0H0I
#02911:04040404
#02912:001U001S0018008E
#02913:001F1B1S
#02914:001H001E001T001B
#02915:1H1S0019
#02916:000000000000000000000000008M0000
#02918:000000000000001T0000000000001U00
#02919:1S00001I00000000001S00000L000000
#03001:00
#03001:00
#03001:00
#03001:00
#03001:00
#03001:00
#03001:00
#03001:00
#03001:00
#03001:0000000000010001
#03001:02030203020302030203020302030203
#03001:00
#03001:00
#03001:7B7C7B7V7C7B7V7C7B7C7B7V7C7B7V7C
#03001:00
#03001:00
#03001:00
#03001:8F8K8F008F8K8F008F8K8F008F8K0000
#03001:000000000000008E
#03006:030405060708090A0B0C0D0E0F0G0H0I030405060708090A0B0C0D0E0F0G0H0I
#03011:04040404
#03012:00000001001K0018
#03013:171J181J
#03014:001L001J00190000
#03015:1J18001A
#03018:000001000000001K0000000000001L00
#03019:000000000L000000001J00000L000000
#03101:00
#03101:00
#03101:00
#03101:00
#03101:00
#03101:00
#03101:00
#03101:00
#03101:00
#03101:0001000100000000
#03101:02030203020302030203020302030203
#03101:00
#03101:00
#03101:7B7C7B7V7C7B7V7C7B7C7B7V7C7B7V7C
#03101:00
#03101:00
#03101:00
#03101:8F008K008F0000008F008K008G8L8G8L8F0000008K0000008F008K0000000000
#03101:000000000000008E
#03106:030405060708090A0B0C0D0E0F0G0H0I030405060708090A0B0C0D0E0F0G0H0I
#03111:04040404
#03112:0000001J00010000
#03113:001J1B17
#03114:001L0018001K0001
#03115:1919001J
#03118:00001A000000001K0000000000001L00
#03119:1J0000000L000000001J00000L000000
#03201:00
#03201:00
#03201:00
#03201:00
#03201:00
#03201:00
#03201:00
#03201:00
#03201:00
#03201:0000000000010001
#03201:02030203020302030203020302030203
#03201:00
#03201:00
#03201:7D7E7D7W7E7D7W7E7D7E7D7W7E7D7W7E
#03201:00
#03201:00
#03201:00
#03201:8F8K8F008F8K8F008F8K8F008F8K0000
#03201:000000000000008E
#03206:030405060708090A0B0C0D0E0F0G0H0I030405060708090A0B0C0D0E0F0G0H0I
#03211:04040404
#03212:00010001001N0000
#03213:1718181M
#03214:0000001M00190018
#03215:1M1M001A
#03218:00001O0000000000001M000000001O00
#03219:000000000L00001N000000000L000000
#03301:00
#03301:00
#03301:00
#03301:00
#03301:00
#03301:00
#03301:00
#03301:00
#03301:00
#03301:0001000100010001
#03301:02030203020302030203020302030203
#03301:00
#03301:00
#03301:7D7E7D7W7E7D7W7E7D7E7D7W7E7D7W7E
#03301:00
#03301:00
#03301:00
#03301:8F008K008F0000008F008K008G8L8G8L8F0000008K0000008F008K0000000000
#03301:000000000000008E
#03306:030405060708090A0B0C0D0E0F0G0H0I030405060708090A0B0C0D0E0F0G0H0I
#03311:04040404
#03312:001O001M001N001B
#03313:1M1M1B1M
#03314:0000001800180000
#03315:00190019
#03318:00001A000000001N0000000000001O00
#03319:1C0000000L000000001M00000L000000
#03401:00
#03401:00
#03401:00
#03401:00
#03401:00
#03401:00
#03401:00
#03401:00
#03401:00
#03401:0000000000010001
#03401:02030203020302030203020302030203
#03401:00
#03401:00
#03401:7F7G7F7X7G7F7X7G7F7G7F7X7G7F7X7G
#03401:00
#03401:00
#03401:00
#03401:8F8K8F008F8K8F008F8K8F008F8K0000
#03401:000000000000008E
#03406:030405060708090A0B0C0D0E0F0G0H0I030405060708090A0B0C0D0E0F0G0H0I
#03411:04040404
#03412:00000001001Q0018
#03413:1718181P
#03414:001R001P00190000
#03415:001P001A
#03418:000001000000001Q0000000000001R00
#03419:1P0000000L000000001P00000L000000
#03501:00
#03501:00
#03501:00
#03501:00
#03501:00
#03501:00
#03501:00
#03501:00
#03501:00
#03501:0001000100010001
#03501:02030203020302030203020302030203
#03501:00
#03501:00
#03501:7F7G7F7X7G7F7X7G7F7G7F7X7G7F7X7G
#03501:00
#03501:00
#03501:0000001P
#03501:8F008K008F0000008F008K008G8L8G8L8F0000008K0000008F008K0000000000
#03501:000000000000008E
#03506:030405060708090A0B0C0D0E0F0G0H0I030405060708090A0B0C0D0E0F0G0H0I
#03511:04040404
#03512:0000001P001Q001G
#03513:191P1D1F
#03514:001R0018001D0000
#03515:1P19000L
#03518:00001A0000000000001P000000001R00
#03519:000000000L00001Q0000001E00000000
#03601:00
#03601:00
#03601:00
#03601:00
#03601:00
#03601:00
#03601:00
#03601:00
#03601:00
#03601:0000000000010001
#03601:02030203020302030203020302030203
#03601:00
#03601:00
#03601:7B7C7B7V7C7B7V7C7B7C7B7V7C7B7V7C
#03601:00
#03601:00
#03601:00
#03601:8F8K8F008F8K8F008F8K8F008F8K0000
#03601:000000000000008E
#03606:030405060708090A0B0C0D0E0F0G0H0I030405060708090A0B0C0D0E0F0G0H0I
#03611:04040404
#03612:00000001001T0000
#03613:1718181S
#03614:001U001S00190018
#03615:1S1S001A
#03618:0000010000000000001S000000001U00
#03619:000000000L00001T000000000L000000
#03701:00
#03701:00
#03701:00
#03701:00
#03701:00
#03701:00
#03701:00
#03701:00
#03701:00
#03701:0001000100010001
#03701:02030203020302030203020302030203
#03701:00
#03701:00
#03701:7B7C7B7V7C7B7V7C7B7C7B7V7C7B7V7C
#03701:00
#03701:00
#03701:001S0000
#03701:8F008K008F0000008F008K008G8L8G8L8F0000008K0000008F008K0000000000
#03701:000000000000008E
#03706:030405060708090A0B0C0D0E0F0G0H0I030405060708090A0B0C0D0E0F0G0H0I
#03711:04040404
#03712:001U001E001T0007
#03713:1S1F1B1S
#03714:001H001S0018001B
#03715:000L0019
#03716:0J000N0K00000I00
#03718:000000000000001T0000000000001U00
#03719:1H00001I00000000001S00000L000000
#03801:00
#03801:00
#03801:00
#03801:00
#03801:00
#03801:00
#03801:000L0000
#03801:00
#03801:00
#03801:0001000100010001
#03801:02030203020302030203020302030203
#03801:00
#03801:00
#03801:7B7C7B7V7C7B7V7C7B7C7B7V7C7B7V7C
#03801:00
#03801:00
#03801:00
#03801:00
#03801:00
#03801:00
#03801:00
#03801:00
#03801:00
#03801:00
#03801:00
#03801:00
#03801:00
#03801:00
#03801:00
#03801:00
#03801:00
#03801:0Q
#03806:030405060708090A0B0C0D0E0F0G0H0I030405060708090A0B0C0D0E0F0G0H0I
#03811:04040404
#03813:2U00000L
#03814:005J0000
#03815:5J00005K005L0000
#03816:0C
#03818:005K00000000005M
#03819:61002V2W00000000
#03901:00
#03901:00
#03901:00
#03901:00
#03901:00
#03901:00
#03901:000L0000
#03901:00
#03901:00
#03901:0001000100010001
#03901:02030203020302030203020302030203
#03901:00
#03901:00
#03901:7B7C7B7V7C7B7V7C7B7C7B7V7C7B7V7C
#03906:030405060708090A0B0C0D0E0F0G0H0I030405060708090A0B0C0D0E0F0G0H0I
#03911:04040404
#03912:005K000000000000
#03913:2M5J2M0L
#03914:002P002P0000005M
#03915:5J002Q00002P0000
#03918:0000000000005K000000000000000064
#03919:62000000005L0063
#04001:00
#04001:00
#04001:00
#04001:00
#04001:00
#04001:00
#04001:000L0000
#04001:00
#04001:00
#04001:0001000100010001
#04001:02030203020302030203020302030203
#04001:00
#04001:00
#04001:7F7G7F7X7G7F7X7G7F7G7F7X7G7F7X7G
#04006:030405060708090A0B0C0D0E0F0G0H0I030405060708090A0B0C0D0E0F0G0H0I
#04011:04040404
#04012:000000000000005Q
#04013:5N5N0068
#04014:00005O0000005O0000005P0000690000
#04015:650000000000006A
#04018:000000002Y002Z00000067000000006B
#04019:2X00660L
#04101:00
#04101:00
#04101:00
#04101:00
#04101:00
#04101:00
#04101:000L0000
#04101:00
#04101:00
#04101:0001000100010001
#04101:02030203020302030203020302030203
#04101:00
#04101:00
#04101:7F7G7F7X7G7F7X7G7F7G7F7X7G7F7X7G
#04106:030405060708090A0B0C0D0E0F0G0H0I030405060708090A0B0C0D0E0F0G0H0I
#04111:04040404
#04112:005O0000005P0000
#04113:5N5N000L
#04114:002R005O002L005Q
#04115:2P2R
#04118:0000002P00000000
#04119:6C2Q6D00
#04201:00
#04201:00
#04201:00
#04201:00
#04201:00
#04201:00
#04201:000L0000
#04201:00
#04201:00
#04201:0001000100010001
#04201:02030203020302030203020302030203
#04201:00
#04201:00
#04201:7H7I7H7Y7I7H7Y7I7H7I7H7Y7I7H7Y7I
#04206:030405060708090A0B0C0D0E0F0G0H0I030405060708090A0B0C0D0E0F0G0H0I
#04211:04040404
#04213:5R5R000L
#04214:0000005T0000005V
#04215:30000032
#04218:005S0031005U0000
#04219:6E
#04301:00
#04301:00
#04301:00
#04301:00
#04301:00
#04301:00
#04301:000L0000
#04301:00
#04301:00
#04301:0001000100010001
#04301:02030203020302030203020302030203
#04301:00
#04301:00
#04301:7H7I7H7Y7I7H7Y7I7H7I7H7Y7I7H7Y7I
#04306:030405060708090A0B0C0D0E0F0G0H0I030405060708090A0B0C0D0E0F0G0H0I
#04311:04040404
#04312:00000000002M0000
#04313:5R5R2R0L
#04314:005S002P0000005V
#04315:6F2Q0000
#04318:002T005T005U0000
#04319:2S6G
#04401:00
#04401:00
#04401:00
#04401:00
#04401:00
#04401:00
#04401:00
#04401:00
#04401:00
#04401:0001000100010001
#04401:02030203020302030203020302030203
#04401:00
#04401:00
#04401:7F7G7F7X7G7F7X7G7F7G7F7X7G7F7X7G
#04406:030405060708090A0B0C0D0E0F0G0H0I030405060708090A0B0C0D0E0F0G0H0I
#04411:04040404
#04412:0000002Q002S005V
#04413:5O2T2T00
#04414:005U000000003F00
#04415:6H0000005S00000000005U00003G0000
#04418:0000005T0000003H
#04419:330L000L
#04501:00
#04501:00
#04501:00
#04501:00
#04501:00
#04501:00
#04501:00
#04501:00
#04501:00
#04501:0001000100010001
#04501:02030203020302030203020302030203
#04501:00
#04501:00
#04501:7J7K7J7Z7K7J7Z7K7L7M7L807M7L807M
#04506:030405060708090A0B0C0D0E0F0G0H0I030405060708090A0B0C0D0E0F0G0H0I
#04511:04040404
#04512:0000000000600000
#04513:6I0L000L
#04514:000000000000005Y
#04515:5W5Y3500
#04516:000000000000000000000000008M0000
#04518:005X005Z00000000
#04519:346J
#04601:00
#04601:00
#04601:00
#04601:00
#04601:00
#04601:00
#04601:000L0000
#04601:00
#04601:00
#04601:0001000100010001
#04601:02030203020302030203020302030203
#04601:00
#04601:00
#04601:7B7C7B7V7C7B7V7C7B7C7B7V7C7B7V7C
#04601:00
#04601:00
#04601:00
#04601:00
#04601:00
#04601:00
#04601:00
#04601:00
#04601:005K5J5K005L005M
#04606:030405060708090A0B0C0D0E0F0G0H0I030405060708090A0B0C0D0E0F0G0H0I
#04611:04040404
#04612:006L0000006O0000
#04613:5J3I6N0L
#04614:00000000003J0000003N0000003R0000
#04615:36006K3K003O003S
#04618:000000000000003L0000003P0000003T
#04619:6K00006M3M003Q00
#04701:00
#04701:00
#04701:00
#04701:00
#04701:00
#04701:00
#04701:000L0000
#04701:00
#04701:00
#04701:0001000100010001
#04701:02030203020302030203020302030203
#04701:00
#04701:00
#04701:7B7C7B7V7C7B7V7C7B7C7B7V7C7B7V7C
#04701:00
#04701:00
#04701:00
#04701:00
#04701:00
#04701:00
#04701:00
#04701:00
#04701:5J5K5J5K005L005M
#04706:030405060708090A0B0C0D0E0F0G0H0I030405060708090A0B0C0D0E0F0G0H0I
#04711:04040404
#04712:000000000000002M
#04713:6K006K00006O0000
#04714:006L00002P002R00
#04715:00000000002Q0000
#04718:006N
#04719:3738000000006M00000000000L000000
#04801:00
#04801:00
#04801:00
#04801:00
#04801:00
#04801:00
#04801:000L000L
#04801:00
#04801:00
#04801:0001000100010001
#04801:02030203020302030203020302030203
#04801:00
#04801:00
#04801:7F7G7F7X7G7F7X7G7F7G7F7X7G7F7X7G
#04801:00
#04801:00
#04801:00
#04801:00
#04801:00
#04801:00
#04801:00
#04801:00
#04801:5N5O5N5O005P005Q
#04806:030405060708090A0B0C0D0E0F0G0H0I030405060708090A0B0C0D0E0F0G0H0I
#04811:04040404
#04812:006Q006S006U0000
#04813:6P3U3L6V
#04814:00000000003I0000003M000000006W00
#04815:3900003J003N0000
#04818:000000006R00003K0000003O00003A00
#04819:00006T3A
#04901:00
#04901:00
#04901:00
#04901:00
#04901:00
#04901:00
#04901:000L000L
#04901:00
#04901:00
#04901:0001000100010001
#04901:02030203020302030203020302030203
#04901:00
#04901:00
#04901:7F7G7F7X7G7F7X7G7F7G7F7X7G7F7X7G
#04901:00
#04901:00
#04901:00
#04901:00
#04901:00
#04901:00
#04901:00
#04901:00
#04901:5N5O5N5O005P005Q
#04901:00
#04901:00
#04901:00
#04901:00
#04901:00
#04901:00
#04901:00
#04901:008O
#04906:030405060708090A0B0C0D0E0F0G0H0I030405060708090A0B0C0D0E0F0G0H0I
#04911:04040404
#04912:000000000000003N000000000000003J
#04913:0000000000003P006Z00003L00003L00
#04914:0000003P003R000000003N00003N0000
#04915:6X003R003T000000003P00003P000000
#04918:003T0000000000003R00000000000000
#04919:3V6Y0070
#05001:00
#05001:00
#05001:00
#05001:00
#05001:00
#05001:00
#05001:00
#05001:00
#05001:00
#05001:0001000100010001
#05001:02030203020302030203020302030203
#05001:00
#05001:00
#05001:7H7I7H7Y7I7H7Y7I7H7I7H7Y7I7H7Y7I
#05001:00
#05001:00
#05001:00
#05001:00
#05001:00
#05001:00
#05001:00
#05001:00
#05001:5R5S5R5T0000005V
#05006:030405060708090A0B0C0D0E0F0G0H0I030405060708090A0B0C0D0E0F0G0H0I
#05011:04040404
#05013:000L000L
#05014:30000000005U0000
#05015:0072003100000074
#05018:71710032
#05019:0000007200730000
#05101:00
#05101:00
#05101:00
#05101:00
#05101:00
#05101:00
#05101:00
#05101:00
#05101:00
#05101:0001000100010001
#05101:02030203020302030203020302030203
#05101:00
#05101:00
#05101:7H7I7H7Y7I7H7Y7I7H7I7H7Y7I7H7Y7I
#05101:00
#05101:00
#05101:00
#05101:00
#05101:00
#05101:00
#05101:00
#05101:00
#05101:5R5S5R5T005U005V
#05106:030405060708090A0B0C0D0E0F0G0H0I030405060708090A0B0C0D0E0F0G0H0I
#05111:04040404
#05112:00000000002M0000
#05113:71712R0L
#05114:0072002P00000000
#05115:00002Q0000000075
#05118:002T007200007400
#05119:2S000L0000730000
#05201:00
#05201:00
#05201:00
#05201:00
#05201:00
#05201:00
#05201:00
#05201:0F0F0F0F0F0F0F0F
#05201:000H000H000H000H000H000H000H000H
#05201:0001000100010001
#05201:02030203020302030203020302030203
#05201:00
#05201:00
#05201:7F7G7F7X7G7F7X7G7F7G7F7X7G7F7X7G
#05201:00
#05201:00
#05201:00
#05201:00
#05201:00
#05201:00
#05201:00
#05201:00
#05201:5O5U5S5T005U005V
#05206:030405060708090A0B0C0D0E0F0G0H0I030405060708090A0B0C0D0E0F0G0H0I
#05211:04040404
#05212:0000002Q00000000
#05213:002T2T00
#05214:33000000002S0000
#05215:0000003F
#05218:760000000000000000000000003G0000
#05219:000000007700003H
#05301:00
#05301:00
#05301:00
#05301:00
#05301:00
#05301:00
#05301:00
#05301:00
#05301:00
#05301:0001000100010001
#05301:02030203020302030203020302030203
#05301:00
#05301:00
#05301:7J7K7J7Z7K7J7Z7K7L7M7L807M7L807M
#05301:00
#05301:00
#05301:00
#05301:00
#05301:00
#05301:00
#05301:7879
#05301:00
#05301:5W5X5Y000000005Y
#05301:0000000000600000
#05301:00
#05301:008J
#05301:00
#05301:00
#05301:00
#05301:00
#05301:0000000000000000005I00008I000000
#05306:030405060708090A0B0C0D0E0F0G0H0I030405060708090A0B0C0D0E0F0G0H0I
#05311:04040404
#05312:000F000F000F0007
#05313:0F0F3D0F
#05314:000H000000005Z00003E000000000F00
#05315:3B00000H000000000F00003D0000000H
#05316:0J000N0K00000I00
#05318:003C0000000H0000000H0000000H0000
#05319:0000003B0000000H0000000H00000000
#05401:00
#05401:00
#05401:00
#05401:00
#05401:00
#05401:00
#05401:00
#05401:00
#05401:00
#05401:00
#05401:00
#05401:00
#05401:00
#05401:00
#05401:00
#05401:00
#05401:00
#05401:00
#05401:00
#05401:00
#05401:00
#05401:00
#05401:00
#05401:00
#05401:00
#05401:00
#05401:00
#05401:00
#05401:00
#05401:00
#05401:00
#05401:0R
#05403:5C
#05406:030405060708090A0B0C0D0E0F0G0H0I030405060708090A0B0C0D0E0F0G0H0I
#05411:08
#05413:89898989
#05416:0C0D
#05419:7A
#05506:030405060708090A0B0C0D0E0F0G0H0I030405060708090A0B0C0D0E0F0G0H0I
#05512:8A8A8A8A
#05606:030405060708090A0B0C0D0E0F0G0H0I030405060708090A0B0C0D0E0F0G0H0I
#05614:8B8B8B8B
#05616:000D
#05701:00
#05701:00
#05701:00
#05701:00
#05701:00
#05701:00
#05701:00
#05701:00
#05701:00
#05701:00
#05701:00
#05701:00
#05701:00
#05701:00
#05701:00
#05701:00
#05701:00
#05701:00
#05701:00
#05701:00
#05701:00
#05701:00
#05701:00
#05701:008D
#05701:00
#05701:00
#05701:00
#05701:00
#05701:00
#05701:00
#05701:00
#05701:8H
#05706:030405060708090A0B0C0D0E0F0G0H0I030405060708090A0B0C0D0E0F0G0H0I
#05715:8C8C8C8C
#05716:0000000000000000000B000000000000
#05801:00
#05801:00
#05801:00
#05801:00
#05801:00
#05801:000M000M
#05801:00
#05801:00
#05801:00
#05801:00
#05801:00
#05801:0E0E0E0E0E0E0E0E
#05801:00
#05801:85858585
#05806:030405060708090A0B0C0D0E0F0G0H0I030405060708090A0B0C0D0E0F0G0H0I
#05811:04000004040000040004000404000000
#05813:0009000900090009
#05816:0C
#05818:89898989
#05901:00
#05901:00
#05901:00
#05901:00
#05901:00
#05901:000M000M
#05901:00
#05901:00
#05901:00
#05901:00
#05901:00
#05901:0E0E0E0E0E0E0E0E
#05901:00
#05901:86868686
#05906:030405060708090A0B0C0D0E0F0G0H0I030405060708090A0B0C0D0E0F0G0H0I
#05911:04000004040000040004000404000000
#05913:00000900000009000000090000000F0F
#05915:8A000000000000008A000000000000008A000000000000008A000000000H0000
#06001:00
#06001:00
#06001:00
#06001:00
#06001:00
#06001:000M000M
#06001:00
#06001:090A090A090A090A090A090A090A090A
#06001:00
#06001:00
#06001:00
#06001:00
#06001:00
#06001:87878787
#06006:030405060708090A0B0C0D0E0F0G0H0I030405060708090A0B0C0D0E0F0G0H0I
#06011:04000004040000040004000404050400
#06013:0000000000000000000000000000000000000000000000000000000600000000
#06014:000E0E0E0E0E0E0E
#06016:0I
#06018:8B8B8B8B
#06101:00
#06101:00
#06101:00
#06101:00
#06101:00
#06101:00
#06101:00
#06101:0F0F0F0F0F0F0F0F0F0F0F0F0F0F0F0F
#06101:000H000H000H000H000H000H000H000H000H000H000H000H000H000H000H000H
#06101:00
#06101:00
#06101:00
#06101:00
#06101:88888888
#06106:030405060708090A0B0C0D0E0F0G0H0I030405060708090A0B0C0D0E0F0G0H0I
#06111:04000004040000040004000404000000
#06113:000M000M
#06115:0E0E0E0E0E0E0E0E
#06119:8C8C8C8C
#06201:00
#06201:00
#06201:00
#06201:00
#06201:00
#06201:00
#06201:00
#06201:00
#06201:00
#06201:00
#06201:00
#06201:00
#06201:00
#06201:000000007C7B00000000000000000000
#06201:00
#06201:00
#06201:00
#06201:00
#06201:00
#06201:00
#06201:00
#06201:00
#06201:00
#06201:00
#06201:00
#06201:00
#06201:00
#06201:00
#06201:00
#06201:00
#06201:00
#06201:2A
#06203:B8
#06206:030405060708090A0B0C0D0E0F0G0H0I030405060708090A0B0C0D0E0F0G0H0I
#06211:0800000000004040
#06212:00007B000000007C0000003Z003Z0042
#06213:007C007V00007V00410041007C007V00
#06214:7B00400000000050003Y007V007B007C
#06215:003Z003Z00004Z007B007B0000000000
#06216:0C
#06218:3Y00000000000052007C000000000000
#06219:0000005100000000
#06301:00
#06301:00
#06301:00
#06301:00
#06301:00
#06301:00
#06301:00
#06301:00
#06301:00
#06301:00
#06301:00
#06301:00
#06301:00
#06301:0000000000007X7G0000007X0000007G
#06306:030405060708090A0B0C0D0E0F0G0H0I030405060708090A0B0C0D0E0F0G0H0I
#06311:0000000000000000007G000000000000
#06312:00000000005400007F007F00007F0000
#06313:4300000000000000530000000053000000004000000000007G0000007X000000
#06314:0040007X005600003Z003Z0000470000
#06315:7F0000003Z000000550000000055000000000000000000004500000045000000
#06318:007G003Y007F00000000000000480000
#06319:007F7G0000004646
#06401:00
#06401:00
#06401:00
#06401:00
#06401:00
#06401:00
#06401:00
#06401:00
#06401:00
#06401:00
#06401:00
#06401:00
#06401:00
#06401:00000000000000000000000000007Y7I
#06406:030405060708090A0B0C0D0E0F0G0H0I030405060708090A0B0C0D0E0F0G0H0I
#06411:0000004F00000000
#06412:4C004E00004E004G0000000000005700
#06413:004D00004D0000004G00480000480000
#06414:0000000000004800000000007Y00000000004600000000004600000000580000
#06415:7H007H00007H007I00000047007H0000
#06418:007I00007I0000007H007H007I000059
#06419:0000000000007Y00000000000000000000007I0000007Y00000000000000005A
#06501:00
#06501:00
#06501:00
#06501:00
#06501:00
#06501:00
#06501:00
#06501:00
#06501:00
#06501:00
#06501:00
#06501:00
#06501:00
#06501:7N7O7N817O7N817O7P7Q7P827Q000000
#06501:00
#06501:00
#06501:00
#06501:00
#06501:00
#06501:00
#06501:00
#06501:00
#06501:00
#06501:00
#06501:00
#06501:00
#06501:00
#06501:00
#06501:00
#06501:00
#06501:0G
#06506:030405060708090A0B0C0D0E0F0G0H0I030405060708090A0B0C0D0E0F0G0H0I
#06511:3Z00000000000082
#06512:004600004J000000000000000042007Q
#06513:42004600004I00004K00000043004900
#06514:004E000043004I000048000000460046
#06515:4H004E00004D0000400048003Z004A00
#06518:0000000045004D00004H0000007P0042
#06519:00000000424H4L00
#06606:030405060708090A0B0C0D0E0F0G0H0I030405060708090A0B0C0D0E0F0G0H0I
#06611:00007B000000000000000000007B0000
#06612:007C007V0000007C007C00007C007V00
#06613:7B0046007C0000007B00007V0047007C
#06614:00470047007B004000007B0040004500
#06615:4500000045007V000040003Z00000042
#06618:00000000004200003Z00410000000000
#06619:0000004300000000
#06706:030405060708090A0B0C0D0E0F0G0H0I030405060708090A0B0C0D0E0F0G0H0I
#06711:000000007M000000007M000000000000
#06712:00000000007L000000007L00007L0000
#06713:007M00003Z0080000000008000008000
#06714:7L007L000041007M004O00007M00007M
#06715:0042008000003Y007L004P00004S0000
#06718:430043000000004L0000004Q00004T00
#06719:00000040000000004N0000004R00004U
#06801:00
#06801:00
#06801:00
#06801:00
#06801:00
#06801:00
#06801:00
#06801:00
#06801:00
#06801:00
#06801:00
#06801:00
#06801:00
#06801:00007D007E00007E0000000000000000
#06806:030405060708090A0B0C0D0E0F0G0H0I030405060708090A0B0C0D0E0F0G0H0I
#06811:4300007W000000003Y003Y0000000041
#06812:007E0000007D00000041000000003Y00
#06813:7D00003Y00007W000000004L004L0000
#06814:003X0000003X00007D007D004N00007E
#06815:0000004B00003Y00007E000000007W00
#06818:003Z0000003Z00000000007W007D0000
#06819:0000004B00007E00
#06906:030405060708090A0B0C0D0E0F0G0H0I030405060708090A0B0C0D0E0F0G0H0I
#06911:00000000000000000000004O00000000
#06912:3Y3Y3Y4P
#06913:004L004L004L004L004L0084004Q0000
#06914:004N004N004N7U4T
#06915:7R0000007S0000007T000000007T004S
#06916:00000000000B0000
#06918:007S0083007R007S007U000000008400
#06919:00007R000000830000007T000000007U
#07001:00
#07001:00
#07001:00
#07001:00
#07001:00
#07001:00
#07001:000L000L
#07001:00
#07001:00
#07001:0001000100010001
#07001:02030203020302030203020302030203
#07001:00
#07001:00
#07001:7B7C7B7V7C7B7V7C7B7C7B7V7C7B7V7C
#07001:00
#07001:00
#07001:1S001U001S001S1T001S1T001S001U00
#07001:00
#07001:00
#07001:8F8K8F008F8K8F008F8K8F008F8K0000
#07001:000000000000008E
#07001:00
#07001:00
#07001:00
#07001:00
#07001:00
#07001:00
#07001:00
#07001:00
#07001:00
#07001:00
#07001:0S
#07006:030405060708090A0B0C0D0E0F0G0H0I030405060708090A0B0C0D0E0F0G0H0I
#07011:04040404
#07012:00004000000000000042000000002C00
#07013:45000040452C2G00
#07014:003Z003Z003Z003Z0000000000410000
#07015:000041002F43003Y
#07016:0C
#07018:2B002C0000002E00000000400000004L
#07019:002D003Z
#07101:00
#07101:00
#07101:00
#07101:00
#07101:00
#07101:00
#07101:000L000L
#07101:00
#07101:00
#07101:0001000100010001
#07101:02030203020302030203020302030203
#07101:00
#07101:00
#07101:7F7G7F7X7G7F7X7G7F7G7F7X7G7F7X7G
#07101:00
#07101:00
#07101:1P001R001P001P1Q001P1Q001P001R00
#07101:00
#07101:00
#07101:8F008K008F0000008F008K008G8L8G8L8F0000008K0000008F008K0000000000
#07101:000000000000008E
#07106:030405060708090A0B0C0D0E0F0G0H0I030405060708090A0B0C0D0E0F0G0H0I
#07111:04040404
#07112:0000004000000042004G000000000000
#07113:2B3Z00404V4E2G00
#07114:00410000004100000000004800002C00
#07115:3Y3Y2F47
#07118:00002C0000002E0000002C0000450040
#07119:00002D0000000042
#07201:00
#07201:00
#07201:00
#07201:00
#07201:00
#07201:00
#07201:000L000L
#07201:00
#07201:00
#07201:0001000100010001
#07201:02030203020302030203020302030203
#07201:00
#07201:00
#07201:7H7I7H7Y7I7H7Y7I7H7I7H7Y7I7H7Y7I
#07201:00
#07201:00
#07201:1M001O001M001M1N001M1N001M001O00
#07201:00
#07201:00
#07201:8F8K8F008F8K8F008F8K8F008F8K0000
#07201:000000000000008E
#07201:00
#07201:00
#07201:00
#07201:5G3Z0000
#07206:030405060708090A0B0C0D0E0F0G0H0I030405060708090A0B0C0D0E0F0G0H0I
#07211:04040404
#07212:00002C000000003Z00002C0000002C00
#07213:5E000000005E000000002R00000000002F000000000000002G00000000000000
#07214:005F00003Y00004200000000005B0000
#07215:2B000000005G0000000000002E000000000000003Y0000000000005C00000000
#07218:005H0000002L00000000004L00005D00
#07219:002D004P
#07301:00
#07301:00
#07301:00
#07301:00
#07301:04040404
#07301:00
#07301:000L000L
#07301:00
#07301:00
#07301:0001000100010001
#07301:02030203020302030203020300000000
#07301:00
#07301:00
#07301:7N7O7N817O7N817O7P7Q7P827Q7P827Q
#07301:00
#07301:00
#07301:1V001X001V001V1W001P1Q001P001R00
#07301:00
#07301:2B2C2D2E2F2C2G2C
#07301:8F008K008F0000008F008K008G8L8G8L8F0000008K0000008F008K0000000000
#07301:000000000000008E
#07306:030405060708090A0B0C0D0E0F0G0H0I030405060708090A0B0C0D0E0F0G0H0I
#07311:4H
#07312:00460000450000000000000000000003
#07313:42004600004I00004200000000000200
#07314:004E000043004I00004H000000030049
#07315:3Z004E00004D000040004H0002003Z00
#07318:000000004J004D0000480000004K0000
#07319:000000004K484L00
#07401:00
#07401:00
#07401:00
#07401:00
#07401:00
#07401:00
#07401:000L000L
#07401:00
#07401:00
#07401:0001000100010001
#07401:02030203020302030203020302030203
#07401:00
#07401:00
#07401:7B7C7B7V7C7B7V7C7B7C7B7V7C7B7V7C
#07401:00
#07401:00
#07401:1S001U001S001S1T001S1T001S001U00
#07401:00
#07401:00
#07401:8F8K8F008F8K8F008F8K8F008F8K0000
#07401:000000000000008E
#07406:030405060708090A0B0C0D0E0F0G0H0I030405060708090A0B0C0D0E0F0G0H0I
#07411:04040404
#07412:000000000000000000002C0000470000
#07413:2B4600002F002G45
#07414:0047004700002E000000000000000042
#07415:45000000450000400040000040002C00
#07418:00002C00004200003Z00003Z00000000
#07419:00002D4300410000
#07501:00
#07501:00
#07501:00
#07501:00
#07501:00
#07501:00
#07501:000L000L
#07501:00
#07501:00
#07501:0001000100010001
#07501:02030203020302030203020302030203
#07501:00
#07501:00
#07501:7L7M7L807M7L807M7L7M7L807M7L807M
#07501:00
#07501:00
#07501:1Y0020001Y001Y1Z001Y1Z001Y002000
#07501:00
#07501:00
#07501:8F008K008F0000008F008K008G8L8G8L8F0000008K0000008F008K0000000000
#07501:000000000000008E
#07506:030405060708090A0B0C0D0E0F0G0H0I030405060708090A0B0C0D0E0F0G0H0I
#07511:04040404
#07512:00002C000041000000002C0000002C00
#07513:2B00000000003Y002F00004Q00000000
#07514:004200002D00004L000000004R000000
#07515:43004300000000004N000000004S0000
#07518:0000004000002E00004O00002G004T00
#07519:000000003Z00000000004P000000004U
#07601:00
#07601:00
#07601:00
#07601:00
#07601:00
#07601:00
#07601:000L000L
#07601:00
#07601:00
#07601:0001000100010001
#07601:02030203020302030203020302030203
#07601:00
#07601:00
#07601:7D7E7D7W7E7D7W7E7D7E7D7W7E7D7W7E
#07601:00
#07601:00
#07601:21002300210021220021220021002300
#07601:00
#07601:000000002F2C2G2C
#07601:8F8K8F008F8K8F008F8K8F008F8K0000
#07601:000000000000008E
#07601:00
#07601:00
#07601:00
#07601:45
#07606:030405060708090A0B0C0D0E0F0G0H0I030405060708090A0B0C0D0E0F0G0H0I
#07611:04040404
#07612:00002C0000002E0000003Z00004L0000
#07613:2B000000003X00004B00004L00004P00
#07614:003X003Y00003Y00004100004N00004Q
#07615:43000000003Z000000003Y00004O0000
#07618:003Z004B00004B004300004100004N00
#07619:000000002D000000004000003Y00004O
#07701:00
#07701:00
#07701:00
#07701:00
#07701:00
#07701:00
#07701:000L000L
#07701:00
#07701:00
#07701:0001000100010001
#07701:02030203020302030203020302030203
#07701:00
#07701:00
#07701:7R7S7R837S7R837S7T7U7T847U7T847U
#07701:00
#07701:00
#07701:24002600240024250027280027002900
#07701:00
#07701:000000000000002C
#07701:8F008K008F0000008F008K008G8L8G8L8F0000008K0000008F008K0000000000
#07701:000000000000008E
#07706:030405060708090A0B0C0D0E0F0G0H0I030405060708090A0B0C0D0E0F0G0H0I
#07711:04040404
#07712:002C002E002C0007
#07713:2B2D002G
#07714:00004X00004X00004X00004X0000004K
#07715:004P00004P00004P00004P0000004X00
#07716:0J000N0K00000I00
#07718:4R00004R00004R00004R0000004Y0000
#07719:00002F4S
#07801:00
#07801:00
#07801:00
#07801:00
#07801:00
#07801:00
#07801:000L000L
#07801:00
#07801:00
#07801:0001000100010001
#07801:02030203020302030203020302030203
#07801:00
#07801:00
#07801:7B7C7B7V7C7B7V7C7B7C7B7V7C7B7V7C
#07801:00
#07801:00
#07801:1S001U001S001S1T001S1T001S001U00
#07801:00
#07801:00
#07801:8F8K8F008F8K8F008F8K8F008F8K0000
#07801:000000000000008E
#07806:030405060708090A0B0C0D0E0F0G0H0I030405060708090A0B0C0D0E0F0G0H0I
#07811:04040404
#07812:002C002E002C0000
#07813:45002D004500002C
#07814:003Z003Z003Z003Z004200002G000000
#07815:2B004000000040000000430000410000
#07816:0C
#07818:00000000410000002F00004000003Y00
#07819:0000000000000000000000003Z00004L
#07901:00
#07901:00
#07901:00
#07901:00
#07901:00
#07901:00
#07901:000L000L
#07901:00
#07901:00
#07901:0001000100010001
#07901:02030203020302030203020302030203
#07901:00
#07901:00
#07901:7F7G7F7X7G7F7X7G7F7G7F7X7G7F7X7G
#07901:00
#07901:00
#07901:1P001R001P001P1Q001P1Q001P001R00
#07901:00
#07901:00
#07901:8F008K008F0000008F008K008G8L8G8L8F0000008K0000008F008K0000000000
#07901:000000000000008E
#07906:030405060708090A0B0C0D0E0F0G0H0I030405060708090A0B0C0D0E0F0G0H0I
#07911:04040404
#07912:00002C000000004200002C0000002C00
#07913:00000040000040004V00000000000000
#07914:2B003Z002D000000004G000047000000
#07915:004100000041000000004E0000450000
#07918:3Y0000003Y0000002F00004800004200
#07919:0000000000002E00000000002G000040
#08001:00
#08001:00
#08001:00
#08001:00
#08001:00
#08001:00
#08001:000L000L
#08001:00
#08001:00
#08001:0001000100010001
#08001:02030203020302030203020302030203
#08001:00
#08001:00
#08001:7H7I7H7Y7I7H7Y7I7H7I7H7Y7I7H7Y7I
#08001:00
#08001:00
#08001:1M001O001M001M1N001M1N001M001O00
#08001:00
#08001:2B2D0000
#08001:8F8K8F008F8K8F008F8K8F008F8K0000
#08001:000000000000008E
#08006:030405060708090A0B0C0D0E0F0G0H0I030405060708090A0B0C0D0E0F0G0H0I
#08011:04040404
#08012:00002C00002L000000002C0000000000
#08013:5E0000003Z000042000000002G000000
#08014:005F0000002R000000003Y0000002C00
#08015:5G000000005E0000000000002E0000002F00000000004L0000005B0000000000
#08018:00005H00000000003Y00000000003Z0000000000000000004P00005C00000000
#08019:00000000005G000000000000000000000000000000000000000000005D000000
#08101:00
#08101:00
#08101:00
#08101:00
#08101:00
#08101:00
#08101:000L000L
#08101:00
#08101:00
#08101:0001000100010001
#08101:02030203020302030203020302030203
#08101:00
#08101:00
#08101:7N7O7N817O7N817O7P7Q7P827Q7P827Q
#08101:00
#08101:00
#08101:1V001X001V001V1W001P1Q001P001R00
#08101:00
#08101:2B2C2D2E2F2C2G2C
#08101:8F008K008F0000008F008K008G8L8G8L8F0000008K0000008F008K0000000000
#08101:000000000000008E
#08106:030405060708090A0B0C0D0E0F0G0H0I030405060708090A0B0C0D0E0F0G0H0I
#08111:04040404
#08112:00460000004L0000
#08113:0000004800400000004O004000000040
#08114:4E4E463Z4P3Z3W3Z
#08115:004800450045003X003X003X003Y0045
#08118:4C0042424L004L42
#08119:004G0000000000400000000000440000
#08201:00
#08201:00
#08201:00
#08201:00
#08201:000L000L
#08201:00
#08201:00
#08201:00
#08201:00
#08201:0001000100010001
#08201:02030203020302030203020302030203
#08201:00
#08201:00
#08201:7B7C7B7V7C7B7V7C7B7C7B7V7C7B7V7C
#08201:00
#08201:00
#08201:1S001U001S001S1T001S1T001S001U00
#08201:00
#08201:00
#08201:8F8K8F008F8K8F008F8K8F008F8K0000
#08201:000000000000008E
#08206:030405060708090A0B0C0D0E0F0G0H0I030405060708090A0B0C0D0E0F0G0H0I
#08211:04040404
#08212:004000000000000000002C0000002C00
#08213:00003Z0000002E000000004O00000000
#08214:3Z000041004100002F0000004P000000
#08215:000000003Y003Y0000000000004Q004Q
#08218:00002C000000004L004L00002G000000
#08219:2B002D004N4N004S
#08301:00
#08301:00
#08301:00
#08301:00
#08301:000L000L
#08301:00
#08301:00
#08301:00
#08301:00
#08301:0001000100010001
#08301:02030203020302030203020302030203
#08301:00
#08301:00
#08301:7L7M7L807M7L807M7L7M7L807M7L807M
#08301:00
#08301:00
#08301:1Y0020001Y001Y1Z001Y1Z001Y002000
#08301:00
#08301:00
#08301:8F008K008F0000008F008K008G8L8G8L8F0000008K0000008F008K0000000000
#08301:000000000000008E
#08306:030405060708090A0B0C0D0E0F0G0H0I030405060708090A0B0C0D0E0F0G0H0I
#08311:04040404
#08312:004P0000002C002C
#08313:2B00004O00004O00000000002G000000
#08314:00002C00004P00002S0000000000004O
#08315:004Q00004Q00003Y00004P004P004P00
#08318:4R00000000002E002F00004W00000000
#08319:000000002D00000000000000004Q0000
#08401:00
#08401:00
#08401:00
#08401:0000000000000000000H000H000H000H
#08401:00
#08401:000000000F0F0F0F
#08401:00
#08401:00
#08401:00
#08401:0001000100010001
#08401:02030203020302030203020302030203
#08401:00
#08401:00
#08401:7D7E7D7W7E7D7W7E7D7E7D7W7E7D7W7E
#08401:00
#08401:00
#08401:21002300210021220021220021002300
#08401:00
#08401:2B2C2D2E2F2C2G2C
#08401:8F8K8F008F8K8F008F8K8F008F8K0000
#08401:000000000000008E
#08401:453Z004B003Z4B000000000000000000
#08406:030405060708090A0B0C0D0E0F0G0H0I030405060708090A0B0C0D0E0F0G0H0I
#08411:04040404
#08412:000000000000000000000000004O0000
#08413:0F0F0F0F4B3Y004P
#08414:000H000H000H000H00410041004L004Q
#08415:4300003Y433Z4N4N
#08418:003X003Y003X00000040004L0000004O
#08419:0000003Y
#08501:000000000000000000000000008M0000
#08501:00
#08501:00
#08501:00
#08501:00
#08501:00
#08501:00
#08501:00
#08501:00
#08501:0001000100010001
#08501:02030203020302030203020302030203
#08501:00
#08501:00
#08501:7R7S7R837S7R837S7T7U7T847U7T847U
#08501:00
#08501:00
#08501:24002600240024250027280027002900
#08501:00
#08501:002C2D2E2F2C2G2C
#08501:8F008K008F0000008F008K008G8L8G8L8F0000008K0000008F008K0000000000
#08501:000000000000008E
#08506:030405060708090A0B0C0D0E0F0G0H0I030405060708090A0B0C0D0E0F0G0H0I
#08511:07070707
#08512:000H00000000004P000000000000000H
#08513:0F0F4P004X4P000F
#08514:004P000H004X000H004R004X000H004K
#08515:4R4X0F4R0F0F0F4X
#08516:0J000J0K00000I00
#08518:0000004R000H0000000H000H004Y0000
#08519:2B00000F00004S00
#08601:00
#08601:00
#08601:00
#08601:00
#08601:00
#08601:00
#08601:00
#08601:00
#08601:00
#08601:00
#08601:00
#08601:00
#08601:00
#08601:7B7C0000007B7C00000000007B7C0000
#08601:00
#08601:00
#08601:00
#08601:00
#08601:00
#08601:00
#08601:00
#08601:00
#08601:00
#08601:00000045
#08606:030405060708090A0B0C0D0E0F0G0H0I030405060708090A0B0C0D0E0F0G0H0I
#08611:0400000400000400
#08612:00000000000000000000004000000045
#08613:4G000040003Z3Z00
#08614:004800000000003Z00410000003W0000
#08615:0Z46000Z3Y000Z00
#08616:0J00000J00000K00
#08618:000000470043000000000000004M003Z
#08619:1600451600001600
#08701:00
#08701:0D
#08701:00
#08701:00
#08701:00
#08701:00
#08701:00
#08701:00
#08701:00
#08701:00
#08701:00
#08701:00
#08701:00
#08701:7B7C000000007B7C000000007B7C0000
#08701:00
#08701:00
#08701:00
#08701:00
#08701:00
#08701:00
#08701:00
#08701:00
#08701:00
#08701:00
#08701:00000045
#08706:030405060708090A0B0C0D0E0F0G0H0I030405060708090A0B0C0D0E0F0G0H0I
#08711:0400000400000400
#08712:0000000000000000000000400000003Z
#08713:4G00004000003Z00
#08714:004800000000003Z00003Z00004M0045
#08715:0Z00460000000Z00004100000Z000000
#08716:0J00000J00000K00
#08718:00000047004300003Y000000003W0000
#08719:1600451600001600
#08801:0000000000000000005I000000000000
#08801:0J
#08801:00
#08801:00
#08801:00
#08801:00
#08801:00
#08801:00
#08801:00
#08801:00
#08801:00
#08801:00
#08801:00
#08801:7B7C000000007B7C000000007B7C0000
#08801:00
#08801:00
#08801:00
#08801:00
#08801:00
#08801:00
#08801:00
#08801:00
#08801:00
#08801:00
#08801:0000003Z
#08801:00000045
#08806:030405060708090A0B0C0D0E0F0G0H0I030405060708090A0B0C0D0E0F0G0H0I
#08811:0400000400000700
#08812:000000000000004000000047003X003Y
#08813:4N00003Z00453Y00
#08814:000000410041000000400000004B003Z
#08815:0Z3Y3Y0Z00000Z00
#08816:8N00000J00000K00
#08818:004L0000000000003Z000000004M0045
#08819:1600001600001600
#08906:030405060708090A0B0C0D0E0F0G0H0I030405060708090A0B0C0D0E0F0G0H0I
#08911:08
#08913:2I
#08915:2M
#08916:0C
#08919:2P