2794 lines
53 KiB
Plaintext
2794 lines
53 KiB
Plaintext
|
|
|
||
|
|
*---------------------- HEADER FIELD
|
||
|
|
|
||
|
|
#PLAYER 1
|
||
|
|
#GENRE RENAISSANCE
|
||
|
|
#TITLE Joker[NORMAL]
|
||
|
|
#ARTIST D.J.Nero
|
||
|
|
#BPM 184
|
||
|
|
#PLAYLEVEL 6
|
||
|
|
#RANK 3
|
||
|
|
#TOTAL 350
|
||
|
|
#STAGEFILE title.jpg
|
||
|
|
|
||
|
|
#WAV01 opHH.wav
|
||
|
|
#WAV02 close.wav
|
||
|
|
#WAV03 close.wav
|
||
|
|
#WAV04 kickA.wav
|
||
|
|
#WAV05 kickB.wav
|
||
|
|
#WAV06 kickB.wav
|
||
|
|
#WAV07 kick32.wav
|
||
|
|
#WAV08 FXkick.wav
|
||
|
|
#WAV09 snare.wav
|
||
|
|
#WAV0A snare.wav
|
||
|
|
#WAV0B reverse.wav
|
||
|
|
#WAV0C SE1.wav
|
||
|
|
#WAV0D bell.wav
|
||
|
|
#WAV0E ride.wav
|
||
|
|
#WAV0F snare-Fill.wav
|
||
|
|
#WAV0G SE3.wav
|
||
|
|
#WAV0H snare-Fill.wav
|
||
|
|
#WAV0I clashA.wav
|
||
|
|
#WAV0J clashB.wav
|
||
|
|
#WAV0K clashC.wav
|
||
|
|
#WAV0L clap.wav
|
||
|
|
#WAV0M clap-deep.wav
|
||
|
|
#WAV0N clashB.wav
|
||
|
|
#WAV0O bgm1.wav
|
||
|
|
#WAV0P bgm1.wav
|
||
|
|
#WAV0Q bgm2.wav
|
||
|
|
#WAV0R bgm2.wav
|
||
|
|
#WAV0S bgm3.wav
|
||
|
|
#WAV0T str01.wav
|
||
|
|
#WAV0U str01.wav
|
||
|
|
#WAV0V str02.wav
|
||
|
|
#WAV0W str03.wav
|
||
|
|
#WAV0X str03.wav
|
||
|
|
#WAV0Y str04.wav
|
||
|
|
#WAV0Z str05.wav
|
||
|
|
#WAV10 str-01.wav
|
||
|
|
#WAV11 str-01.wav
|
||
|
|
#WAV12 str-02.wav
|
||
|
|
#WAV13 str-03.wav
|
||
|
|
#WAV14 str-03.wav
|
||
|
|
#WAV15 str-04.wav
|
||
|
|
#WAV16 str-05.wav
|
||
|
|
#WAV17 harp1.wav
|
||
|
|
#WAV18 harp2.wav
|
||
|
|
#WAV19 harp3.wav
|
||
|
|
#WAV1A harp4.wav
|
||
|
|
#WAV1B harp5.wav
|
||
|
|
#WAV1C harp6.wav
|
||
|
|
#WAV1D harp16-01.wav
|
||
|
|
#WAV1E harp16-02.wav
|
||
|
|
#WAV1F harp16-03.wav
|
||
|
|
#WAV1G harp16-04.wav
|
||
|
|
#WAV1H harp16-05.wav
|
||
|
|
#WAV1I harp16-06.wav
|
||
|
|
#WAV1J core1.wav
|
||
|
|
#WAV1K core1.wav
|
||
|
|
#WAV1L core1b.wav
|
||
|
|
#WAV1M core2.wav
|
||
|
|
#WAV1N core2.wav
|
||
|
|
#WAV1O core2b.wav
|
||
|
|
#WAV1P core3.wav
|
||
|
|
#WAV1Q core3.wav
|
||
|
|
#WAV1R core3b.wav
|
||
|
|
#WAV1S core4.wav
|
||
|
|
#WAV1T core4.wav
|
||
|
|
#WAV1U core4b.wav
|
||
|
|
#WAV1V core5.wav
|
||
|
|
#WAV1W core5.wav
|
||
|
|
#WAV1X core5b.wav
|
||
|
|
#WAV1Y core6.wav
|
||
|
|
#WAV1Z core6.wav
|
||
|
|
#WAV20 core6b.wav
|
||
|
|
#WAV21 core7.wav
|
||
|
|
#WAV22 core7.wav
|
||
|
|
#WAV23 core7b.wav
|
||
|
|
#WAV24 core8.wav
|
||
|
|
#WAV25 core8.wav
|
||
|
|
#WAV26 core8b.wav
|
||
|
|
#WAV27 core9.wav
|
||
|
|
#WAV28 core9.wav
|
||
|
|
#WAV29 core9b.wav
|
||
|
|
#WAV2A arp-bgm.wav
|
||
|
|
#WAV2B arp1.wav
|
||
|
|
#WAV2C arp2.wav
|
||
|
|
#WAV2D arp3.wav
|
||
|
|
#WAV2E arp4.wav
|
||
|
|
#WAV2F arp5.wav
|
||
|
|
#WAV2G arp6.wav
|
||
|
|
#WAV2H p-8-1.wav
|
||
|
|
#WAV2I p-8-2.wav
|
||
|
|
#WAV2J p-8-3.wav
|
||
|
|
#WAV2K p-8-4.wav
|
||
|
|
#WAV2L p-8-5.wav
|
||
|
|
#WAV2M p-8-6.wav
|
||
|
|
#WAV2N p-8-7.wav
|
||
|
|
#WAV2O p-8-8.wav
|
||
|
|
#WAV2P p-8-9.wav
|
||
|
|
#WAV2Q p-8-10.wav
|
||
|
|
#WAV2R p-8-11.wav
|
||
|
|
#WAV2S p-8-12.wav
|
||
|
|
#WAV2T p-8-13.wav
|
||
|
|
#WAV2U pA-1.wav
|
||
|
|
#WAV2V pA-2.wav
|
||
|
|
#WAV2W pA-2b.wav
|
||
|
|
#WAV2X pA-3.wav
|
||
|
|
#WAV2Y pA-4.wav
|
||
|
|
#WAV2Z pA-4b.wav
|
||
|
|
#WAV30 pA-5.wav
|
||
|
|
#WAV31 pA-6.wav
|
||
|
|
#WAV32 pA-7.wav
|
||
|
|
#WAV33 pA-8.wav
|
||
|
|
#WAV34 pA-9.wav
|
||
|
|
#WAV35 pA-10.wav
|
||
|
|
#WAV36 pA-11.wav
|
||
|
|
#WAV37 pA-12.wav
|
||
|
|
#WAV38 pA-12b.wav
|
||
|
|
#WAV39 pA-13.wav
|
||
|
|
#WAV3A pA-13b.wav
|
||
|
|
#WAV3B pA-14.wav
|
||
|
|
#WAV3C pA-14b.wav
|
||
|
|
#WAV3D pA-15.wav
|
||
|
|
#WAV3E pA-15b.wav
|
||
|
|
#WAV3F p-16-1.wav
|
||
|
|
#WAV3G p-16-2.wav
|
||
|
|
#WAV3H p-16-3.wav
|
||
|
|
#WAV3I p-16-4.wav
|
||
|
|
#WAV3J p-16-5.wav
|
||
|
|
#WAV3K p-16-6.wav
|
||
|
|
#WAV3L p-16-7.wav
|
||
|
|
#WAV3M p-16-8.wav
|
||
|
|
#WAV3N p-16-9.wav
|
||
|
|
#WAV3O p-16-10.wav
|
||
|
|
#WAV3P p-16-11.wav
|
||
|
|
#WAV3Q p-16-12.wav
|
||
|
|
#WAV3R p-16-13.wav
|
||
|
|
#WAV3S p-16-14.wav
|
||
|
|
#WAV3T p-16-15.wav
|
||
|
|
#WAV3U p-16-16.wav
|
||
|
|
#WAV3V p-16-17.wav
|
||
|
|
#WAV3W ps-16-2.wav
|
||
|
|
#WAV3X ps-16-1.wav
|
||
|
|
#WAV3Y ps-16-1.wav
|
||
|
|
#WAV3Z ps-16-2.wav
|
||
|
|
#WAV40 ps-16-3.wav
|
||
|
|
#WAV41 ps-16-4.wav
|
||
|
|
#WAV42 ps-16-5.wav
|
||
|
|
#WAV43 ps-16-6.wav
|
||
|
|
#WAV44 ps-16-3.wav
|
||
|
|
#WAV45 ps-16-7.wav
|
||
|
|
#WAV46 ps-16-8.wav
|
||
|
|
#WAV47 ps-16-9.wav
|
||
|
|
#WAV48 ps-16-10.wav
|
||
|
|
#WAV49 ps-16-5.wav
|
||
|
|
#WAV4A ps-16-8.wav
|
||
|
|
#WAV4B ps-16-2.wav
|
||
|
|
#WAV4C ps-16-11.wav
|
||
|
|
#WAV4D ps-16-12.wav
|
||
|
|
#WAV4E ps-16-13.wav
|
||
|
|
#WAV4F ps-16-14.wav
|
||
|
|
#WAV4G ps-16-15.wav
|
||
|
|
#WAV4H ps-16-16.wav
|
||
|
|
#WAV4I ps-16-17.wav
|
||
|
|
#WAV4J ps-16-18.wav
|
||
|
|
#WAV4K ps-16-19.wav
|
||
|
|
#WAV4L ps-16-20.wav
|
||
|
|
#WAV4M ps-16-7.wav
|
||
|
|
#WAV4N ps-16-21.wav
|
||
|
|
#WAV4O ps-16-22.wav
|
||
|
|
#WAV4P ps-16-23.wav
|
||
|
|
#WAV4Q ps-16-24.wav
|
||
|
|
#WAV4R ps-16-25.wav
|
||
|
|
#WAV4S ps-16-26.wav
|
||
|
|
#WAV4T ps-16-27.wav
|
||
|
|
#WAV4U ps-16-28.wav
|
||
|
|
#WAV4V ps-16-29.wav
|
||
|
|
#WAV4W ps-16-30.wav
|
||
|
|
#WAV4X ps-16-23.wav
|
||
|
|
#WAV4Y ps-16-31.wav
|
||
|
|
#WAV4Z ps-32-1.wav
|
||
|
|
#WAV50 ps-32-1.wav
|
||
|
|
#WAV51 ps-32-1b.wav
|
||
|
|
#WAV52 ps-32-1b.wav
|
||
|
|
#WAV53 ps-32-2.wav
|
||
|
|
#WAV54 ps-32-2.wav
|
||
|
|
#WAV55 ps-32-2b.wav
|
||
|
|
#WAV56 ps-32-2b.wav
|
||
|
|
#WAV57 ps-32-3.wav
|
||
|
|
#WAV58 ps-32-4.wav
|
||
|
|
#WAV59 ps-32-5.wav
|
||
|
|
#WAV5A ps-32-6.wav
|
||
|
|
#WAV5B ps-32-7.wav
|
||
|
|
#WAV5C ps-32-8.wav
|
||
|
|
#WAV5D ps-32-9.wav
|
||
|
|
#WAV5E ps-32-10.wav
|
||
|
|
#WAV5F ps-32-10.wav
|
||
|
|
#WAV5G ps-32-10b.wav
|
||
|
|
#WAV5H ps-32-10b.wav
|
||
|
|
#WAV5I SE2.wav
|
||
|
|
#WAV5J chero 1.wav
|
||
|
|
#WAV5K chero 2.wav
|
||
|
|
#WAV5L chero 3.wav
|
||
|
|
#WAV5M chero 4.wav
|
||
|
|
#WAV5N chero 9.wav
|
||
|
|
#WAV5O chero 10.wav
|
||
|
|
#WAV5P chero 11.wav
|
||
|
|
#WAV5Q chero 12.wav
|
||
|
|
#WAV5R chero 13.wav
|
||
|
|
#WAV5S chero 14.wav
|
||
|
|
#WAV5T chero 15.wav
|
||
|
|
#WAV5U chero 16.wav
|
||
|
|
#WAV5V chero 17.wav
|
||
|
|
#WAV5W chero 18.wav
|
||
|
|
#WAV5X chero 19.wav
|
||
|
|
#WAV5Y chero 20.wav
|
||
|
|
#WAV5Z chero 21.wav
|
||
|
|
#WAV60 chero 22.wav
|
||
|
|
#WAV61 solo 1.wav
|
||
|
|
#WAV62 solo 2.wav
|
||
|
|
#WAV63 solo 3.wav
|
||
|
|
#WAV64 solo 4.wav
|
||
|
|
#WAV65 solo 5.wav
|
||
|
|
#WAV66 solo 6.wav
|
||
|
|
#WAV67 solo 7.wav
|
||
|
|
#WAV68 solo 8.wav
|
||
|
|
#WAV69 solo 9.wav
|
||
|
|
#WAV6A solo 10.wav
|
||
|
|
#WAV6B solo 11.wav
|
||
|
|
#WAV6C solo 12.wav
|
||
|
|
#WAV6D solo 13.wav
|
||
|
|
#WAV6E solo 14.wav
|
||
|
|
#WAV6F solo 15.wav
|
||
|
|
#WAV6G solo 16.wav
|
||
|
|
#WAV6H solo 17.wav
|
||
|
|
#WAV6I solo 18.wav
|
||
|
|
#WAV6J solo 19.wav
|
||
|
|
#WAV6K solo 20.wav
|
||
|
|
#WAV6L solo 21.wav
|
||
|
|
#WAV6M solo 22.wav
|
||
|
|
#WAV6N solo 23.wav
|
||
|
|
#WAV6O solo 24.wav
|
||
|
|
#WAV6P solo 25.wav
|
||
|
|
#WAV6Q solo 26.wav
|
||
|
|
#WAV6R solo 27.wav
|
||
|
|
#WAV6S solo 28.wav
|
||
|
|
#WAV6T solo 29.wav
|
||
|
|
#WAV6U solo 30.wav
|
||
|
|
#WAV6V solo 31.wav
|
||
|
|
#WAV6W solo 32.wav
|
||
|
|
#WAV6X solo 33.wav
|
||
|
|
#WAV6Y solo 34.wav
|
||
|
|
#WAV6Z solo 35.wav
|
||
|
|
#WAV70 solo 36.wav
|
||
|
|
#WAV71 solo 37.wav
|
||
|
|
#WAV72 solo 38.wav
|
||
|
|
#WAV73 solo 39.wav
|
||
|
|
#WAV74 solo 40.wav
|
||
|
|
#WAV75 solo 41.wav
|
||
|
|
#WAV76 solo 42.wav
|
||
|
|
#WAV77 solo 43.wav
|
||
|
|
#WAV78 solo 44.wav
|
||
|
|
#WAV79 solo 45.wav
|
||
|
|
#WAV7A solo 46.wav
|
||
|
|
#WAV7B bass1.wav
|
||
|
|
#WAV7C bass2.wav
|
||
|
|
#WAV7D bass3.wav
|
||
|
|
#WAV7E bass4.wav
|
||
|
|
#WAV7F bass5.wav
|
||
|
|
#WAV7G bass6.wav
|
||
|
|
#WAV7H bass7.wav
|
||
|
|
#WAV7I bass8.wav
|
||
|
|
#WAV7J bass9.wav
|
||
|
|
#WAV7K bass10.wav
|
||
|
|
#WAV7L bass11.wav
|
||
|
|
#WAV7M bass12.wav
|
||
|
|
#WAV7N bass13.wav
|
||
|
|
#WAV7O bass14.wav
|
||
|
|
#WAV7P bass15.wav
|
||
|
|
#WAV7Q bass16.wav
|
||
|
|
#WAV7R bass17.wav
|
||
|
|
#WAV7S bass18.wav
|
||
|
|
#WAV7T bass19.wav
|
||
|
|
#WAV7U bass20.wav
|
||
|
|
#WAV7V bass1.wav
|
||
|
|
#WAV7W bass3.wav
|
||
|
|
#WAV7X bass5.wav
|
||
|
|
#WAV7Y bass7.wav
|
||
|
|
#WAV7Z bass9.wav
|
||
|
|
#WAV80 bass11.wav
|
||
|
|
#WAV81 bass13.wav
|
||
|
|
#WAV82 bass15.wav
|
||
|
|
#WAV83 bass17.wav
|
||
|
|
#WAV84 bass19.wav
|
||
|
|
#WAV85 chero1.wav
|
||
|
|
#WAV86 chero2.wav
|
||
|
|
#WAV87 chero3.wav
|
||
|
|
#WAV88 chero4.wav
|
||
|
|
#WAV89 vio1.wav
|
||
|
|
#WAV8A vio2.wav
|
||
|
|
#WAV8B vio3.wav
|
||
|
|
#WAV8C vio4.wav
|
||
|
|
#WAV8D tim.wav
|
||
|
|
#WAV8E tanbarin.wav
|
||
|
|
#WAV8F suzu.wav
|
||
|
|
#WAV8G suzu32.wav
|
||
|
|
#WAV8H syuooo.wav
|
||
|
|
#WAV8I SE5.wav
|
||
|
|
#WAV8J horn.wav
|
||
|
|
#WAV8K suzu.wav
|
||
|
|
#WAV8L suzu32.wav
|
||
|
|
#WAV8M cym B.wav
|
||
|
|
#WAV8N cym C.wav
|
||
|
|
#WAV8O SE4.wav
|
||
|
|
|
||
|
|
#BMP01 joker.mpg
|
||
|
|
#BMP03 miss 01.bmp
|
||
|
|
#BMP04 miss 02.bmp
|
||
|
|
#BMP05 miss 03.bmp
|
||
|
|
#BMP06 miss 04.bmp
|
||
|
|
#BMP07 miss 05.bmp
|
||
|
|
#BMP08 miss 06.bmp
|
||
|
|
#BMP09 miss 07.bmp
|
||
|
|
#BMP0A miss 08.bmp
|
||
|
|
#BMP0B miss 09.bmp
|
||
|
|
#BMP0C miss 10.bmp
|
||
|
|
#BMP0D miss 11.bmp
|
||
|
|
#BMP0E miss 12.bmp
|
||
|
|
#BMP0F miss 13.bmp
|
||
|
|
#BMP0G miss 14.bmp
|
||
|
|
#BMP0H miss 15.bmp
|
||
|
|
#BMP0I miss 16.bmp
|
||
|
|
|
||
|
|
|
||
|
|
|
||
|
|
|
||
|
|
#DIFFICULTY 2
|
||
|
|
#BACKBMP logo.jpg
|
||
|
|
|
||
|
|
|
||
|
|
|
||
|
|
*---------------------- MAIN DATA FIELD
|
||
|
|
|
||
|
|
|
||
|
|
#00104:01
|
||
|
|
#00106:030405060708090A0B0C0D0E0F0G0H0I030405060708090A0B0C0D0E0F0G0H0I
|
||
|
|
#00116:000B000000000000
|
||
|
|
|
||
|
|
#00201:00
|
||
|
|
#00201:00
|
||
|
|
#00201:00
|
||
|
|
#00201:00
|
||
|
|
#00201:0000000000040000
|
||
|
|
#00201:00
|
||
|
|
#00201:00
|
||
|
|
#00201:00
|
||
|
|
#00201:00
|
||
|
|
#00201:00
|
||
|
|
#00201:00
|
||
|
|
#00201:00
|
||
|
|
#00201:00
|
||
|
|
#00201:7B7C7B7V7C7B7V7C7B7C7B7V7C7B7V7C
|
||
|
|
#00201:00
|
||
|
|
#00201:0T0U000V00000000
|
||
|
|
#00201:00
|
||
|
|
#00201:1011001200000000
|
||
|
|
#00206:030405060708090A0B0C0D0E0F0G0H0I030405060708090A0B0C0D0E0F0G0H0I
|
||
|
|
#00211:0400000400000000
|
||
|
|
#00215:00000L00000L0000
|
||
|
|
|
||
|
|
#00301:00
|
||
|
|
#00301:00
|
||
|
|
#00301:00
|
||
|
|
#00301:00
|
||
|
|
#00301:0000000000040000
|
||
|
|
#00301:00
|
||
|
|
#00301:00
|
||
|
|
#00301:00
|
||
|
|
#00301:00
|
||
|
|
#00301:00
|
||
|
|
#00301:00
|
||
|
|
#00301:00
|
||
|
|
#00301:00
|
||
|
|
#00301:7B7C7B7V7C7B7V7C7B7C7B7V7C7B7V7C
|
||
|
|
#00301:00
|
||
|
|
#00301:0W0X000Y00000000
|
||
|
|
#00301:00
|
||
|
|
#00301:1314001500000000
|
||
|
|
#00306:030405060708090A0B0C0D0E0F0G0H0I030405060708090A0B0C0D0E0F0G0H0I
|
||
|
|
#00311:0400000400000000
|
||
|
|
#00315:00000L00000L0000
|
||
|
|
|
||
|
|
#00401:00
|
||
|
|
#00401:00
|
||
|
|
#00401:00
|
||
|
|
#00401:00
|
||
|
|
#00401:00
|
||
|
|
#00401:00
|
||
|
|
#00401:00
|
||
|
|
#00401:0F0F0F0F0F0F0F0F
|
||
|
|
#00401:000H000H000H000H000H000H000H000H
|
||
|
|
#00401:00
|
||
|
|
#00401:00
|
||
|
|
#00401:00
|
||
|
|
#00401:00
|
||
|
|
#00401:7B7C7B7V7C7B7V7C7B7C7B7V7C7B7V7C
|
||
|
|
#00401:00
|
||
|
|
#00401:0T0U000V00000000
|
||
|
|
#00401:00
|
||
|
|
#00401:1011001200000000
|
||
|
|
#00406:030405060708090A0B0C0D0E0F0G0H0I030405060708090A0B0C0D0E0F0G0H0I
|
||
|
|
#00411:0400000400040000
|
||
|
|
#00416:0K00000J000J0000
|
||
|
|
|
||
|
|
#00501:00
|
||
|
|
#00501:00
|
||
|
|
#00501:00
|
||
|
|
#00501:00
|
||
|
|
#00501:00
|
||
|
|
#00501:00
|
||
|
|
#00501:00
|
||
|
|
#00501:0F0F0F0F0F0F0F0F
|
||
|
|
#00501:000H000H000H000H000H000H000H000H
|
||
|
|
#00501:00
|
||
|
|
#00501:00
|
||
|
|
#00501:00
|
||
|
|
#00501:00
|
||
|
|
#00501:7B7C7B7V7C7B7V7C7B7C7B7V7C7B7V7C
|
||
|
|
#00501:00
|
||
|
|
#00501:0W0X000Y00000000
|
||
|
|
#00501:00
|
||
|
|
#00501:1314001500000000
|
||
|
|
#00506:030405060708090A0B0C0D0E0F0G0H0I030405060708090A0B0C0D0E0F0G0H0I
|
||
|
|
#00511:0400000400040000
|
||
|
|
#00513:0000000000000007
|
||
|
|
#00516:0K00000J000J0000
|
||
|
|
|
||
|
|
#00601:00
|
||
|
|
#00601:00
|
||
|
|
#00601:00
|
||
|
|
#00601:00
|
||
|
|
#00601:00
|
||
|
|
#00601:00
|
||
|
|
#00601:00
|
||
|
|
#00601:00
|
||
|
|
#00601:00
|
||
|
|
#00601:0001000100010001
|
||
|
|
#00601:02030203020302030203020302030203
|
||
|
|
#00601:00
|
||
|
|
#00601:00
|
||
|
|
#00601:7B7C7B7V7C7B7V7C7B7C7B7V7C7B7V7C
|
||
|
|
#00601:00
|
||
|
|
#00601:00
|
||
|
|
#00601:2H2I2J2I2L2J2K2I
|
||
|
|
#00601:00
|
||
|
|
#00601:00
|
||
|
|
#00601:00
|
||
|
|
#00601:00
|
||
|
|
#00601:00
|
||
|
|
#00601:00
|
||
|
|
#00601:00
|
||
|
|
#00601:00
|
||
|
|
#00601:00
|
||
|
|
#00601:00
|
||
|
|
#00601:00
|
||
|
|
#00601:00
|
||
|
|
#00601:00
|
||
|
|
#00601:00
|
||
|
|
#00601:0O
|
||
|
|
#00606:030405060708090A0B0C0D0E0F0G0H0I030405060708090A0B0C0D0E0F0G0H0I
|
||
|
|
#00611:04040404
|
||
|
|
#00615:000L000L
|
||
|
|
#00616:0C
|
||
|
|
|
||
|
|
#00701:00
|
||
|
|
#00701:00
|
||
|
|
#00701:00
|
||
|
|
#00701:00
|
||
|
|
#00701:00
|
||
|
|
#00701:00
|
||
|
|
#00701:00
|
||
|
|
#00701:00
|
||
|
|
#00701:00
|
||
|
|
#00701:0001000100010001
|
||
|
|
#00701:02030203020302030203020302030203
|
||
|
|
#00701:00
|
||
|
|
#00701:00
|
||
|
|
#00701:7B7C7B7V7C7B7V7C7B7C7B7V7C7B7V7C
|
||
|
|
#00701:00
|
||
|
|
#00701:00
|
||
|
|
#00701:2H2J2K2L2M2I2L2J
|
||
|
|
#00706:030405060708090A0B0C0D0E0F0G0H0I030405060708090A0B0C0D0E0F0G0H0I
|
||
|
|
#00711:04040404
|
||
|
|
#00715:000L000L
|
||
|
|
|
||
|
|
#00801:00
|
||
|
|
#00801:00
|
||
|
|
#00801:00
|
||
|
|
#00801:00
|
||
|
|
#00801:00
|
||
|
|
#00801:00
|
||
|
|
#00801:00
|
||
|
|
#00801:00
|
||
|
|
#00801:00
|
||
|
|
#00801:0001000100010001
|
||
|
|
#00801:02030203020302030203020302030203
|
||
|
|
#00801:00
|
||
|
|
#00801:00
|
||
|
|
#00801:7D7E7D7W7E7D7W7E7D7E7D7W7E7D7W7E
|
||
|
|
#00801:00
|
||
|
|
#00801:00
|
||
|
|
#00801:2K2L2M2I2N2L2M2N
|
||
|
|
#00806:030405060708090A0B0C0D0E0F0G0H0I030405060708090A0B0C0D0E0F0G0H0I
|
||
|
|
#00811:04040404
|
||
|
|
#00815:000L000L
|
||
|
|
|
||
|
|
#00901:00
|
||
|
|
#00901:00
|
||
|
|
#00901:00
|
||
|
|
#00901:00
|
||
|
|
#00901:00
|
||
|
|
#00901:00
|
||
|
|
#00901:00
|
||
|
|
#00901:00
|
||
|
|
#00901:00
|
||
|
|
#00901:0001000100010001
|
||
|
|
#00901:02030203020302030203020302030203
|
||
|
|
#00901:00
|
||
|
|
#00901:00
|
||
|
|
#00901:7D7E7D7W7E7D7W7E7D7E7D7W7E7D7W7E
|
||
|
|
#00901:00
|
||
|
|
#00901:00
|
||
|
|
#00901:2I2M2L2J2L2K2J2O
|
||
|
|
#00906:030405060708090A0B0C0D0E0F0G0H0I030405060708090A0B0C0D0E0F0G0H0I
|
||
|
|
#00911:04040404
|
||
|
|
#00915:000L000L
|
||
|
|
|
||
|
|
#01001:00
|
||
|
|
#01001:00
|
||
|
|
#01001:00
|
||
|
|
#01001:00
|
||
|
|
#01001:00
|
||
|
|
#01001:00
|
||
|
|
#01001:00
|
||
|
|
#01001:00
|
||
|
|
#01001:00
|
||
|
|
#01001:00
|
||
|
|
#01001:02030203020302030203020302030203
|
||
|
|
#01001:00
|
||
|
|
#01001:00
|
||
|
|
#01001:7F7G7F7X7G7F7X7G7F7G7F7X7G7F7X7G
|
||
|
|
#01001:00
|
||
|
|
#01001:00
|
||
|
|
#01001:2H2I2J2I2L2J2K2I
|
||
|
|
#01006:030405060708090A0B0C0D0E0F0G0H0I030405060708090A0B0C0D0E0F0G0H0I
|
||
|
|
#01011:04040404
|
||
|
|
#01013:000L000L
|
||
|
|
#01018:0001000100010001
|
||
|
|
|
||
|
|
#01101:00
|
||
|
|
#01101:00
|
||
|
|
#01101:00
|
||
|
|
#01101:00
|
||
|
|
#01101:00
|
||
|
|
#01101:00
|
||
|
|
#01101:00
|
||
|
|
#01101:00
|
||
|
|
#01101:00
|
||
|
|
#01101:00
|
||
|
|
#01101:02030203020302030203020302030203
|
||
|
|
#01101:00
|
||
|
|
#01101:00
|
||
|
|
#01101:7F7G7F7X7G7F7X7G7F7G7F7X7G7F7X7G
|
||
|
|
#01101:00
|
||
|
|
#01101:00
|
||
|
|
#01101:2H2J2K2L2M2I2L2J
|
||
|
|
#01106:030405060708090A0B0C0D0E0F0G0H0I030405060708090A0B0C0D0E0F0G0H0I
|
||
|
|
#01111:04040404
|
||
|
|
#01113:000L000L
|
||
|
|
#01118:0001000100010001
|
||
|
|
|
||
|
|
#01201:00
|
||
|
|
#01201:00
|
||
|
|
#01201:00
|
||
|
|
#01201:00
|
||
|
|
#01201:00
|
||
|
|
#01201:00
|
||
|
|
#01201:00
|
||
|
|
#01201:00
|
||
|
|
#01201:00
|
||
|
|
#01201:00
|
||
|
|
#01201:02030203020302030203020302030203
|
||
|
|
#01201:00
|
||
|
|
#01201:00
|
||
|
|
#01201:7B7C7B7V7C7B7V7C7B7C7B7V7C7B7V7C
|
||
|
|
#01201:00
|
||
|
|
#01201:00
|
||
|
|
#01201:2K2L2M2I2N2L2M2N
|
||
|
|
#01206:030405060708090A0B0C0D0E0F0G0H0I030405060708090A0B0C0D0E0F0G0H0I
|
||
|
|
#01211:04040404
|
||
|
|
#01213:000L000L
|
||
|
|
#01218:0001000100010001
|
||
|
|
|
||
|
|
#01301:00
|
||
|
|
#01301:00
|
||
|
|
#01301:00
|
||
|
|
#01301:00
|
||
|
|
#01301:00
|
||
|
|
#01301:00
|
||
|
|
#01301:00
|
||
|
|
#01301:00
|
||
|
|
#01301:00
|
||
|
|
#01301:00
|
||
|
|
#01301:02030203020302030203020302030203
|
||
|
|
#01301:00
|
||
|
|
#01301:00
|
||
|
|
#01301:7B7C7B7V7C7B7V7C7B7C7B7V7C7B7V7C
|
||
|
|
#01301:00
|
||
|
|
#01301:00
|
||
|
|
#01301:2I2M2L2J2L2K2J2O
|
||
|
|
#01306:030405060708090A0B0C0D0E0F0G0H0I030405060708090A0B0C0D0E0F0G0H0I
|
||
|
|
#01311:04040404
|
||
|
|
#01313:000L000L
|
||
|
|
#01316:000000000000000000000000008M0000
|
||
|
|
#01318:0001000100010001
|
||
|
|
|
||
|
|
#01401:00
|
||
|
|
#01401:00
|
||
|
|
#01401:00
|
||
|
|
#01401:00
|
||
|
|
#01401:04040404
|
||
|
|
#01401:00
|
||
|
|
#01401:000L000L
|
||
|
|
#01401:00
|
||
|
|
#01401:00
|
||
|
|
#01401:0001000100010001
|
||
|
|
#01401:02030203020302030203020302030203
|
||
|
|
#01401:00
|
||
|
|
#01401:00
|
||
|
|
#01401:7B7C7B7V7C7B7V7C7B7C7B7V7C7B7V7C
|
||
|
|
#01406:030405060708090A0B0C0D0E0F0G0H0I030405060708090A0B0C0D0E0F0G0H0I
|
||
|
|
#01411:2H
|
||
|
|
#01412:000000000000002I
|
||
|
|
#01413:0000002I00000000
|
||
|
|
#01414:002I0000002J0000
|
||
|
|
#01415:0000002K
|
||
|
|
#01418:002L
|
||
|
|
#01419:002J0000
|
||
|
|
|
||
|
|
#01501:00
|
||
|
|
#01501:00
|
||
|
|
#01501:00
|
||
|
|
#01501:00
|
||
|
|
#01501:04040404
|
||
|
|
#01501:00
|
||
|
|
#01501:000L000L
|
||
|
|
#01501:00
|
||
|
|
#01501:00
|
||
|
|
#01501:0001000100010001
|
||
|
|
#01501:02030203020302030203020302030203
|
||
|
|
#01501:00
|
||
|
|
#01501:00
|
||
|
|
#01501:7B7C7B7V7C7B7V7C7B7C7B7V7C7B7V7C
|
||
|
|
#01506:030405060708090A0B0C0D0E0F0G0H0I030405060708090A0B0C0D0E0F0G0H0I
|
||
|
|
#01511:2H
|
||
|
|
#01512:002J00000000002J
|
||
|
|
#01513:00000000002I0000
|
||
|
|
#01515:0000002L
|
||
|
|
#01518:002K2M00
|
||
|
|
#01519:0000002L00000000
|
||
|
|
|
||
|
|
#01601:00
|
||
|
|
#01601:00
|
||
|
|
#01601:00
|
||
|
|
#01601:00
|
||
|
|
#01601:04040404
|
||
|
|
#01601:00
|
||
|
|
#01601:000L000L
|
||
|
|
#01601:00
|
||
|
|
#01601:00
|
||
|
|
#01601:0001000100010001
|
||
|
|
#01601:02030203020302030203020302030203
|
||
|
|
#01601:00
|
||
|
|
#01601:00
|
||
|
|
#01601:7D7E7D7W7E7D7W7E7D7E7D7W7E7D7W7E
|
||
|
|
#01606:030405060708090A0B0C0D0E0F0G0H0I030405060708090A0B0C0D0E0F0G0H0I
|
||
|
|
#01611:0000002I00000000
|
||
|
|
#01613:2K
|
||
|
|
#01614:002L000000000000
|
||
|
|
#01615:00002M00002L0000
|
||
|
|
#01618:0000002M
|
||
|
|
#01619:000000002N00002N
|
||
|
|
|
||
|
|
#01701:00
|
||
|
|
#01701:00
|
||
|
|
#01701:00
|
||
|
|
#01701:00
|
||
|
|
#01701:04040404
|
||
|
|
#01701:00
|
||
|
|
#01701:000L000L
|
||
|
|
#01701:00
|
||
|
|
#01701:00
|
||
|
|
#01701:0001000100010001
|
||
|
|
#01701:02030203020302030203020302030203
|
||
|
|
#01701:00
|
||
|
|
#01701:00
|
||
|
|
#01701:7D7E7D7W7E7D7W7E7D7E7D7W7E7D7W7E
|
||
|
|
#01706:030405060708090A0B0C0D0E0F0G0H0I030405060708090A0B0C0D0E0F0G0H0I
|
||
|
|
#01712:2I0000000000002O
|
||
|
|
#01713:0000002J00000000
|
||
|
|
#01714:0000002J
|
||
|
|
#01715:00002L00002K0000
|
||
|
|
#01718:002M000000000000
|
||
|
|
#01719:002L
|
||
|
|
|
||
|
|
#01801:00
|
||
|
|
#01801:00
|
||
|
|
#01801:00
|
||
|
|
#01801:00
|
||
|
|
#01801:04040404
|
||
|
|
#01801:00
|
||
|
|
#01801:000L000L
|
||
|
|
#01801:00
|
||
|
|
#01801:00
|
||
|
|
#01801:0001000100010001
|
||
|
|
#01801:02030203020302030203020302030203
|
||
|
|
#01801:00
|
||
|
|
#01801:00
|
||
|
|
#01801:7F7G7F7X7G7F7X7G7F7G7F7X7G7F7X7G
|
||
|
|
#01806:030405060708090A0B0C0D0E0F0G0H0I030405060708090A0B0C0D0E0F0G0H0I
|
||
|
|
#01811:2H
|
||
|
|
#01812:000000000000002I
|
||
|
|
#01813:0000002I00000000
|
||
|
|
#01814:002I0000002J0000
|
||
|
|
#01815:0000002K
|
||
|
|
#01818:002L
|
||
|
|
#01819:002J0000
|
||
|
|
|
||
|
|
#01901:00
|
||
|
|
#01901:00
|
||
|
|
#01901:00
|
||
|
|
#01901:00
|
||
|
|
#01901:04040404
|
||
|
|
#01901:00
|
||
|
|
#01901:000L000L
|
||
|
|
#01901:00
|
||
|
|
#01901:00
|
||
|
|
#01901:0001000100010001
|
||
|
|
#01901:02030203020302030203020302030203
|
||
|
|
#01901:00
|
||
|
|
#01901:00
|
||
|
|
#01901:7F7G7F7X7G7F7X7G7F7G7F7X7G7F7X7G
|
||
|
|
#01906:030405060708090A0B0C0D0E0F0G0H0I030405060708090A0B0C0D0E0F0G0H0I
|
||
|
|
#01911:2H
|
||
|
|
#01912:002J00000000002J
|
||
|
|
#01913:00000000002I0000
|
||
|
|
#01915:0000002L
|
||
|
|
#01918:002K2M00
|
||
|
|
#01919:0000002L00000000
|
||
|
|
|
||
|
|
#02001:00
|
||
|
|
#02001:00
|
||
|
|
#02001:00
|
||
|
|
#02001:00
|
||
|
|
#02001:04040404
|
||
|
|
#02001:00
|
||
|
|
#02001:000L000L
|
||
|
|
#02001:00
|
||
|
|
#02001:00
|
||
|
|
#02001:0001000100010001
|
||
|
|
#02001:02030203020302030203020302030203
|
||
|
|
#02001:00
|
||
|
|
#02001:00
|
||
|
|
#02001:7B7C7B7V7C7B7V7C7B7C7B7V7C7B7V7C
|
||
|
|
#02006:030405060708090A0B0C0D0E0F0G0H0I030405060708090A0B0C0D0E0F0G0H0I
|
||
|
|
#02011:0000002I00000000
|
||
|
|
#02013:2K
|
||
|
|
#02014:002L000000000000
|
||
|
|
#02015:00002M00002L0000
|
||
|
|
#02018:0000002M
|
||
|
|
#02019:000000002N00002N
|
||
|
|
|
||
|
|
#02101:00
|
||
|
|
#02101:00
|
||
|
|
#02101:00
|
||
|
|
#02101:00
|
||
|
|
#02101:04000504000400050400040005060700
|
||
|
|
#02101:00
|
||
|
|
#02101:000L000L
|
||
|
|
#02101:00
|
||
|
|
#02101:00
|
||
|
|
#02101:0001000100010001
|
||
|
|
#02101:02030203020302030203020302030203
|
||
|
|
#02101:00
|
||
|
|
#02101:00
|
||
|
|
#02101:7B7C7B7V7C7B7V7C7B7C7B7V7C7B7V7C
|
||
|
|
#02106:030405060708090A0B0C0D0E0F0G0H0I030405060708090A0B0C0D0E0F0G0H0I
|
||
|
|
#02112:2I0000000000002O
|
||
|
|
#02113:0000002J00000000
|
||
|
|
#02114:0000002J
|
||
|
|
#02115:00002L00002K0000
|
||
|
|
#02116:0J000N0K00000I00
|
||
|
|
#02118:002M000000000000
|
||
|
|
#02119:002L
|
||
|
|
|
||
|
|
#02201:00
|
||
|
|
#02201:00
|
||
|
|
#02201:00
|
||
|
|
#02201:00
|
||
|
|
#02201:00
|
||
|
|
#02201:00040404
|
||
|
|
#02201:000L000L
|
||
|
|
#02201:00
|
||
|
|
#02201:00
|
||
|
|
#02201:0001000100010001
|
||
|
|
#02201:02030203020302030203020302030203
|
||
|
|
#02201:00
|
||
|
|
#02201:00
|
||
|
|
#02201:7B7C7B7V7C7B7V7C7B7C7B7V7C7B7V7C
|
||
|
|
#02201:00
|
||
|
|
#02201:00
|
||
|
|
#02201:1J001L001J001J1K001J1K001J001L00
|
||
|
|
#02201:8F8K8F008F8K8F008F8K8F008F8K0000
|
||
|
|
#02201:000000000000008E
|
||
|
|
#02201:00
|
||
|
|
#02201:00
|
||
|
|
#02201:00
|
||
|
|
#02201:00
|
||
|
|
#02201:00
|
||
|
|
#02201:00
|
||
|
|
#02201:00
|
||
|
|
#02201:00
|
||
|
|
#02201:00
|
||
|
|
#02201:00
|
||
|
|
#02201:00
|
||
|
|
#02201:00
|
||
|
|
#02201:0P
|
||
|
|
#02206:030405060708090A0B0C0D0E0F0G0H0I030405060708090A0B0C0D0E0F0G0H0I
|
||
|
|
#02211:04
|
||
|
|
#02213:00181800
|
||
|
|
#02214:0000000000000018
|
||
|
|
#02215:0000000000190000
|
||
|
|
#02216:0C
|
||
|
|
#02218:0000001A
|
||
|
|
#02219:17
|
||
|
|
|
||
|
|
#02301:00
|
||
|
|
#02301:00
|
||
|
|
#02301:00
|
||
|
|
#02301:00
|
||
|
|
#02301:00
|
||
|
|
#02301:04040404
|
||
|
|
#02301:000L000L
|
||
|
|
#02301:00
|
||
|
|
#02301:00
|
||
|
|
#02301:0001000100010001
|
||
|
|
#02301:02030203020302030203020302030203
|
||
|
|
#02301:00
|
||
|
|
#02301:00
|
||
|
|
#02301:7B7C7B7V7C7B7V7C7B7C7B7V7C7B7V7C
|
||
|
|
#02301:00
|
||
|
|
#02301:00
|
||
|
|
#02301:1J001L001J001J1K001J1K001J001L00
|
||
|
|
#02301:8F008K008F0000008F008K008G8L8G8L8F0000008K0000008F008K0000000000
|
||
|
|
#02301:000000000000008E
|
||
|
|
#02306:030405060708090A0B0C0D0E0F0G0H0I030405060708090A0B0C0D0E0F0G0H0I
|
||
|
|
#02311:00000017
|
||
|
|
#02313:001B
|
||
|
|
#02314:0000001800000000
|
||
|
|
#02315:19190000
|
||
|
|
#02318:001A000000000000
|
||
|
|
|
||
|
|
#02401:00
|
||
|
|
#02401:00
|
||
|
|
#02401:00
|
||
|
|
#02401:00
|
||
|
|
#02401:00
|
||
|
|
#02401:04040404
|
||
|
|
#02401:000L000L
|
||
|
|
#02401:00
|
||
|
|
#02401:00
|
||
|
|
#02401:0001000100010001
|
||
|
|
#02401:02030203020302030203020302030203
|
||
|
|
#02401:00
|
||
|
|
#02401:00
|
||
|
|
#02401:7D7E7D7W7E7D7W7E7D7E7D7W7E7D7W7E
|
||
|
|
#02401:00
|
||
|
|
#02401:00
|
||
|
|
#02401:1M001O001M001M1N001M1N001M001O00
|
||
|
|
#02401:8F8K8F008F8K8F008F8K8F008F8K0000
|
||
|
|
#02401:000000000000008E
|
||
|
|
#02406:030405060708090A0B0C0D0E0F0G0H0I030405060708090A0B0C0D0E0F0G0H0I
|
||
|
|
#02413:17
|
||
|
|
#02414:0000180018000018
|
||
|
|
#02415:0000000000190000
|
||
|
|
#02418:0000001A
|
||
|
|
|
||
|
|
#02501:00
|
||
|
|
#02501:00
|
||
|
|
#02501:00
|
||
|
|
#02501:00
|
||
|
|
#02501:00
|
||
|
|
#02501:04040404
|
||
|
|
#02501:000L000L
|
||
|
|
#02501:00
|
||
|
|
#02501:00
|
||
|
|
#02501:0001000100010001
|
||
|
|
#02501:02030203020302030203020302030203
|
||
|
|
#02501:00
|
||
|
|
#02501:00
|
||
|
|
#02501:7D7E7D7W7E7D7W7E7D7E7D7W7E7D7W7E
|
||
|
|
#02501:00
|
||
|
|
#02501:00
|
||
|
|
#02501:1M001O001M001M1N001M1N001M001O00
|
||
|
|
#02501:8F008K008F0000008F008K008G8L8G8L8F0000008K0000008F008K0000000000
|
||
|
|
#02501:000000000000008E
|
||
|
|
#02506:030405060708090A0B0C0D0E0F0G0H0I030405060708090A0B0C0D0E0F0G0H0I
|
||
|
|
#02512:001B
|
||
|
|
#02513:000000000018001B
|
||
|
|
#02514:0000001800001900
|
||
|
|
#02515:00190000
|
||
|
|
#02518:001A000000000000
|
||
|
|
#02519:1C
|
||
|
|
|
||
|
|
#02601:00
|
||
|
|
#02601:00
|
||
|
|
#02601:00
|
||
|
|
#02601:00
|
||
|
|
#02601:04040404
|
||
|
|
#02601:00
|
||
|
|
#02601:000L000L
|
||
|
|
#02601:00
|
||
|
|
#02601:00
|
||
|
|
#02601:0001000100010001
|
||
|
|
#02601:02030203020302030203020302030203
|
||
|
|
#02601:00
|
||
|
|
#02601:00
|
||
|
|
#02601:7F7G7F7X7G7F7X7G7F7G7F7X7G7F7X7G
|
||
|
|
#02601:00
|
||
|
|
#02601:00
|
||
|
|
#02601:1P001R001P001P1Q001P1Q001P001R00
|
||
|
|
#02601:8F8K8F008F8K8F008F8K8F008F8K0000
|
||
|
|
#02601:000000000000008E
|
||
|
|
#02606:030405060708090A0B0C0D0E0F0G0H0I030405060708090A0B0C0D0E0F0G0H0I
|
||
|
|
#02611:17
|
||
|
|
#02613:00181800
|
||
|
|
#02614:0000000000000018
|
||
|
|
#02615:0000000000190000
|
||
|
|
#02618:0000001A
|
||
|
|
|
||
|
|
#02701:00
|
||
|
|
#02701:00
|
||
|
|
#02701:00
|
||
|
|
#02701:00
|
||
|
|
#02701:04040404
|
||
|
|
#02701:00
|
||
|
|
#02701:000L000L
|
||
|
|
#02701:00
|
||
|
|
#02701:00
|
||
|
|
#02701:0001000100010001
|
||
|
|
#02701:02030203020302030203020302030203
|
||
|
|
#02701:00
|
||
|
|
#02701:00
|
||
|
|
#02701:7F7G7F7X7G7F7X7G7F7G7F7X7G7F7X7G
|
||
|
|
#02701:00
|
||
|
|
#02701:00
|
||
|
|
#02701:1P001R001P001P1Q001P1Q001P001R00
|
||
|
|
#02701:8F008K008F0000008F008K008G8L8G8L8F0000008K0000008F008K0000000000
|
||
|
|
#02701:000000000000008E
|
||
|
|
#02706:030405060708090A0B0C0D0E0F0G0H0I030405060708090A0B0C0D0E0F0G0H0I
|
||
|
|
#02712:000000001D1D0000
|
||
|
|
#02713:00000000000000000000001E00000000
|
||
|
|
#02714:000000180000001G
|
||
|
|
#02715:19190000
|
||
|
|
#02718:001A000000001F00
|
||
|
|
|
||
|
|
#02801:00
|
||
|
|
#02801:00
|
||
|
|
#02801:00
|
||
|
|
#02801:00
|
||
|
|
#02801:04040404
|
||
|
|
#02801:00
|
||
|
|
#02801:000L000L
|
||
|
|
#02801:00
|
||
|
|
#02801:00
|
||
|
|
#02801:0001000100010001
|
||
|
|
#02801:02030203020302030203020302030203
|
||
|
|
#02801:00
|
||
|
|
#02801:00
|
||
|
|
#02801:7B7C7B7V7C7B7V7C7B7C7B7V7C7B7V7C
|
||
|
|
#02801:00
|
||
|
|
#02801:00
|
||
|
|
#02801:1S001U001S001S1T001S1T001S001U00
|
||
|
|
#02801:8F8K8F008F8K8F008F8K8F008F8K0000
|
||
|
|
#02801:000000000000008E
|
||
|
|
#02806:030405060708090A0B0C0D0E0F0G0H0I030405060708090A0B0C0D0E0F0G0H0I
|
||
|
|
#02813:17
|
||
|
|
#02814:0000180018000018
|
||
|
|
#02815:0000000000190000
|
||
|
|
#02818:0000001A
|
||
|
|
|
||
|
|
#02901:00
|
||
|
|
#02901:00
|
||
|
|
#02901:00
|
||
|
|
#02901:00
|
||
|
|
#02901:04040404
|
||
|
|
#02901:00
|
||
|
|
#02901:000L000L
|
||
|
|
#02901:00
|
||
|
|
#02901:00
|
||
|
|
#02901:0001000100010001
|
||
|
|
#02901:02030203020302030203020302030203
|
||
|
|
#02901:00
|
||
|
|
#02901:00
|
||
|
|
#02901:7B7C7B7V7C7B7V7C7B7C7B7V7C7B7V7C
|
||
|
|
#02901:00
|
||
|
|
#02901:00
|
||
|
|
#02901:1S001U001S001S1T001S1T001S001U00
|
||
|
|
#02901:8F008K008F0000008F008K008G8L8G8L8F0000008K0000008F008K0000000000
|
||
|
|
#02901:000000000000008E
|
||
|
|
#02906:030405060708090A0B0C0D0E0F0G0H0I030405060708090A0B0C0D0E0F0G0H0I
|
||
|
|
#02912:001B
|
||
|
|
#02913:000000000018001B
|
||
|
|
#02914:0000001E00001900
|
||
|
|
#02915:001F0000
|
||
|
|
#02916:000000000000000000000000008M0000
|
||
|
|
#02918:0000001I000000000000000000000000
|
||
|
|
#02919:1H1H000000000000
|
||
|
|
|
||
|
|
#03001:00
|
||
|
|
#03001:00
|
||
|
|
#03001:00
|
||
|
|
#03001:00
|
||
|
|
#03001:00040404
|
||
|
|
#03001:00
|
||
|
|
#03001:000L000L
|
||
|
|
#03001:00
|
||
|
|
#03001:00
|
||
|
|
#03001:0001000100010001
|
||
|
|
#03001:02030203020302030203020302030203
|
||
|
|
#03001:00
|
||
|
|
#03001:00
|
||
|
|
#03001:7B7C7B7V7C7B7V7C7B7C7B7V7C7B7V7C
|
||
|
|
#03001:00
|
||
|
|
#03001:00
|
||
|
|
#03001:1J001L001J001J1K001J1K001J001L00
|
||
|
|
#03001:8F8K8F008F8K8F008F8K8F008F8K0000
|
||
|
|
#03001:000000000000008E
|
||
|
|
#03006:030405060708090A0B0C0D0E0F0G0H0I030405060708090A0B0C0D0E0F0G0H0I
|
||
|
|
#03011:04
|
||
|
|
#03012:00181800
|
||
|
|
#03013:0000000000190000
|
||
|
|
#03015:0000000000000018
|
||
|
|
#03019:1700001A
|
||
|
|
|
||
|
|
#03101:00
|
||
|
|
#03101:00
|
||
|
|
#03101:00
|
||
|
|
#03101:00
|
||
|
|
#03101:04040404
|
||
|
|
#03101:00
|
||
|
|
#03101:000L000L
|
||
|
|
#03101:00
|
||
|
|
#03101:00
|
||
|
|
#03101:0001000100010001
|
||
|
|
#03101:02030203020302030203020302030203
|
||
|
|
#03101:00
|
||
|
|
#03101:00
|
||
|
|
#03101:7B7C7B7V7C7B7V7C7B7C7B7V7C7B7V7C
|
||
|
|
#03101:00
|
||
|
|
#03101:00
|
||
|
|
#03101:1J001L001J001J1K001J1K001J001L00
|
||
|
|
#03101:8F008K008F0000008F008K008G8L8G8L8F0000008K0000008F008K0000000000
|
||
|
|
#03101:000000000000008E
|
||
|
|
#03106:030405060708090A0B0C0D0E0F0G0H0I030405060708090A0B0C0D0E0F0G0H0I
|
||
|
|
#03113:00000017
|
||
|
|
#03114:001B
|
||
|
|
#03115:0000001800000000
|
||
|
|
#03118:19190000
|
||
|
|
#03119:001A000000000000
|
||
|
|
|
||
|
|
#03201:00
|
||
|
|
#03201:00
|
||
|
|
#03201:00
|
||
|
|
#03201:00
|
||
|
|
#03201:04040404
|
||
|
|
#03201:00
|
||
|
|
#03201:000L000L
|
||
|
|
#03201:00
|
||
|
|
#03201:00
|
||
|
|
#03201:0001000100010001
|
||
|
|
#03201:02030203020302030203020302030203
|
||
|
|
#03201:00
|
||
|
|
#03201:00
|
||
|
|
#03201:7D7E7D7W7E7D7W7E7D7E7D7W7E7D7W7E
|
||
|
|
#03201:00
|
||
|
|
#03201:00
|
||
|
|
#03201:1M001O001M001M1N001M1N001M001O00
|
||
|
|
#03201:8F8K8F008F8K8F008F8K8F008F8K0000
|
||
|
|
#03201:000000000000008E
|
||
|
|
#03206:030405060708090A0B0C0D0E0F0G0H0I030405060708090A0B0C0D0E0F0G0H0I
|
||
|
|
#03211:17
|
||
|
|
#03212:00181800
|
||
|
|
#03213:0000000000190000
|
||
|
|
#03215:0000000000000018
|
||
|
|
#03219:0000001A
|
||
|
|
|
||
|
|
#03301:00
|
||
|
|
#03301:00
|
||
|
|
#03301:00
|
||
|
|
#03301:00
|
||
|
|
#03301:04040404
|
||
|
|
#03301:00
|
||
|
|
#03301:000L000L
|
||
|
|
#03301:00
|
||
|
|
#03301:00
|
||
|
|
#03301:0001000100010001
|
||
|
|
#03301:02030203020302030203020302030203
|
||
|
|
#03301:00
|
||
|
|
#03301:00
|
||
|
|
#03301:7D7E7D7W7E7D7W7E7D7E7D7W7E7D7W7E
|
||
|
|
#03301:00
|
||
|
|
#03301:00
|
||
|
|
#03301:1M001O001M001M1N001M1N001M001O00
|
||
|
|
#03301:8F008K008F0000008F008K008G8L8G8L8F0000008K0000008F008K0000000000
|
||
|
|
#03301:000000000000008E
|
||
|
|
#03306:030405060708090A0B0C0D0E0F0G0H0I030405060708090A0B0C0D0E0F0G0H0I
|
||
|
|
#03313:001B
|
||
|
|
#03314:000000180018001B
|
||
|
|
#03315:00190019
|
||
|
|
#03318:001A000000000000
|
||
|
|
#03319:1C
|
||
|
|
|
||
|
|
#03401:00
|
||
|
|
#03401:00
|
||
|
|
#03401:00
|
||
|
|
#03401:00
|
||
|
|
#03401:04040404
|
||
|
|
#03401:00
|
||
|
|
#03401:000L000L
|
||
|
|
#03401:00
|
||
|
|
#03401:00
|
||
|
|
#03401:0001000100010001
|
||
|
|
#03401:02030203020302030203020302030203
|
||
|
|
#03401:00
|
||
|
|
#03401:00
|
||
|
|
#03401:7F7G7F7X7G7F7X7G7F7G7F7X7G7F7X7G
|
||
|
|
#03401:00
|
||
|
|
#03401:00
|
||
|
|
#03401:1P001R001P001P1Q001P1Q001P001R00
|
||
|
|
#03401:8F8K8F008F8K8F008F8K8F008F8K0000
|
||
|
|
#03401:000000000000008E
|
||
|
|
#03406:030405060708090A0B0C0D0E0F0G0H0I030405060708090A0B0C0D0E0F0G0H0I
|
||
|
|
#03411:17
|
||
|
|
#03412:00181800
|
||
|
|
#03413:0000000000190000
|
||
|
|
#03415:0000000000000018
|
||
|
|
#03419:0000001A
|
||
|
|
|
||
|
|
#03501:00
|
||
|
|
#03501:00
|
||
|
|
#03501:00
|
||
|
|
#03501:00
|
||
|
|
#03501:04040404
|
||
|
|
#03501:00
|
||
|
|
#03501:000L000L
|
||
|
|
#03501:00
|
||
|
|
#03501:00
|
||
|
|
#03501:0001000100010001
|
||
|
|
#03501:02030203020302030203020302030203
|
||
|
|
#03501:00
|
||
|
|
#03501:00
|
||
|
|
#03501:7F7G7F7X7G7F7X7G7F7G7F7X7G7F7X7G
|
||
|
|
#03501:00
|
||
|
|
#03501:00
|
||
|
|
#03501:1P001R001P001P1Q001P1Q001P001R00
|
||
|
|
#03501:8F008K008F0000008F008K008G8L8G8L8F0000008K0000008F008K0000000000
|
||
|
|
#03501:000000000000008E
|
||
|
|
#03506:030405060708090A0B0C0D0E0F0G0H0I030405060708090A0B0C0D0E0F0G0H0I
|
||
|
|
#03512:000000000000001G
|
||
|
|
#03513:000000001D1D0000
|
||
|
|
#03514:00000000000000000000001E00000000
|
||
|
|
#03515:0000001800001F00
|
||
|
|
#03518:19190000
|
||
|
|
#03519:001A000000000000
|
||
|
|
|
||
|
|
#03601:00
|
||
|
|
#03601:00
|
||
|
|
#03601:00
|
||
|
|
#03601:00
|
||
|
|
#03601:04040404
|
||
|
|
#03601:00
|
||
|
|
#03601:000L000L
|
||
|
|
#03601:00
|
||
|
|
#03601:00
|
||
|
|
#03601:0001000100010001
|
||
|
|
#03601:02030203020302030203020302030203
|
||
|
|
#03601:00
|
||
|
|
#03601:00
|
||
|
|
#03601:7B7C7B7V7C7B7V7C7B7C7B7V7C7B7V7C
|
||
|
|
#03601:00
|
||
|
|
#03601:00
|
||
|
|
#03601:1S001U001S001S1T001S1T001S001U00
|
||
|
|
#03601:8F8K8F008F8K8F008F8K8F008F8K0000
|
||
|
|
#03601:000000000000008E
|
||
|
|
#03606:030405060708090A0B0C0D0E0F0G0H0I030405060708090A0B0C0D0E0F0G0H0I
|
||
|
|
#03611:17
|
||
|
|
#03612:00181800
|
||
|
|
#03613:0000000000190000
|
||
|
|
#03615:0000000000000018
|
||
|
|
#03619:0000001A
|
||
|
|
|
||
|
|
#03701:00
|
||
|
|
#03701:00
|
||
|
|
#03701:00
|
||
|
|
#03701:00
|
||
|
|
#03701:0400040004000407
|
||
|
|
#03701:00
|
||
|
|
#03701:000L000L
|
||
|
|
#03701:00
|
||
|
|
#03701:00
|
||
|
|
#03701:0001000100010001
|
||
|
|
#03701:02030203020302030203020302030203
|
||
|
|
#03701:00
|
||
|
|
#03701:00
|
||
|
|
#03701:7B7C7B7V7C7B7V7C7B7C7B7V7C7B7V7C
|
||
|
|
#03701:00
|
||
|
|
#03701:00
|
||
|
|
#03701:1S001U001S001S1T001S1T001S001U00
|
||
|
|
#03701:8F008K008F0000008F008K008G8L8G8L8F0000008K0000008F008K0000000000
|
||
|
|
#03701:000000000000008E
|
||
|
|
#03706:030405060708090A0B0C0D0E0F0G0H0I030405060708090A0B0C0D0E0F0G0H0I
|
||
|
|
#03711:001B
|
||
|
|
#03713:000000000018001B
|
||
|
|
#03714:0000001E00000000
|
||
|
|
#03715:001F0019
|
||
|
|
#03716:0J000N0K00000I00
|
||
|
|
#03718:0000001I000000000000000000000000
|
||
|
|
#03719:1H1H000000000000
|
||
|
|
|
||
|
|
#03801:00
|
||
|
|
#03801:00
|
||
|
|
#03801:00
|
||
|
|
#03801:00
|
||
|
|
#03801:00040404
|
||
|
|
#03801:00
|
||
|
|
#03801:0000000L
|
||
|
|
#03801:00
|
||
|
|
#03801:00
|
||
|
|
#03801:0001000100010001
|
||
|
|
#03801:02030203020300030203020302030203
|
||
|
|
#03801:00
|
||
|
|
#03801:00
|
||
|
|
#03801:7B7C7B7V7C7B7V7C7B7C7B7V7C7B7V7C
|
||
|
|
#03801:00
|
||
|
|
#03801:00
|
||
|
|
#03801:00
|
||
|
|
#03801:00
|
||
|
|
#03801:00
|
||
|
|
#03801:00
|
||
|
|
#03801:61
|
||
|
|
#03801:00
|
||
|
|
#03801:5J5K5J5K005L005M
|
||
|
|
#03801:00
|
||
|
|
#03801:00
|
||
|
|
#03801:00
|
||
|
|
#03801:00
|
||
|
|
#03801:00
|
||
|
|
#03801:00
|
||
|
|
#03801:00
|
||
|
|
#03801:00
|
||
|
|
#03801:0Q
|
||
|
|
#03806:030405060708090A0B0C0D0E0F0G0H0I030405060708090A0B0C0D0E0F0G0H0I
|
||
|
|
#03811:04
|
||
|
|
#03813:2U
|
||
|
|
#03814:00000L0200000000
|
||
|
|
#03816:0C
|
||
|
|
#03818:00002V2W00000000
|
||
|
|
|
||
|
|
#03901:00
|
||
|
|
#03901:00
|
||
|
|
#03901:00
|
||
|
|
#03901:00
|
||
|
|
#03901:04040404
|
||
|
|
#03901:00
|
||
|
|
#03901:000L000L
|
||
|
|
#03901:00
|
||
|
|
#03901:00
|
||
|
|
#03901:0001000100010001
|
||
|
|
#03901:02030203020302030203020302030203
|
||
|
|
#03901:00
|
||
|
|
#03901:00
|
||
|
|
#03901:7B7C7B7V7C7B7V7C7B7C7B7V7C7B7V7C
|
||
|
|
#03901:00
|
||
|
|
#03901:00
|
||
|
|
#03901:00
|
||
|
|
#03901:00
|
||
|
|
#03901:00
|
||
|
|
#03901:00
|
||
|
|
#03901:62000000000000000000000000006364
|
||
|
|
#03901:00
|
||
|
|
#03901:5J5K5J5K005L005M
|
||
|
|
#03906:030405060708090A0B0C0D0E0F0G0H0I030405060708090A0B0C0D0E0F0G0H0I
|
||
|
|
#03913:2M2M
|
||
|
|
#03915:002P002P002P0000
|
||
|
|
#03919:002Q0000
|
||
|
|
|
||
|
|
#04001:00
|
||
|
|
#04001:00
|
||
|
|
#04001:00
|
||
|
|
#04001:00
|
||
|
|
#04001:00040404
|
||
|
|
#04001:00
|
||
|
|
#04001:0000000L
|
||
|
|
#04001:00
|
||
|
|
#04001:00
|
||
|
|
#04001:0001000000010001
|
||
|
|
#04001:02030203020302030203020302030203
|
||
|
|
#04001:00
|
||
|
|
#04001:00
|
||
|
|
#04001:7F7G7F7X7G7F7X7G7F7G7F7X7G7F7X7G
|
||
|
|
#04001:00
|
||
|
|
#04001:00
|
||
|
|
#04001:00
|
||
|
|
#04001:00
|
||
|
|
#04001:00
|
||
|
|
#04001:00
|
||
|
|
#04001:65000000000000006600670068696A6B
|
||
|
|
#04001:00
|
||
|
|
#04001:5N5O5N5O005P005Q
|
||
|
|
#04006:030405060708090A0B0C0D0E0F0G0H0I030405060708090A0B0C0D0E0F0G0H0I
|
||
|
|
#04011:04
|
||
|
|
#04012:00000L0100000000
|
||
|
|
#04014:2X
|
||
|
|
#04015:00002Y2Z00000000
|
||
|
|
|
||
|
|
#04101:00
|
||
|
|
#04101:00
|
||
|
|
#04101:00
|
||
|
|
#04101:00
|
||
|
|
#04101:04040404
|
||
|
|
#04101:00
|
||
|
|
#04101:000L000L
|
||
|
|
#04101:00
|
||
|
|
#04101:00
|
||
|
|
#04101:0001000100010001
|
||
|
|
#04101:02030203020302030203020302030203
|
||
|
|
#04101:00
|
||
|
|
#04101:00
|
||
|
|
#04101:7F7G7F7X7G7F7X7G7F7G7F7X7G7F7X7G
|
||
|
|
#04101:00
|
||
|
|
#04101:00
|
||
|
|
#04101:00
|
||
|
|
#04101:00
|
||
|
|
#04101:00
|
||
|
|
#04101:00
|
||
|
|
#04101:6C6D
|
||
|
|
#04101:00
|
||
|
|
#04101:5N5O5N5O005P005Q
|
||
|
|
#04106:030405060708090A0B0C0D0E0F0G0H0I030405060708090A0B0C0D0E0F0G0H0I
|
||
|
|
#04114:002R0000002L0000
|
||
|
|
#04115:2P2R
|
||
|
|
#04118:0000002P00000000
|
||
|
|
#04119:002Q0000
|
||
|
|
|
||
|
|
#04201:00
|
||
|
|
#04201:00
|
||
|
|
#04201:00
|
||
|
|
#04201:00
|
||
|
|
#04201:00040404
|
||
|
|
#04201:00
|
||
|
|
#04201:000L0000
|
||
|
|
#04201:00
|
||
|
|
#04201:00
|
||
|
|
#04201:0001000000010001
|
||
|
|
#04201:02030203020302030203020302030203
|
||
|
|
#04201:00
|
||
|
|
#04201:00
|
||
|
|
#04201:7H7I7H7Y7I7H7Y7I7H7I7H7Y7I7H7Y7I
|
||
|
|
#04201:00
|
||
|
|
#04201:00
|
||
|
|
#04201:00
|
||
|
|
#04201:00
|
||
|
|
#04201:00
|
||
|
|
#04201:00
|
||
|
|
#04201:6E
|
||
|
|
#04201:00
|
||
|
|
#04201:5R5S5R5T005U005V
|
||
|
|
#04206:030405060708090A0B0C0D0E0F0G0H0I030405060708090A0B0C0D0E0F0G0H0I
|
||
|
|
#04211:04
|
||
|
|
#04213:0000003100000000
|
||
|
|
#04214:30000032
|
||
|
|
#04215:0000000100000000
|
||
|
|
#04218:0000000L
|
||
|
|
|
||
|
|
#04301:00
|
||
|
|
#04301:00
|
||
|
|
#04301:00
|
||
|
|
#04301:00
|
||
|
|
#04301:04040404
|
||
|
|
#04301:00
|
||
|
|
#04301:000L000L
|
||
|
|
#04301:00
|
||
|
|
#04301:00
|
||
|
|
#04301:0001000100010001
|
||
|
|
#04301:02030203020302030203020302030203
|
||
|
|
#04301:00
|
||
|
|
#04301:00
|
||
|
|
#04301:7H7I7H7Y7I7H7Y7I7H7I7H7Y7I7H7Y7I
|
||
|
|
#04301:00
|
||
|
|
#04301:00
|
||
|
|
#04301:00
|
||
|
|
#04301:00
|
||
|
|
#04301:00
|
||
|
|
#04301:00
|
||
|
|
#04301:6F6G
|
||
|
|
#04301:00
|
||
|
|
#04301:5R5S5R5T005U005V
|
||
|
|
#04306:030405060708090A0B0C0D0E0F0G0H0I030405060708090A0B0C0D0E0F0G0H0I
|
||
|
|
#04312:00000000002M0000
|
||
|
|
#04313:002R
|
||
|
|
#04314:0000002P00000000
|
||
|
|
#04315:002Q0000
|
||
|
|
#04318:002T000000000000
|
||
|
|
#04319:2S
|
||
|
|
|
||
|
|
#04401:00
|
||
|
|
#04401:00
|
||
|
|
#04401:00
|
||
|
|
#04401:00
|
||
|
|
#04401:00040404
|
||
|
|
#04401:00
|
||
|
|
#04401:000L000L
|
||
|
|
#04401:00
|
||
|
|
#04401:00
|
||
|
|
#04401:0001000100010001
|
||
|
|
#04401:02030203020302030203020302030203
|
||
|
|
#04401:00
|
||
|
|
#04401:00
|
||
|
|
#04401:7F7G7F7X7G7F7X7G7F7G7F7X7G7F7X7G
|
||
|
|
#04401:00
|
||
|
|
#04401:00
|
||
|
|
#04401:00
|
||
|
|
#04401:00
|
||
|
|
#04401:00
|
||
|
|
#04401:00
|
||
|
|
#04401:6H
|
||
|
|
#04401:00
|
||
|
|
#04401:5O5U5S5T005U005V
|
||
|
|
#04406:030405060708090A0B0C0D0E0F0G0H0I030405060708090A0B0C0D0E0F0G0H0I
|
||
|
|
#04411:04
|
||
|
|
#04412:0000002Q00000000
|
||
|
|
#04413:002T2T00
|
||
|
|
#04414:33000000002S0000
|
||
|
|
#04415:0000003F
|
||
|
|
#04418:000000000000000000000000003G0000
|
||
|
|
#04419:000000000000003H
|
||
|
|
|
||
|
|
#04501:00
|
||
|
|
#04501:00
|
||
|
|
#04501:00
|
||
|
|
#04501:00
|
||
|
|
#04501:00040004
|
||
|
|
#04501:00
|
||
|
|
#04501:000L000L
|
||
|
|
#04501:00
|
||
|
|
#04501:00
|
||
|
|
#04501:0001000100010001
|
||
|
|
#04501:02030203020302030203020302030203
|
||
|
|
#04501:00
|
||
|
|
#04501:00
|
||
|
|
#04501:7J7K7J7Z7K7J7Z7K7L7M7L807M7L807M
|
||
|
|
#04501:00
|
||
|
|
#04501:00
|
||
|
|
#04501:00
|
||
|
|
#04501:00
|
||
|
|
#04501:00
|
||
|
|
#04501:00
|
||
|
|
#04501:6I6J
|
||
|
|
#04501:00
|
||
|
|
#04501:5W5X5Y5Z0060005Y
|
||
|
|
#04506:030405060708090A0B0C0D0E0F0G0H0I030405060708090A0B0C0D0E0F0G0H0I
|
||
|
|
#04511:04
|
||
|
|
#04512:0004
|
||
|
|
#04515:34
|
||
|
|
#04516:000000000000000000000000008M0000
|
||
|
|
#04518:0035
|
||
|
|
|
||
|
|
#04601:00
|
||
|
|
#04601:00
|
||
|
|
#04601:00
|
||
|
|
#04601:00
|
||
|
|
#04601:00040404
|
||
|
|
#04601:00
|
||
|
|
#04601:000L000L
|
||
|
|
#04601:00
|
||
|
|
#04601:00
|
||
|
|
#04601:0001000100010001
|
||
|
|
#04601:02030203020302030203020302030203
|
||
|
|
#04601:00
|
||
|
|
#04601:00
|
||
|
|
#04601:7B7C7B7V7C7B7V7C7B7C7B7V7C7B7V7C
|
||
|
|
#04601:00
|
||
|
|
#04601:00
|
||
|
|
#04601:00
|
||
|
|
#04601:00
|
||
|
|
#04601:00
|
||
|
|
#04601:00
|
||
|
|
#04601:6K6L6K6M6N6O0000
|
||
|
|
#04601:00
|
||
|
|
#04601:5J5K5J5K005L005M
|
||
|
|
#04606:030405060708090A0B0C0D0E0F0G0H0I030405060708090A0B0C0D0E0F0G0H0I
|
||
|
|
#04611:043I0000
|
||
|
|
#04612:000000000000003L00000000003R0000
|
||
|
|
#04613:00000000003J000000003O0000000000
|
||
|
|
#04614:000000003M00003S
|
||
|
|
#04615:3600000000003K000000003P00000000
|
||
|
|
#04618:0000000000000000003N00000000003T
|
||
|
|
#04619:0000003Q
|
||
|
|
|
||
|
|
#04701:00
|
||
|
|
#04701:00
|
||
|
|
#04701:00
|
||
|
|
#04701:00
|
||
|
|
#04701:00040404
|
||
|
|
#04701:00
|
||
|
|
#04701:000L000L
|
||
|
|
#04701:00
|
||
|
|
#04701:00
|
||
|
|
#04701:0001000100010001
|
||
|
|
#04701:02000203020302030203020302030203
|
||
|
|
#04701:00
|
||
|
|
#04701:00
|
||
|
|
#04701:7B7C7B7V7C7B7V7C7B7C7B7V7C7B7V7C
|
||
|
|
#04701:00
|
||
|
|
#04701:00
|
||
|
|
#04701:00
|
||
|
|
#04701:00
|
||
|
|
#04701:00
|
||
|
|
#04701:00
|
||
|
|
#04701:6K6L6K6M6N6O0000
|
||
|
|
#04701:00
|
||
|
|
#04701:5J5K5J5K005L005M
|
||
|
|
#04706:030405060708090A0B0C0D0E0F0G0H0I030405060708090A0B0C0D0E0F0G0H0I
|
||
|
|
#04713:000000000000002M
|
||
|
|
#04714:0000002R
|
||
|
|
#04715:04030000000000002P00000000000000
|
||
|
|
#04718:00000000002Q0000
|
||
|
|
#04719:37380000000000000000000000000000
|
||
|
|
|
||
|
|
#04801:00
|
||
|
|
#04801:00
|
||
|
|
#04801:00
|
||
|
|
#04801:00
|
||
|
|
#04801:00040400
|
||
|
|
#04801:00
|
||
|
|
#04801:000L000L
|
||
|
|
#04801:00
|
||
|
|
#04801:00
|
||
|
|
#04801:0001000100010000
|
||
|
|
#04801:02030203020302030203020302030203
|
||
|
|
#04801:00
|
||
|
|
#04801:00
|
||
|
|
#04801:7F7G7F7X7G7F7X7G7F7G7F7X7G7F7X7G
|
||
|
|
#04801:00
|
||
|
|
#04801:00
|
||
|
|
#04801:00
|
||
|
|
#04801:00
|
||
|
|
#04801:00
|
||
|
|
#04801:00
|
||
|
|
#04801:6P6Q6R6S6T6U6V6W
|
||
|
|
#04801:00
|
||
|
|
#04801:5N5O5N5O005P005Q
|
||
|
|
#04806:030405060708090A0B0C0D0E0F0G0H0I030405060708090A0B0C0D0E0F0G0H0I
|
||
|
|
#04811:00003U0000000401
|
||
|
|
#04812:043L
|
||
|
|
#04813:00000000003I0000003M000000000000
|
||
|
|
#04815:3900003J003N3A3A
|
||
|
|
#04818:00000000000000000000003O00000000
|
||
|
|
#04819:000000000000003K0000000000000000
|
||
|
|
|
||
|
|
#04901:00
|
||
|
|
#04901:00
|
||
|
|
#04901:00
|
||
|
|
#04901:00
|
||
|
|
#04901:04040404
|
||
|
|
#04901:00
|
||
|
|
#04901:000L000L
|
||
|
|
#04901:00
|
||
|
|
#04901:00
|
||
|
|
#04901:0001000100010001
|
||
|
|
#04901:02030203020302030203020302030203
|
||
|
|
#04901:00
|
||
|
|
#04901:00
|
||
|
|
#04901:7F7G7F7X7G7F7X7G7F7G7F7X7G7F7X7G
|
||
|
|
#04901:00
|
||
|
|
#04901:003T003P003R003N003P003L003N003J
|
||
|
|
#04901:00
|
||
|
|
#04901:00
|
||
|
|
#04901:00
|
||
|
|
#04901:00
|
||
|
|
#04901:6X6Y6Z70
|
||
|
|
#04901:00
|
||
|
|
#04901:5N5O5N5O005P005Q
|
||
|
|
#04901:00
|
||
|
|
#04901:00
|
||
|
|
#04901:00
|
||
|
|
#04901:00
|
||
|
|
#04901:00
|
||
|
|
#04901:00
|
||
|
|
#04901:00
|
||
|
|
#04901:008O
|
||
|
|
#04906:030405060708090A0B0C0D0E0F0G0H0I030405060708090A0B0C0D0E0F0G0H0I
|
||
|
|
#04911:0000003P0000003L
|
||
|
|
#04913:003T003P
|
||
|
|
#04915:003R0000003N0000
|
||
|
|
#04919:3V3R
|
||
|
|
|
||
|
|
#05001:00
|
||
|
|
#05001:00
|
||
|
|
#05001:00
|
||
|
|
#05001:00
|
||
|
|
#05001:00040400
|
||
|
|
#05001:00
|
||
|
|
#05001:000L000L
|
||
|
|
#05001:00
|
||
|
|
#05001:00
|
||
|
|
#05001:0001000000010001
|
||
|
|
#05001:02030203020302030203020302030203
|
||
|
|
#05001:00
|
||
|
|
#05001:00
|
||
|
|
#05001:7H7I7H7Y7I7H7Y7I7H7I7H7Y7I7H7Y7I
|
||
|
|
#05001:00
|
||
|
|
#05001:00
|
||
|
|
#05001:00
|
||
|
|
#05001:00
|
||
|
|
#05001:00
|
||
|
|
#05001:00
|
||
|
|
#05001:7172717200730074
|
||
|
|
#05001:00
|
||
|
|
#05001:5R5S5R5T005U005V
|
||
|
|
#05006:030405060708090A0B0C0D0E0F0G0H0I030405060708090A0B0C0D0E0F0G0H0I
|
||
|
|
#05012:04
|
||
|
|
#05013:0000003100000000
|
||
|
|
#05014:30000004
|
||
|
|
#05015:0000000100000000
|
||
|
|
#05018:00000032
|
||
|
|
|
||
|
|
#05101:00
|
||
|
|
#05101:00
|
||
|
|
#05101:00
|
||
|
|
#05101:00
|
||
|
|
#05101:04040404
|
||
|
|
#05101:00
|
||
|
|
#05101:000L000L
|
||
|
|
#05101:00
|
||
|
|
#05101:00
|
||
|
|
#05101:0001000100010001
|
||
|
|
#05101:02030203020302030203020302030203
|
||
|
|
#05101:00
|
||
|
|
#05101:00
|
||
|
|
#05101:7H7I7H7Y7I7H7Y7I7H7I7H7Y7I7H7Y7I
|
||
|
|
#05101:00
|
||
|
|
#05101:00
|
||
|
|
#05101:00
|
||
|
|
#05101:00
|
||
|
|
#05101:00
|
||
|
|
#05101:00
|
||
|
|
#05101:7172717200737475
|
||
|
|
#05101:00
|
||
|
|
#05101:5R5S5R5T005U005V
|
||
|
|
#05106:030405060708090A0B0C0D0E0F0G0H0I030405060708090A0B0C0D0E0F0G0H0I
|
||
|
|
#05112:00000000002M0000
|
||
|
|
#05113:002R
|
||
|
|
#05114:0000002P00000000
|
||
|
|
#05115:002Q0000
|
||
|
|
#05118:002T000000000000
|
||
|
|
#05119:2S
|
||
|
|
|
||
|
|
#05201:00
|
||
|
|
#05201:00
|
||
|
|
#05201:00
|
||
|
|
#05201:00
|
||
|
|
#05201:00040404
|
||
|
|
#05201:00
|
||
|
|
#05201:00
|
||
|
|
#05201:0F0F0F0F0F0F0F0F
|
||
|
|
#05201:000H000H000H000H000H000H000H000H
|
||
|
|
#05201:0001000100010001
|
||
|
|
#05201:02030203020302030203020302030203
|
||
|
|
#05201:00
|
||
|
|
#05201:00
|
||
|
|
#05201:7F7G7F7X7G7F7X7G7F7G7F7X7G7F7X7G
|
||
|
|
#05201:00
|
||
|
|
#05201:00
|
||
|
|
#05201:00
|
||
|
|
#05201:00
|
||
|
|
#05201:00
|
||
|
|
#05201:00
|
||
|
|
#05201:7677
|
||
|
|
#05201:00
|
||
|
|
#05201:5O5U5S5T005U005V
|
||
|
|
#05206:030405060708090A0B0C0D0E0F0G0H0I030405060708090A0B0C0D0E0F0G0H0I
|
||
|
|
#05211:04
|
||
|
|
#05212:0000002Q00000000
|
||
|
|
#05213:002T2T00
|
||
|
|
#05214:33000000002S0000
|
||
|
|
#05215:0000003F
|
||
|
|
#05218:000000000000000000000000003G0000
|
||
|
|
#05219:000000000000003H
|
||
|
|
|
||
|
|
#05301:00
|
||
|
|
#05301:00
|
||
|
|
#05301:00
|
||
|
|
#05301:00
|
||
|
|
#05301:0000040000000407
|
||
|
|
#05301:00
|
||
|
|
#05301:00
|
||
|
|
#05301:0F0F0F0F0F0F0F0F
|
||
|
|
#05301:000H000H000H000H000H000H000H000H
|
||
|
|
#05301:0001000100010001
|
||
|
|
#05301:02030203020302030203020302030203
|
||
|
|
#05301:00
|
||
|
|
#05301:00
|
||
|
|
#05301:7J7K7J7Z7K7J7Z7K7L7M7L807M7L807M
|
||
|
|
#05301:00
|
||
|
|
#05301:00
|
||
|
|
#05301:003C003B00000000003E003D00000000
|
||
|
|
#05301:00
|
||
|
|
#05301:00
|
||
|
|
#05301:00
|
||
|
|
#05301:7879
|
||
|
|
#05301:00
|
||
|
|
#05301:5W5X5Y5Z0060005Y
|
||
|
|
#05301:00
|
||
|
|
#05301:00
|
||
|
|
#05301:008J
|
||
|
|
#05301:00
|
||
|
|
#05301:00
|
||
|
|
#05301:00
|
||
|
|
#05301:0000000000000000005I000000000000
|
||
|
|
#05301:0000008I
|
||
|
|
#05306:030405060708090A0B0C0D0E0F0G0H0I030405060708090A0B0C0D0E0F0G0H0I
|
||
|
|
#05312:04
|
||
|
|
#05313:0004
|
||
|
|
#05315:3B
|
||
|
|
#05316:0J000N0K00000I00
|
||
|
|
#05318:003D
|
||
|
|
|
||
|
|
#05401:00
|
||
|
|
#05401:00
|
||
|
|
#05401:00
|
||
|
|
#05401:00
|
||
|
|
#05401:00
|
||
|
|
#05401:00
|
||
|
|
#05401:00
|
||
|
|
#05401:00
|
||
|
|
#05401:00
|
||
|
|
#05401:00
|
||
|
|
#05401:00
|
||
|
|
#05401:00
|
||
|
|
#05401:00
|
||
|
|
#05401:00
|
||
|
|
#05401:00
|
||
|
|
#05401:00
|
||
|
|
#05401:00
|
||
|
|
#05401:00
|
||
|
|
#05401:00
|
||
|
|
#05401:00
|
||
|
|
#05401:7A
|
||
|
|
#05401:00
|
||
|
|
#05401:00
|
||
|
|
#05401:00
|
||
|
|
#05401:00
|
||
|
|
#05401:89898989
|
||
|
|
#05401:00
|
||
|
|
#05401:00
|
||
|
|
#05401:00
|
||
|
|
#05401:00
|
||
|
|
#05401:00
|
||
|
|
#05401:0R
|
||
|
|
#05403:5C
|
||
|
|
#05406:030405060708090A0B0C0D0E0F0G0H0I030405060708090A0B0C0D0E0F0G0H0I
|
||
|
|
#05411:08
|
||
|
|
#05415:000D
|
||
|
|
#05416:0C
|
||
|
|
|
||
|
|
#05501:00
|
||
|
|
#05501:00
|
||
|
|
#05501:00
|
||
|
|
#05501:00
|
||
|
|
#05501:00
|
||
|
|
#05501:00
|
||
|
|
#05501:00
|
||
|
|
#05501:00
|
||
|
|
#05501:00
|
||
|
|
#05501:00
|
||
|
|
#05501:00
|
||
|
|
#05501:00
|
||
|
|
#05501:00
|
||
|
|
#05501:00
|
||
|
|
#05501:00
|
||
|
|
#05501:00
|
||
|
|
#05501:00
|
||
|
|
#05501:00
|
||
|
|
#05501:00
|
||
|
|
#05501:00
|
||
|
|
#05501:00
|
||
|
|
#05501:00
|
||
|
|
#05501:00
|
||
|
|
#05501:00
|
||
|
|
#05501:00
|
||
|
|
#05501:8A8A8A8A
|
||
|
|
#05506:030405060708090A0B0C0D0E0F0G0H0I030405060708090A0B0C0D0E0F0G0H0I
|
||
|
|
|
||
|
|
#05601:00
|
||
|
|
#05601:00
|
||
|
|
#05601:00
|
||
|
|
#05601:00
|
||
|
|
#05601:00
|
||
|
|
#05601:00
|
||
|
|
#05601:00
|
||
|
|
#05601:00
|
||
|
|
#05601:00
|
||
|
|
#05601:00
|
||
|
|
#05601:00
|
||
|
|
#05601:00
|
||
|
|
#05601:00
|
||
|
|
#05601:00
|
||
|
|
#05601:00
|
||
|
|
#05601:00
|
||
|
|
#05601:00
|
||
|
|
#05601:00
|
||
|
|
#05601:00
|
||
|
|
#05601:00
|
||
|
|
#05601:00
|
||
|
|
#05601:00
|
||
|
|
#05601:00
|
||
|
|
#05601:00
|
||
|
|
#05601:00
|
||
|
|
#05601:8B8B8B8B
|
||
|
|
#05606:030405060708090A0B0C0D0E0F0G0H0I030405060708090A0B0C0D0E0F0G0H0I
|
||
|
|
#05615:000D
|
||
|
|
|
||
|
|
#05701:00
|
||
|
|
#05701:00
|
||
|
|
#05701:00
|
||
|
|
#05701:00
|
||
|
|
#05701:00
|
||
|
|
#05701:00
|
||
|
|
#05701:00
|
||
|
|
#05701:00
|
||
|
|
#05701:00
|
||
|
|
#05701:00
|
||
|
|
#05701:00
|
||
|
|
#05701:00
|
||
|
|
#05701:00
|
||
|
|
#05701:00
|
||
|
|
#05701:00
|
||
|
|
#05701:00
|
||
|
|
#05701:00
|
||
|
|
#05701:00
|
||
|
|
#05701:00
|
||
|
|
#05701:00
|
||
|
|
#05701:00
|
||
|
|
#05701:00
|
||
|
|
#05701:00
|
||
|
|
#05701:00
|
||
|
|
#05701:008D
|
||
|
|
#05701:8C8C8C8C
|
||
|
|
#05701:00
|
||
|
|
#05701:00
|
||
|
|
#05701:00
|
||
|
|
#05701:00
|
||
|
|
#05701:00
|
||
|
|
#05701:8H
|
||
|
|
#05706:030405060708090A0B0C0D0E0F0G0H0I030405060708090A0B0C0D0E0F0G0H0I
|
||
|
|
#05716:0000000000000000000B000000000000
|
||
|
|
|
||
|
|
#05801:00
|
||
|
|
#05801:00
|
||
|
|
#05801:00
|
||
|
|
#05801:00
|
||
|
|
#05801:04000004040000040004000404000000
|
||
|
|
#05801:000M000M
|
||
|
|
#05801:00
|
||
|
|
#05801:00
|
||
|
|
#05801:0009000900090009
|
||
|
|
#05801:00
|
||
|
|
#05801:00
|
||
|
|
#05801:0E0E0E0E0E0E0E0E
|
||
|
|
#05806:030405060708090A0B0C0D0E0F0G0H0I030405060708090A0B0C0D0E0F0G0H0I
|
||
|
|
#05813:89898989
|
||
|
|
#05816:0C
|
||
|
|
#05819:85858585
|
||
|
|
|
||
|
|
#05901:00
|
||
|
|
#05901:00
|
||
|
|
#05901:00
|
||
|
|
#05901:00
|
||
|
|
#05901:04000004040000040004000404000000
|
||
|
|
#05901:000M000M
|
||
|
|
#05901:00
|
||
|
|
#05901:00
|
||
|
|
#05901:000000000900000000000000090000000000000009000000000000000F0H0F00
|
||
|
|
#05901:00
|
||
|
|
#05901:00
|
||
|
|
#05901:0E0E0E0E0E0E0E0E
|
||
|
|
#05906:030405060708090A0B0C0D0E0F0G0H0I030405060708090A0B0C0D0E0F0G0H0I
|
||
|
|
#05912:8A8A8A8A
|
||
|
|
#05918:86868686
|
||
|
|
|
||
|
|
#06001:00
|
||
|
|
#06001:00
|
||
|
|
#06001:00
|
||
|
|
#06001:00
|
||
|
|
#06001:0400000000000400040000000000040000000400000004000400050604000000
|
||
|
|
#06001:000M000M
|
||
|
|
#06001:00
|
||
|
|
#06001:0909090909090909
|
||
|
|
#06001:000A000A000A000A000A000A000A000A
|
||
|
|
#06001:00
|
||
|
|
#06001:00
|
||
|
|
#06001:000E0E0E0E0E0E0E
|
||
|
|
#06006:030405060708090A0B0C0D0E0F0G0H0I030405060708090A0B0C0D0E0F0G0H0I
|
||
|
|
#06013:8B8B8B8B
|
||
|
|
#06015:87878787
|
||
|
|
#06016:0I
|
||
|
|
|
||
|
|
#06101:00
|
||
|
|
#06101:00
|
||
|
|
#06101:00
|
||
|
|
#06101:00
|
||
|
|
#06101:04000004040000040004000404000000
|
||
|
|
#06101:000M000M
|
||
|
|
#06101:00
|
||
|
|
#06101:0F0F0F0F0F0F0F0F0F0F0F0F0F0F0F0F
|
||
|
|
#06101:000H000H000H000H000H000H000H000H000H000H000H000H000H000H000H000H
|
||
|
|
#06101:00
|
||
|
|
#06101:00
|
||
|
|
#06101:0E0E0E0E0E0E0E0E
|
||
|
|
#06106:030405060708090A0B0C0D0E0F0G0H0I030405060708090A0B0C0D0E0F0G0H0I
|
||
|
|
#06114:8C8C8C8C
|
||
|
|
#06119:88888888
|
||
|
|
|
||
|
|
#06201:00
|
||
|
|
#06201:00
|
||
|
|
#06201:00
|
||
|
|
#06201:00
|
||
|
|
#06201:00
|
||
|
|
#06201:00
|
||
|
|
#06201:00
|
||
|
|
#06201:00
|
||
|
|
#06201:00
|
||
|
|
#06201:00
|
||
|
|
#06201:00
|
||
|
|
#06201:00
|
||
|
|
#06201:00
|
||
|
|
#06201:7B7C7B7V7C7B7V7C7B7C7B7V7C7B7V7C
|
||
|
|
#06201:00
|
||
|
|
#06201:00
|
||
|
|
#06201:00
|
||
|
|
#06201:00
|
||
|
|
#06201:00
|
||
|
|
#06201:00
|
||
|
|
#06201:00
|
||
|
|
#06201:00
|
||
|
|
#06201:3Y3Z403Z00000000413Y413Z403Z4042
|
||
|
|
#06201:0000000000004Z500000000000000000
|
||
|
|
#06201:00000000000051520000000000000000
|
||
|
|
#06201:00
|
||
|
|
#06201:00
|
||
|
|
#06201:00
|
||
|
|
#06201:00
|
||
|
|
#06201:00
|
||
|
|
#06201:00
|
||
|
|
#06201:2A
|
||
|
|
#06203:B8
|
||
|
|
#06206:030405060708090A0B0C0D0E0F0G0H0I030405060708090A0B0C0D0E0F0G0H0I
|
||
|
|
#06211:08
|
||
|
|
#06216:0C
|
||
|
|
|
||
|
|
#06301:00
|
||
|
|
#06301:00
|
||
|
|
#06301:00
|
||
|
|
#06301:00
|
||
|
|
#06301:00
|
||
|
|
#06301:00
|
||
|
|
#06301:00
|
||
|
|
#06301:00
|
||
|
|
#06301:00
|
||
|
|
#06301:00
|
||
|
|
#06301:00
|
||
|
|
#06301:00
|
||
|
|
#06301:00
|
||
|
|
#06301:7F7G7F7X7G7F7X7G7F7G7F7X7G7F7X7G
|
||
|
|
#06301:00
|
||
|
|
#06301:00
|
||
|
|
#06301:00
|
||
|
|
#06301:00
|
||
|
|
#06301:00
|
||
|
|
#06301:00
|
||
|
|
#06301:00
|
||
|
|
#06301:00
|
||
|
|
#06301:43403Z3Y000000003Z403Z0000000000
|
||
|
|
#06301:0000000000000000530054000053000000000000000000004500470045000000
|
||
|
|
#06301:0000000000000000550056000055000000000000000000004600480046000000
|
||
|
|
#06306:030405060708090A0B0C0D0E0F0G0H0I030405060708090A0B0C0D0E0F0G0H0I
|
||
|
|
|
||
|
|
#06401:00
|
||
|
|
#06401:00
|
||
|
|
#06401:00
|
||
|
|
#06401:00
|
||
|
|
#06401:00
|
||
|
|
#06401:00
|
||
|
|
#06401:00
|
||
|
|
#06401:00
|
||
|
|
#06401:00
|
||
|
|
#06401:00
|
||
|
|
#06401:00
|
||
|
|
#06401:00
|
||
|
|
#06401:00
|
||
|
|
#06401:7H7I7H7Y7I7H7Y7I7H7I7H7Y7I7H7Y7I
|
||
|
|
#06401:00
|
||
|
|
#06401:00
|
||
|
|
#06401:00
|
||
|
|
#06401:00
|
||
|
|
#06401:00
|
||
|
|
#06401:00
|
||
|
|
#06401:00
|
||
|
|
#06401:00
|
||
|
|
#06401:4C4D4E484D4E4F4G4G46484746480000
|
||
|
|
#06401:000000000000000000000000000000000000000000000000000000005758595A
|
||
|
|
#06406:030405060708090A0B0C0D0E0F0G0H0I030405060708090A0B0C0D0E0F0G0H0I
|
||
|
|
|
||
|
|
#06501:00
|
||
|
|
#06501:00
|
||
|
|
#06501:00
|
||
|
|
#06501:00
|
||
|
|
#06501:00
|
||
|
|
#06501:00
|
||
|
|
#06501:00
|
||
|
|
#06501:00
|
||
|
|
#06501:00
|
||
|
|
#06501:00
|
||
|
|
#06501:00
|
||
|
|
#06501:00
|
||
|
|
#06501:00
|
||
|
|
#06501:7N7O7N817O7N817O7P7Q7P827Q7P827Q
|
||
|
|
#06501:00
|
||
|
|
#06501:00
|
||
|
|
#06501:00
|
||
|
|
#06501:00
|
||
|
|
#06501:00
|
||
|
|
#06501:00
|
||
|
|
#06501:00
|
||
|
|
#06501:00
|
||
|
|
#06501:00
|
||
|
|
#06501:3Z4J4K4L
|
||
|
|
#06501:4243403Z
|
||
|
|
#06501:4H454243
|
||
|
|
#06501:00464600004I4I00004H4H0000424942
|
||
|
|
#06501:004E4E00004D4D000048480000464A46
|
||
|
|
#06501:00
|
||
|
|
#06501:00
|
||
|
|
#06501:0G
|
||
|
|
#06506:030405060708090A0B0C0D0E0F0G0H0I030405060708090A0B0C0D0E0F0G0H0I
|
||
|
|
|
||
|
|
#06601:00
|
||
|
|
#06601:00
|
||
|
|
#06601:00
|
||
|
|
#06601:00
|
||
|
|
#06601:00
|
||
|
|
#06601:00
|
||
|
|
#06601:00
|
||
|
|
#06601:00
|
||
|
|
#06601:00
|
||
|
|
#06601:00
|
||
|
|
#06601:00
|
||
|
|
#06601:00
|
||
|
|
#06601:00
|
||
|
|
#06601:7B7C7B7V7C7B7V7C7B7C7B7V7C7B7V7C
|
||
|
|
#06601:00
|
||
|
|
#06601:00
|
||
|
|
#06601:00
|
||
|
|
#06601:00
|
||
|
|
#06601:00
|
||
|
|
#06601:00
|
||
|
|
#06601:00
|
||
|
|
#06601:00
|
||
|
|
#06601:45474647454243403Z40413Z40474542
|
||
|
|
#06606:030405060708090A0B0C0D0E0F0G0H0I030405060708090A0B0C0D0E0F0G0H0I
|
||
|
|
|
||
|
|
#06701:00
|
||
|
|
#06701:00
|
||
|
|
#06701:00
|
||
|
|
#06701:00
|
||
|
|
#06701:00
|
||
|
|
#06701:00
|
||
|
|
#06701:00
|
||
|
|
#06701:00
|
||
|
|
#06701:00
|
||
|
|
#06701:00
|
||
|
|
#06701:00
|
||
|
|
#06701:00
|
||
|
|
#06701:00
|
||
|
|
#06701:7L7M7L807M7L807M7L7M7L807M7L807M
|
||
|
|
#06701:00
|
||
|
|
#06701:00
|
||
|
|
#06701:00
|
||
|
|
#06701:00
|
||
|
|
#06701:00
|
||
|
|
#06701:00
|
||
|
|
#06701:00
|
||
|
|
#06701:00
|
||
|
|
#06701:434243403Z413Y4L4N4O4P4Q4R4S4T4U
|
||
|
|
#06706:030405060708090A0B0C0D0E0F0G0H0I030405060708090A0B0C0D0E0F0G0H0I
|
||
|
|
|
||
|
|
#06801:00
|
||
|
|
#06801:00
|
||
|
|
#06801:00
|
||
|
|
#06801:00
|
||
|
|
#06801:00
|
||
|
|
#06801:00
|
||
|
|
#06801:00
|
||
|
|
#06801:00
|
||
|
|
#06801:00
|
||
|
|
#06801:00
|
||
|
|
#06801:00
|
||
|
|
#06801:00
|
||
|
|
#06801:00
|
||
|
|
#06801:7D7E7D7W7E7D7W7E7D7E7D7W7E7D7W7E
|
||
|
|
#06801:00
|
||
|
|
#06801:00
|
||
|
|
#06801:00
|
||
|
|
#06801:00
|
||
|
|
#06801:00
|
||
|
|
#06801:00
|
||
|
|
#06801:00
|
||
|
|
#06801:00
|
||
|
|
#06801:00000000000000003Y413Y4L4N4L3Y41
|
||
|
|
#06801:43
|
||
|
|
#06801:003X003Y003X3Y000000000000000000
|
||
|
|
#06801:003Z004B003Z4B000000000000000000
|
||
|
|
#06806:030405060708090A0B0C0D0E0F0G0H0I030405060708090A0B0C0D0E0F0G0H0I
|
||
|
|
|
||
|
|
#06901:00
|
||
|
|
#06901:00
|
||
|
|
#06901:00
|
||
|
|
#06901:00
|
||
|
|
#06901:00
|
||
|
|
#06901:00
|
||
|
|
#06901:00
|
||
|
|
#06901:00
|
||
|
|
#06901:00
|
||
|
|
#06901:00
|
||
|
|
#06901:00
|
||
|
|
#06901:00
|
||
|
|
#06901:00
|
||
|
|
#06901:7R7S7R837S7R837S7T7U7T847U7T847U
|
||
|
|
#06901:00
|
||
|
|
#06901:00
|
||
|
|
#06901:00
|
||
|
|
#06901:00
|
||
|
|
#06901:00
|
||
|
|
#06901:00
|
||
|
|
#06901:00
|
||
|
|
#06901:00
|
||
|
|
#06901:3Y4L4N4L3Y4L4N4L3Y4L4N4O4P4Q4T4S
|
||
|
|
#06906:030405060708090A0B0C0D0E0F0G0H0I030405060708090A0B0C0D0E0F0G0H0I
|
||
|
|
#06916:00000000000B0000
|
||
|
|
|
||
|
|
#07001:00
|
||
|
|
#07001:00
|
||
|
|
#07001:00
|
||
|
|
#07001:00
|
||
|
|
#07001:00
|
||
|
|
#07001:00
|
||
|
|
#07001:000L000L
|
||
|
|
#07001:00
|
||
|
|
#07001:00
|
||
|
|
#07001:0000000000010001
|
||
|
|
#07001:02030203020302030203020302030203
|
||
|
|
#07001:00
|
||
|
|
#07001:00
|
||
|
|
#07001:7B7C7B7V7C7B7V7C7B7C7B7V7C7B7V7C
|
||
|
|
#07001:00
|
||
|
|
#07001:00
|
||
|
|
#07001:1S001U001S001S1T001S1T001S001U00
|
||
|
|
#07001:00
|
||
|
|
#07001:00
|
||
|
|
#07001:8F8K8F008F8K8F008F8K8F008F8K0000
|
||
|
|
#07001:000000000000008E
|
||
|
|
#07001:00
|
||
|
|
#07001:453Z403Z413Z403Z454243403Z413Y4L
|
||
|
|
#07001:00
|
||
|
|
#07001:00
|
||
|
|
#07001:00
|
||
|
|
#07001:00
|
||
|
|
#07001:00
|
||
|
|
#07001:00
|
||
|
|
#07001:00
|
||
|
|
#07001:00
|
||
|
|
#07001:0S
|
||
|
|
#07006:030405060708090A0B0C0D0E0F0G0H0I030405060708090A0B0C0D0E0F0G0H0I
|
||
|
|
#07011:00040000
|
||
|
|
#07012:0001000100002G00
|
||
|
|
#07013:0404
|
||
|
|
#07014:00000000002C002C
|
||
|
|
#07015:2B2F
|
||
|
|
#07016:0C
|
||
|
|
#07018:002C002E00000400
|
||
|
|
#07019:002D0000
|
||
|
|
|
||
|
|
#07101:00
|
||
|
|
#07101:00
|
||
|
|
#07101:00
|
||
|
|
#07101:00
|
||
|
|
#07101:00
|
||
|
|
#07101:00
|
||
|
|
#07101:000L000L
|
||
|
|
#07101:00
|
||
|
|
#07101:00
|
||
|
|
#07101:0000000000010001
|
||
|
|
#07101:02030203020302030203020302030203
|
||
|
|
#07101:00
|
||
|
|
#07101:00
|
||
|
|
#07101:7F7G7F7X7G7F7X7G7F7G7F7X7G7F7X7G
|
||
|
|
#07101:00
|
||
|
|
#07101:00
|
||
|
|
#07101:1P001R001P001P1Q001P1Q001P001R00
|
||
|
|
#07101:00
|
||
|
|
#07101:00
|
||
|
|
#07101:8F008K008F0000008F008K008G8L8G8L8F0000008K0000008F008K0000000000
|
||
|
|
#07101:000000000000008E
|
||
|
|
#07101:00
|
||
|
|
#07101:3Y413Z403Y4140424V4G4E4847454240
|
||
|
|
#07106:030405060708090A0B0C0D0E0F0G0H0I030405060708090A0B0C0D0E0F0G0H0I
|
||
|
|
#07111:00040000
|
||
|
|
#07112:0001000100002G00
|
||
|
|
#07113:0404
|
||
|
|
#07114:00000000002C002C
|
||
|
|
#07115:2B2F
|
||
|
|
#07118:002C002E00000400
|
||
|
|
#07119:002D0000
|
||
|
|
|
||
|
|
#07201:00
|
||
|
|
#07201:00
|
||
|
|
#07201:00
|
||
|
|
#07201:00
|
||
|
|
#07201:00
|
||
|
|
#07201:00
|
||
|
|
#07201:000L000L
|
||
|
|
#07201:00
|
||
|
|
#07201:00
|
||
|
|
#07201:0000000000010001
|
||
|
|
#07201:02030203020302030203020302030203
|
||
|
|
#07201:00
|
||
|
|
#07201:00
|
||
|
|
#07201:7H7I7H7Y7I7H7Y7I7H7I7H7Y7I7H7Y7I
|
||
|
|
#07201:00
|
||
|
|
#07201:00
|
||
|
|
#07201:1M001O001M001M1N001M1N001M001O00
|
||
|
|
#07201:00
|
||
|
|
#07201:00
|
||
|
|
#07201:8F8K8F008F8K8F008F8K8F008F8K0000
|
||
|
|
#07201:000000000000008E
|
||
|
|
#07201:00
|
||
|
|
#07201:000000000000000000003Y4L4P000000
|
||
|
|
#07201:5E005F00005E00003Y002R0000003Z00000000000000000000005B5C5D000000
|
||
|
|
#07201:5G005H00005G00003Z002L000000420000000000000000000000000000000000
|
||
|
|
#07206:030405060708090A0B0C0D0E0F0G0H0I030405060708090A0B0C0D0E0F0G0H0I
|
||
|
|
#07211:00040000
|
||
|
|
#07212:0001000100002G00
|
||
|
|
#07213:0404
|
||
|
|
#07214:00000000002C002C
|
||
|
|
#07215:2B2F
|
||
|
|
#07218:002C002E00000400
|
||
|
|
#07219:002D0000
|
||
|
|
|
||
|
|
#07301:00
|
||
|
|
#07301:00
|
||
|
|
#07301:00
|
||
|
|
#07301:00
|
||
|
|
#07301:04040404
|
||
|
|
#07301:00
|
||
|
|
#07301:000L000L
|
||
|
|
#07301:00
|
||
|
|
#07301:00
|
||
|
|
#07301:0001000100010001
|
||
|
|
#07301:02030203020302030203020302030203
|
||
|
|
#07301:00
|
||
|
|
#07301:00
|
||
|
|
#07301:7N7O7N817O7N817O7P7Q7P827Q7P827Q
|
||
|
|
#07301:00
|
||
|
|
#07301:00
|
||
|
|
#07301:1V001X001V001V1W001P1Q001P001R00
|
||
|
|
#07301:00
|
||
|
|
#07301:2B2C2D2E2F2C2G2C
|
||
|
|
#07301:8F008K008F0000008F008K008G8L8G8L8F0000008K0000008F008K0000000000
|
||
|
|
#07301:000000000000008E
|
||
|
|
#07301:00
|
||
|
|
#07301:00
|
||
|
|
#07301:00
|
||
|
|
#07301:00
|
||
|
|
#07301:00
|
||
|
|
#07301:00464600004I4I00004H4H0000000000
|
||
|
|
#07301:004E4E00004D4D000048480000000000
|
||
|
|
#07306:030405060708090A0B0C0D0E0F0G0H0I030405060708090A0B0C0D0E0F0G0H0I
|
||
|
|
#07311:4H
|
||
|
|
#07312:00000000450000000000000000000049
|
||
|
|
#07313:4242
|
||
|
|
#07314:000043000000003Z
|
||
|
|
#07315:3Z0000000000000040000000004K0000
|
||
|
|
#07318:004J0000
|
||
|
|
#07319:00004K4L
|
||
|
|
|
||
|
|
#07401:00
|
||
|
|
#07401:00
|
||
|
|
#07401:00
|
||
|
|
#07401:00
|
||
|
|
#07401:04040404
|
||
|
|
#07401:00
|
||
|
|
#07401:000L000L
|
||
|
|
#07401:00
|
||
|
|
#07401:00
|
||
|
|
#07401:0001000100010001
|
||
|
|
#07401:02030203020302030203020302030203
|
||
|
|
#07401:00
|
||
|
|
#07401:00
|
||
|
|
#07401:7B7C7B7V7C7B7V7C7B7C7B7V7C7B7V7C
|
||
|
|
#07401:00
|
||
|
|
#07401:00
|
||
|
|
#07401:00
|
||
|
|
#07401:00
|
||
|
|
#07401:2B2C2D2E2F2C2G2C
|
||
|
|
#07401:8F8K8F008F8K8F008F8K8F008F8K0000
|
||
|
|
#07401:000000000000008E
|
||
|
|
#07401:00
|
||
|
|
#07401:45474647454243403Z40413Z40474542
|
||
|
|
#07406:030405060708090A0B0C0D0E0F0G0H0I030405060708090A0B0C0D0E0F0G0H0I
|
||
|
|
#07411:1S0000001S001S00001S00001S000000
|
||
|
|
#07413:00001U000000001T00001T0000001U00
|
||
|
|
|
||
|
|
#07501:00
|
||
|
|
#07501:00
|
||
|
|
#07501:00
|
||
|
|
#07501:00
|
||
|
|
#07501:04040404
|
||
|
|
#07501:00
|
||
|
|
#07501:000L000L
|
||
|
|
#07501:00
|
||
|
|
#07501:00
|
||
|
|
#07501:0001000100010001
|
||
|
|
#07501:02030203020302030203020302030203
|
||
|
|
#07501:00
|
||
|
|
#07501:00
|
||
|
|
#07501:7L7M7L807M7L807M7L7M7L807M7L807M
|
||
|
|
#07501:00
|
||
|
|
#07501:00
|
||
|
|
#07501:00
|
||
|
|
#07501:00
|
||
|
|
#07501:2B2C2D2E2F2C2G2C
|
||
|
|
#07501:8F008K008F0000008F008K008G8L8G8L8F0000008K0000008F008K0000000000
|
||
|
|
#07501:000000000000008E
|
||
|
|
#07501:00
|
||
|
|
#07501:434243403Z413Y4L4N4O4P4Q4R4S4T4U
|
||
|
|
#07506:030405060708090A0B0C0D0E0F0G0H0I030405060708090A0B0C0D0E0F0G0H0I
|
||
|
|
#07512:1Y0000001Y001Y00001Y00001Y000000
|
||
|
|
#07514:000020000000001Z00001Z0000002000
|
||
|
|
|
||
|
|
#07601:00
|
||
|
|
#07601:00
|
||
|
|
#07601:00
|
||
|
|
#07601:00
|
||
|
|
#07601:04040404
|
||
|
|
#07601:00
|
||
|
|
#07601:000L000L
|
||
|
|
#07601:00
|
||
|
|
#07601:00
|
||
|
|
#07601:0001000100010001
|
||
|
|
#07601:02030203020302030203020302030203
|
||
|
|
#07601:00
|
||
|
|
#07601:00
|
||
|
|
#07601:7D7E7D7W7E7D7W7E7D7E7D7W7E7D7W7E
|
||
|
|
#07601:00
|
||
|
|
#07601:00
|
||
|
|
#07601:00
|
||
|
|
#07601:00
|
||
|
|
#07601:2B2C2D2E2F2C2G2C
|
||
|
|
#07601:8F8K8F008F8K8F008F8K8F008F8K0000
|
||
|
|
#07601:000000000000008E
|
||
|
|
#07601:00
|
||
|
|
#07601:00
|
||
|
|
#07601:43000000000000004B413Y4L4N4O4P4Q
|
||
|
|
#07601:450000000000000043403Z413Y4L4N4O
|
||
|
|
#07601:003X003Y003X3Y000000000000000000
|
||
|
|
#07601:003Z004B003Z4B000000000000000000
|
||
|
|
#07606:030405060708090A0B0C0D0E0F0G0H0I030405060708090A0B0C0D0E0F0G0H0I
|
||
|
|
#07613:21000000210021000021000021000000
|
||
|
|
#07615:00002300000000220000220000002300
|
||
|
|
|
||
|
|
#07701:00
|
||
|
|
#07701:00
|
||
|
|
#07701:00
|
||
|
|
#07701:00
|
||
|
|
#07701:0400040004000407
|
||
|
|
#07701:00
|
||
|
|
#07701:000L000L
|
||
|
|
#07701:00
|
||
|
|
#07701:00
|
||
|
|
#07701:0001000100010001
|
||
|
|
#07701:02030203020302030203020302030203
|
||
|
|
#07701:00
|
||
|
|
#07701:00
|
||
|
|
#07701:7R7S7R837S7R837S7T7U7T847U7T847U
|
||
|
|
#07701:00
|
||
|
|
#07701:00
|
||
|
|
#07701:00
|
||
|
|
#07701:00
|
||
|
|
#07701:2B2C2D2E2F2C2G2C
|
||
|
|
#07701:8F008K008F0000008F008K008G8L8G8L8F0000008K0000008F008K0000000000
|
||
|
|
#07701:000000000000008E
|
||
|
|
#07701:00
|
||
|
|
#07701:4R4P4X4R4P4X4R4P4X4R4P4X4S4Y4X4K
|
||
|
|
#07706:030405060708090A0B0C0D0E0F0G0H0I030405060708090A0B0C0D0E0F0G0H0I
|
||
|
|
#07714:2400242400000000
|
||
|
|
#07715:00000000000000000027000027000000
|
||
|
|
#07716:0J000N0K00000I00
|
||
|
|
#07718:00002600000000250000000000000000
|
||
|
|
#07719:0000000000280029
|
||
|
|
|
||
|
|
#07801:00
|
||
|
|
#07801:00
|
||
|
|
#07801:00
|
||
|
|
#07801:00
|
||
|
|
#07801:00
|
||
|
|
#07801:00
|
||
|
|
#07801:00
|
||
|
|
#07801:00
|
||
|
|
#07801:00
|
||
|
|
#07801:00
|
||
|
|
#07801:02030203020302030203020302030203
|
||
|
|
#07801:00
|
||
|
|
#07801:00
|
||
|
|
#07801:7B7C7B7V7C7B7V7C7B7C7B7V7C7B7V7C
|
||
|
|
#07801:00
|
||
|
|
#07801:00
|
||
|
|
#07801:1S001U001S001S1T001S1T001S001U00
|
||
|
|
#07801:00
|
||
|
|
#07801:2B2C2D2E2F2C2G2C
|
||
|
|
#07801:8F8K8F008F8K8F008F8K8F008F8K0000
|
||
|
|
#07801:00
|
||
|
|
#07801:00
|
||
|
|
#07801:453Z403Z413Z403Z454243403Z413Y4L
|
||
|
|
#07806:030405060708090A0B0C0D0E0F0G0H0I030405060708090A0B0C0D0E0F0G0H0I
|
||
|
|
#07811:04040404
|
||
|
|
#07813:000L000L
|
||
|
|
#07814:000000000000008E
|
||
|
|
#07816:0C
|
||
|
|
#07818:0001000100010001
|
||
|
|
|
||
|
|
#07901:00
|
||
|
|
#07901:00
|
||
|
|
#07901:00
|
||
|
|
#07901:00
|
||
|
|
#07901:00
|
||
|
|
#07901:00
|
||
|
|
#07901:00
|
||
|
|
#07901:00
|
||
|
|
#07901:00
|
||
|
|
#07901:00
|
||
|
|
#07901:02030203020302030203020302030203
|
||
|
|
#07901:00
|
||
|
|
#07901:00
|
||
|
|
#07901:7F7G7F7X7G7F7X7G7F7G7F7X7G7F7X7G
|
||
|
|
#07901:00
|
||
|
|
#07901:00
|
||
|
|
#07901:1P001R001P001P1Q001P1Q001P001R00
|
||
|
|
#07901:00
|
||
|
|
#07901:2B2C2D2E2F2C2G2C
|
||
|
|
#07901:8F008K008F0000008F008K008G8L8G8L8F0000008K0000008F008K0000000000
|
||
|
|
#07901:00
|
||
|
|
#07901:00
|
||
|
|
#07901:3Y413Z403Y4140424V4G4E4847454240
|
||
|
|
#07906:030405060708090A0B0C0D0E0F0G0H0I030405060708090A0B0C0D0E0F0G0H0I
|
||
|
|
#07911:04040404
|
||
|
|
#07913:000L000L
|
||
|
|
#07914:000000000000008E
|
||
|
|
#07918:0001000100010001
|
||
|
|
|
||
|
|
#08001:00
|
||
|
|
#08001:00
|
||
|
|
#08001:00
|
||
|
|
#08001:00
|
||
|
|
#08001:00
|
||
|
|
#08001:00
|
||
|
|
#08001:00
|
||
|
|
#08001:00
|
||
|
|
#08001:00
|
||
|
|
#08001:00
|
||
|
|
#08001:02030203020302030203020302030203
|
||
|
|
#08001:00
|
||
|
|
#08001:00
|
||
|
|
#08001:7H7I7H7Y7I7H7Y7I7H7I7H7Y7I7H7Y7I
|
||
|
|
#08001:00
|
||
|
|
#08001:00
|
||
|
|
#08001:1M001O001M001M1N001M1N001M001O00
|
||
|
|
#08001:00
|
||
|
|
#08001:2B2C2D2E2F2C2G2C
|
||
|
|
#08001:8F8K8F008F8K8F008F8K8F008F8K0000
|
||
|
|
#08001:00
|
||
|
|
#08001:00
|
||
|
|
#08001:000000000000000000003Y4L4P000000
|
||
|
|
#08001:5E005F00005E00003Y002R0000003Z00000000000000000000005B5C5D000000
|
||
|
|
#08001:5G005H00005G00003Z002L000000420000000000000000000000000000000000
|
||
|
|
#08006:030405060708090A0B0C0D0E0F0G0H0I030405060708090A0B0C0D0E0F0G0H0I
|
||
|
|
#08011:04040404
|
||
|
|
#08013:000L000L
|
||
|
|
#08014:000000000000008E
|
||
|
|
#08018:0001000100010001
|
||
|
|
|
||
|
|
#08101:00
|
||
|
|
#08101:00
|
||
|
|
#08101:00
|
||
|
|
#08101:00
|
||
|
|
#08101:04040404
|
||
|
|
#08101:00
|
||
|
|
#08101:000L000L
|
||
|
|
#08101:00
|
||
|
|
#08101:00
|
||
|
|
#08101:0001000100010001
|
||
|
|
#08101:02030203020302030203020302030203
|
||
|
|
#08101:00
|
||
|
|
#08101:00
|
||
|
|
#08101:7N7O7N817O7N817O7P7Q7P827Q7P827Q
|
||
|
|
#08101:00
|
||
|
|
#08101:00
|
||
|
|
#08101:1V001X001V001V1W001P1Q001P001R00
|
||
|
|
#08101:00
|
||
|
|
#08101:2B2C2D2E2F2C2G2C
|
||
|
|
#08101:8F008K008F0000008F008K008G8L8G8L8F0000008K0000008F008K0000000000
|
||
|
|
#08101:000000000000008E
|
||
|
|
#08101:00
|
||
|
|
#08101:00
|
||
|
|
#08101:4C4G4E48464542404L3X3Z403W444245
|
||
|
|
#08106:030405060708090A0B0C0D0E0F0G0H0I030405060708090A0B0C0D0E0F0G0H0I
|
||
|
|
#08111:4E
|
||
|
|
#08112:000046000000000000000000003Y0000
|
||
|
|
#08113:00000000420000000000003X00000040
|
||
|
|
#08114:0048000000003Z00004O000000003Z00
|
||
|
|
#08115:000000450000003X000000004L000000
|
||
|
|
#08118:000000000040000000004L0000000000
|
||
|
|
#08119:004P
|
||
|
|
|
||
|
|
#08201:00
|
||
|
|
#08201:00
|
||
|
|
#08201:00
|
||
|
|
#08201:00
|
||
|
|
#08201:00
|
||
|
|
#08201:00
|
||
|
|
#08201:00
|
||
|
|
#08201:00
|
||
|
|
#08201:00
|
||
|
|
#08201:0001000100010001
|
||
|
|
#08201:02030203020302030203020302030203
|
||
|
|
#08201:00
|
||
|
|
#08201:00
|
||
|
|
#08201:7B7C7B7V7C7B7V7C7B7C7B7V7C7B7V7C
|
||
|
|
#08201:00
|
||
|
|
#08201:00
|
||
|
|
#08201:1S001U001S001S1T001S1T001S001U00
|
||
|
|
#08201:00
|
||
|
|
#08201:00
|
||
|
|
#08201:8F8K8F008F8K8F008F8K8F008F8K0000
|
||
|
|
#08201:000000000000008E
|
||
|
|
#08201:00
|
||
|
|
#08201:3Z403Z413Y413Y4L4N4L4N4O4P4Q4S4Q
|
||
|
|
#08206:030405060708090A0B0C0D0E0F0G0H0I030405060708090A0B0C0D0E0F0G0H0I
|
||
|
|
#08211:04040404
|
||
|
|
#08213:0000002G
|
||
|
|
#08214:0000002E002C0000
|
||
|
|
#08215:2B0L000L
|
||
|
|
#08218:002C00002F00002C
|
||
|
|
#08219:002D0000
|
||
|
|
|
||
|
|
#08301:00
|
||
|
|
#08301:00
|
||
|
|
#08301:00
|
||
|
|
#08301:00
|
||
|
|
#08301:00
|
||
|
|
#08301:00
|
||
|
|
#08301:00
|
||
|
|
#08301:00
|
||
|
|
#08301:00
|
||
|
|
#08301:0001000100010001
|
||
|
|
#08301:02030203020302030203020302030203
|
||
|
|
#08301:00
|
||
|
|
#08301:00
|
||
|
|
#08301:7L7M7L807M7L807M7L7M7L807M7L807M
|
||
|
|
#08301:00
|
||
|
|
#08301:00
|
||
|
|
#08301:1Y0020001Y001Y1Z001Y1Z001Y002000
|
||
|
|
#08301:00
|
||
|
|
#08301:00
|
||
|
|
#08301:8F008K008F0000008F008K008G8L8G8L8F0000008K0000008F008K0000000000
|
||
|
|
#08301:000000000000008E
|
||
|
|
#08301:00
|
||
|
|
#08301:4R4Q4P4O4Q4P4O3Y2S004P4W4P4Q4P4O
|
||
|
|
#08306:030405060708090A0B0C0D0E0F0G0H0I030405060708090A0B0C0D0E0F0G0H0I
|
||
|
|
#08311:04040404
|
||
|
|
#08313:0000002E00002G00
|
||
|
|
#08314:2B000000002C0000
|
||
|
|
#08315:000L000L
|
||
|
|
#08318:002C00002F00002C
|
||
|
|
#08319:002D0000
|
||
|
|
|
||
|
|
#08401:00
|
||
|
|
#08401:00
|
||
|
|
#08401:00
|
||
|
|
#08401:00
|
||
|
|
#08401:04040404
|
||
|
|
#08401:00
|
||
|
|
#08401:00
|
||
|
|
#08401:00
|
||
|
|
#08401:00
|
||
|
|
#08401:0001000100010001
|
||
|
|
#08401:02030203020302030203020302030203
|
||
|
|
#08401:00
|
||
|
|
#08401:00
|
||
|
|
#08401:7D7E7D7W7E7D7W7E7D7E7D7W7E7D7W7E
|
||
|
|
#08401:00
|
||
|
|
#08401:00
|
||
|
|
#08401:21002300210021220021220021002300
|
||
|
|
#08401:00
|
||
|
|
#08401:2B2C2D2E2F2C2G2C
|
||
|
|
#08401:8F8K8F008F8K8F008F8K8F008F8K0000
|
||
|
|
#08401:000000000000008E
|
||
|
|
#08401:00
|
||
|
|
#08401:00
|
||
|
|
#08401:43000000000000004B413Y4L4N4O4P4Q
|
||
|
|
#08401:450000000000000043403Z413Y4L4N4O
|
||
|
|
#08401:003X003Y003X3Y000000000000000000
|
||
|
|
#08401:003Z004B003Z4B000000000000000000
|
||
|
|
#08406:030405060708090A0B0C0D0E0F0G0H0I030405060708090A0B0C0D0E0F0G0H0I
|
||
|
|
#08413:000H000H000H000H000H000H000H000H
|
||
|
|
#08415:0F0F0F0F0F0F0F0F
|
||
|
|
|
||
|
|
#08501:000000000000000000000000008M0000
|
||
|
|
#08501:00
|
||
|
|
#08501:00
|
||
|
|
#08501:00
|
||
|
|
#08501:00
|
||
|
|
#08501:00
|
||
|
|
#08501:00
|
||
|
|
#08501:0F0F0F0F0F0F0F0F
|
||
|
|
#08501:000H000H000H000H000H000H000H000H
|
||
|
|
#08501:0001000100010001
|
||
|
|
#08501:02030203020302030203020302030203
|
||
|
|
#08501:00
|
||
|
|
#08501:00
|
||
|
|
#08501:7R7S7R837S7R837S7T7U7T847U7T847U
|
||
|
|
#08501:00
|
||
|
|
#08501:00
|
||
|
|
#08501:24002600240024250027280027002900
|
||
|
|
#08501:00
|
||
|
|
#08501:2B2C2D2E2F2C2G2C
|
||
|
|
#08501:8F008K008F0000008F008K008G8L8G8L8F0000008K0000008F008K0000000000
|
||
|
|
#08501:000000000000008E
|
||
|
|
#08501:00
|
||
|
|
#08501:4R4P4X4R4P4X4R4P4X4R4P4X4S4Y4X4K
|
||
|
|
#08506:030405060708090A0B0C0D0E0F0G0H0I030405060708090A0B0C0D0E0F0G0H0I
|
||
|
|
#08511:07070707
|
||
|
|
#08516:0J000J0K00000I00
|
||
|
|
|
||
|
|
#08601:00
|
||
|
|
#08601:00
|
||
|
|
#08601:00
|
||
|
|
#08601:00
|
||
|
|
#08601:00
|
||
|
|
#08601:00
|
||
|
|
#08601:00
|
||
|
|
#08601:00
|
||
|
|
#08601:00
|
||
|
|
#08601:00
|
||
|
|
#08601:00
|
||
|
|
#08601:00
|
||
|
|
#08601:00
|
||
|
|
#08601:7B7C000000007B7C000000007B7C0000
|
||
|
|
#08601:00
|
||
|
|
#08601:00
|
||
|
|
#08601:00
|
||
|
|
#08601:00
|
||
|
|
#08601:00
|
||
|
|
#08601:00
|
||
|
|
#08601:00
|
||
|
|
#08601:00
|
||
|
|
#08601:4G4846474543403Z3Y413Z4000000000
|
||
|
|
#08601:0000000000000000000000003Z3W003Z
|
||
|
|
#08601:000000000000000000000000454M0045
|
||
|
|
#08606:030405060708090A0B0C0D0E0F0G0H0I030405060708090A0B0C0D0E0F0G0H0I
|
||
|
|
#08611:0Z00000Z00000400
|
||
|
|
#08613:0400000400000000
|
||
|
|
#08614:00000016
|
||
|
|
#08615:0J00000J00000000
|
||
|
|
#08616:0000000K
|
||
|
|
#08619:1600001600000Z00
|
||
|
|
|
||
|
|
#08701:00
|
||
|
|
#08701:0D
|
||
|
|
#08701:00
|
||
|
|
#08701:00
|
||
|
|
#08701:00
|
||
|
|
#08701:00
|
||
|
|
#08701:00
|
||
|
|
#08701:00
|
||
|
|
#08701:00
|
||
|
|
#08701:00
|
||
|
|
#08701:00
|
||
|
|
#08701:00
|
||
|
|
#08701:00
|
||
|
|
#08701:7B7C000000007B7C000000007B7C0000
|
||
|
|
#08701:00
|
||
|
|
#08701:00
|
||
|
|
#08701:00
|
||
|
|
#08701:00
|
||
|
|
#08701:00
|
||
|
|
#08701:00
|
||
|
|
#08701:00
|
||
|
|
#08701:00
|
||
|
|
#08701:4G4846474543403Z3Y413Z4000000000
|
||
|
|
#08701:0000000000000000000000003Z3W003Z
|
||
|
|
#08701:000000000000000000000000454M0045
|
||
|
|
#08706:030405060708090A0B0C0D0E0F0G0H0I030405060708090A0B0C0D0E0F0G0H0I
|
||
|
|
#08711:0Z00000Z00000400
|
||
|
|
#08713:0400000400000000
|
||
|
|
#08714:00000016
|
||
|
|
#08715:0J00000J00000000
|
||
|
|
#08716:0000000K
|
||
|
|
#08719:1600001600000Z00
|
||
|
|
|
||
|
|
#08801:0000000000000000005I000000000000
|
||
|
|
#08801:8N
|
||
|
|
#08801:00
|
||
|
|
#08801:00
|
||
|
|
#08801:00
|
||
|
|
#08801:00
|
||
|
|
#08801:00
|
||
|
|
#08801:00
|
||
|
|
#08801:00
|
||
|
|
#08801:00
|
||
|
|
#08801:00
|
||
|
|
#08801:00
|
||
|
|
#08801:00
|
||
|
|
#08801:7B7C000000007B7C000000007B7C0000
|
||
|
|
#08801:00
|
||
|
|
#08801:00
|
||
|
|
#08801:00
|
||
|
|
#08801:00
|
||
|
|
#08801:00
|
||
|
|
#08801:00
|
||
|
|
#08801:00
|
||
|
|
#08801:00
|
||
|
|
#08801:4N4L3Y413Y413Z403Z40454700000000
|
||
|
|
#08801:0000000000000000000000003Y3X003Y
|
||
|
|
#08801:0000000000000000000000003Z4B003Z
|
||
|
|
#08801:000000000000000000000000454M0045
|
||
|
|
#08806:030405060708090A0B0C0D0E0F0G0H0I030405060708090A0B0C0D0E0F0G0H0I
|
||
|
|
#08811:0Z00000Z00000700
|
||
|
|
#08813:0400000400000000
|
||
|
|
#08814:00000016
|
||
|
|
#08815:0J00000J00000000
|
||
|
|
#08816:0000000K
|
||
|
|
#08819:1600001600000Z00
|
||
|
|
|
||
|
|
#08906:030405060708090A0B0C0D0E0F0G0H0I030405060708090A0B0C0D0E0F0G0H0I
|
||
|
|
#08911:08
|
||
|
|
#08913:2I
|
||
|
|
#08915:2M
|
||
|
|
#08916:0C
|
||
|
|
#08919:2P
|
||
|
|
|