Files

3033 lines
62 KiB
Plaintext
Raw Permalink Normal View History

2026-01-30 16:10:38 +09:00
*---------------------- HEADER FIELD
#PLAYER 3
#GENRE RENAISSANCE
#TITLE Joker -A-
#ARTIST D.J.Nero/*8284*
#BPM 184
#PLAYLEVEL 12
#RANK 3
#TOTAL 500
#STAGEFILE title.jpg
#WAV01 opHH.wav
#WAV02 close.wav
#WAV03 close.wav
#WAV04 kickA.wav
#WAV05 kickB.wav
#WAV06 kickB.wav
#WAV07 kick32.wav
#WAV08 FXkick.wav
#WAV09 snare.wav
#WAV0A snare.wav
#WAV0B reverse.wav
#WAV0C SE1.wav
#WAV0D bell.wav
#WAV0E ride.wav
#WAV0F snare-Fill.wav
#WAV0G SE3.wav
#WAV0H snare-Fill.wav
#WAV0I clashA.wav
#WAV0J clashB.wav
#WAV0K clashC.wav
#WAV0L clap.wav
#WAV0M clap-deep.wav
#WAV0N clashB.wav
#WAV0O bgm1.wav
#WAV0P bgm1.wav
#WAV0Q bgm2.wav
#WAV0R bgm2.wav
#WAV0S bgm3.wav
#WAV0T str01.wav
#WAV0U str01.wav
#WAV0V str02.wav
#WAV0W str03.wav
#WAV0X str03.wav
#WAV0Y str04.wav
#WAV0Z str05.wav
#WAV10 str-01.wav
#WAV11 str-01.wav
#WAV12 str-02.wav
#WAV13 str-03.wav
#WAV14 str-03.wav
#WAV15 str-04.wav
#WAV16 str-05.wav
#WAV17 harp1.wav
#WAV18 harp2.wav
#WAV19 harp3.wav
#WAV1A harp4.wav
#WAV1B harp5.wav
#WAV1C harp6.wav
#WAV1D harp16-01.wav
#WAV1E harp16-02.wav
#WAV1F harp16-03.wav
#WAV1G harp16-04.wav
#WAV1H harp16-05.wav
#WAV1I harp16-06.wav
#WAV1J core1.wav
#WAV1K core1.wav
#WAV1L core1b.wav
#WAV1M core2.wav
#WAV1N core2.wav
#WAV1O core2b.wav
#WAV1P core3.wav
#WAV1Q core3.wav
#WAV1R core3b.wav
#WAV1S core4.wav
#WAV1T core4.wav
#WAV1U core4b.wav
#WAV1V core5.wav
#WAV1W core5.wav
#WAV1X core5b.wav
#WAV1Y core6.wav
#WAV1Z core6.wav
#WAV20 core6b.wav
#WAV21 core7.wav
#WAV22 core7.wav
#WAV23 core7b.wav
#WAV24 core8.wav
#WAV25 core8.wav
#WAV26 core8b.wav
#WAV27 core9.wav
#WAV28 core9.wav
#WAV29 core9b.wav
#WAV2A arp-bgm.wav
#WAV2B arp1.wav
#WAV2C arp2.wav
#WAV2D arp3.wav
#WAV2E arp4.wav
#WAV2F arp5.wav
#WAV2G arp6.wav
#WAV2H p-8-1.wav
#WAV2I p-8-2.wav
#WAV2J p-8-3.wav
#WAV2K p-8-4.wav
#WAV2L p-8-5.wav
#WAV2M p-8-6.wav
#WAV2N p-8-7.wav
#WAV2O p-8-8.wav
#WAV2P p-8-9.wav
#WAV2Q p-8-10.wav
#WAV2R p-8-11.wav
#WAV2S p-8-12.wav
#WAV2T p-8-13.wav
#WAV2U pA-1.wav
#WAV2V pA-2.wav
#WAV2W pA-2b.wav
#WAV2X pA-3.wav
#WAV2Y pA-4.wav
#WAV2Z pA-4b.wav
#WAV30 pA-5.wav
#WAV31 pA-6.wav
#WAV32 pA-7.wav
#WAV33 pA-8.wav
#WAV34 pA-9.wav
#WAV35 pA-10.wav
#WAV36 pA-11.wav
#WAV37 pA-12.wav
#WAV38 pA-12b.wav
#WAV39 pA-13.wav
#WAV3A pA-13b.wav
#WAV3B pA-14.wav
#WAV3C pA-14b.wav
#WAV3D pA-15.wav
#WAV3E pA-15b.wav
#WAV3F p-16-1.wav
#WAV3G p-16-2.wav
#WAV3H p-16-3.wav
#WAV3I p-16-4.wav
#WAV3J p-16-5.wav
#WAV3K p-16-6.wav
#WAV3L p-16-7.wav
#WAV3M p-16-8.wav
#WAV3N p-16-9.wav
#WAV3O p-16-10.wav
#WAV3P p-16-11.wav
#WAV3Q p-16-12.wav
#WAV3R p-16-13.wav
#WAV3S p-16-14.wav
#WAV3T p-16-15.wav
#WAV3U p-16-16.wav
#WAV3V p-16-17.wav
#WAV3W ps-16-2.wav
#WAV3X ps-16-1.wav
#WAV3Y ps-16-1.wav
#WAV3Z ps-16-2.wav
#WAV40 ps-16-3.wav
#WAV41 ps-16-4.wav
#WAV42 ps-16-5.wav
#WAV43 ps-16-6.wav
#WAV44 ps-16-3.wav
#WAV45 ps-16-7.wav
#WAV46 ps-16-8.wav
#WAV47 ps-16-9.wav
#WAV48 ps-16-10.wav
#WAV49 ps-16-5.wav
#WAV4A ps-16-8.wav
#WAV4B ps-16-2.wav
#WAV4C ps-16-11.wav
#WAV4D ps-16-12.wav
#WAV4E ps-16-13.wav
#WAV4F ps-16-14.wav
#WAV4G ps-16-15.wav
#WAV4H ps-16-16.wav
#WAV4I ps-16-17.wav
#WAV4J ps-16-18.wav
#WAV4K ps-16-19.wav
#WAV4L ps-16-20.wav
#WAV4M ps-16-7.wav
#WAV4N ps-16-21.wav
#WAV4O ps-16-22.wav
#WAV4P ps-16-23.wav
#WAV4Q ps-16-24.wav
#WAV4R ps-16-25.wav
#WAV4S ps-16-26.wav
#WAV4T ps-16-27.wav
#WAV4U ps-16-28.wav
#WAV4V ps-16-29.wav
#WAV4W ps-16-30.wav
#WAV4X ps-16-23.wav
#WAV4Y ps-16-31.wav
#WAV4Z ps-32-1.wav
#WAV50 ps-32-1.wav
#WAV51 ps-32-1b.wav
#WAV52 ps-32-1b.wav
#WAV53 ps-32-2.wav
#WAV54 ps-32-2.wav
#WAV55 ps-32-2b.wav
#WAV56 ps-32-2b.wav
#WAV57 ps-32-3.wav
#WAV58 ps-32-4.wav
#WAV59 ps-32-5.wav
#WAV5A ps-32-6.wav
#WAV5B ps-32-7.wav
#WAV5C ps-32-8.wav
#WAV5D ps-32-9.wav
#WAV5E ps-32-10.wav
#WAV5F ps-32-10.wav
#WAV5G ps-32-10b.wav
#WAV5H ps-32-10b.wav
#WAV5I SE2.wav
#WAV5J chero 1.wav
#WAV5K chero 2.wav
#WAV5L chero 3.wav
#WAV5M chero 4.wav
#WAV5N chero 9.wav
#WAV5O chero 10.wav
#WAV5P chero 11.wav
#WAV5Q chero 12.wav
#WAV5R chero 13.wav
#WAV5S chero 14.wav
#WAV5T chero 15.wav
#WAV5U chero 16.wav
#WAV5V chero 17.wav
#WAV5W chero 18.wav
#WAV5X chero 19.wav
#WAV5Y chero 20.wav
#WAV5Z chero 21.wav
#WAV60 chero 22.wav
#WAV61 solo 1.wav
#WAV62 solo 2.wav
#WAV63 solo 3.wav
#WAV64 solo 4.wav
#WAV65 solo 5.wav
#WAV66 solo 6.wav
#WAV67 solo 7.wav
#WAV68 solo 8.wav
#WAV69 solo 9.wav
#WAV6A solo 10.wav
#WAV6B solo 11.wav
#WAV6C solo 12.wav
#WAV6D solo 13.wav
#WAV6E solo 14.wav
#WAV6F solo 15.wav
#WAV6G solo 16.wav
#WAV6H solo 17.wav
#WAV6I solo 18.wav
#WAV6J solo 19.wav
#WAV6K solo 20.wav
#WAV6L solo 21.wav
#WAV6M solo 22.wav
#WAV6N solo 23.wav
#WAV6O solo 24.wav
#WAV6P solo 25.wav
#WAV6Q solo 26.wav
#WAV6R solo 27.wav
#WAV6S solo 28.wav
#WAV6T solo 29.wav
#WAV6U solo 30.wav
#WAV6V solo 31.wav
#WAV6W solo 32.wav
#WAV6X solo 33.wav
#WAV6Y solo 34.wav
#WAV6Z solo 35.wav
#WAV70 solo 36.wav
#WAV71 solo 37.wav
#WAV72 solo 38.wav
#WAV73 solo 39.wav
#WAV74 solo 40.wav
#WAV75 solo 41.wav
#WAV76 solo 42.wav
#WAV77 solo 43.wav
#WAV78 solo 44.wav
#WAV79 solo 45.wav
#WAV7A solo 46.wav
#WAV7B bass1.wav
#WAV7C bass2.wav
#WAV7D bass3.wav
#WAV7E bass4.wav
#WAV7F bass5.wav
#WAV7G bass6.wav
#WAV7H bass7.wav
#WAV7I bass8.wav
#WAV7J bass9.wav
#WAV7K bass10.wav
#WAV7L bass11.wav
#WAV7M bass12.wav
#WAV7N bass13.wav
#WAV7O bass14.wav
#WAV7P bass15.wav
#WAV7Q bass16.wav
#WAV7R bass17.wav
#WAV7S bass18.wav
#WAV7T bass19.wav
#WAV7U bass20.wav
#WAV7V bass1.wav
#WAV7W bass3.wav
#WAV7X bass5.wav
#WAV7Y bass7.wav
#WAV7Z bass9.wav
#WAV80 bass11.wav
#WAV81 bass13.wav
#WAV82 bass15.wav
#WAV83 bass17.wav
#WAV84 bass19.wav
#WAV85 chero1.wav
#WAV86 chero2.wav
#WAV87 chero3.wav
#WAV88 chero4.wav
#WAV89 vio1.wav
#WAV8A vio2.wav
#WAV8B vio3.wav
#WAV8C vio4.wav
#WAV8D tim.wav
#WAV8E tanbarin.wav
#WAV8F suzu.wav
#WAV8G suzu32.wav
#WAV8H syuooo.wav
#WAV8I SE5.wav
#WAV8J horn.wav
#WAV8K suzu.wav
#WAV8L suzu32.wav
#WAV8M cym B.wav
#WAV8N cym C.wav
#WAV8O SE4.wav
#BMP01 joker.mpg
#BMP03 miss 01.bmp
#BMP04 miss 02.bmp
#BMP05 miss 03.bmp
#BMP06 miss 04.bmp
#BMP07 miss 05.bmp
#BMP08 miss 06.bmp
#BMP09 miss 07.bmp
#BMP0A miss 08.bmp
#BMP0B miss 09.bmp
#BMP0C miss 10.bmp
#BMP0D miss 11.bmp
#BMP0E miss 12.bmp
#BMP0F miss 13.bmp
#BMP0G miss 14.bmp
#BMP0H miss 15.bmp
#BMP0I miss 16.bmp
#DIFFICULTY 2
#BACKBMP logo.jpg
*---------------------- MAIN DATA FIELD
#00104:01
#00106:030405060708090A0B0C0D0E0F0G0H0I030405060708090A0B0C0D0E0F0G0H0I
#00116:000B000000000000
#00201:00
#00201:00
#00201:00
#00201:00
#00201:0000000000040000
#00201:00
#00201:00
#00201:00
#00201:00
#00201:00
#00201:00
#00201:00
#00201:00
#00201:7B7C7B7V7C7B7V7C7B7C7B7V7C7B7V7C
#00201:00
#00201:00
#00201:00
#00201:1011001200000000
#00206:030405060708090A0B0C0D0E0F0G0H0I030405060708090A0B0C0D0E0F0G0H0I
#00211:0400000400000000
#00215:00000L00000L0000
#00224:0T0U000000000000
#00225:0000000V00000000
#00301:00
#00301:00
#00301:00
#00301:00
#00301:0000000000040000
#00301:00
#00301:00
#00301:00
#00301:00
#00301:00
#00301:00
#00301:00
#00301:00
#00301:7B7C7B7V7C7B7V7C7B7C7B7V7C7B7V7C
#00301:00
#00301:00
#00301:00
#00301:1314001500000000
#00306:030405060708090A0B0C0D0E0F0G0H0I030405060708090A0B0C0D0E0F0G0H0I
#00311:0400000400000000
#00315:00000L00000L0000
#00328:0W0X000000000000
#00329:0000000Y00000000
#00401:0K00000J000J0000
#00401:00
#00401:00
#00401:00
#00401:00
#00401:00
#00401:00
#00401:00
#00401:00
#00401:00
#00401:00
#00401:00
#00401:00
#00401:7B7C7B7V7C7B7V7C7B7C7B7V7C7B7V7C
#00406:030405060708090A0B0C0D0E0F0G0H0I030405060708090A0B0C0D0E0F0G0H0I
#00413:0F0F0F0F0F0F0F0F
#00415:000H000H000H000H000H000H000H000H
#00419:0400000400040000
#00422:0T0U000000000000
#00423:0000000V00000000
#00424:1011000000000000
#00425:0000001200000000
#00501:0K00000J000J0000
#00501:00
#00501:00
#00501:00
#00501:00
#00501:00
#00501:00
#00501:00
#00501:00
#00501:00
#00501:00
#00501:00
#00501:00
#00501:7B7C7B7V7C7B7V7C7B7C7B7V7C7B7V7C
#00506:030405060708090A0B0C0D0E0F0G0H0I030405060708090A0B0C0D0E0F0G0H0I
#00513:0F0F0F0F0F0F0F0F
#00515:000H000H000H000H000H000H000H000H
#00519:0400000400040000
#00524:0W0X000000000000
#00525:0000000Y00000000
#00526:0000000000000007
#00528:1314000000000000
#00529:0000001500000000
#00601:00
#00601:00
#00601:00
#00601:00
#00601:00
#00601:00
#00601:00
#00601:00
#00601:00
#00601:0001000100010001
#00601:02030203020302030203020302030203
#00601:00
#00601:00
#00601:7B7C7B7V7C7B7V7C7B7C7B7V7C7B7V7C
#00601:00
#00601:00
#00601:00
#00601:00
#00601:00
#00601:00
#00601:00
#00601:00
#00601:00
#00601:00
#00601:00
#00601:00
#00601:00
#00601:00
#00601:00
#00601:00
#00601:00
#00601:0O
#00606:030405060708090A0B0C0D0E0F0G0H0I030405060708090A0B0C0D0E0F0G0H0I
#00611:00040404
#00615:000L000L
#00616:0C
#00621:04
#00623:2H0000000000002I
#00624:002I002I002J0000
#00625:002J002K
#00629:002L
#00701:00
#00701:00
#00701:00
#00701:00
#00701:00
#00701:00
#00701:00
#00701:00
#00701:00
#00701:0001000100010001
#00701:02030203020302030203020302030203
#00701:00
#00701:00
#00701:7B7C7B7V7C7B7V7C7B7C7B7V7C7B7V7C
#00706:030405060708090A0B0C0D0E0F0G0H0I030405060708090A0B0C0D0E0F0G0H0I
#00711:04040404
#00715:000L000L
#00721:2H
#00722:00000000002I0000
#00723:002J00000000002J
#00724:002K0000
#00725:0000002L00002L00
#00728:002M
#00801:00
#00801:00
#00801:00
#00801:00
#00801:00
#00801:00
#00801:00
#00801:00
#00801:00
#00801:0001000100010001
#00801:02030203020302030203020302030203
#00801:00
#00801:00
#00801:7D7E7D7W7E7D7W7E7D7E7D7W7E7D7W7E
#00806:030405060708090A0B0C0D0E0F0G0H0I030405060708090A0B0C0D0E0F0G0H0I
#00811:04040404
#00815:000L000L
#00821:0000002I00000000
#00824:2K
#00825:002L0000002L0000
#00828:002M002M
#00829:000000002N00002N
#00901:00
#00901:00
#00901:00
#00901:00
#00901:00
#00901:00
#00901:00
#00901:00
#00901:00
#00901:0001000100010001
#00901:02030203020302030203020302030203
#00901:00
#00901:00
#00901:7D7E7D7W7E7D7W7E7D7E7D7W7E7D7W7E
#00906:030405060708090A0B0C0D0E0F0G0H0I030405060708090A0B0C0D0E0F0G0H0I
#00911:04040404
#00915:000L000L
#00921:2I0000000000002O
#00923:0000002J00002J00
#00924:00000000002K0000
#00925:002L
#00928:002L0000
#00929:002M000000000000
#01001:00
#01001:00
#01001:00
#01001:00
#01001:00
#01001:00
#01001:00
#01001:00
#01001:00
#01001:00
#01001:02030203020002030203020302000203
#01001:00
#01001:00
#01001:7F7G7F7X7G7F7X7G7F7G7F7X7G7F7X7G
#01006:030405060708090A0B0C0D0E0F0G0H0I030405060708090A0B0C0D0E0F0G0H0I
#01011:04040404
#01013:000L000L
#01014:00000000000300000000000000030000
#01018:0001000100010001
#01023:2H0000000000002I
#01024:002I002I002J0000
#01025:002J002K
#01029:002L
#01101:00
#01101:00
#01101:00
#01101:00
#01101:00
#01101:00
#01101:00
#01101:00
#01101:00
#01101:00
#01101:02030203020002030203020302000203
#01101:00
#01101:00
#01101:7F7G7F7X7G7F7X7G7F7G7F7X7G7F7X7G
#01106:030405060708090A0B0C0D0E0F0G0H0I030405060708090A0B0C0D0E0F0G0H0I
#01111:04040404
#01113:000L000L
#01114:00000000000300000000000000030000
#01118:0001000100010001
#01121:2H
#01122:00000000002I0000
#01123:002J00000000002J
#01124:002K0000
#01125:0000002L00002L00
#01128:002M
#01201:00
#01201:00
#01201:00
#01201:00
#01201:00
#01201:00
#01201:00
#01201:00
#01201:00
#01201:00
#01201:02030203020002030203020302000203
#01201:00
#01201:00
#01201:7B7C7B7V7C7B7V7C7B7C7B7V7C7B7V7C
#01206:030405060708090A0B0C0D0E0F0G0H0I030405060708090A0B0C0D0E0F0G0H0I
#01211:04040404
#01213:000L000L
#01214:00000000000300000000000000030000
#01218:0001000100010001
#01221:0000002I00000000
#01224:2K
#01225:002L0000002L0000
#01228:002M002M
#01229:000000002N00002N
#01301:00
#01301:00
#01301:00
#01301:00
#01301:00
#01301:00
#01301:00
#01301:00
#01301:00
#01301:00
#01301:02000203020002030200020302000203
#01301:00
#01301:00
#01301:7B7C7B7V7C7B7V7C7B7C7B7V7C7B7V7C
#01306:030405060708090A0B0C0D0E0F0G0H0I030405060708090A0B0C0D0E0F0G0H0I
#01311:04040404
#01313:000L000L
#01314:00030000000000000003000000000000
#01315:00000000000300000000000000030000
#01319:0001000100010001
#01321:2I
#01322:000000000000002O
#01323:0000002J00002J00
#01324:00000000002K0000
#01325:002L
#01326:000000000000000000000000008M0000
#01328:002L0000
#01329:002M000000000000
#01401:00
#01401:00
#01401:00
#01401:00
#01401:00
#01401:00
#01401:00
#01401:00
#01401:00
#01401:0001000100010001
#01401:02030203020302030203020302030203
#01401:00
#01401:00
#01401:7B7C7B7V7C7B7V7C7B7C7B7V7C7B7V7C
#01406:030405060708090A0B0C0D0E0F0G0H0I030405060708090A0B0C0D0E0F0G0H0I
#01411:2H
#01413:000000000000002I
#01414:002I002I002J0000
#01415:002J002K
#01419:002L
#01421:04040404
#01425:000L000L
#01501:00
#01501:00
#01501:00
#01501:00
#01501:00
#01501:00
#01501:00
#01501:00
#01501:00
#01501:0001000100010001
#01501:02030203020302030203020302030203
#01501:00
#01501:00
#01501:7B7C7B7V7C7B7V7C7B7C7B7V7C7B7V7C
#01506:030405060708090A0B0C0D0E0F0G0H0I030405060708090A0B0C0D0E0F0G0H0I
#01511:2H
#01512:00000000002I0000
#01513:002J00000000002J
#01514:002K0000
#01515:0000002L00002L00
#01518:002M
#01521:04040404
#01525:000L000L
#01601:00
#01601:00
#01601:00
#01601:00
#01601:00
#01601:00
#01601:00
#01601:00
#01601:00
#01601:0001000100010001
#01601:02030203020302030203020302030203
#01601:00
#01601:00
#01601:7D7E7D7W7E7D7W7E7D7E7D7W7E7D7W7E
#01606:030405060708090A0B0C0D0E0F0G0H0I030405060708090A0B0C0D0E0F0G0H0I
#01611:0000002I00000000
#01614:2K
#01615:002L0000002L0000
#01618:002M002M
#01619:000000002N00002N
#01621:04040404
#01625:000L000L
#01701:00
#01701:00
#01701:00
#01701:00
#01701:00
#01701:00
#01701:00
#01701:00
#01701:00
#01701:0001000100010001
#01701:02030203020302030203020302030203
#01701:00
#01701:00
#01701:7D7E7D7W7E7D7W7E7D7E7D7W7E7D7W7E
#01706:030405060708090A0B0C0D0E0F0G0H0I030405060708090A0B0C0D0E0F0G0H0I
#01711:2I0000000000002O
#01713:0000002J00002J00
#01714:00000000002K0000
#01715:002L
#01718:002L0000
#01719:002M000000000000
#01721:04040404
#01725:000L000L
#01801:00
#01801:00
#01801:00
#01801:00
#01801:00
#01801:00
#01801:00
#01801:00
#01801:00
#01801:00
#01801:02030203020302030203020302030203
#01801:00
#01801:00
#01801:7F7G7F7X7G7F7X7G7F7G7F7X7G7F7X7G
#01806:030405060708090A0B0C0D0E0F0G0H0I030405060708090A0B0C0D0E0F0G0H0I
#01812:2H
#01813:000000000000002I
#01814:002I002I002J0000
#01815:002J002K
#01819:002L
#01821:04040404
#01823:000L000L
#01824:00000000000300000000000000030000
#01828:0001000100010001
#01901:00
#01901:00
#01901:00
#01901:00
#01901:00
#01901:00
#01901:00
#01901:00
#01901:00
#01901:00
#01901:02030203020302030203020302030203
#01901:00
#01901:00
#01901:7F7G7F7X7G7F7X7G7F7G7F7X7G7F7X7G
#01906:030405060708090A0B0C0D0E0F0G0H0I030405060708090A0B0C0D0E0F0G0H0I
#01911:2H
#01912:00000000002I0000
#01913:002J00000000002J
#01914:002K0000
#01915:0000002L00002L00
#01918:002M
#01921:04040404
#01923:000L000L
#01924:00000000000300000000000000030000
#01928:0001000100010001
#02001:00
#02001:00
#02001:00
#02001:00
#02001:00
#02001:00
#02001:00
#02001:00
#02001:00
#02001:00
#02001:02030203020302030203020302030203
#02001:00
#02001:00
#02001:7B7C7B7V7C7B7V7C7B7C7B7V7C7B7V7C
#02006:030405060708090A0B0C0D0E0F0G0H0I030405060708090A0B0C0D0E0F0G0H0I
#02011:0000002I00000000
#02014:2K
#02015:002L0000002L0000
#02018:002M002M
#02019:000000002N00002N
#02021:04040404
#02023:000L000L
#02024:00000000000300000000000000030000
#02028:0001000100010001
#02101:00000004000400050000000005060000
#02101:00
#02101:0005000000000000
#02101:000L000L
#02101:00
#02101:0001000100000001
#02101:00
#02101:00
#02101:00
#02101:00
#02101:02030203020302030203020302030203
#02101:00
#02101:00
#02101:7B7C7B7V7C7B7V7C7B7C7B7V7C7B7V7C
#02106:030405060708090A0B0C0D0E0F0G0H0I030405060708090A0B0C0D0E0F0G0H0I
#02112:000000000000002O
#02113:0000002J
#02114:00000000002K0000
#02115:002L
#02116:0J000N0K00000000
#02121:2I00000000040000
#02123:0000002J04000000
#02124:0000000000000007
#02125:00002L0000010000
#02126:0000000I
#02128:002M000000000000
#02129:04
#02201:00
#02201:00
#02201:00
#02201:00
#02201:00
#02201:00
#02201:000L000L
#02201:00
#02201:00
#02201:0001000100010001
#02201:02030203020302030203020302030203
#02201:00
#02201:00
#02201:7B7C7B7V7C7B7V7C7B7C7B7V7C7B7V7C
#02201:00
#02201:00
#02201:00
#02201:00
#02201:00
#02201:00
#02201:00
#02201:00
#02201:00
#02201:00
#02201:00
#02201:00
#02201:00
#02201:00
#02201:00
#02201:00
#02201:00
#02201:0P
#02206:030405060708090A0B0C0D0E0F0G0H0I030405060708090A0B0C0D0E0F0G0H0I
#02211:1J0000001J001J00001J00001J000000
#02214:00001L000000001K00001K0000001L00
#02216:0C
#02221:04040404
#02223:17
#02224:0000000000000018
#02225:00181800
#02228:0000000000190000
#02229:0000001A
#02301:00
#02301:00
#02301:00
#02301:00
#02301:00
#02301:00
#02301:000L000L
#02301:00
#02301:00
#02301:0001000100010001
#02301:02030203020302030203020302030203
#02301:00
#02301:00
#02301:7B7C7B7V7C7B7V7C7B7C7B7V7C7B7V7C
#02306:030405060708090A0B0C0D0E0F0G0H0I030405060708090A0B0C0D0E0F0G0H0I
#02311:1J0000001J001J00001J00001J000000
#02314:00001L000000001K00001K0000001L00
#02321:04040404
#02322:00000017
#02324:001B
#02325:0000001800000000
#02328:19190000
#02329:001A000000000000
#02401:00
#02401:00
#02401:00
#02401:00
#02401:00
#02401:00
#02401:000L000L
#02401:00
#02401:00
#02401:0001000100010001
#02401:02030203020302030203020302030203
#02401:00
#02401:00
#02401:7D7E7D7W7E7D7W7E7D7E7D7W7E7D7W7E
#02406:030405060708090A0B0C0D0E0F0G0H0I030405060708090A0B0C0D0E0F0G0H0I
#02412:1M0000001M001M00001M00001M000000
#02415:00001O000000001N00001N0000001O00
#02421:04040404
#02423:17
#02424:0000180018000018
#02425:0000000000190000
#02428:0000001A
#02501:00
#02501:00
#02501:00
#02501:00
#02501:00
#02501:00
#02501:000L000L
#02501:00
#02501:00
#02501:0001000100010001
#02501:02030203020302030203020302030203
#02501:00
#02501:00
#02501:7D7E7D7W7E7D7W7E7D7E7D7W7E7D7W7E
#02506:030405060708090A0B0C0D0E0F0G0H0I030405060708090A0B0C0D0E0F0G0H0I
#02512:1M0000001M001M00001M00001M000000
#02515:00001O000000001N00001N0000001O00
#02521:04040404
#02523:001B
#02524:000000180018001B
#02525:00190019
#02528:001A000000000000
#02529:1C
#02601:00
#02601:00
#02601:00
#02601:00
#02601:00
#02601:00
#02601:000L000L
#02601:00
#02601:00
#02601:0001000100010001
#02601:02030203020302030203020302030203
#02601:00
#02601:00
#02601:7F7G7F7X7G7F7X7G7F7G7F7X7G7F7X7G
#02606:030405060708090A0B0C0D0E0F0G0H0I030405060708090A0B0C0D0E0F0G0H0I
#02613:1P0000001P001P00001P00001P000000
#02618:00001R000000001Q00001Q0000001R00
#02621:04040404
#02623:17
#02624:00181800
#02625:0000000000000018
#02628:0000000000190000
#02629:0000001A
#02701:00
#02701:00
#02701:00
#02701:00
#02701:00
#02701:00
#02701:000L000L
#02701:00
#02701:00
#02701:0001000100010001
#02701:02030203020302030203020302030203
#02701:00
#02701:00
#02701:7F7G7F7X7G7F7X7G7F7G7F7X7G7F7X7G
#02706:030405060708090A0B0C0D0E0F0G0H0I030405060708090A0B0C0D0E0F0G0H0I
#02713:1P0000001P001P00001P00001P000000
#02718:00001R000000001Q00001Q0000001R00
#02721:04040404
#02722:000000000000001G
#02723:001D
#02724:00000000001D0000
#02725:00000000000018000000001E00000000
#02728:1919001F
#02729:001A000000000000
#02801:00
#02801:00
#02801:00
#02801:00
#02801:00
#02801:00
#02801:000L000L
#02801:00
#02801:00
#02801:0001000100010001
#02801:02030203020302030203020302030203
#02801:00
#02801:00
#02801:7B7C7B7V7C7B7V7C7B7C7B7V7C7B7V7C
#02806:030405060708090A0B0C0D0E0F0G0H0I030405060708090A0B0C0D0E0F0G0H0I
#02814:1S0000001S001S00001S00001S000000
#02819:00001U000000001T00001T0000001U00
#02821:04040404
#02824:1700000000000018
#02825:00181800
#02828:0000000000190000
#02829:0000001A
#02901:00
#02901:00
#02901:00
#02901:00
#02901:00
#02901:00
#02901:000L000L
#02901:00
#02901:00
#02901:0001000100010001
#02901:02030203020302030203020302030203
#02901:00
#02901:00
#02901:7B7C7B7V7C7B7V7C7B7C7B7V7C7B7V7C
#02906:030405060708090A0B0C0D0E0F0G0H0I030405060708090A0B0C0D0E0F0G0H0I
#02914:1S0000001S001S00001S00001S000000
#02916:000000000000000000000000008M0000
#02919:00001U000000001T00001T0000001U00
#02921:04040404
#02922:001B
#02923:000000000018001B
#02924:0000001E00001900
#02925:001F0000
#02928:0000001I000000000000000000000000
#02929:1H1H000000000000
#03001:00
#03001:00
#03001:00
#03001:00
#03001:00
#03001:00
#03001:000L000L
#03001:00
#03001:00
#03001:0001000100010001
#03001:02030203020302030203020302030203
#03001:00
#03001:00
#03001:7B7C7B7V7C7B7V7C7B7C7B7V7C7B7V7C
#03001:00
#03001:00
#03001:00
#03001:8F8K8F008F8K8F008F8K8F008F8K0000
#03001:000000000000008E
#03006:030405060708090A0B0C0D0E0F0G0H0I030405060708090A0B0C0D0E0F0G0H0I
#03011:04040404
#03013:17
#03014:0000000000000018
#03015:00181800
#03018:0000000000190000
#03019:0000001A
#03021:1J0000001J001J00001J00001J000000
#03024:00001L000000001K00001K0000001L00
#03101:00
#03101:00
#03101:00
#03101:00
#03101:00
#03101:00
#03101:000L000L
#03101:00
#03101:00
#03101:0001000100010001
#03101:02030203020302030203020302030203
#03101:00
#03101:00
#03101:7B7C7B7V7C7B7V7C7B7C7B7V7C7B7V7C
#03101:00
#03101:00
#03101:00
#03101:8F008K008F0000008F008K008G8L8G8L8F0000008K0000008F008K0000000000
#03101:000000000000008E
#03106:030405060708090A0B0C0D0E0F0G0H0I030405060708090A0B0C0D0E0F0G0H0I
#03111:04040404
#03112:00000017
#03114:001B
#03115:0000001800000000
#03118:19190000
#03119:001A000000000000
#03121:1J0000001J001J00001J00001J000000
#03124:00001L000000001K00001K0000001L00
#03201:00
#03201:00
#03201:00
#03201:00
#03201:00
#03201:00
#03201:000L000L
#03201:00
#03201:00
#03201:0001000100010001
#03201:02030203020302030203020302030203
#03201:00
#03201:00
#03201:7D7E7D7W7E7D7W7E7D7E7D7W7E7D7W7E
#03201:00
#03201:00
#03201:00
#03201:8F8K8F008F8K8F008F8K8F008F8K0000
#03201:000000000000008E
#03206:030405060708090A0B0C0D0E0F0G0H0I030405060708090A0B0C0D0E0F0G0H0I
#03211:04040404
#03213:17
#03214:0000180018000018
#03215:0000000000190000
#03218:0000001A
#03222:1M0000001M001M00001M00001M000000
#03225:00001O000000001N00001N0000001O00
#03301:00
#03301:00
#03301:00
#03301:00
#03301:00
#03301:00
#03301:000L000L
#03301:00
#03301:00
#03301:0001000100010001
#03301:02030203020302030203020302030203
#03301:00
#03301:00
#03301:7D7E7D7W7E7D7W7E7D7E7D7W7E7D7W7E
#03301:00
#03301:00
#03301:00
#03301:8F008K008F0000008F008K008G8L8G8L8F0000008K0000008F008K0000000000
#03301:000000000000008E
#03306:030405060708090A0B0C0D0E0F0G0H0I030405060708090A0B0C0D0E0F0G0H0I
#03311:04040404
#03313:001B
#03314:000000180018001B
#03315:00190019
#03318:001A000000000000
#03319:1C
#03322:1M0000001M001M00001M00001M000000
#03325:00001O000000001N00001N0000001O00
#03401:00
#03401:00
#03401:00
#03401:00
#03401:00
#03401:00
#03401:000L000L
#03401:00
#03401:00
#03401:0001000100010001
#03401:02030203020302030203020302030203
#03401:00
#03401:00
#03401:7F7G7F7X7G7F7X7G7F7G7F7X7G7F7X7G
#03401:00
#03401:00
#03401:00
#03401:8F8K8F008F8K8F008F8K8F008F8K0000
#03401:000000000000008E
#03406:030405060708090A0B0C0D0E0F0G0H0I030405060708090A0B0C0D0E0F0G0H0I
#03411:04040404
#03413:17
#03414:00181800
#03415:0000000000000018
#03418:0000000000190000
#03419:0000001A
#03423:1P0000001P001P00001P00001P000000
#03428:00001R000000001Q00001Q0000001R00
#03501:00
#03501:00
#03501:00
#03501:00
#03501:00
#03501:00
#03501:000L000L
#03501:00
#03501:00
#03501:0001000100010001
#03501:02030203020302030203020302030203
#03501:00
#03501:00
#03501:7F7G7F7X7G7F7X7G7F7G7F7X7G7F7X7G
#03501:00
#03501:00
#03501:00
#03501:8F008K008F0000008F008K008G8L8G8L8F0000008K0000008F008K0000000000
#03501:000000000000008E
#03506:030405060708090A0B0C0D0E0F0G0H0I030405060708090A0B0C0D0E0F0G0H0I
#03511:04040404
#03512:000000000000001G
#03513:001D
#03514:00000000001D0000
#03515:00000000000018000000001E00000000
#03518:1919001F
#03519:001A000000000000
#03523:1P0000001P001P00001P00001P000000
#03528:00001R000000001Q00001Q0000001R00
#03601:00
#03601:00
#03601:00
#03601:00
#03601:00
#03601:00
#03601:000L000L
#03601:00
#03601:00
#03601:0001000100010001
#03601:02030203020302030203020302030203
#03601:00
#03601:00
#03601:7B7C7B7V7C7B7V7C7B7C7B7V7C7B7V7C
#03601:00
#03601:00
#03601:00
#03601:8F8K8F008F8K8F008F8K8F008F8K0000
#03601:000000000000008E
#03606:030405060708090A0B0C0D0E0F0G0H0I030405060708090A0B0C0D0E0F0G0H0I
#03611:04040404
#03614:1700000000000018
#03615:00181800
#03618:0000000000190000
#03619:0000001A
#03624:1S0000001S001S00001S00001S000000
#03629:00001U000000001T00001T0000001U00
#03701:1S0000001S001S00001S000000001U00
#03701:00
#03701:00
#03701:00001U000000001T00001T0000000000
#03701:00000004
#03701:00
#03701:000L000L
#03701:00
#03701:00
#03701:0000000100000001
#03701:02030203020302030203020302030203
#03701:00
#03701:00
#03701:7B7C7B7V7C7B7V7C7B7C7B7V7C7B7V7C
#03701:00
#03701:00
#03701:00
#03701:8F008K008F0000008F008K008G8L8G8L8F0000008K0000008F008K0000000000
#03701:000000000000008E
#03706:030405060708090A0B0C0D0E0F0G0H0I030405060708090A0B0C0D0E0F0G0H0I
#03711:04040400
#03712:001B
#03713:000000000018001B
#03714:0000001E00000000
#03715:001F0000
#03716:0000000I
#03718:0000001I000000000000000000000000
#03719:1H1H000000000000
#03721:00000404
#03723:00000019
#03724:0001000000010000
#03725:0000001S
#03726:0J000N0K00000007
#03801:04
#03801:00
#03801:00
#03801:61
#03801:00040404
#03801:00
#03801:0000000L
#03801:00
#03801:00
#03801:0001000100010001
#03801:02030203020300030203020302030203
#03801:00
#03801:00
#03801:00
#03801:00
#03801:00
#03801:00
#03801:00
#03801:00
#03801:00
#03801:00
#03801:00
#03801:5J5K5J5K005L005M
#03801:00
#03801:00
#03801:00
#03801:00
#03801:00
#03801:00
#03801:00
#03801:00
#03801:0Q
#03806:030405060708090A0B0C0D0E0F0G0H0I030405060708090A0B0C0D0E0F0G0H0I
#03811:2U
#03814:00000L0200000000
#03816:0C
#03818:00002V2W00000000
#03821:7B7C7B7C
#03822:00000000007B000000000000007B0000
#03823:007C000000000000007C000000000000
#03824:0000007V007B007V
#03825:007B000000000000
#03828:000000000000007C0000007V0000007C
#03829:0000007V000000000000000000000000
#03901:00
#03901:00
#03901:00
#03901:00
#03901:04040404
#03901:00
#03901:000L000L
#03901:00
#03901:00
#03901:0001000100010001
#03901:02030203020302030203020302030203
#03901:00
#03901:00
#03901:00
#03901:00
#03901:00
#03901:00
#03901:00
#03901:00
#03901:00
#03901:62000000000000000000000000006364
#03901:00
#03901:5J5K5J5K005L005M
#03906:030405060708090A0B0C0D0E0F0G0H0I030405060708090A0B0C0D0E0F0G0H0I
#03913:2M2M
#03915:002P002P002P0000
#03919:002Q0000
#03921:7B7C7B7C
#03922:000000000000000000000000007B0000
#03923:007C000000000000007C000000000000
#03924:00000000007B00000000007V00007V00
#03925:007B007V00000000
#03928:000000000000000000007B000000007C
#03929:0000007V0000007C0000000000000000
#04001:00
#04001:00
#04001:00
#04001:00
#04001:00040404
#04001:00
#04001:0000000L
#04001:00
#04001:00
#04001:0001000000010001
#04001:02030203020302030203020302030203
#04001:00
#04001:00
#04001:00
#04001:00
#04001:00
#04001:00
#04001:00
#04001:00
#04001:00
#04001:65000000000000006600670068696A6B
#04001:00
#04001:5N5O5N5O005P005Q
#04006:030405060708090A0B0C0D0E0F0G0H0I030405060708090A0B0C0D0E0F0G0H0I
#04011:04
#04012:00000L0100000000
#04014:2X
#04015:00002Y2Z00000000
#04021:7F7G7F7G
#04022:00000000007F000000000000007F0000
#04023:007G000000000000007G000000000000
#04024:0000007X007F007X
#04025:007F000000000000
#04028:000000000000007G0000007X0000007G
#04029:0000007X000000000000000000000000
#04101:00
#04101:00
#04101:00
#04101:00
#04101:04040404
#04101:00
#04101:000L000L
#04101:00
#04101:00
#04101:0001000100010001
#04101:02030203020302030203020302030203
#04101:00
#04101:00
#04101:00
#04101:00
#04101:00
#04101:00
#04101:00
#04101:00
#04101:00
#04101:6C6D
#04101:00
#04101:5N5O5N5O005P005Q
#04106:030405060708090A0B0C0D0E0F0G0H0I030405060708090A0B0C0D0E0F0G0H0I
#04114:002R0000002L0000
#04115:2P2R
#04118:0000002P00000000
#04119:002Q0000
#04121:7F7G7F7G
#04122:000000000000000000000000007F0000
#04123:007G000000000000007G000000000000
#04124:00000000007F00000000007X00007X00
#04125:007F007X00000000
#04128:000000000000000000007F000000007G
#04129:0000007X0000007G0000000000000000
#04201:00
#04201:00
#04201:00
#04201:00
#04201:00040404
#04201:00
#04201:000L0000
#04201:00
#04201:00
#04201:0001000000010001
#04201:02030203020302030203020302030203
#04201:00
#04201:00
#04201:00
#04201:00
#04201:00
#04201:00
#04201:00
#04201:00
#04201:00
#04201:6E
#04201:00
#04201:5R5S5R5T005U005V
#04206:030405060708090A0B0C0D0E0F0G0H0I030405060708090A0B0C0D0E0F0G0H0I
#04211:04
#04213:0000003100000000
#04214:30000032
#04215:0000000100000000
#04218:0000000L
#04221:0000007Y000000000000007Y00000000
#04222:000000000000007I000000000000007I
#04223:007H000000000000
#04224:0000007Y007H007Y
#04225:007I000000000000007I000000000000
#04228:00000000007H000000000000007H0000
#04229:7H7I7H7I
#04301:00
#04301:00
#04301:00
#04301:00
#04301:04040404
#04301:00
#04301:000L000L
#04301:00
#04301:00
#04301:0001000100010001
#04301:02030203020302030203020302030203
#04301:00
#04301:00
#04301:00
#04301:00
#04301:00
#04301:00
#04301:00
#04301:00
#04301:00
#04301:6F6G
#04301:00
#04301:5R5S5R5T005U005V
#04306:030405060708090A0B0C0D0E0F0G0H0I030405060708090A0B0C0D0E0F0G0H0I
#04312:00000000002M0000
#04313:002R
#04314:0000002P00000000
#04315:002Q0000
#04318:002T000000000000
#04319:2S
#04321:0000007Y0000007I0000000000000000
#04322:000000000000000000007H000000007I
#04323:007H007Y00000000
#04324:00000000007H00000000007Y00007Y00
#04325:007I000000000000007I000000000000
#04328:000000000000000000000000007H0000
#04329:7H7I7H7I
#04401:00
#04401:00
#04401:00
#04401:00
#04401:00040404
#04401:00
#04401:000L000L
#04401:00
#04401:00
#04401:0001000100010001
#04401:02030203020302030203020302030203
#04401:00
#04401:00
#04401:00
#04401:00
#04401:00
#04401:00
#04401:00
#04401:00
#04401:00
#04401:6H
#04401:00
#04401:5O5U5S5T005U005V
#04406:030405060708090A0B0C0D0E0F0G0H0I030405060708090A0B0C0D0E0F0G0H0I
#04411:04
#04412:0000002Q00000000
#04413:002T2T00
#04414:33000000002S0000
#04415:0000003F
#04418:000000000000000000000000003G0000
#04419:000000000000003H
#04421:0000007X000000000000007X00000000
#04422:000000000000007G000000000000007G
#04423:007F000000000000
#04424:0000007X007F007X
#04425:007G000000000000007G000000000000
#04428:00000000007F000000000000007F0000
#04429:7F7G7F7G
#04501:00
#04501:00
#04501:00
#04501:00
#04501:00040004
#04501:00
#04501:000L000L
#04501:00
#04501:00
#04501:0001000100010001
#04501:02030203020302030203020302030203
#04501:00
#04501:00
#04501:00
#04501:00
#04501:00
#04501:00
#04501:00
#04501:00
#04501:00
#04501:6I6J
#04501:00
#04501:5W5X5Y5Z0060005Y
#04506:030405060708090A0B0C0D0E0F0G0H0I030405060708090A0B0C0D0E0F0G0H0I
#04511:04
#04512:0004
#04515:34
#04516:000000000000000000000000008M0000
#04518:0035
#04521:0000007Z0000007K000000000000007M
#04522:00000000007L0000
#04523:007J007Z00000080
#04524:00000000007J00000000008000000000
#04525:007K000000000000007M0000007L0000
#04529:7J7K7L7M
#04601:00
#04601:00
#04601:00
#04601:00
#04601:00040404
#04601:00
#04601:000L000L
#04601:00
#04601:00
#04601:0001000100010001
#04601:02030203020302030203020302030203
#04601:00
#04601:00
#04601:00
#04601:00
#04601:00
#04601:00
#04601:00
#04601:00
#04601:00
#04601:6K6L6K6M6N6O0000
#04601:00
#04601:5J5K5J5K005L005M
#04606:030405060708090A0B0C0D0E0F0G0H0I030405060708090A0B0C0D0E0F0G0H0I
#04611:7B7C7B7C
#04612:00000000007B000000000000007B0000
#04613:007C000000000000007C000000000000
#04614:0000007V007B007V
#04615:007B000000000000
#04618:000000000000007C0000007V0000007C
#04619:0400007V000000000000000000000000
#04621:003I0000
#04622:00000000003J00003M00000000000000
#04623:0000000000003K00003N00003Q000000
#04624:000000000000003L00003O00003R0000
#04625:36000000000000000000003P00003S00
#04628:0000000000000000000000000000003T
#04701:00
#04701:00
#04701:00
#04701:00
#04701:00040404
#04701:00
#04701:000L000L
#04701:00
#04701:00
#04701:0001000100010001
#04701:02000203020302030203020302030203
#04701:00
#04701:00
#04701:00
#04701:00
#04701:00
#04701:00
#04701:00
#04701:00
#04701:00
#04701:6K6L6K6M6N6O0000
#04701:00
#04701:5J5K5J5K005L005M
#04706:030405060708090A0B0C0D0E0F0G0H0I030405060708090A0B0C0D0E0F0G0H0I
#04711:7B7C7B7C
#04712:000000000000000000000000007B0000
#04713:007C000000000000007C000000000000
#04714:00000000007B00000000007V00007V00
#04715:007B007V00000000
#04718:000000000000000000007B000000007C
#04719:0000007V0000007C0000000000000000
#04723:04030000000000000000000000002M00
#04724:0000002R
#04728:002P
#04729:373800000000000000002Q0000000000
#04801:00
#04801:00
#04801:00
#04801:00
#04801:00040400
#04801:00
#04801:000L000L
#04801:00
#04801:00
#04801:0001000100010000
#04801:02030203020302030203020302030203
#04801:00
#04801:00
#04801:00
#04801:00
#04801:00
#04801:00
#04801:00
#04801:00
#04801:00
#04801:6P6Q6R6S6T6U6V6W
#04801:00
#04801:5N5O5N5O005P005Q
#04806:030405060708090A0B0C0D0E0F0G0H0I030405060708090A0B0C0D0E0F0G0H0I
#04811:7F7G7F7G
#04812:00000000007F000000000000007F0000
#04813:007G000000000000007G000000000000
#04814:0000007X007F007X
#04815:007F000000000000
#04818:000000000000007G0000007X0000007G
#04819:0000007X000000000000000000000000
#04821:00003U0000000401
#04822:043L
#04823:00000000003I00000000000000000000
#04824:0000000000000000003M000000000000
#04825:3900003J00003A3A
#04828:00000000003N0000
#04829:000000000000003K0000003O00000000
#04901:00
#04901:00
#04901:00
#04901:00
#04901:04040404
#04901:00
#04901:000L000L
#04901:00
#04901:00
#04901:0001000100010001
#04901:02030203020302030203020302030203
#04901:00
#04901:00
#04901:00
#04901:00
#04901:00
#04901:00
#04901:00
#04901:00
#04901:00
#04901:6X6Y6Z70
#04901:00
#04901:5N5O5N5O005P005Q
#04901:00
#04901:00
#04901:00
#04901:00
#04901:00
#04901:00
#04901:00
#04901:008O
#04906:030405060708090A0B0C0D0E0F0G0H0I030405060708090A0B0C0D0E0F0G0H0I
#04911:7F7G7F7G
#04912:000000000000000000000000007F0000
#04913:007G000000000000007G000000000000
#04914:00000000007F00000000007X00007X00
#04915:007F007X00000000
#04918:000000000000000000007F000000007G
#04919:0000007X0000007G0000000000000000
#04921:0000000000000000000000000000003J
#04922:00000000000000000000003L00003L00
#04923:000000000000003N00003N00003N0000
#04924:0000003P00003P00003P00003P000000
#04925:00003R00003R00003R00000000000000
#04928:003T00003T0000000000000000000000
#04929:3V
#05001:00
#05001:00
#05001:00
#05001:00
#05001:00040400
#05001:00
#05001:000L000L
#05001:00
#05001:00
#05001:0001000000010001
#05001:02030203020302030203020302030203
#05001:00
#05001:00
#05001:00
#05001:00
#05001:00
#05001:00
#05001:00
#05001:00
#05001:00
#05001:7172717200730074
#05001:00
#05001:5R5S5R5T005U005V
#05006:030405060708090A0B0C0D0E0F0G0H0I030405060708090A0B0C0D0E0F0G0H0I
#05011:0000007Y000000000000007Y00000000
#05012:000000000000007I000000000000007I
#05013:007H000000000000
#05014:0000007Y007H007Y
#05015:007I000000000000007I000000000000
#05018:00000000007H000000000000007H0000
#05019:7H7I7H7I
#05022:04
#05023:0000003100000000
#05024:30000004
#05025:0000000100000000
#05028:00000032
#05101:00
#05101:00
#05101:00
#05101:00
#05101:04040404
#05101:00
#05101:000L000L
#05101:00
#05101:00
#05101:0001000100010001
#05101:02030203020302030203020302030203
#05101:00
#05101:00
#05101:00
#05101:00
#05101:00
#05101:00
#05101:00
#05101:00
#05101:00
#05101:7172717200737475
#05101:00
#05101:5R5S5R5T005U005V
#05106:030405060708090A0B0C0D0E0F0G0H0I030405060708090A0B0C0D0E0F0G0H0I
#05111:0000007Y0000007I0000000000000000
#05112:000000000000000000007H000000007I
#05113:007H007Y00000000
#05114:00000000007H00000000007Y00007Y00
#05115:007I000000000000007I000000000000
#05118:000000000000000000000000007H0000
#05119:7H7I7H7I
#05122:00000000002M0000
#05123:002R
#05124:0000002P00000000
#05125:002Q0000
#05128:002T000000000000
#05129:2S
#05201:00
#05201:0000007X000000000000007X00000000
#05201:000000000000007G000000000000007G
#05201:007F000000000000
#05201:0000007X007F007X
#05201:007G000000000000007G000000000000
#05201:00000000007F000000000000007F0000
#05201:7F7G7F7G
#05201:00
#05201:0001000100010001
#05201:02030203020302030203020302030203
#05201:00
#05201:00
#05201:00
#05201:00
#05201:00
#05201:00
#05201:00
#05201:00
#05201:00
#05201:00
#05201:00
#05201:5O5U5S5T005U005V
#05206:030405060708090A0B0C0D0E0F0G0H0I030405060708090A0B0C0D0E0F0G0H0I
#05211:76
#05212:0000002Q00000000
#05213:002T2T00
#05214:00000000002S0000
#05215:0000003F
#05218:000000000000000077000000003G0000
#05219:000000000000003H
#05221:04040404
#05223:0F0F0F0F0F0F0F0F
#05225:000H000H000H000H000H000H000H000H
#05229:33
#05301:0J000N0K00000I00
#05301:0000007Z0000000000007L000000007M
#05301:0000007Z00000000
#05301:00007J00007J00000000008000008000
#05301:0000000000000000007M000000000000
#05301:007K00000000007K00000000007L0000
#05301:007K7L00
#05301:7J00007M
#05301:00
#05301:0001000100010001
#05301:00000200020000030000020002000003
#05301:00
#05301:00
#05301:00
#05301:00
#05301:00
#05301:00
#05301:00
#05301:00
#05301:78
#05301:0079
#05301:00
#05301:5W5X5Y5Z0060005Y
#05301:00
#05301:00
#05301:008J
#05301:00
#05301:00
#05301:00
#05301:0000000000000000005I000000000000
#05301:0000008I
#05306:030405060708090A0B0C0D0E0F0G0H0I030405060708090A0B0C0D0E0F0G0H0I
#05311:02030003000302000000000000000000
#05313:00000000000000000203000300030200
#05314:3B3C003B003B3C000000000000000000
#05318:00000000000000003D3E003D003D3E00
#05321:0400040004000407
#05323:0F0F0F0F0F0F0F0F
#05325:000H000H000H000H000H000H000H000H
#05401:00
#05401:00
#05401:00
#05401:00
#05401:00
#05401:00
#05401:00
#05401:00
#05401:00
#05401:00
#05401:00
#05401:00
#05401:00
#05401:00
#05401:00
#05401:00
#05401:00
#05401:00
#05401:00
#05401:00
#05401:7A
#05401:00
#05401:00
#05401:00
#05401:00
#05401:89898989
#05401:00
#05401:00
#05401:00
#05401:00
#05401:00
#05401:0R
#05403:5C
#05406:030405060708090A0B0C0D0E0F0G0H0I030405060708090A0B0C0D0E0F0G0H0I
#05416:0C
#05424:000D
#05426:08
#05501:00
#05501:00
#05501:00
#05501:00
#05501:00
#05501:00
#05501:00
#05501:00
#05501:00
#05501:00
#05501:00
#05501:00
#05501:00
#05501:00
#05501:00
#05501:00
#05501:00
#05501:00
#05501:00
#05501:00
#05501:00
#05501:00
#05501:00
#05501:00
#05501:00
#05501:8A8A8A8A
#05506:030405060708090A0B0C0D0E0F0G0H0I030405060708090A0B0C0D0E0F0G0H0I
#05601:00
#05601:00
#05601:00
#05601:00
#05601:00
#05601:00
#05601:00
#05601:00
#05601:00
#05601:00
#05601:00
#05601:00
#05601:00
#05601:00
#05601:00
#05601:00
#05601:00
#05601:00
#05601:00
#05601:00
#05601:00
#05601:00
#05601:00
#05601:00
#05601:00
#05601:8B8B8B8B
#05606:030405060708090A0B0C0D0E0F0G0H0I030405060708090A0B0C0D0E0F0G0H0I
#05624:000D
#05701:00
#05701:00
#05701:00
#05701:00
#05701:00
#05701:00
#05701:00
#05701:00
#05701:00
#05701:00
#05701:00
#05701:00
#05701:00
#05701:00
#05701:00
#05701:00
#05701:00
#05701:00
#05701:00
#05701:00
#05701:00
#05701:00
#05701:00
#05701:00
#05701:008D
#05701:8C8C8C8C
#05706:030405060708090A0B0C0D0E0F0G0H0I030405060708090A0B0C0D0E0F0G0H0I
#05716:0000000000000000000B000000000000
#05726:8H
#05801:00
#05801:00
#05801:00
#05801:00
#05801:00
#05801:00
#05801:00
#05801:00
#05801:00
#05801:00
#05801:00
#05801:000E000E000E000E
#05806:030405060708090A0B0C0D0E0F0G0H0I030405060708090A0B0C0D0E0F0G0H0I
#05811:04000004040000040004000404000000
#05812:000M000M
#05818:0009000900090009
#05821:0C
#05823:89898989
#05825:0E0E0E0E
#05829:85858585
#05901:00
#05901:00
#05901:00
#05901:00
#05901:00
#05901:00
#05901:00
#05901:00
#05901:00
#05901:00
#05901:00
#05901:000E000E000E000E
#05906:030405060708090A0B0C0D0E0F0G0H0I030405060708090A0B0C0D0E0F0G0H0I
#05911:04000004040000040004000404000000
#05912:00000M0000000M0F
#05914:00000000000000000000000000000000000000000000000000000000000H0000
#05918:0000090000000900000009000000000F
#05923:8A8A8A8A
#05925:0E0E0E0E
#05928:86868686
#06001:00
#06001:00
#06001:00
#06001:00
#06001:00
#06001:00
#06001:00
#06001:00
#06001:00
#06001:00
#06001:00
#06001:000E000E000E000E
#06006:030405060708090A0B0C0D0E0F0G0H0I030405060708090A0B0C0D0E0F0G0H0I
#06011:04000004040000040004000404050000
#06012:00000000000000000M0000000000000000000000000000000000000600000000
#06013:0000000000000004
#06014:0909090909090909
#06015:000A000A000A000A000A000A000A000A
#06019:0000000M
#06022:8B8B8B8B
#06023:87878787
#06028:0I0E0E0E
#06101:0000000B
#06101:00
#06101:000E0E0E0E0E0E00
#06101:00
#06101:00
#06101:00
#06101:00
#06101:00
#06101:00
#06101:00
#06101:00
#06101:000000000000000E
#06106:030405060708090A0B0C0D0E0F0G0H0I030405060708090A0B0C0D0E0F0G0H0I
#06111:04000004040000040004000404050505
#06112:000M000M
#06113:0E000000000000000000000000000000000000000000000000000000000000000000000000000000000000000000000000000000000000000005000000050000
#06115:8C000000000000008C000000000000008C000000000000008C00000000050005
#06119:88000000000000000000000000000000880000000000000000000000000000008800000000000000000000000000000088000000000000000000000500000005
#06121:0F0F0F0F0F0F0F0F
#06122:000H0000000H0000000H0000000H0000000H0000000H0000000H0000000H0000
#06123:000F000F000F000F000F000F000F000F
#06124:0000000H0000000H0000000H0000000H0000000H0000000H0000000H0000000H
#06201:00
#06201:00
#06201:00
#06201:00
#06201:00
#06201:00
#06201:00
#06201:00
#06201:00
#06201:00
#06201:00
#06201:00
#06201:00
#06201:7B7C7B7V7C7B7V7C7B7C7B7V7C7B7V7C
#06201:00
#06201:00
#06201:00
#06201:00
#06201:00
#06201:00
#06201:00
#06201:00
#06201:00
#06201:00
#06201:00
#06201:00
#06201:00
#06201:00
#06201:00
#06201:00
#06201:0S
#06201:2A
#06203:B8
#06206:030405060708090A0B0C0D0E0F0G0H0I030405060708090A0B0C0D0E0F0G0H0I
#06211:08
#06213:00000000000000000000000000000042
#06214:0C000000000051520000000000000000
#06215:0000000000004040
#06219:0000000000004Z5000000000003Z0000
#06222:00004000000000000000003Z00000000
#06223:003Z003Z000000000000000000000000
#06224:0000000041410000
#06228:0000000000000000003Y000000000000
#06229:3Y
#06301:00
#06301:00
#06301:00
#06301:00
#06301:00
#06301:00
#06301:00
#06301:00
#06301:00
#06301:00
#06301:00
#06301:00
#06301:00
#06301:7F7G7F7X7G7F7X7G7F7G7F7X7G7F7X7G
#06306:030405060708090A0B0C0D0E0F0G0H0I030405060708090A0B0C0D0E0F0G0H0I
#06312:43
#06313:00000000000000000000000000480000
#06314:0000400000000000550056000055000000000000000000000000000000000000
#06315:0000000000004646
#06323:00003Z00000000000000000000470000
#06324:0000000000000000530054000053000000004000000000000000000000000000
#06325:0000003Y000000000000000045004500
#06328:000000003Z3Z0000
#06401:00
#06401:00
#06401:00
#06401:00
#06401:00
#06401:00
#06401:00
#06401:00
#06401:00
#06401:00
#06401:00
#06401:00
#06401:00
#06401:7H7I7H7Y7I7H7Y7I7H7I7H7Y7I7H7Y7I
#06406:030405060708090A0B0C0D0E0F0G0H0I030405060708090A0B0C0D0E0F0G0H0I
#06411:4C00000000000057
#06412:0000004F00000000
#06413:000000004E0000000000000000004G0000000000000000000000000000580000
#06414:00000000004E00004G00000000000000
#06415:004D00004D0000000046000000000059
#06418:00000048000000000000000000000000
#06419:000000000000000000000000000000000000000048000000000000000000005A
#06424:00000000000000000000000000480000
#06428:00000046
#06429:00000000000000000000004700000000
#06501:00
#06501:00
#06501:00
#06501:00
#06501:00
#06501:00
#06501:00
#06501:00
#06501:00
#06501:00
#06501:00
#06501:00
#06501:00
#06501:7N7O7N817O7N817O7P7Q7P827Q7P827Q
#06501:00
#06501:00
#06501:00
#06501:00
#06501:00
#06501:00
#06501:00
#06501:00
#06501:00
#06501:00
#06501:00
#06501:00
#06501:00
#06501:00
#06501:00
#06501:00
#06501:0G
#06506:030405060708090A0B0C0D0E0F0G0H0I030405060708090A0B0C0D0E0F0G0H0I
#06511:00464600000000000000000000000000
#06512:00000000004I4I000000000000000000
#06513:0000000000000000004H4H0000000000
#06514:004E4E00000000000000000000424942
#06515:00000000004D4D000000000000000000
#06518:00000000000000000048480000000000
#06519:00000000000000000000000000464A46
#06521:3Z
#06522:424J0000
#06523:4H434K00
#06524:0045404L
#06525:0000423Z
#06528:00000043
#06601:00
#06601:00
#06601:00
#06601:00
#06601:00
#06601:00
#06601:00
#06601:00
#06601:00
#06601:00
#06601:00
#06601:00
#06601:00
#06601:7B7C7B7V7C7B7V7C7B7C7B7V7C7B7V7C
#06606:030405060708090A0B0C0D0E0F0G0H0I030405060708090A0B0C0D0E0F0G0H0I
#06611:00450000
#06612:00000000004200000000000000000000
#06613:00000000000043000040000000470000
#06614:00000000000000400000000040000000
#06615:00000000000000003Z00003Z00004500
#06618:0000000000410000
#06619:00000000000000000000000000000042
#06622:0046000000000000
#06624:00470000000000000000000000000000
#06625:00000047000000000000000000000000
#06629:45
#06701:00
#06701:00
#06701:00
#06701:00
#06701:00
#06701:00
#06701:00
#06701:00
#06701:00
#06701:00
#06701:00
#06701:00
#06701:00
#06701:7L7M7L807M7L807M7L7M7L807M7L807M
#06706:030405060708090A0B0C0D0E0F0G0H0I030405060708090A0B0C0D0E0F0G0H0I
#06721:433Z4N00
#06722:004200000000000000004P0000000000
#06723:0000430000410000004O00004R000000
#06724:00000000000000000000004Q00004T00
#06725:0000000000003Y0000000000004S0000
#06728:0000004000000000000000000000004U
#06729:000000000000004L0000000000000000
#06801:00
#06801:00
#06801:00
#06801:00
#06801:00
#06801:00
#06801:00
#06801:00
#06801:00
#06801:00
#06801:00
#06801:00
#06801:00
#06801:7D7E7D7W7E7D7W7E7D7E7D7W7E7D7W7E
#06806:030405060708090A0B0C0D0E0F0G0H0I030405060708090A0B0C0D0E0F0G0H0I
#06811:00000000000000000041000000000000
#06813:003Z004B003Z4B0000003Y0000000041
#06814:000000003Y00003Y
#06815:00000000000000000000004L004L0000
#06818:003X003Y003X3Y000000000000000000
#06819:0000004N
#06822:43
#06901:00000000000B0000
#06901:00
#06901:00
#06901:00
#06901:00
#06901:00
#06901:00
#06901:00
#06901:00
#06901:00
#06901:00
#06901:00
#06901:00
#06901:7R7S7R837S7R837S7T7U7T847U7T847U
#06906:030405060708090A0B0C0D0E0F0G0H0I030405060708090A0B0C0D0E0F0G0H0I
#06912:003Y
#06914:3Y000000004N0000
#06918:004L000000000000000000004P000000
#06919:000000000000004T
#06921:003Y0000
#06922:00000000004L004L0000000000000000
#06923:0000004L00004N00004L000000000000
#06924:00000000000000000000004O00000000
#06925:00004N000000000000000000004Q0000
#06928:0000000000000000000000000000004S
#07001:04
#07001:00
#07001:2B
#07001:00
#07001:00
#07001:00
#07001:000L000L
#07001:00
#07001:00
#07001:0000000000010001
#07001:02030203020302030203020302030203
#07001:00
#07001:00
#07001:7B7C7B7V7C7B7V7C7B7C7B7V7C7B7V7C
#07001:00
#07001:00
#07001:1S001U001S001S1T001S1T001S001U00
#07001:00
#07001:00
#07001:8F8K8F008F8K8F008F8K8F008F8K0000
#07001:000000000000008E
#07001:00
#07001:00
#07001:00
#07001:00
#07001:00
#07001:00
#07001:00
#07001:00
#07001:00
#07001:00
#07001:0S
#07006:030405060708090A0B0C0D0E0F0G0H0I030405060708090A0B0C0D0E0F0G0H0I
#07011:0045
#07012:0000004000430000
#07013:4500000000000000004200003Z000000
#07014:000040000000003Z0000004000000000
#07015:003Z0000003Z00000000000000410000
#07018:0000003Z000000000000000000003Y00
#07019:0000000041000000000000000000004L
#07021:00040000
#07022:0001000100002G00
#07023:0004
#07024:00000000002C002C
#07025:002F
#07026:0C
#07028:002C002E00000400
#07029:002D0000
#07101:00
#07101:00
#07101:00
#07101:00
#07101:00
#07101:00
#07101:000L000L
#07101:00
#07101:00
#07101:0000000000010001
#07101:02030203020302030203020302030203
#07101:00
#07101:00
#07101:7F7G7F7X7G7F7X7G7F7G7F7X7G7F7X7G
#07101:00
#07101:00
#07101:1P001R001P001P1Q001P1Q001P001R00
#07101:00
#07101:00
#07101:8F008K008F0000008F008K008G8L8G8L8F0000008K0000008F008K0000000000
#07101:000000000000008E
#07106:030405060708090A0B0C0D0E0F0G0H0I030405060708090A0B0C0D0E0F0G0H0I
#07111:004V
#07112:0000000000000042004G000000000000
#07113:00000040000040000000000047000000
#07114:00003Z000041000000004E0000000000
#07115:004100003Y0000000000000000450000
#07118:3Y000000000000000000004800004200
#07119:00000000000000000000000000000040
#07121:00040000
#07122:0001000100002G00
#07123:0404
#07124:00000000002C002C
#07125:2B2F
#07128:002C002E00000400
#07129:002D0000
#07201:00
#07201:00
#07201:00
#07201:00
#07201:00
#07201:00
#07201:000L000L
#07201:00
#07201:00
#07201:0000000000010001
#07201:02030203020302030203020302030203
#07201:00
#07201:00
#07201:7H7I7H7Y7I7H7Y7I7H7I7H7Y7I7H7Y7I
#07201:00
#07201:00
#07201:1M001O001M001M1N001M1N001M001O00
#07201:00
#07201:00
#07201:8F8K8F008F8K8F008F8K8F008F8K0000
#07201:000000000000008E
#07206:030405060708090A0B0C0D0E0F0G0H0I030405060708090A0B0C0D0E0F0G0H0I
#07211:5G005H00005G00000000000000000000000000003Y0000000000000000000000
#07212:000000000000004200000000005B0000
#07213:5E005F00005E000000002K00000000000000000000004L000000000000000000
#07214:00000000000000003Z0000000000000000000000000000000000005C00000000
#07215:00000000002Q003Z000000004P000000
#07218:00003Y000000005D
#07221:00040000
#07222:0001000100002G00
#07223:0404
#07224:00000000002C002C
#07225:2B2F
#07228:002C002E00000400
#07229:002D0000
#07301:00
#07301:00
#07301:00
#07301:00
#07301:04040404
#07301:00
#07301:000L000L
#07301:00
#07301:00
#07301:0001000100010001
#07301:02030203020302030203020302030203
#07301:00
#07301:00
#07301:7N7O7N817O7N817O7P7Q7P827Q7P827Q
#07301:00
#07301:00
#07301:1V001X001V001V1W001P1Q001P001R00
#07301:00
#07301:2B2C2D2E2F2C2G2C
#07301:8F008K008F0000008F008K008G8L8G8L8F0000008K0000008F008K0000000000
#07301:000000000000008E
#07306:030405060708090A0B0C0D0E0F0G0H0I030405060708090A0B0C0D0E0F0G0H0I
#07311:00464600000000000000000000000000
#07312:00000000004I4I000000000000000049
#07313:004E4E0000000000004H4H0000003W00
#07315:00000000004D4D0000000000004K0000
#07318:0000000000000000004848004L000000
#07321:4H
#07322:00000000450000000000000000000049
#07323:4242
#07324:000043000000003Z
#07325:3Z0000000000000040000000004K0000
#07328:004J0000
#07329:00004K4L
#07401:00
#07401:00
#07401:00
#07401:00
#07401:04040404
#07401:00
#07401:000L000L
#07401:00
#07401:00
#07401:0001000100010001
#07401:02030203020302030203020302030203
#07401:00
#07401:00
#07401:7B7C7B7V7C7B7V7C7B7C7B7V7C7B7V7C
#07401:00
#07401:00
#07401:00
#07401:00
#07401:2B2C2D2E2F2C2G2C
#07401:8F8K8F008F8K8F008F8K8F008F8K0000
#07401:000000000000008E
#07406:030405060708090A0B0C0D0E0F0G0H0I030405060708090A0B0C0D0E0F0G0H0I
#07411:1S0000001S001S00001S00001S000000
#07413:00001U000000001T00001T0000001U00
#07421:00004600000000000000000000470000
#07422:00000047000000000000000000004500
#07423:00470000450000000000000040000000
#07424:45000000004200000040000000000042
#07425:00000000000043000000003Z00000000
#07428:00000000000000400000410000000000
#07429:003Z
#07501:00
#07501:00
#07501:00
#07501:00
#07501:04040404
#07501:00
#07501:000L000L
#07501:00
#07501:00
#07501:0001000100010001
#07501:02030203020302030203020302030203
#07501:00
#07501:00
#07501:7L7M7L807M7L807M7L7M7L807M7L807M
#07501:00
#07501:00
#07501:00
#07501:00
#07501:2B2C2D2E2F2C2G2C
#07501:8F008K008F0000008F008K008G8L8G8L8F0000008K0000008F008K0000000000
#07501:000000000000008E
#07506:030405060708090A0B0C0D0E0F0G0H0I030405060708090A0B0C0D0E0F0G0H0I
#07512:1Y0000001Y001Y00001Y00001Y000000
#07514:000020000000001Z00001Z0000002000
#07521:0042000000410000000000004R000000
#07522:0000003Y00000000
#07523:000043000000004L00000000004S0000
#07524:004N
#07525:0000004000000000004O000000004T00
#07528:43000000004P0000
#07529:000000003Z0000000000004Q0000004U
#07601:00
#07601:0043
#07601:00
#07601:00000000000000000040000000000000
#07601:04000400043Z0400
#07601:00000000000000000000004100000000
#07601:000L000L
#07601:00
#07601:00
#07601:0001000100010001
#07601:02030203020302030203020302030203
#07601:00
#07601:00
#07601:7D7E7D7W7E7D7W7E7D7E7D7W7E7D7W7E
#07601:00
#07601:00
#07601:00
#07601:00
#07601:2B2C2D2E2F2C2G2C
#07601:8F8K8F008F8K8F008F8K8F008F8K0000
#07601:000000000000008E
#07606:030405060708090A0B0C0D0E0F0G0H0I030405060708090A0B0C0D0E0F0G0H0I
#07613:21000000210021000021000021000000
#07615:00002300000000220000220000002300
#07621:004B
#07622:0000003Y
#07623:450000000000000000410000004L0000
#07624:003Z004B003Z4B00000000004N004N00
#07625:430000000000000000003Y00004O004O
#07628:003X003Y003X3Y000000000000004P00
#07629:00000000000000000000004L0000004Q
#07701:2400242400000000
#07701:00000000000000000027000027000000
#07701:00002600000000250000000000000000
#07701:0000000000280029
#07701:04040404
#07701:00
#07701:000L000L
#07701:00
#07701:00
#07701:0000000100000001
#07701:02030203020302030203020302030203
#07701:00
#07701:00
#07701:7R7S7R837S7R837S7T7U7T847U7T847U
#07701:00
#07701:00
#07701:00
#07701:00
#07701:2B2C2D2E2F2C2G2C
#07701:8F008K008F0000008F008K008G8L8G8L8F0000008K0000008F008K0000000000
#07701:000000000000008E
#07706:030405060708090A0B0C0D0E0F0G0H0I030405060708090A0B0C0D0E0F0G0H0I
#07714:0001000000010007
#07716:0J000N0K00000I00
#07722:00004X00004X00004X00004X0000004K
#07723:000000000000004X
#07724:004P00004P00004P00004P0000000000
#07725:000000000000000000000000004Y0000
#07728:4R00004R00004R00004R000000000000
#07729:0000004S
#07801:00
#07801:00
#07801:00
#07801:00
#07801:00
#07801:00
#07801:00
#07801:00
#07801:00
#07801:00
#07801:02030203020302030203020302030203
#07801:00
#07801:00
#07801:7B7C7B7V7C7B7V7C7B7C7B7V7C7B7V7C
#07801:00
#07801:00
#07801:1S001U001S001S1T001S1T001S001U00
#07801:00
#07801:00
#07801:8F8K8F008F8K8F008F8K8F008F8K0000
#07801:00
#07801:00
#07801:453Z403Z413Z403Z454243403Z413Y4L
#07806:030405060708090A0B0C0D0E0F0G0H0I030405060708090A0B0C0D0E0F0G0H0I
#07811:04040404
#07813:000L000L
#07814:000000000000008E
#07818:0001000100010001
#07821:2B
#07823:002C000000002G00
#07824:00000000002C002C
#07825:002F
#07828:0000002E00000000
#07829:0C2D0000
#07901:00
#07901:00
#07901:00
#07901:00
#07901:00
#07901:00
#07901:00
#07901:00
#07901:00
#07901:00
#07901:02030203020302030203020302030203
#07901:00
#07901:00
#07901:7F7G7F7X7G7F7X7G7F7G7F7X7G7F7X7G
#07901:00
#07901:00
#07901:1P001R001P001P1Q001P1Q001P001R00
#07901:00
#07901:00
#07901:8F008K008F0000008F008K008G8L8G8L8F0000008K0000008F008K0000000000
#07901:00
#07901:00
#07901:3Y413Z403Y4140424V4G4E4847454240
#07906:030405060708090A0B0C0D0E0F0G0H0I030405060708090A0B0C0D0E0F0G0H0I
#07911:04040404
#07913:000L000L
#07914:000000000000008E
#07918:0001000100010001
#07921:2B
#07922:0000002G
#07923:002C0000002C002C
#07924:002F
#07925:0000002E00000000
#07928:002D0000
#08001:00
#08001:00
#08001:00
#08001:00
#08001:00
#08001:00
#08001:00
#08001:00
#08001:00
#08001:00
#08001:02030203020302030203020302030203
#08001:00
#08001:00
#08001:7H7I7H7Y7I7H7Y7I7H7I7H7Y7I7H7Y7I
#08001:00
#08001:00
#08001:1M001O001M001M1N001M1N001M001O00
#08001:00
#08001:00
#08001:8F8K8F008F8K8F008F8K8F008F8K0000
#08001:00
#08001:00
#08001:000000000000000000003Y4L4P000000
#08001:5E005F00005E00003Y002R0000003Z00000000000000000000005B5C5D000000
#08001:5G005H00005G00003Z002L000000420000000000000000000000000000000000
#08006:030405060708090A0B0C0D0E0F0G0H0I030405060708090A0B0C0D0E0F0G0H0I
#08011:04040404
#08013:000L000L
#08014:000000000000008E
#08018:0001000100010001
#08021:2B
#08022:0000002G
#08023:002C0000002C002C
#08024:002F
#08025:0000002E00000000
#08029:002D0000
#08101:00
#08101:00
#08101:00
#08101:00
#08101:04040404
#08101:00
#08101:000L000L
#08101:00
#08101:00
#08101:0001000100010001
#08101:02030203020302030203020302030203
#08101:00
#08101:00
#08101:7N7O7N817O7N817O7P7Q7P827Q7P827Q
#08101:00
#08101:00
#08101:1V001X001V001V1W001P1Q001P001R00
#08101:00
#08101:2B2C2D2E2F2C2G2C
#08101:8F008K008F0000008F008K008G8L8G8L8F0000008K0000008F008K0000000000
#08101:000000000000008E
#08106:030405060708090A0B0C0D0E0F0G0H0I030405060708090A0B0C0D0E0F0G0H0I
#08111:4E
#08112:000046000000000000000000003Y0000
#08113:00000000420000000000003X00000040
#08114:0048000000003Z00004O000000003Z00
#08115:000000450000003X000000004L000000
#08118:000000000040000000004L0000000000
#08119:004P
#08121:004L
#08122:000000000045000000003Z0000000000
#08123:0000004800000040000000003W000000
#08124:004G000000004200003X000000004200
#08125:00000000460000000000004000000045
#08128:00004E00000000000000000000440000
#08129:4C
#08201:00
#08201:00
#08201:00
#08201:00
#08201:00
#08201:00
#08201:00
#08201:00
#08201:00
#08201:0001000100010001
#08201:02030203020302030203020302030203
#08201:00
#08201:00
#08201:7B7C7B7V7C7B7V7C7B7C7B7V7C7B7V7C
#08201:00
#08201:00
#08201:1S001U001S001S1T001S1T001S001U00
#08201:00
#08201:00
#08201:8F8K8F008F8K8F008F8K8F008F8K0000
#08201:000000000000008E
#08206:030405060708090A0B0C0D0E0F0G0H0I030405060708090A0B0C0D0E0F0G0H0I
#08211:00400000000000000000000000000000
#08212:3Z003Z0000000000004L000000000000
#08213:00000041004100004N004N0000000000
#08214:000000003Y003Y000000004O0000004Q
#08215:000000000000004L000000004P000000
#08218:000000000000000000000000004Q0000
#08219:000000000000004S
#08221:04040404
#08223:2B00002G
#08224:0000002E002C0000
#08225:000L000L
#08228:002C00002F00002C
#08229:002D0000
#08301:00
#08301:00
#08301:00
#08301:00
#08301:00
#08301:00
#08301:00
#08301:00
#08301:00
#08301:0001000100010001
#08301:02030203020302030203020302030203
#08301:00
#08301:00
#08301:7L7M7L807M7L807M7L7M7L807M7L807M
#08301:00
#08301:00
#08301:1Y0020001Y001Y1Z001Y1Z001Y002000
#08301:00
#08301:00
#08301:8F008K008F0000008F008K008G8L8G8L8F0000008K0000008F008K0000000000
#08301:000000000000008E
#08306:030405060708090A0B0C0D0E0F0G0H0I030405060708090A0B0C0D0E0F0G0H0I
#08311:000000000000003Y0000000000000000
#08312:0000004O000000000000000000000000
#08313:00000000000000002S0000004P00004O
#08314:004P004O004P0000
#08315:00000000004P00000000004W00004P00
#08318:004Q00004Q0000000000000000000000
#08319:4R0000000000000000000000004Q0000
#08321:04040404
#08323:0000002E00002G00
#08324:2B000000002C0000
#08325:000L000L
#08328:002C00002F00002C
#08329:002D0000
#08401:000000000000000043403Z4100000000
#08401:00
#08401:00
#08401:00
#08401:04040404
#08401:00
#08401:00
#08401:00
#08401:00
#08401:0001000100010001
#08401:02030203020302030203020302030203
#08401:00
#08401:00
#08401:7D7E7D7W7E7D7W7E7D7E7D7W7E7D7W7E
#08401:00
#08401:00
#08401:21002300210021220021220021002300
#08401:00
#08401:2B2C2D2E2F2C2G2C
#08401:8F8K8F008F8K8F008F8K8F008F8K0000
#08401:000000000000008E
#08406:030405060708090A0B0C0D0E0F0G0H0I030405060708090A0B0C0D0E0F0G0H0I
#08413:000H000H000H000H000H000H000H000H
#08415:0F0F0F0F0F0F0F0F
#08421:43004B4N
#08422:450000000000000000410000004O0000
#08423:003X003Y003X3Y0000003Y003Y004P00
#08424:003Z004B003Z4B000000004L004L004Q
#08425:000000000000004N
#08428:0000000000000000000000000000004O
#08501:000000000000000000000000008M0000
#08501:00
#08501:07070707
#08501:00
#08501:00
#08501:00
#08501:00
#08501:00
#08501:00
#08501:0001000100010001
#08501:02030203020302030203020302030203
#08501:00
#08501:00
#08501:7R7S7R837S7R837S7T7U7T847U7T847U
#08501:00
#08501:00
#08501:24002600240024250027280027002900
#08501:00
#08501:2B2C2D2E2F2C2G2C
#08501:8F008K008F0000008F008K008G8L8G8L8F0000008K0000008F008K0000000000
#08501:000000000000008E
#08506:030405060708090A0B0C0D0E0F0G0H0I030405060708090A0B0C0D0E0F0G0H0I
#08513:000H000H000H000H000H000H000H000H
#08515:0F0F0F0F0F0F0F0F
#08519:0J000J0K00000I00
#08523:00004X00004X00004X00004X00000000
#08524:0000000000000000000000000000004K
#08525:004P00004P00004P00004P0000004X00
#08528:000000000000000000000000004Y0000
#08529:4R00004R00004R00004R00004S000000
#08601:0J00000J00000K00
#08601:00
#08601:000000000000000000000000454M0045
#08601:00
#08601:00
#08601:00
#08601:00
#08601:00
#08601:00
#08601:00
#08601:00
#08601:00
#08601:00
#08601:7B7C000000007B7C000000007B7C0000
#08606:030405060708090A0B0C0D0E0F0G0H0I030405060708090A0B0C0D0E0F0G0H0I
#08611:4G
#08612:00450000
#08613:00480000004300000000004000000000
#08614:000046000000000000003Z003Z3W003Z
#08615:00000000000040000041000000000000
#08618:000000470000003Z0000000000000000
#08619:003Y
#08621:0Z00000Z00000400
#08623:0400000400001600
#08625:1600001600000Z00
#08701:0J00000J00000K00
#08701:0D
#08701:00
#08701:000000000000000000000000454M0045
#08701:00
#08701:00
#08701:00
#08701:00
#08701:00
#08701:00
#08701:00
#08701:00
#08701:00
#08701:7B7C000000007B7C000000007B7C0000
#08706:030405060708090A0B0C0D0E0F0G0H0I030405060708090A0B0C0D0E0F0G0H0I
#08713:0Z00000Z00000400
#08715:0400000400001600
#08719:1600001600000Z00
#08721:4G
#08722:0046000000000000
#08723:0048000045000000000000003Z3W003Z
#08724:00000047000040000000004000000000
#08725:000000000043000000003Z0000000000
#08728:000000000000003Z0041000000000000
#08729:003Y
#08801:0000000000000000005I000000000000
#08801:8N00000Z00000000
#08801:00
#08801:00
#08801:0Z000016
#08801:00
#08801:00
#08801:0000001600000Z00
#08801:00
#08801:00
#08801:16
#08801:00
#08801:00
#08801:7B7C000000007B7C000000007B7C0000
#08806:030405060708090A0B0C0D0E0F0G0H0I030405060708090A0B0C0D0E0F0G0H0I
#08811:04000007
#08813:00000000000000400000000000000000
#08814:0000000000003Z000000004700000000
#08815:00000000004100000000000000000000
#08816:0J00000K
#08818:00003Y0000450000
#08822:00000041000000000000000000000000
#08823:00003Y0000000000004000003Y3X003Y
#08824:004L000000000000000000003Z4B003Z
#08825:4N000000000000003Z000000454M0045
#08826:0000000J00000000
#08829:0000000400000000
#08906:030405060708090A0B0C0D0E0F0G0H0I030405060708090A0B0C0D0E0F0G0H0I
#08911:08
#08913:2I
#08915:2M
#08919:2P
#08926:0C