Files
admin-d-j-nero-joker/_Joker[LNAnother].bml

2838 lines
59 KiB
Plaintext
Raw Permalink Normal View History

2026-01-30 16:10:36 +09:00
*---------------------- HEADER FIELD
#PLAYER 1
#GENRE RENAISSANCE
#TITLE Joker [LN Another]
#ARTIST D.J.Nero / obj.vese
#BPM 184
#PLAYLEVEL 12
#RANK 3
#TOTAL 375
#STAGEFILE title.jpg
#WAV01 opHH.wav
#WAV02 close.wav
#WAV03 close.wav
#WAV04 kickA.wav
#WAV05 kickB.wav
#WAV06 kickB.wav
#WAV07 kick32.wav
#WAV08 FXkick.wav
#WAV09 snare.wav
#WAV0A snare.wav
#WAV0B reverse.wav
#WAV0C SE1.wav
#WAV0D bell.wav
#WAV0E ride.wav
#WAV0F snare-Fill.wav
#WAV0G snare-Fill.wav
#WAV0H clashA.wav
#WAV0I clashB.wav
#WAV0J clashC.wav
#WAV0K clap.wav
#WAV0L clap-deep.wav
#WAV0M clashB.wav
#WAV0N bgm1.wav
#WAV0O bgm1.wav
#WAV0P bgm2.wav
#WAV0Q bgm2.wav
#WAV0R bgm3.wav
#WAV0S str01.wav
#WAV0T str01.wav
#WAV0U str02.wav
#WAV0V str03.wav
#WAV0W str03.wav
#WAV0X str04.wav
#WAV0Y str05.wav
#WAV0Z str-01.wav
#WAV10 str-01.wav
#WAV11 str-02.wav
#WAV12 str-03.wav
#WAV13 str-03.wav
#WAV14 str-04.wav
#WAV15 str-05.wav
#WAV16 harp1.wav
#WAV17 harp2.wav
#WAV18 harp3.wav
#WAV19 harp4.wav
#WAV1A harp5.wav
#WAV1B harp6.wav
#WAV1C harp16-01.wav
#WAV1D harp16-02.wav
#WAV1E harp16-03.wav
#WAV1F harp16-04.wav
#WAV1G harp16-05.wav
#WAV1H harp16-06.wav
#WAV1I core1.wav
#WAV1J core1.wav
#WAV1K core1b.wav
#WAV1L core2.wav
#WAV1M core2.wav
#WAV1N core2b.wav
#WAV1O core3.wav
#WAV1P core3.wav
#WAV1Q core3b.wav
#WAV1R core4.wav
#WAV1S core4.wav
#WAV1T core4b.wav
#WAV1U core5.wav
#WAV1V core5.wav
#WAV1W core5b.wav
#WAV1X core6.wav
#WAV1Y core6.wav
#WAV1Z core6b.wav
#WAV20 core7.wav
#WAV21 core7.wav
#WAV22 core7b.wav
#WAV23 core8.wav
#WAV24 core8.wav
#WAV25 core8b.wav
#WAV26 core9.wav
#WAV27 core9.wav
#WAV28 core9b.wav
#WAV29 arp-bgm.wav
#WAV2A arp1.wav
#WAV2B arp2.wav
#WAV2C arp3.wav
#WAV2D arp4.wav
#WAV2E arp5.wav
#WAV2F arp6.wav
#WAV2G p-8-1.wav
#WAV2H p-8-2.wav
#WAV2I p-8-3.wav
#WAV2J p-8-4.wav
#WAV2K p-8-5.wav
#WAV2L p-8-6.wav
#WAV2M p-8-7.wav
#WAV2N p-8-8.wav
#WAV2O p-8-9.wav
#WAV2P p-8-10.wav
#WAV2Q p-8-11.wav
#WAV2R p-8-12.wav
#WAV2S p-8-13.wav
#WAV2T pA-1.wav
#WAV2U pA-2.wav
#WAV2V pA-2b.wav
#WAV2W pA-3.wav
#WAV2X pA-4.wav
#WAV2Y pA-4b.wav
#WAV2Z pA-5.wav
#WAV30 pA-6.wav
#WAV31 pA-7.wav
#WAV32 pA-8.wav
#WAV33 pA-9.wav
#WAV34 pA-10.wav
#WAV35 pA-11.wav
#WAV36 pA-12.wav
#WAV37 SE3.wav
#WAV38 pA-12b.wav
#WAV39 pA-13.wav
#WAV3A pA-13b.wav
#WAV3B pA-14.wav
#WAV3C pA-14b.wav
#WAV3D pA-15.wav
#WAV3E pA-15b.wav
#WAV3F p-16-1.wav
#WAV3G p-16-2.wav
#WAV3H p-16-3.wav
#WAV3I p-16-4.wav
#WAV3J p-16-5.wav
#WAV3K p-16-6.wav
#WAV3L p-16-7.wav
#WAV3M p-16-8.wav
#WAV3N p-16-9.wav
#WAV3O p-16-10.wav
#WAV3P p-16-11.wav
#WAV3Q p-16-12.wav
#WAV3R p-16-13.wav
#WAV3S p-16-14.wav
#WAV3T p-16-15.wav
#WAV3U p-16-16.wav
#WAV3V p-16-17.wav
#WAV3W ps-16-2.wav
#WAV3X ps-16-1.wav
#WAV3Y ps-16-1.wav
#WAV3Z ps-16-2.wav
#WAV40 ps-16-3.wav
#WAV41 ps-16-4.wav
#WAV42 ps-16-5.wav
#WAV43 ps-16-6.wav
#WAV44 ps-16-3.wav
#WAV45 ps-16-7.wav
#WAV46 ps-16-8.wav
#WAV47 ps-16-9.wav
#WAV48 ps-16-10.wav
#WAV49 ps-16-5.wav
#WAV4A ps-16-8.wav
#WAV4B ps-16-2.wav
#WAV4C ps-16-11.wav
#WAV4D ps-16-12.wav
#WAV4E ps-16-13.wav
#WAV4F ps-16-14.wav
#WAV4G ps-16-15.wav
#WAV4H ps-16-16.wav
#WAV4I ps-16-17.wav
#WAV4J ps-16-18.wav
#WAV4K ps-16-19.wav
#WAV4L ps-16-20.wav
#WAV4M ps-16-7.wav
#WAV4N ps-16-21.wav
#WAV4O ps-16-22.wav
#WAV4P ps-16-23.wav
#WAV4Q ps-16-24.wav
#WAV4R ps-16-25.wav
#WAV4S ps-16-26.wav
#WAV4T ps-16-27.wav
#WAV4U ps-16-28.wav
#WAV4V ps-16-29.wav
#WAV4W ps-16-30.wav
#WAV4X ps-16-23.wav
#WAV4Y ps-16-31.wav
#WAV4Z ps-32-1.wav
#WAV50 ps-32-1.wav
#WAV51 ps-32-1b.wav
#WAV52 ps-32-1b.wav
#WAV53 ps-32-2.wav
#WAV54 ps-32-2.wav
#WAV55 ps-32-2b.wav
#WAV56 ps-32-2b.wav
#WAV57 ps-32-3.wav
#WAV58 ps-32-4.wav
#WAV59 ps-32-5.wav
#WAV5A ps-32-6.wav
#WAV5B ps-32-7.wav
#WAV5C ps-32-8.wav
#WAV5D ps-32-9.wav
#WAV5E ps-32-10.wav
#WAV5F ps-32-10.wav
#WAV5G ps-32-10b.wav
#WAV5H ps-32-10b.wav
#WAV5I SE2.wav
#WAV5J chero 1.wav
#WAV5K chero 2.wav
#WAV5L chero 3.wav
#WAV5M chero 4.wav
#WAV5N chero 9.wav
#WAV5O chero 10.wav
#WAV5P chero 11.wav
#WAV5Q chero 12.wav
#WAV5R chero 13.wav
#WAV5S chero 14.wav
#WAV5T chero 15.wav
#WAV5U chero 16.wav
#WAV5V chero 17.wav
#WAV5W chero 18.wav
#WAV5X chero 19.wav
#WAV5Y chero 20.wav
#WAV5Z chero 21.wav
#WAV60 chero 22.wav
#WAV61 solo 1.wav
#WAV62 solo 2.wav
#WAV63 solo 3.wav
#WAV64 solo 4.wav
#WAV65 solo 5.wav
#WAV66 solo 6.wav
#WAV67 solo 7.wav
#WAV68 solo 8.wav
#WAV69 solo 9.wav
#WAV6A solo 10.wav
#WAV6B solo 11.wav
#WAV6C solo 12.wav
#WAV6D solo 13.wav
#WAV6E solo 14.wav
#WAV6F solo 15.wav
#WAV6G solo 16.wav
#WAV6H solo 17.wav
#WAV6I solo 18.wav
#WAV6J solo 19.wav
#WAV6K solo 20.wav
#WAV6L solo 21.wav
#WAV6M solo 22.wav
#WAV6N solo 23.wav
#WAV6O solo 24.wav
#WAV6P solo 25.wav
#WAV6Q solo 26.wav
#WAV6R solo 27.wav
#WAV6S solo 28.wav
#WAV6T solo 29.wav
#WAV6U solo 30.wav
#WAV6V solo 31.wav
#WAV6W solo 32.wav
#WAV6X solo 33.wav
#WAV6Y solo 34.wav
#WAV6Z solo 35.wav
#WAV70 solo 36.wav
#WAV71 solo 37.wav
#WAV72 solo 38.wav
#WAV73 solo 39.wav
#WAV74 solo 40.wav
#WAV75 solo 41.wav
#WAV76 solo 42.wav
#WAV77 solo 43.wav
#WAV78 solo 44.wav
#WAV79 solo 45.wav
#WAV7A solo 46.wav
#WAV7B bass1.wav
#WAV7C bass2.wav
#WAV7D bass3.wav
#WAV7E bass4.wav
#WAV7F bass5.wav
#WAV7G bass6.wav
#WAV7H bass7.wav
#WAV7I bass8.wav
#WAV7J bass9.wav
#WAV7K bass10.wav
#WAV7L bass11.wav
#WAV7M bass12.wav
#WAV7N bass13.wav
#WAV7O bass14.wav
#WAV7P bass15.wav
#WAV7Q bass16.wav
#WAV7R bass17.wav
#WAV7S bass18.wav
#WAV7T bass19.wav
#WAV7U bass20.wav
#WAV7V bass1.wav
#WAV7W bass3.wav
#WAV7X bass5.wav
#WAV7Y bass7.wav
#WAV7Z bass9.wav
#WAV80 bass11.wav
#WAV81 bass13.wav
#WAV82 bass15.wav
#WAV83 bass17.wav
#WAV84 bass19.wav
#WAV85 chero1.wav
#WAV86 chero2.wav
#WAV87 chero3.wav
#WAV88 chero4.wav
#WAV89 vio1.wav
#WAV8A vio2.wav
#WAV8B vio3.wav
#WAV8C vio4.wav
#WAV8D tim.wav
#WAV8E tanbarin.wav
#WAV8F suzu.wav
#WAV8G suzu32.wav
#WAV8H syuooo.wav
#WAV8I SE5.wav
#WAV8J horn.wav
#WAV8K suzu.wav
#WAV8L suzu32.wav
#WAV8M cym B.wav
#WAV8N cym C.wav
#WAV8O SE4.wav
#BMP01 joker.mpg
#BMP03 miss 01.bmp
#BMP04 miss 02.bmp
#BMP05 miss 03.bmp
#BMP06 miss 04.bmp
#BMP07 miss 05.bmp
#BMP08 miss 06.bmp
#BMP09 miss 07.bmp
#BMP0A miss 08.bmp
#BMP0B miss 09.bmp
#BMP0C miss 10.bmp
#BMP0D miss 11.bmp
#BMP0E miss 12.bmp
#BMP0F miss 13.bmp
#BMP0G miss 14.bmp
#BMP0H miss 15.bmp
#BMP0I miss 16.bmp
#DIFFICULTY 3
#BACKBMP logo.jpg
#LNOBJ LN
*---------------------- MAIN DATA FIELD
#00104:01
#00106:030405060708090A0B0C0D0E0F0G0H0I030405060708090A0B0C0D0E0F0G0H0I
#00116:000B0000LN000000
#00201:00
#00201:00
#00201:00
#00201:00
#00201:00
#00201:00
#00201:00
#00201:00
#00201:00
#00201:00
#00201:00
#00201:00
#00201:00
#00201:7B7C7B7V7C7B7V7C7B7C7B7V7C7B7V7C
#00206:030405060708090A0B0C0D0E0F0G0H0I030405060708090A0B0C0D0E0F0G0H0I
#00211:0400000400040000
#00213:0S0TLN0000000000
#00214:0000000000000U0000LN000000000000
#00215:0Z10LN0000000000
#00218:000000000000110000LN000000000000
#00219:00000K00000K0000
#00301:00
#00301:00
#00301:00
#00301:00
#00301:00
#00301:00
#00301:00
#00301:00
#00301:00
#00301:00
#00301:00
#00301:00
#00301:00
#00301:7B7C7B7V7C7B7V7C7B7C7B7V7C7B7V7C
#00306:030405060708090A0B0C0D0E0F0G0H0I030405060708090A0B0C0D0E0F0G0H0I
#00311:0400000400040000
#00313:0V0WLN0000000000
#00314:0000000000000X0000LN000000000000
#00315:00000K00000K0000
#00318:1213LN0000000000
#00319:000000000000140000LN000000000000
#00401:00
#00401:00
#00401:00
#00401:00
#00401:00
#00401:00
#00401:00
#00401:0F0F0F0F0F0F0F0F
#00401:000G000G000G000G000G000G000G000G
#00401:00
#00401:00
#00401:00
#00401:00
#00401:7B7C7B7V7C7B7V7C7B7C7B7V7C7B7V7C
#00406:030405060708090A0B0C0D0E0F0G0H0I030405060708090A0B0C0D0E0F0G0H0I
#00411:0400000400040000
#00413:0S0TLN0000000000
#00414:0000000000000U0000LN000000000000
#00415:0Z10LN0000000000
#00416:0J00000I000I0000
#00418:000000000000110000LN000000000000
#00501:00
#00501:00
#00501:00
#00501:00
#00501:00
#00501:00
#00501:00
#00501:0F0F0F0F0F0F0F0F
#00501:000G000G000G000G000G000G000G000G
#00501:00
#00501:00
#00501:00
#00501:00
#00501:7B7C7B7V7C7B7V7C7B7C7B7V7C7B7V7C
#00506:030405060708090A0B0C0D0E0F0G0H0I030405060708090A0B0C0D0E0F0G0H0I
#00511:0400000400040000
#00513:0V0WLN0000000000
#00514:0000000000000000000000000X0000000000LN00000000000000000000000004
#00515:00000000000000000000000000000004
#00516:0J00000I000I0000
#00518:1200000013000000LN0000000000000000000000000000000000000000040000
#00519:000000000000140000LN000000000400
#00601:00
#00601:000K000K
#00601:00
#00601:00
#00601:00
#00601:00
#00601:00
#00601:00
#00601:00
#00601:0001000100010001
#00601:00030203020302030203020302030203
#00601:00
#00601:00
#00601:7B7C7B7V7C7B7V7C7B7C7B7V7C7B7V7C
#00601:00
#00601:00
#00601:00
#00601:00
#00601:00
#00601:00
#00601:00
#00601:00
#00601:00
#00601:00
#00601:00
#00601:00
#00601:00
#00601:00
#00601:0N
#00601:0N
#00601:0N
#00601:0N
#00606:030405060708090A0B0C0D0E0F0G0H0I030405060708090A0B0C0D0E0F0G0H0I
#00611:04040404
#00612:000000000000002H
#00613:2G
#00614:00000000002I0000
#00615:002H002H00002J00
#00616:0C
#00618:022K
#00619:002I0000
#00701:00
#00701:000K000K
#00701:00
#00701:00
#00701:00
#00701:00
#00701:00
#00701:00
#00701:00
#00701:0001000100010001
#00701:02030203020302030203020302030203
#00701:00
#00701:00
#00701:7B7C7B7V7C7B7V7C7B7C7B7V7C7B7V7C
#00706:030405060708090A0B0C0D0E0F0G0H0I030405060708090A0B0C0D0E0F0G0H0I
#00711:04040404
#00713:000000000000000000000000000000LN
#00714:2G000000002H002I
#00715:002J0000
#00718:002I002K00002K00
#00719:002L
#00801:000K000K
#00801:00
#00801:00
#00801:00
#00801:00
#00801:00
#00801:00
#00801:00
#00801:00
#00801:0001000100010001
#00801:00030203020302030203020302030203
#00801:00
#00801:00
#00801:7D7E7D7W7E7D7W7E7D7E7D7W7E7D7W7E
#00806:030405060708090A0B0C0D0E0F0G0H0I030405060708090A0B0C0D0E0F0G0H0I
#00811:04040404
#00812:2J
#00813:0000002H00000000
#00814:00000000002K0000
#00815:02
#00818:002K000000002L00
#00819:00002L002M00002M
#00901:000K000K
#00901:00
#00901:00
#00901:00
#00901:00
#00901:00
#00901:00
#00901:00
#00901:00
#00901:0001000100010001
#00901:02030203020302030203020302030203
#00901:00
#00901:00
#00901:7D7E7D7W7E7D7W7E7D7E7D7W7E7D7W7E
#00906:030405060708090A0B0C0D0E0F0G0H0I030405060708090A0B0C0D0E0F0G0H0I
#00911:04040404
#00912:000000000000000000000000000000LN
#00913:2H
#00914:0000002I0000002N
#00915:0000002I
#00918:00002K00002J0000
#00919:002L00002K000000
#01001:000K000K
#01001:00
#01001:00
#01001:00
#01001:00
#01001:00
#01001:00
#01001:00
#01001:00
#01001:0001000100010001
#01001:00030203020302030203020302030203
#01001:00
#01001:00
#01001:7F7G7F7X7G7F7X7G7F7G7F7X7G7F7X7G
#01006:030405060708090A0B0C0D0E0F0G0H0I030405060708090A0B0C0D0E0F0G0H0I
#01011:04040404
#01012:0000002H0000002H
#01013:02000000002I0000
#01014:0000002J
#01015:2G
#01018:002H00002K000000
#01019:002I0000
#01101:000K000K
#01101:00
#01101:00
#01101:00
#01101:00
#01101:00
#01101:00
#01101:00
#01101:00
#01101:0001000100010001
#01101:02030203020302030203020302030203
#01101:00
#01101:00
#01101:7F7G7F7X7G7F7X7G7F7G7F7X7G7F7X7G
#01106:030405060708090A0B0C0D0E0F0G0H0I030405060708090A0B0C0D0E0F0G0H0I
#01111:04040404
#01112:002I00000000002I
#01113:2G002J00002H0000
#01114:0000002K00000000
#01115:000000000000000000000000000000LN
#01118:0000002K
#01119:002L
#01201:00
#01201:00
#01201:00
#01201:00
#01201:00
#01201:00
#01201:00
#01201:00
#01201:00
#01201:0001000100010001
#01201:02030203020302030203020302030203
#01201:00
#01201:00
#01201:7B7C7B7V7C7B7V7C7B7C7B7V7C7B7V7C
#01206:030405060708090A0B0C0D0E0F0G0H0I030405060708090A0B0C0D0E0F0G0H0I
#01211:04040404
#01213:000K000K
#01214:2J00002H00000000
#01215:002K0000002K0000
#01218:002L002L
#01219:000000002M00002M
#01301:00
#01301:00
#01301:00
#01301:00
#01301:00
#01301:00
#01301:00
#01301:00
#01301:00
#01301:0001000100010001
#01301:02030203020302030203020302030203
#01301:00
#01301:00
#01301:7B7C7B7V7C7B7V7C7B7C7B7V7C7B7V7C
#01306:030405060708090A0B0C0D0E0F0G0H0I030405060708090A0B0C0D0E0F0G0H0I
#01311:04040404
#01312:0000002I0000002N
#01313:2H0K000K
#01314:00000000002J0000
#01315:002K002I
#01316:000000000000000000000000008M0000
#01318:002L00002K000000
#01401:0001000100010001
#01401:000K000K
#01401:00
#01401:00
#01401:00
#01401:00
#01401:00
#01401:00
#01401:00
#01401:00
#01401:00030203020302030203020302030203
#01401:00
#01401:00
#01401:7B7C7B7V7C7B7V7C7B7C7B7V7C7B7V7C
#01406:030405060708090A0B0C0D0E0F0G0H0I030405060708090A0B0C0D0E0F0G0H0I
#01411:0400002H002I0000
#01412:002H000000000000
#01413:00002I000000002H
#01414:00002K2J
#01415:2G
#01419:02040404
#01501:0001000100010001
#01501:000K000K
#01501:00
#01501:00
#01501:00
#01501:00
#01501:00
#01501:00
#01501:00
#01501:00
#01501:02030203020302030203020302030203
#01501:00
#01501:00
#01501:7B7C7B7V7C7B7V7C7B7C7B7V7C7B7V7C
#01506:030405060708090A0B0C0D0E0F0G0H0I030405060708090A0B0C0D0E0F0G0H0I
#01511:002I00000000002I
#01512:2G002J00002H0000
#01513:0000002K00002K00
#01514:002L
#01515:000000000000000000000000000000LN
#01519:04040404
#01601:0001000100010001
#01601:000K000K
#01601:00
#01601:00
#01601:00
#01601:00
#01601:00
#01601:00
#01601:00
#01601:00
#01601:00030203020302030203020302030203
#01601:00
#01601:00
#01601:7D7E7D7W7E7D7W7E7D7E7D7W7E7D7W7E
#01606:030405060708090A0B0C0D0E0F0G0H0I030405060708090A0B0C0D0E0F0G0H0I
#01612:0200002H002K0000
#01613:002K000000002L00
#01614:000000002M00002M
#01615:002L0000
#01618:2J
#01619:04040404
#01701:0001000100010001
#01701:000K000K
#01701:00
#01701:00
#01701:00
#01701:00
#01701:00
#01701:00
#01701:00
#01701:00
#01701:02030203020302030203020302030203
#01701:00
#01701:00
#01701:7D7E7D7W7E7D7W7E7D7E7D7W7E7D7W7E
#01706:030405060708090A0B0C0D0E0F0G0H0I030405060708090A0B0C0D0E0F0G0H0I
#01712:0000002I0000002N
#01713:2H00002I
#01714:00002K00002J0000
#01715:002L00002K000000
#01718:000000000000000000000000000000LN
#01719:04040404
#01801:0001000100010001
#01801:000K000K
#01801:00
#01801:00
#01801:00
#01801:00
#01801:00
#01801:00
#01801:00
#01801:00
#01801:00030203020302030203020302030203
#01801:00
#01801:00
#01801:7F7G7F7X7G7F7X7G7F7G7F7X7G7F7X7G
#01806:030405060708090A0B0C0D0E0F0G0H0I030405060708090A0B0C0D0E0F0G0H0I
#01811:04040404
#01812:0000002H0000002H
#01813:02000000002I0000
#01814:002H000000000000
#01815:002I002J
#01818:002K
#01819:2G
#01901:0001000100010001
#01901:000K000K
#01901:00
#01901:00
#01901:00
#01901:00
#01901:00
#01901:00
#01901:00
#01901:00
#01901:02030203020302030203020302030203
#01901:00
#01901:00
#01901:7F7G7F7X7G7F7X7G7F7G7F7X7G7F7X7G
#01906:030405060708090A0B0C0D0E0F0G0H0I030405060708090A0B0C0D0E0F0G0H0I
#01911:04040404
#01912:000000000000002I
#01913:002I000000000000
#01914:2G002J00002H0000
#01915:0000002K00002K00
#01918:002L
#01919:000000000000000000000000000000LN
#02001:00
#02001:000K000K
#02001:00
#02001:00
#02001:00
#02001:00
#02001:00
#02001:00
#02001:00
#02001:00
#02001:02030203020302030203020302030203
#02001:00
#02001:00
#02001:7B7C7B7V7C7B7V7C7B7C7B7V7C7B7V7C
#02006:030405060708090A0B0C0D0E0F0G0H0I030405060708090A0B0C0D0E0F0G0H0I
#02011:04040404
#02012:0001000100010001
#02013:2J
#02014:0000002H00000000
#02015:002K0000002K0000
#02018:002L002L
#02019:000000002M00002M
#02101:00
#02101:00
#02101:00
#02101:00
#02101:00
#02101:00
#02101:000K000K
#02101:00
#02101:00
#02101:0001000100010001
#02101:02030203020302030203020302030203
#02101:00
#02101:00
#02101:7B7C7B7V7C7B7V7C7B7C7B7V7C7B7V7C
#02106:030405060708090A0B0C0D0E0F0G0H0I030405060708090A0B0C0D0E0F0G0H0I
#02111:04000004000400000400040000000400
#02112:0000000000000000000000000000000000000000000000000000060000040000
#02113:00000500000000050000000005000004
#02114:000000000000000000000000000000000000000000000000000000002N000004
#02115:2H00002I00002I00
#02116:0I000M0J00000H00
#02118:00002K00002J0000
#02119:002L00002K000000
#02201:00
#02201:00
#02201:00
#02201:00
#02201:00
#02201:00
#02201:00
#02201:00
#02201:00
#02201:00
#02201:02030203020302030203020302030203
#02201:00
#02201:00
#02201:7B7C7B7V7C7B7V7C7B7C7B7V7C7B7V7C
#02201:00
#02201:00
#02201:1I001K001I001I1J001I1J001I001K00
#02201:00
#02201:8F8K8F008F8K8F008F8K8F008F8K0000
#02201:000000000000008E
#02201:00
#02201:00
#02201:00
#02201:00
#02201:00
#02201:00
#02201:00
#02201:00
#02201:00
#02201:00
#02201:00
#02201:0O
#02206:030405060708090A0B0C0D0E0F0G0H0I030405060708090A0B0C0D0E0F0G0H0I
#02211:04040404
#02212:0000000000010001
#02213:0001000100000K00
#02214:0000000000000017
#02215:16LN000017LN0000
#02216:0C
#02218:000017LN0018LN00
#02219:00000K00000019LN
#02301:00
#02301:00
#02301:00
#02301:00
#02301:00
#02301:00
#02301:00
#02301:00
#02301:00
#02301:00
#02301:02030203020302030203020302030203
#02301:00
#02301:00
#02301:7B7C7B7V7C7B7V7C7B7C7B7V7C7B7V7C
#02301:00
#02301:00
#02301:1I001K001I001I1J001I1J001I001K00
#02301:00
#02301:8F008K008F0000008F008K008G8L8G8L8F0000008K0000008F008K0000000000
#02301:000000000000008E
#02306:030405060708090A0B0C0D0E0F0G0H0I030405060708090A0B0C0D0E0F0G0H0I
#02311:04040404
#02312:00000001000016LN
#02313:000100001ALN0000
#02314:LN000017LN000000
#02315:18LN18LN00010001
#02318:0019LN0000000000
#02319:000K000K
#02401:00
#02401:00
#02401:00
#02401:00
#02401:00
#02401:00
#02401:00
#02401:00
#02401:00
#02401:00
#02401:02030203020302030203020302030203
#02401:00
#02401:00
#02401:7D7E7D7W7E7D7W7E7D7E7D7W7E7D7W7E
#02401:00
#02401:00
#02401:1L001N001L001L1M001L1M001L001N00
#02401:00
#02401:8F8K8F008F8K8F008F8K8F008F8K0000
#02401:000000000000008E
#02406:030405060708090A0B0C0D0E0F0G0H0I030405060708090A0B0C0D0E0F0G0H0I
#02411:04040404
#02412:0001000000010001
#02413:16LN000100000K00
#02415:000017LN17LN0017
#02418:000000000018LN00
#02419:00000K00000019LN
#02501:00
#02501:00
#02501:00
#02501:00
#02501:00
#02501:00
#02501:00
#02501:00
#02501:00
#02501:00
#02501:02030203020302030203020302030203
#02501:00
#02501:00
#02501:7D7E7D7W7E7D7W7E7D7E7D7W7E7D7W7E
#02501:00
#02501:00
#02501:1L001N001L001L1M001L1M001L001N00
#02501:00
#02501:8F008K008F0000008F008K008G8L8G8L8F0000008K0000008F008K0000000000
#02501:000000000000008E
#02506:030405060708090A0B0C0D0E0F0G0H0I030405060708090A0B0C0D0E0F0G0H0I
#02511:04040404
#02512:0001000100010001
#02513:00000K001ALN0000
#02514:00000017LN00001A
#02515:LN0018LN0017LN00
#02518:0019LN00000018LN
#02519:1BLN000000000K00
#02601:00
#02601:00
#02601:00
#02601:00
#02601:00
#02601:00
#02601:00
#02601:00
#02601:00
#02601:00
#02601:02030203020302030203020302030203
#02601:00
#02601:00
#02601:7F7G7F7X7G7F7X7G7F7G7F7X7G7F7X7G
#02601:00
#02601:00
#02601:1O001Q001O001O1P001O1P001O001Q00
#02601:00
#02601:8F8K8F008F8K8F008F8K8F008F8K0000
#02601:000000000000008E
#02606:030405060708090A0B0C0D0E0F0G0H0I030405060708090A0B0C0D0E0F0G0H0I
#02611:04040404
#02612:0001000100010001
#02613:16LN000000000K00
#02614:LN00000017LN0000
#02615:000017LN0018LN17
#02618:00000000000019LN
#02619:000K0000
#02701:00
#02701:00
#02701:00
#02701:00
#02701:00
#02701:00
#02701:00
#02701:00
#02701:00
#02701:00
#02701:02030203020302030203020302030203
#02701:00
#02701:00
#02701:7F7G7F7X7G7F7X7G7F7G7F7X7G7F7X7G
#02701:00
#02701:00
#02701:1O001Q001O001O1P001O1P001O001Q00
#02701:00
#02701:8F008K008F0000008F008K008G8L8G8L8F0000008K0000008F008K0000000000
#02701:000000000000008E
#02706:030405060708090A0B0C0D0E0F0G0H0I030405060708090A0B0C0D0E0F0G0H0I
#02711:04040404
#02712:0001000100000001
#02713:00000K00001C0000
#02714:00000000000000001C00LN1D00001F00
#02715:LN000017LN001ELN
#02718:18LN18LN00010000
#02719:0019LN0000000K00
#02801:00
#02801:00
#02801:00
#02801:00
#02801:00
#02801:00
#02801:00
#02801:00
#02801:00
#02801:00
#02801:02030203020302030203020302030203
#02801:00
#02801:00
#02801:7B7C7B7V7C7B7V7C7B7C7B7V7C7B7V7C
#02801:00
#02801:00
#02801:1R001T001R001R1S001R1S001R001T00
#02801:00
#02801:8F8K8F008F8K8F008F8K8F008F8K0000
#02801:000000000000008E
#02806:030405060708090A0B0C0D0E0F0G0H0I030405060708090A0B0C0D0E0F0G0H0I
#02811:04040404
#02812:0001000100010001
#02813:16LN000000000K00
#02814:LN00000017LN0000
#02815:000017LN0018LN17
#02818:00000000000019LN
#02819:000K0000
#02901:00
#02901:00
#02901:00
#02901:00
#02901:00
#02901:00
#02901:00
#02901:00
#02901:00
#02901:0000000000010001
#02901:02030203020302030203020302030203
#02901:00
#02901:00
#02901:7B7C7B7V7C7B7V7C7B7C7B7V7C7B7V7C
#02901:00
#02901:00
#02901:1R001T001R001R1S001R1S001R001T00
#02901:00
#02901:8F008K008F0000008F008K008G8L8G8L8F0000008K0000008F008K0000000000
#02901:000000000000008E
#02906:030405060708090A0B0C0D0E0F0G0H0I030405060708090A0B0C0D0E0F0G0H0I
#02911:04040404
#02912:0001000100000000
#02913:00000K001ALN0000
#02914:0000001DLN17LN1A
#02915:LN001ELN000018LN
#02916:000000000000000000000000008M0000
#02918:1G00LN1H000000000000000000000000
#02919:001G000000000K00
#03001:0000000017000017
#03001:0000170000180000
#03001:00000019
#03001:00
#03001:00
#03001:00
#03001:000K000K
#03001:00
#03001:00
#03001:0001000100010001
#03001:02030203020302030203020302030203
#03001:00
#03001:00
#03001:7B7C7B7V7C7B7V7C7B7C7B7V7C7B7V7C
#03001:00
#03001:00
#03001:00
#03001:00
#03001:8F8K8F008F8K8F008F8K8F008F8K0000
#03001:000000000000008E
#03006:030405060708090A0B0C0D0E0F0G0H0I030405060708090A0B0C0D0E0F0G0H0I
#03011:04040404
#03012:16
#03013:0000001I00001I00
#03014:LN00000000000000001I000000000000
#03015:1I1I0000
#03018:000000000000001J00001J0000000000
#03019:001K00000000001K
#03101:1800001700001600
#03101:00181A00
#03101:0019000000000000
#03101:00
#03101:00
#03101:00
#03101:000K000K
#03101:00
#03101:00
#03101:0001000100010001
#03101:02030203020302030203020302030203
#03101:00
#03101:00
#03101:7B7C7B7V7C7B7V7C7B7C7B7V7C7B7V7C
#03101:00
#03101:00
#03101:00
#03101:00
#03101:8F008K008F0000008F008K008G8L8G8L8F0000008K0000008F008K0000000000
#03101:000000000000008E
#03106:030405060708090A0B0C0D0E0F0G0H0I030405060708090A0B0C0D0E0F0G0H0I
#03111:04040404
#03112:000000000000000000000000000000LN
#03113:001I0000
#03114:1I00000000000000001I00001I000000
#03115:0000001I00000000
#03118:001K0000001J0000
#03119:000000000000001J0000000000001K00
#03201:00171700
#03201:0000000000180017
#03201:00000019
#03201:00
#03201:00
#03201:00
#03201:000K000K
#03201:00
#03201:00
#03201:0001000100010001
#03201:02030203020302030203020302030203
#03201:00
#03201:00
#03201:7D7E7D7W7E7D7W7E7D7E7D7W7E7D7W7E
#03201:00
#03201:00
#03201:00
#03201:00
#03201:8F8K8F008F8K8F008F8K8F008F8K0000
#03201:000000000000008E
#03206:030405060708090A0B0C0D0E0F0G0H0I030405060708090A0B0C0D0E0F0G0H0I
#03211:04040404
#03213:16
#03214:0000001L00001L00
#03215:1L00000000000000001L000000000000
#03218:000000001L00001M0000000000000000
#03219:001N0000001M001N
#03301:000000171A000000
#03301:000018000017001A
#03301:1B19000000001800
#03301:00
#03301:00
#03301:00
#03301:000K000K
#03301:00
#03301:00
#03301:0001000100010001
#03301:02030203020302030203020302030203
#03301:00
#03301:00
#03301:7D7E7D7W7E7D7W7E7D7E7D7W7E7D7W7E
#03301:00
#03301:00
#03301:00
#03301:00
#03301:8F008K008F0000008F008K008G8L8G8L8F0000008K0000008F008K0000000000
#03301:000000000000008E
#03306:030405060708090A0B0C0D0E0F0G0H0I030405060708090A0B0C0D0E0F0G0H0I
#03311:04040404
#03313:000000000000000000000000000000LN
#03314:0000000000001L00001L000000000000
#03315:1L00001L
#03318:000000001L00001M0000000000000000
#03319:001N0000001M001N
#03401:00001719
#03401:0000170000180017
#03401:00
#03401:00
#03401:00
#03401:00
#03401:000K000K
#03401:00
#03401:00
#03401:0001000100010001
#03401:02030203020302030203020302030203
#03401:00
#03401:00
#03401:7F7G7F7X7G7F7X7G7F7G7F7X7G7F7X7G
#03401:00
#03401:00
#03401:00
#03401:00
#03401:8F8K8F008F8K8F008F8K8F008F8K0000
#03401:000000000000008E
#03406:030405060708090A0B0C0D0E0F0G0H0I030405060708090A0B0C0D0E0F0G0H0I
#03411:04
#03412:0000000000001O00001O000000000000
#03413:001O001O
#03414:1O000000001P0000
#03415:00001Q000000001P0000000000001Q00
#03418:16
#03419:00040404
#03501:1818001E
#03501:001900171C1C001F
#03501:00000000000000000000001D00000000
#03501:00
#03501:00
#03501:00
#03501:000K000K
#03501:00
#03501:00
#03501:0001000100010001
#03501:02030203020302030203020302030203
#03501:00
#03501:00
#03501:7F7G7F7X7G7F7X7G7F7G7F7X7G7F7X7G
#03501:00
#03501:00
#03501:00
#03501:00
#03501:8F008K008F0000008F008K008G8L8G8L8F0000008K0000008F008K0000000000
#03501:000000000000008E
#03506:030405060708090A0B0C0D0E0F0G0H0I030405060708090A0B0C0D0E0F0G0H0I
#03511:0000001O00001O00
#03512:1O00000000000000001O000000000000
#03513:001O0000
#03514:00001Q000000001P00001P0000001Q00
#03518:000000000000000000000000000000LN
#03519:04040404
#03601:00
#03601:00
#03601:00
#03601:00
#03601:00
#03601:00
#03601:000K000K
#03601:00
#03601:00
#03601:0001000100010001
#03601:02030203020302030203020302030203
#03601:00
#03601:00
#03601:7B7C7B7V7C7B7V7C7B7C7B7V7C7B7V7C
#03601:00
#03601:00
#03601:00
#03601:00
#03601:8F8K8F008F8K8F008F8K8F008F8K0000
#03601:000000000000008E
#03606:030405060708090A0B0C0D0E0F0G0H0I030405060708090A0B0C0D0E0F0G0H0I
#03611:04040404
#03612:0000000000000017
#03613:16001719
#03614:000017000018001T
#03615:1R00000000001R00001R00001R000000
#03618:001R0000
#03619:00001T000000001S00001S0000000000
#03701:00
#03701:00
#03701:00
#03701:00
#03701:00
#03701:00
#03701:000K000K
#03701:00
#03701:00
#03701:0001000100010001
#03701:02030203020302030203020302030203
#03701:00
#03701:00
#03701:7B7C7B7V7C7B7V7C7B7C7B7V7C7B7V7C
#03701:00
#03701:00
#03701:00
#03701:00
#03701:8F008K008F0000008F008K008G8L8G8L8F0000008K0000008F008K0000000000
#03701:000000000000008E
#03706:030405060708090A0B0C0D0E0F0G0H0I030405060708090A0B0C0D0E0F0G0H0I
#03711:04040404
#03712:00001T000000001S00001S0000000700
#03713:1R1R1A00
#03714:0000001D0017001A
#03715:001E001R
#03716:0I000M0J00000H00
#03718:0000001H00001R00001R000000001T00
#03719:1G1G000000001800
#03801:00
#03801:00
#03801:00
#03801:00
#03801:04040404
#03801:00
#03801:0000000K
#03801:00
#03801:00
#03801:0001000100010001
#03801:00030203020300030203020302030203
#03801:00
#03801:00
#03801:7B7C7B7V7C7B7V7C7B7C7B7V7C7B7V7C
#03801:00
#03801:00
#03801:00
#03801:00
#03801:00
#03801:00
#03801:00
#03801:00
#03801:5J5K5J5K005L005M
#03801:00
#03801:00
#03801:00
#03801:00
#03801:00
#03801:00
#03801:00
#03801:00
#03801:0P
#03806:030405060708090A0B0C0D0E0F0G0H0I030405060708090A0B0C0D0E0F0G0H0I
#03811:61
#03813:02
#03814:00000K0200LN0000
#03815:2T
#03816:0C
#03818:00002U2V00LN0000
#03901:0000000000000401
#03901:00
#03901:00
#03901:00
#03901:00
#03901:00
#03901:000K000K
#03901:00
#03901:00
#03901:00
#03901:02030203020302030203020302030203
#03901:00
#03901:00
#03901:7B7C7B7V7C7B7V7C7B7C7B7V7C7B7V7C
#03901:00
#03901:00
#03901:00
#03901:00
#03901:00
#03901:00
#03901:00
#03901:00
#03901:5J5K5J5K005L005M
#03906:030405060708090A0B0C0D0E0F0G0H0I030405060708090A0B0C0D0E0F0G0H0I
#03911:000000000000000000000000000000LN
#03912:0404
#03913:00000100000001000000010000LN0000
#03914:2L0004002L000063
#03915:00002O0000002O0000002O0000LN0064
#03918:002P0000
#03919:620000000000000000000000000000LN
#04001:00
#04001:00
#04001:00
#04001:00
#04001:04040404
#04001:00
#04001:0000000K
#04001:00
#04001:00
#04001:0001000000010001
#04001:00030203020302030203020302030203
#04001:00
#04001:00
#04001:7F7G7F7X7G7F7X7G7F7G7F7X7G7F7X7G
#04001:00
#04001:00
#04001:00
#04001:00
#04001:00
#04001:00
#04001:00
#04001:00
#04001:5N5O5N5O005P005Q
#04006:030405060708090A0B0C0D0E0F0G0H0I030405060708090A0B0C0D0E0F0G0H0I
#04011:000000000K00010000LN000000000000
#04012:020000000067LN00
#04013:65000000000000LN0000000068000000
#04014:000000000000000066000000LN690000
#04015:00000000000000LN0000000000006A00
#04018:2W00000000000000000000000000006B
#04019:000000002X002Y0000LN000000000000
#04101:00
#04101:0000000100000000
#04101:04
#04101:00
#04101:00000004
#04101:00
#04101:000K000K
#04101:00
#04101:00
#04101:0001000000000001
#04101:00030203020302030003020302030203
#04101:00
#04101:00
#04101:7F7G7F7X7G7F7X7G7F7G7F7X7G7F7X7G
#04101:00
#04101:00
#04101:00
#04101:00
#04101:00
#04101:00
#04101:00
#04101:00
#04101:5N5O5N5O005P005Q
#04106:030405060708090A0B0C0D0E0F0G0H0I030405060708090A0B0C0D0E0F0G0H0I
#04111:02000000000000LN0000010000000000
#04112:2O0000000400000004000000000000LN
#04113:LN000000002K0000
#04114:LN2Q002O00000000
#04115:LN2Q
#04118:LN0000002P0000006D000000000000LN
#04119:6C000000000000LN0200000000000000
#04201:00
#04201:00
#04201:00
#04201:00
#04201:04040404
#04201:00
#04201:000K000K
#04201:00
#04201:00
#04201:0001000100010001
#04201:00030203020300030203020300030203
#04201:00
#04201:00
#04201:7H7I7H7Y7I7H7Y7I7H7I7H7Y7I7H7Y7I
#04201:00
#04201:00
#04201:00
#04201:00
#04201:00
#04201:00
#04201:00
#04201:00
#04201:5R5S5R5T005U005V
#04206:030405060708090A0B0C0D0E0F0G0H0I030405060708090A0B0C0D0E0F0G0H0I
#04211:000000000000000000000000020000LN
#04212:000000000000020000000000000000LN
#04213:2Z00000000000000000000LN00000000
#04214:6E0000000000000000000000000000LN
#04215:0200000000000000000000LN00000000
#04218:000000000000300000000000000000LN
#04219:000000000000000000000000310000LN
#04301:00
#04301:00
#04301:00
#04301:00
#04301:0401040104010400
#04301:00
#04301:000K000K
#04301:00
#04301:00
#04301:0000000000000001
#04301:02030203020302030203020302030203
#04301:00
#04301:00
#04301:7H7I7H7Y7I7H7Y7I7H7I7H7Y7I7H7Y7I
#04301:00
#04301:00
#04301:00
#04301:00
#04301:00
#04301:00
#04301:00
#04301:00
#04301:5R5S5R5T005U005V
#04306:030405060708090A0B0C0D0E0F0G0H0I030405060708090A0B0C0D0E0F0G0H0I
#04311:6FLN
#04312:000000000000000000002L0000LN0000
#04313:00000000000000002Q00000000LN0000
#04314:0000000000002O000000000000LN0000
#04315:00002PLN00000000
#04318:002S00LN00000000
#04319:2R0000000000LN006G000000000000LN
#04401:00
#04401:00
#04401:00
#04401:00
#04401:00
#04401:00
#04401:040K000K
#04401:00
#04401:00
#04401:0001000000000000
#04401:00030203020302030203020302000203
#04401:00
#04401:00
#04401:7F7G7F7X7G7F7X7G7F7G7F7X7G7F7X7G
#04401:00
#04401:00
#04401:00
#04401:00
#04401:00
#04401:00
#04401:00
#04401:00
#04401:5O5U5S5T005U005V
#04406:030405060708090A0B0C0D0E0F0G0H0I030405060708090A0B0C0D0E0F0G0H0I
#04411:00002S00002R0001
#04412:3200LN00000000002S00000000030000
#04413:0000002P00000400
#04414:6H0000000000000000000000000000LN
#04415:0000000100003F00
#04418:0200LN000000000004000000003G0000
#04419:000004000001003H
#04501:000000000000000000000000008M0000
#04501:00
#04501:00
#04501:00
#04501:04040004
#04501:00
#04501:000K000K
#04501:00
#04501:00
#04501:0001000100010001
#04501:00030203020302030003020302030203
#04501:00
#04501:00
#04501:7J7K7J7Z7K7J7Z7K7L7M7L807M7L807M
#04501:00
#04501:00
#04501:00
#04501:00
#04501:00
#04501:00
#04501:00
#04501:00
#04501:5W5X5Y5Z0060005Y
#04506:030405060708090A0B0C0D0E0F0G0H0I030405060708090A0B0C0D0E0F0G0H0I
#04511:0002
#04512:02000000000000LN0000000000000000
#04513:000000000000000004000000000000LN
#04514:33000000000000LN
#04515:000000000000000034000000000000LN
#04518:6I000000000000LN0000000000000000
#04519:006J
#04601:00
#04601:00
#04601:00
#04601:00
#04601:00040404
#04601:00
#04601:000K000K
#04601:00
#04601:00
#04601:0001000100010001
#04601:00030203020302030203020302030203
#04601:00
#04601:00
#04601:7B7C7B7V7C7B7V7C7B7C7B7V7C7B7V7C
#04601:00
#04601:00
#04601:00
#04601:00
#04601:00
#04601:00
#04601:00
#04601:00
#04601:5J5K5J5K005L005M
#04606:030405060708090A0B0C0D0E0F0G0H0I030405060708090A0B0C0D0E0F0G0H0I
#04611:LN0000003I0000000000003P00000000
#04612:04000000003J000000006O00000000LN
#04613:0000003K6N003Q00
#04614:6K0000006K00003L00000000003R0000
#04615:006L00003M00003S
#04616:02
#04618:3500000000006M00003N00000000003T
#04619:LN000000003O0000
#04701:00
#04701:00
#04701:00
#04701:00
#04701:04040404
#04701:00
#04701:000K000K
#04701:00
#04701:00
#04701:0001000100010001
#04701:00000203020302030203020302030203
#04701:00
#04701:00
#04701:7B7C7B7V7C7B7V7C7B7C7B7V7C7B7V7C
#04701:00
#04701:00
#04701:00
#04701:00
#04701:00
#04701:00
#04701:00
#04701:00
#04701:5J5K5J5K005L005M
#04706:030405060708090A0B0C0D0E0F0G0H0I030405060708090A0B0C0D0E0F0G0H0I
#04711:6K
#04712:000000006K00000000006O00000000LN
#04713:006L00006N000000
#04714:0000006M0000002L
#04715:02030000000000002O0000002Q000000
#04718:00000000002P0000
#04719:36380000000000000000000000000000
#04801:00
#04801:00
#04801:00
#04801:00
#04801:0400040004000401
#04801:00
#04801:000K000K
#04801:00
#04801:00
#04801:0001000100010000
#04801:00030203020302030203020300030003
#04801:00
#04801:00
#04801:7F7G7F7X7G7F7X7G7F7G7F7X7G7F7X7G
#04801:00
#04801:00
#04801:00
#04801:00
#04801:00
#04801:00
#04801:00
#04801:00
#04801:5N5O5N5O005P005Q
#04806:030405060708090A0B0C0D0E0F0G0H0I030405060708090A0B0C0D0E0F0G0H0I
#04811:003U6T6V
#04812:0000003J006U006W
#04813:6P003L02
#04814:00006Q00003I000000003N0000000200
#04815:390000006R00003K000000003A000000
#04818:0000000000006S00003M000000003A00
#04819:02000000000000000000003O00000000
#04901:00
#04901:00
#04901:00
#04901:00
#04901:04040404
#04901:00
#04901:000K000K
#04901:00
#04901:00
#04901:0001000100010001
#04901:02030203020302030203020302030203
#04901:00
#04901:00
#04901:7F7G7F7X7G7F7X7G7F7G7F7X7G7F7X7G
#04901:00
#04901:00
#04901:00
#04901:00
#04901:00
#04901:00
#04901:00
#04901:00
#04901:5N5O5N5O005P005Q
#04901:00
#04901:00
#04901:00
#04901:00
#04901:00
#04901:00
#04901:00
#04901:008O
#04906:030405060708090A0B0C0D0E0F0G0H0I030405060708090A0B0C0D0E0F0G0H0I
#04911:6X00000000000000LN0000000000003J
#04912:000000006Y000000LN00003L00003L00
#04913:000000000000003N00003N00003N0000
#04914:0000003P00003P00003P00003P000000
#04915:00003R00003R00003R00000000000000
#04918:003T00003T0000000000000070000000
#04919:3V6Z
#05001:00
#05001:00
#05001:00
#05001:00
#05001:00040400
#05001:00
#05001:000K000K
#05001:00
#05001:0200000200000200
#05001:0001000000010001
#05001:00030203020300030203020300030203
#05001:00
#05001:00
#05001:7H7I7H7Y7I7H7Y7I7H7I7H7Y7I7H7Y7I
#05001:00
#05001:00
#05001:00
#05001:00
#05001:00
#05001:00
#05001:00
#05001:00
#05001:5R5S5R5T005U005V
#05006:030405060708090A0B0C0D0E0F0G0H0I030405060708090A0B0C0D0E0F0G0H0I
#05011:0000710000730000
#05012:040000000000000000000000000000LN
#05013:000000000000300000000000000000LN
#05014:2Z00000000LN000000000000040000LN
#05015:7100000000000100000000LN00007400
#05018:LN0072000000000000000000310000LN
#05019:LN00007200000000
#05101:00
#05101:00
#05101:00
#05101:00
#05101:04040404
#05101:00
#05101:000K000K
#05101:00
#05101:00
#05101:0001000100010001
#05101:02030203020302030203020302030203
#05101:00
#05101:00
#05101:7H7I7H7Y7I7H7Y7I7H7I7H7Y7I7H7Y7I
#05101:00
#05101:00
#05101:00
#05101:00
#05101:00
#05101:00
#05101:00
#05101:00
#05101:5R5S5R5T005U005V
#05106:030405060708090A0B0C0D0E0F0G0H0I030405060708090A0B0C0D0E0F0G0H0I
#05111:0000007200000000
#05112:00007100002L0000
#05113:007200002Q000000
#05114:7100002O00000000
#05115:00002P0000000075
#05118:002S000000007400
#05119:2R00000000730000
#05201:00
#05201:00
#05201:00
#05201:02
#05201:00000004
#05201:00
#05201:00
#05201:0F0F0F0F0F0F0F0F
#05201:000G000G000G000G000G000G000G000G
#05201:0001000000000001
#05201:00030203020302030203020302030203
#05201:00
#05201:00
#05201:7F7G7F7X7G7F7X7G7F7G7F7X7G7F7X7G
#05201:00
#05201:00
#05201:00
#05201:00
#05201:00
#05201:00
#05201:00
#05201:00
#05201:5O5U5S5T005U005V
#05206:030405060708090A0B0C0D0E0F0G0H0I030405060708090A0B0C0D0E0F0G0H0I
#05211:76000000000000LN
#05212:0000002P00000000
#05213:002S2S3F
#05214:320000000000010000002R00003G0000
#05215:000004000400003H
#05218:0400000000010000
#05219:000000000000000077000000000000LN
#05301:00
#05301:00
#05301:02030003000000000203000300000000
#05301:0I000M0J00000H00
#05301:0400040004000407
#05301:00
#05301:00
#05301:000F0F0F00000F0F
#05301:00000000000G000G0000000G000G000G
#05301:0001000100010001
#05301:00000200020302030000020000000000
#05301:00
#05301:00
#05301:7J7K7J7Z7K7J7Z7K7L7M7L807M7L807M
#05301:00
#05301:00
#05301:00
#05301:00
#05301:00
#05301:00
#05301:00
#05301:00
#05301:5W5X5Y5Z0060005Y
#05301:00
#05301:00
#05301:008J
#05301:00
#05301:00
#05301:00
#05301:0000000000000000005I000000000000
#05301:0000008I
#05306:030405060708090A0B0C0D0E0F0G0H0I030405060708090A0B0C0D0E0F0G0H0I
#05311:00000000000000000F0G000F00000000
#05312:78
#05313:0F0G000G000000000000000000030003
#05314:0079
#05315:3B3C003B000000000000000002000200
#05319:00000000000000003D3E003D00000000
#05401:00
#05401:00
#05401:00
#05401:89898989
#05401:00
#05401:00
#05401:00
#05401:00
#05401:00
#05401:00
#05401:00
#05401:00
#05401:00
#05401:00
#05401:00
#05401:00
#05401:00
#05401:00
#05401:00
#05401:00
#05401:00
#05401:00
#05401:00
#05401:00
#05401:00
#05401:00
#05401:00
#05401:00
#05401:00
#05401:00
#05401:00
#05401:0Q
#05402:0.5
#05403:2E
#05406:030405060708090A0B0C0D0E0F0G0H0I030405060708090A0B0C0D0E0F0G0H0I
#05411:08
#05415:KY
#05416:000D
#05418:7A
#05419:0C
#05501:00
#05501:00
#05501:00
#05501:8A8A8A8A
#05502:0.5
#05506:030405060708090A0B0C0D0E0F0G0H0I030405060708090A0B0C0D0E0F0G0H0I
#05512:LN
#05514:LN
#05518:LN
#05601:00
#05601:00
#05601:00
#05601:8B8B8B8B
#05602:0.5
#05606:030405060708090A0B0C0D0E0F0G0H0I030405060708090A0B0C0D0E0F0G0H0I
#05616:000D
#05701:00
#05701:00
#05701:008D
#05701:8C8C8C8C
#05702:0.5
#05706:030405060708090A0B0C0D0E0F0G0H0I030405060708090A0B0C0D0E0F0G0H0I
#05716:0000000000000000000B0000LN000000
#05801:000L000L
#05801:0009000900090009
#05801:00
#05801:00000004040000040004000404000000
#05801:00
#05801:00
#05801:00
#05801:00
#05801:00
#05801:00
#05801:00
#05801:0E0E0E0E0E0E0E0E
#05801:00
#05801:00
#05801:00
#05801:00
#05801:00
#05801:00
#05801:00
#05801:00
#05801:00
#05801:00
#05801:00
#05801:00
#05801:00
#05801:00
#05801:00
#05801:00
#05801:00
#05801:00
#05801:00
#05801:8H
#05803:5C
#05806:030405060708090A0B0C0D0E0F0G0H0I030405060708090A0B0C0D0E0F0G0H0I
#05812:89LN89LN89LN89LN
#05814:85LN85LN85LN85LN
#05816:0C
#05818:0400000000000000000000000000000000000000000000LN
#05901:0000000L
#05901:00000900000009000000090000000F0F
#05901:00
#05901:00000000000004000400000000000400000004000000040004000000000G0000
#05901:00
#05901:00
#05901:00
#05901:00
#05901:00
#05901:00
#05901:00
#05901:0E0E0E0E000E000E
#05906:030405060708090A0B0C0D0E0F0G0H0I030405060708090A0B0C0D0E0F0G0H0I
#05911:8ALN8ALN8ALN8ALN
#05913:86LN86LN86LN86LN
#05914:0400000000LN000000000000000000000000000000000000
#05915:0000000000000L00000000LN000000000000000000000000
#05918:0000000000000000000000000E00000000LN000000000000
#05919:0000000000000000000000000000000000000E00000000LN
#06001:00
#06001:000L000L
#06001:00000004040000040004000404060400
#06001:0000000000000000000000000000000000000000000000000000000500000000
#06001:090A090A090A090A090A090A090A090A
#06001:00
#06001:00
#06001:00
#06001:00
#06001:00
#06001:00
#06001:000E0E0E000E0E0E
#06006:030405060708090A0B0C0D0E0F0G0H0I030405060708090A0B0C0D0E0F0G0H0I
#06011:0400000000000000000000LN000000000000000000000000
#06012:0000000000000000000000000E00000000000000000000LN
#06014:8BLN8BLN8BLN8BLN
#06016:0H
#06018:87LN87LN87LN87LN
#06101:00
#06101:04000004040000040004000404000000
#06101:00
#06101:000L000L
#06101:00
#06101:00
#06101:00
#06101:000G000G000G000G000G000G000G000G000G000G000G000G000G000G000G000G
#06101:0F0F0F0F0F0F0F0F0F0F0F0F0F0F0F0F
#06101:00
#06101:00
#06101:000E0E0E000E0E0E
#06106:030405060708090A0B0C0D0E0F0G0H0I030405060708090A0B0C0D0E0F0G0H0I
#06111:8CLN8CLN8CLN8CLN
#06113:0000000000000000000000000E00000000000000000000LN
#06115:0E00000000000000000000000000000000000000000000LN
#06119:88LN88LN88LN88LN
#06201:00
#06201:00
#06201:00
#06201:08
#06201:00
#06201:00
#06201:00
#06201:00
#06201:00
#06201:00
#06201:00
#06201:00
#06201:00
#06201:7B7C7B7V7C7B7V7C7B7C7B7V7C7B7V7C
#06201:00
#06201:00
#06201:00
#06201:00
#06201:00
#06201:00
#06201:00
#06201:00
#06201:00
#06201:00
#06201:00
#06201:00
#06201:00
#06201:00
#06201:00
#06201:00
#06201:00
#06201:29
#06203:B8
#06206:030405060708090A0B0C0D0E0F0G0H0I030405060708090A0B0C0D0E0F0G0H0I
#06211:00000000000000000000000000000042
#06212:00000000000051520000000040004000
#06213:00000000000000000000003Z003Z0000
#06214:0040000041410000
#06215:003Z003Z00000000003Y000000000000
#06216:0C
#06218:3Y00000000004Z500000000000000000
#06301:00
#06301:00
#06301:00
#06301:00
#06301:00
#06301:00
#06301:00
#06301:00
#06301:00
#06301:00
#06301:00
#06301:00
#06301:00
#06301:7F7G7F7X7G7F7X7G7F7G7F7X7G7F7X7G
#06306:030405060708090A0B0C0D0E0F0G0H0I030405060708090A0B0C0D0E0F0G0H0I
#06312:4300000000000000550056000055000000000000000000004600000046000000
#06313:00400000000000000000000000480000
#06314:000000003Z000000530054000053000000004000000000000000000000000000
#06315:0000003Y000000000000000000470000
#06318:000000003Z3Z4545
#06401:00
#06401:00
#06401:00
#06401:00
#06401:00
#06401:00
#06401:00
#06401:00
#06401:00
#06401:00
#06401:00
#06401:00
#06401:00
#06401:7H7I7H7Y7I7H7Y7I7H7I7H7Y7I7H7Y7I
#06406:030405060708090A0B0C0D0E0F0G0H0I030405060708090A0B0C0D0E0F0G0H0I
#06411:4C00004F00000000
#06412:00004E00004E00000000000000480000
#06413:000000000000004G4G00000000005700
#06414:00000000000000004D0000000000000000000000480000004600000000580000
#06415:004D0000000000000000000000000059
#06418:000000000000480000000000000000000000460000004700000000000000005A
#06501:00450000
#06501:42
#06501:00
#06501:00
#06501:00
#06501:00
#06501:00
#06501:00
#06501:00
#06501:00
#06501:00
#06501:00
#06501:00
#06501:7N7O7N817O7N817O7P7Q7P827Q7P827Q
#06501:00
#06501:00
#06501:00
#06501:00
#06501:00
#06501:00
#06501:00
#06501:00
#06501:00
#06501:00
#06501:00
#06501:00
#06501:00
#06501:00
#06501:00
#06501:00
#06501:37
#06506:030405060708090A0B0C0D0E0F0G0H0I030405060708090A0B0C0D0E0F0G0H0I
#06511:4H00424L
#06512:000000004300000000484H0000464900
#06513:004E4600004D4I000000000000000046
#06514:00004043
#06515:00464E00004I4D000000000000000042
#06518:000000004J000000004H480000424A00
#06519:3Z004K3Z
#06601:00
#06601:00
#06601:00
#06601:00
#06601:00
#06601:00
#06601:00
#06601:00
#06601:00
#06601:00
#06601:00
#06601:00
#06601:00
#06601:7B7C7B7V7C7B7V7C7B7C7B7V7C7B7V7C
#06606:030405060708090A0B0C0D0E0F0G0H0I030405060708090A0B0C0D0E0F0G0H0I
#06612:00004600450000000040000000000000
#06613:00000000004200000000000040000042
#06614:00470047000043000000000000470000
#06615:00000000000000400000003Z00000000
#06618:450000003Z000045
#06619:0000000000410000
#06701:00
#06701:00
#06701:00
#06701:00
#06701:00
#06701:00
#06701:00
#06701:00
#06701:00
#06701:00
#06701:00
#06701:00
#06701:00
#06701:7L7M7L807M7L807M7L7M7L807M7L807M
#06706:030405060708090A0B0C0D0E0F0G0H0I030405060708090A0B0C0D0E0F0G0H0I
#06711:0042000000000000004O000000000000
#06712:434300004N4P0000
#06713:00000040000000000000004Q00000000
#06714:003Z004R
#06715:000000000041000000000000004S0000
#06718:0000003Y0000004T
#06719:000000000000004L000000000000004U
#06801:00
#06801:00
#06801:00
#06801:00
#06801:00
#06801:00
#06801:00
#06801:00
#06801:00
#06801:00
#06801:00
#06801:00
#06801:00
#06801:7D7E7D7W7E7D7W7E7D7E7D7W7E7D7W7E
#06806:030405060708090A0B0C0D0E0F0G0H0I030405060708090A0B0C0D0E0F0G0H0I
#06811:00000000000000000041000000000000
#06812:003Z004B003Z4B000000000000000041
#06813:00000000003Y0000
#06814:430000003Y00003Y
#06815:00000000000000000000004L00000000
#06818:003X003Y003X3Y0000000000004L0000
#06819:0000004N
#06901:00
#06901:00
#06901:00
#06901:00
#06901:00
#06901:00
#06901:00
#06901:00
#06901:00
#06901:00
#06901:00
#06901:00
#06901:00
#06901:7R7S7R837S7R837S7T7U7T847U7T847U
#06906:030405060708090A0B0C0D0E0F0G0H0I030405060708090A0B0C0D0E0F0G0H0I
#06911:003Y
#06912:0000000000000000004L000000000000
#06913:00003Y00004N4P00
#06914:3Y000000004L004L0000004O004Q0000
#06915:0000004L000000000000000000004T00
#06916:00000000000B0000
#06918:004L000000004N00000000000000004S
#06919:004N000000000000
#07001:00
#07001:00
#07001:00
#07001:00
#07001:04040404
#07001:00
#07001:000K000K
#07001:00
#07001:00
#07001:0001000100010001
#07001:02030203020302030203020302030203
#07001:00
#07001:00
#07001:7B7C7B7V7C7B7V7C7B7C7B7V7C7B7V7C
#07001:00
#07001:00
#07001:1R001T001R001R1S001R1S001R001T00
#07001:00
#07001:002B2C2D2E2B2F2B
#07001:8F8K8F008F8K8F008F8K8F008F8K0000
#07001:000000000000008E
#07001:00
#07001:00
#07001:00
#07001:00
#07001:00
#07001:0R
#07001:0R
#07001:0R
#07001:0R
#07001:0R
#07001:0R
#07006:030405060708090A0B0C0D0E0F0G0H0I030405060708090A0B0C0D0E0F0G0H0I
#07011:4545
#07012:0000400000000000004200003Z000000
#07013:003Z0000000040000000430000410000
#07014:0000003Z003Z00000000004000003Y00
#07015:000000000000003Z000000000000004L
#07016:0C
#07018:00410000
#07019:2A0000000000000000000000000000LN
#07101:00
#07101:00
#07101:00
#07101:00
#07101:04040404
#07101:00
#07101:000K000K
#07101:00
#07101:00
#07101:0001000100010001
#07101:02030203020302030203020302030203
#07101:00
#07101:00
#07101:7F7G7F7X7G7F7X7G7F7G7F7X7G7F7X7G
#07101:00
#07101:00
#07101:1O001Q001O001O1P001O1P001O001Q00
#07101:00
#07101:002B2C2D2E2B2F2B
#07101:8F008K008F0000008F008K008G8L8G8L8F0000008K0000008F008K0000000000
#07101:000000000000008E
#07106:030405060708090A0B0C0D0E0F0G0H0I030405060708090A0B0C0D0E0F0G0H0I
#07111:00000040000000004V00000000000000
#07112:00003Z0000000042004G000000000000
#07113:004100000000400000004E0047000000
#07114:3Y000000004100000000004800450000
#07115:00003Y0000000042
#07118:2A0000000000000000000000000000LN
#07119:00000000000000000000000000000040
#07201:00
#07201:00
#07201:00
#07201:00
#07201:04040404
#07201:00
#07201:000K000K
#07201:00
#07201:00
#07201:0001000100010001
#07201:02030203020302030203020302030203
#07201:00
#07201:00
#07201:7H7I7H7Y7I7H7Y7I7H7I7H7Y7I7H7Y7I
#07201:00
#07201:00
#07201:1L001N001L001L1M001L1M001L001N00
#07201:00
#07201:002B2C2D2E2B2F2B
#07201:8F8K8F008F8K8F008F8K8F008F8K0000
#07201:000000000000008E
#07206:030405060708090A0B0C0D0E0F0G0H0I030405060708090A0B0C0D0E0F0G0H0I
#07211:00003Z00003Y0000
#07212:00000000002K00000000004L00000000
#07213:5G005H00005G0000000000000000420000000000000000004P00000000000000
#07214:2A0000000000000000000000000000LN
#07215:5E005F00005E00000000000000003Z00000000000000000000005B0000000000
#07218:000000000000000000002Q000000000000000000000000000000005C00000000
#07219:00003Y000000005D
#07301:00
#07301:00
#07301:00
#07301:00
#07301:04040404
#07301:00
#07301:000K000K
#07301:00
#07301:00
#07301:0001000100010001
#07301:02030203020302030203020302030203
#07301:00
#07301:00
#07301:7N7O7N817O7N817O7P7Q7P827Q7P827Q
#07301:00
#07301:1U
#07301:00001W001U001U1V001O1P001O001Q00
#07301:00
#07301:002B2C2D002B2F2B
#07301:8F008K008F0000008F008K008G8L8G8L8F0000008K0000008F008K0000000000
#07301:000000000000008E
#07301:00
#07301:00
#07301:00
#07301:00
#07301:00
#07301:0046004I004H0000
#07301:004E0000004D00000048000000000000
#07306:030405060708090A0B0C0D0E0F0G0H0I030405060708090A0B0C0D0E0F0G0H0I
#07311:2A0000000000000000000000000000LN
#07312:4H4E000042480000
#07313:420000LN45004D0040000000LN000049
#07314:00460000430000LN004H000000003W00
#07315:3Z0000LN004I00004K000000LN4K0000
#07318:000000004J0000LN000000004L000000
#07319:00000000000000002E000000000000LN
#07401:00
#07401:00
#07401:00
#07401:00
#07401:04040404
#07401:00
#07401:000K000K
#07401:00
#07401:00
#07401:0001000100010001
#07401:02030203020302030203020302030203
#07401:00
#07401:00
#07401:7B7C7B7V7C7B7V7C7B7C7B7V7C7B7V7C
#07401:00
#07401:00
#07401:1R001T001R001R1S001R1S001R001T00
#07401:00
#07401:002B2C2D2E2B2F2B
#07401:8F8K8F008F8K8F008F8K8F008F8K0000
#07401:000000000000008E
#07406:030405060708090A0B0C0D0E0F0G0H0I030405060708090A0B0C0D0E0F0G0H0I
#07412:2A0000000000000000000000000000LN
#07413:00004600000000000000000000470000
#07414:00470047000000000000000040004500
#07415:45000000450043000040003Z00000042
#07418:00000000004200400000410000000000
#07419:003Z
#07501:00
#07501:00
#07501:00
#07501:00
#07501:04040404
#07501:00
#07501:000K000K
#07501:00
#07501:00
#07501:0001000100010001
#07501:02030203020302030203020302030203
#07501:00
#07501:00
#07501:7L7M7L807M7L807M7L7M7L807M7L807M
#07501:00
#07501:00
#07501:1X001Z001X001X1Y001X1Y001X001Z00
#07501:00
#07501:002B2C2D2E2B2F2B
#07501:8F008K008F0000008F008K008G8L8G8L8F0000008K0000008F008K0000000000
#07501:000000000000008E
#07506:030405060708090A0B0C0D0E0F0G0H0I030405060708090A0B0C0D0E0F0G0H0I
#07511:4300003Y00000000
#07512:000000003Z00004L0000004Q00000000
#07513:00420000000000004N0000004R000000
#07514:2A0000000000000000000000000000LN
#07515:0000430000000000004O0000004S0000
#07518:000000000041000000004P0000004T00
#07519:0000004000000000000000000000004U
#07601:00
#07601:000000000000000043403Z413Y4L4N4O
#07601:00
#07601:00
#07601:04000404
#07601:00
#07601:000K000K
#07601:00
#07601:00
#07601:0000000100010001
#07601:02030203020302030203020302030203
#07601:00
#07601:00
#07601:7D7E7D7W7E7D7W7E7D7E7D7W7E7D7W7E
#07601:00
#07601:00
#07601:20002200200020002120002120002200
#07601:00
#07601:002B2C2D2E2B2F2B
#07601:8F8K8F008F8K8F008F8K8F008F8K0000
#07601:000000000000008E
#07606:030405060708090A0B0C0D0E0F0G0H0I030405060708090A0B0C0D0E0F0G0H0I
#07611:003Z004B003Z4B004B00000000000000
#07612:4500000000000000004100004N000000
#07613:003X003Y003X3Y0000003Y00004O0000
#07614:00000000000000000000004L00004P00
#07615:4300000000000000000000000000004Q
#07618:2A0000000000000000000000000000LN
#07619:0001040000000000
#07701:00
#07701:00
#07701:00
#07701:00
#07701:0400040004000407
#07701:00
#07701:000K000K
#07701:00
#07701:00
#07701:0001000100010001
#07701:02030203020302030203020302030203
#07701:00
#07701:00
#07701:7R7S7R837S7R837S7T7U7T847U7T847U
#07701:00
#07701:00
#07701:23002500230023240026270026002800
#07701:00
#07701:002B2C2D002B2F2B
#07701:8F008K008F0000008F008K008G8L8G8L8F0000008K0000008F008K0000000000
#07701:000000000000008E
#07706:030405060708090A0B0C0D0E0F0G0H0I030405060708090A0B0C0D0E0F0G0H0I
#07711:2A0000000000000000000000000000LN
#07712:0I000M0J00000H00
#07713:0000000000000000000000000000004K
#07714:004P4X004P4X004P4X004P4X00004X00
#07715:000000000000000000000000004Y0000
#07718:4R00004R00004R00004R00004S000000
#07719:00000000000000002E000000000000LN
#07801:00
#07801:00
#07801:2A00002F
#07801:002B0000002B002B
#07801:000K2E0K
#07801:0000002D00000000
#07801:00002C000000008E
#07801:00
#07801:00
#07801:00
#07801:02030203020302030203020302030203
#07801:00
#07801:00
#07801:7B7C7B7V7C7B7V7C7B7C7B7V7C7B7V7C
#07801:00
#07801:00
#07801:1R001T001R001R1S001R1S001R001T00
#07801:00
#07801:00
#07801:8F8K8F008F8K8F008F8K8F008F8K0000
#07806:030405060708090A0B0C0D0E0F0G0H0I030405060708090A0B0C0D0E0F0G0H0I
#07811:04040404
#07812:0001000100010001
#07813:0045
#07814:4500000000004000004200003Z000000
#07815:00004000003Z003Z0000430000410000
#07816:0C
#07818:003Z0000410000000000004000003Y00
#07819:0000003Z00000000000000000000004L
#07901:00
#07901:00
#07901:00
#07901:00000K0000000K8E
#07901:2A000000002B0000
#07901:002B002D00002F00
#07901:00002C002E00002B
#07901:00
#07901:00
#07901:00
#07901:02030203020302030203020302030203
#07901:00
#07901:00
#07901:7F7G7F7X7G7F7X7G7F7G7F7X7G7F7X7G
#07901:00
#07901:00
#07901:1O001Q001O001O1P001O1P001O001Q00
#07901:00
#07901:00
#07901:8F008K008F0000008F008K008G8L8G8L8F0000008K0000008F008K0000000000
#07906:030405060708090A0B0C0D0E0F0G0H0I030405060708090A0B0C0D0E0F0G0H0I
#07911:04040404
#07912:0001000100010001
#07913:00000040000000004V00000047000000
#07914:00003Z000000004200004E0000450000
#07915:0041000000410000004G000000004200
#07918:3Y000000000040000000004800000040
#07919:003Y0000
#08001:000000003Y2Q003Z0000000000000000
#08001:00
#08001:00
#08001:00000K0000000K8E
#08001:2A00002F
#08001:002B0000002B002B
#08001:002C2E00
#08001:00
#08001:00
#08001:00
#08001:02030203020302030203020302030203
#08001:00
#08001:00
#08001:7H7I7H7Y7I7H7Y7I7H7I7H7Y7I7H7Y7I
#08001:00
#08001:00
#08001:1L001N001L001L1M001L1M001L001N00
#08001:00
#08001:00
#08001:8F8K8F008F8K8F008F8K8F008F8K0000
#08006:030405060708090A0B0C0D0E0F0G0H0I030405060708090A0B0C0D0E0F0G0H0I
#08011:04040404
#08012:0001000100010001
#08013:5E40
#08014:00005F00005E0000000000000000420000004100000000000000000000000000
#08015:00000000002K000000003Y00005B0000
#08018:00005H00005G0000000000002D0000000000000000004L000000005C00000000
#08019:5G003Z0000004P5D
#08101:00
#08101:00
#08101:00
#08101:00
#08101:04040404
#08101:00
#08101:000K000K
#08101:00
#08101:00
#08101:0001000100010001
#08101:02030203020302030203020302030203
#08101:00
#08101:00
#08101:7N7O7N817O7N817O7P7Q7P827Q7P827Q
#08101:00
#08101:00
#08101:1U001W001U001U1V001O1P001O001Q00
#08101:00
#08101:2A2B2C2D2E2B2F2B
#08101:8F008K008F0000008F008K008G8L8G8L8F0000008K0000008F008K0000000000
#08101:000000000000008E
#08101:00
#08101:00
#08101:4E48464542403Z3X4P4O4L3X4L3Y3Z40
#08106:030405060708090A0B0C0D0E0F0G0H0I030405060708090A0B0C0D0E0F0G0H0I
#08111:4C
#08112:00004E0000000000000000000000LN45
#08113:004G00LN4600000000000000LN440000
#08114:0000004800LN42000000LN4000LN4200
#08115:0000000000450000LN3X00LN3W0000LN
#08118:000000000000004000LN3Z000000LN00
#08119:00000000000000004L00000000LN0000
#08201:00
#08201:0001000100010001
#08201:00
#08201:00
#08201:1R0000001R001R00001R00001R000000
#08201:00001T000000001S00001S0000001T00
#08201:0000002D00002F00
#08201:002B0000002B0000
#08201:00002C000000002B
#08201:000K2E0K
#08201:02030203020302030203020302030203
#08201:00
#08201:00
#08201:7B7C7B7V7C7B7V7C7B7C7B7V7C7B7V7C
#08201:00
#08201:00
#08201:00
#08201:00
#08201:00
#08201:8F8K8F008F8K8F008F8K8F008F8K0000
#08201:000000000000008E
#08206:030405060708090A0B0C0D0E0F0G0H0I030405060708090A0B0C0D0E0F0G0H0I
#08211:LN400000000000000000000000000000
#08212:LN003Z0000410000004L000000000000
#08213:LN00004100003Y0000004N00004Q004Q
#08214:LN0000003Y00004L0000004O00000000
#08215:3Z0000004N004P4S
#08218:2A0000000000000000000000000000LN
#08219:04040404
#08301:00
#08301:0001000100010001
#08301:00
#08301:00
#08301:00
#08301:1X0000001X001X00001X00001X000000
#08301:00001Z000000001Y00001Y0000001Z00
#08301:0000002D00002F00
#08301:002B2C00002B002B
#08301:000K2E0K
#08301:02030203020302030203020302030203
#08301:00
#08301:00
#08301:7L7M7L807M7L807M7L7M7L807M7L807M
#08301:00
#08301:00
#08301:00
#08301:00
#08301:00
#08301:8F008K008F0000008F008K008G8L8G8L8F0000008K0000008F008K0000000000
#08301:000000000000008E
#08306:030405060708090A0B0C0D0E0F0G0H0I030405060708090A0B0C0D0E0F0G0H0I
#08311:0000004O00004O0000004P004P000000
#08312:00004P00004P003Y000000000000004O
#08313:004Q00004Q0000002R00004W00004P00
#08314:2A0000000000000000000000000000LN
#08315:4R0000000000000000000000004Q0000
#08319:04040404
#08401:000G000G000G000G000G000G000G000G
#08401:00
#08401:0F0F0F0F0F0F0F0F
#08401:00
#08401:00
#08401:20000000200020000020000020000000
#08401:00002200000000210000210000002200
#08401:00
#08401:00
#08401:0001000100010001
#08401:02030203020302030203020302030203
#08401:00
#08401:00
#08401:7D7E7D7W7E7D7W7E7D7E7D7W7E7D7W7E
#08401:00
#08401:00
#08401:00
#08401:00
#08401:002B2C2D2E2B2F2B
#08401:8F8K8F008F8K8F008F8K8F008F8K0000
#08401:000000000000008E
#08401:00
#08401:00
#08401:00
#08401:000000000000000043403Z413Y4L4N4O
#08406:030405060708090A0B0C0D0E0F0G0H0I030405060708090A0B0C0D0E0F0G0H0I
#08411:43004B4N
#08412:003X003Y003X3Y0000410000004O0000
#08413:45000000003Y004P
#08414:003Z004B003Z4B000000004L0000004Q
#08415:2A0000000000000000000000000000LN
#08419:04040404
#08501:000000000000000000000000008M000F
#08501:0G0G0G0G000G000G
#08501:000F000F000F000F000F000F000F0000
#08501:00000G0G
#08501:00
#08501:2300232300002600
#08501:00002500000000240026270000002800
#08501:07070707
#08501:00
#08501:0001000100010001
#08501:02030203020302030203020302030203
#08501:00
#08501:00
#08501:7R7S7R837S7R837S7T7U7T847U7T847U
#08501:00
#08501:00
#08501:00
#08501:00
#08501:002B2C2D002B2F2B
#08501:8F008K008F0000008F008K008G8L8G8L8F0000008K0000008F008K0000000000
#08501:000000000000008E
#08506:030405060708090A0B0C0D0E0F0G0H0I030405060708090A0B0C0D0E0F0G0H0I
#08511:0I000I0J00000H00
#08512:0000000000000000000000000000004K
#08513:004P4X004P4X004P4X004P4X00004X00
#08514:000000000000000000000000004Y0000
#08515:4R00004R00004R00004R00004S000000
#08518:2A000000000000LN0000000000000000
#08519:00000000000000002E000000000000LN
#08601:00
#08601:00
#08601:00
#08601:00
#08601:00
#08601:00
#08601:00
#08601:00
#08601:1500001500001500
#08601:00
#08601:00
#08601:00
#08601:00
#08601:7B7C000000007B7C000000007B7C0000
#08606:030405060708090A0B0C0D0E0F0G0H0I030405060708090A0B0C0D0E0F0G0H0I
#08611:0400000400000400
#08612:00000000450000000041000000000000
#08613:4G0000000000400000000000454M0045
#08614:00004600004300003Y00004000000000
#08615:004800000000003Z000000003Z3W003Z
#08616:0I00000I00000J00
#08618:000000470000000000003Z0000000000
#08619:0Y00000Y00000Y00
#08701:0D
#08701:00
#08701:00
#08701:00
#08701:00
#08701:00
#08701:00
#08701:00
#08701:1500001500001500
#08701:00
#08701:00
#08701:00
#08701:00
#08701:7B7C000000007B7C000000007B7C0000
#08706:030405060708090A0B0C0D0E0F0G0H0I030405060708090A0B0C0D0E0F0G0H0I
#08711:0400000400000400
#08712:00480000450000000000004000000000
#08713:000000000043000000000000454M0045
#08714:4G4600403Y3Z0000
#08715:000000000000003Z000000003Z3W003Z
#08716:0I00000I00000J00
#08718:00000047000000000041000000000000
#08719:0Y00000Y00000Y00
#08801:8N00000000000000005I004700000000
#08801:000000000000000000000000004B003Z
#08801:00
#08801:00
#08801:0400000400000000
#08801:00
#08801:00
#08801:0Y00000Y00000Y00
#08801:1500001500001500
#08801:00
#08801:00
#08801:00
#08801:00
#08801:7B7C000000007B7C000000007B7C0000
#08806:030405060708090A0B0C0D0E0F0G0H0I030405060708090A0B0C0D0E0F0G0H0I
#08811:000000410000LN400000LN0007000000
#08812:000000000000000000004500LN4M0045
#08813:00003Y0000LN3Z0000LN000045000000
#08814:000000000000000000400000LN000000
#08815:004L0000LN410000LN0000003Y000000
#08816:0I00000I00000J00
#08818:00000000000000003Z000000LN3X003Y
#08819:4N0000LN3Y000000LN0000003Z000000
#08901:00
#08901:2H
#08902:0.125
#08903:2E
#08906:030405060708090A0B0C0D0E
#08911:08
#08914:2L
#08916:0C
#08919:2O
#09002:0.125
#09006:0F000G000H000I03000400050006000700080009000A000B
#09102:0.125
#09106:000C000D000E000F000G000H000I03000400050006000700
#09202:0.125
#09206:080009000A000B000C000D000E000F000G000H000I030004
#09302:0.125
#09306:00050006000700080009000A000B000C000D000E000F000G
#09402:0.125
#09406:000H000I03000400050006000700080009000A000B000C00
#09502:0.125
#09506:0D000E000F000G000H000I03000400050006000700080009
#09602:0.125
#09606:0K
#09702:0.125
#09802:0.125
#09902:0.125
#10002:0.125
#10102:0.125
#10202:0.125
#10302:0.125
#10402:0.125
#10502:0.125
#10602:0.125
#10702:0.125