2875 lines
60 KiB
Plaintext
2875 lines
60 KiB
Plaintext
|
|
|
||
|
|
*---------------------- HEADER FIELD
|
||
|
|
|
||
|
|
#PLAYER 1
|
||
|
|
#GENRE RENAISSANCE
|
||
|
|
#TITLE Joker [XaaaCi]
|
||
|
|
#ARTIST D.J.Nero / obj.vese
|
||
|
|
#BPM 184
|
||
|
|
#PLAYLEVEL 15
|
||
|
|
#RANK 3
|
||
|
|
#TOTAL 410
|
||
|
|
#STAGEFILE title.jpg
|
||
|
|
|
||
|
|
#WAV01 opHH.wav
|
||
|
|
#WAV02 close.wav
|
||
|
|
#WAV03 close.wav
|
||
|
|
#WAV04 kickA.wav
|
||
|
|
#WAV05 kickB.wav
|
||
|
|
#WAV06 kickB.wav
|
||
|
|
#WAV07 kick32.wav
|
||
|
|
#WAV08 FXkick.wav
|
||
|
|
#WAV09 snare.wav
|
||
|
|
#WAV0A snare.wav
|
||
|
|
#WAV0B reverse.wav
|
||
|
|
#WAV0C SE1.wav
|
||
|
|
#WAV0D bell.wav
|
||
|
|
#WAV0E ride.wav
|
||
|
|
#WAV0F snare-Fill.wav
|
||
|
|
#WAV0G SE3.wav
|
||
|
|
#WAV0H snare-Fill.wav
|
||
|
|
#WAV0I clashA.wav
|
||
|
|
#WAV0J clashB.wav
|
||
|
|
#WAV0K clashC.wav
|
||
|
|
#WAV0L clap.wav
|
||
|
|
#WAV0M clap-deep.wav
|
||
|
|
#WAV0N clashB.wav
|
||
|
|
#WAV0O bgm1.wav
|
||
|
|
#WAV0P bgm1.wav
|
||
|
|
#WAV0Q bgm2.wav
|
||
|
|
#WAV0R bgm2.wav
|
||
|
|
#WAV0S bgm3.wav
|
||
|
|
#WAV0T str01.wav
|
||
|
|
#WAV0U str01.wav
|
||
|
|
#WAV0V str02.wav
|
||
|
|
#WAV0W str03.wav
|
||
|
|
#WAV0X str03.wav
|
||
|
|
#WAV0Y str04.wav
|
||
|
|
#WAV0Z str05.wav
|
||
|
|
#WAV10 str-01.wav
|
||
|
|
#WAV11 str-01.wav
|
||
|
|
#WAV12 str-02.wav
|
||
|
|
#WAV13 str-03.wav
|
||
|
|
#WAV14 str-03.wav
|
||
|
|
#WAV15 str-04.wav
|
||
|
|
#WAV16 str-05.wav
|
||
|
|
#WAV17 harp1.wav
|
||
|
|
#WAV18 harp2.wav
|
||
|
|
#WAV19 harp3.wav
|
||
|
|
#WAV1A harp4.wav
|
||
|
|
#WAV1B harp5.wav
|
||
|
|
#WAV1C harp6.wav
|
||
|
|
#WAV1D harp16-01.wav
|
||
|
|
#WAV1E harp16-02.wav
|
||
|
|
#WAV1F harp16-03.wav
|
||
|
|
#WAV1G harp16-04.wav
|
||
|
|
#WAV1H harp16-05.wav
|
||
|
|
#WAV1I harp16-06.wav
|
||
|
|
#WAV1J core1.wav
|
||
|
|
#WAV1K core1.wav
|
||
|
|
#WAV1L core1b.wav
|
||
|
|
#WAV1M core2.wav
|
||
|
|
#WAV1N core2.wav
|
||
|
|
#WAV1O core2b.wav
|
||
|
|
#WAV1P core3.wav
|
||
|
|
#WAV1Q core3.wav
|
||
|
|
#WAV1R core3b.wav
|
||
|
|
#WAV1S core4.wav
|
||
|
|
#WAV1T core4.wav
|
||
|
|
#WAV1U core4b.wav
|
||
|
|
#WAV1V core5.wav
|
||
|
|
#WAV1W core5.wav
|
||
|
|
#WAV1X core5b.wav
|
||
|
|
#WAV1Y core6.wav
|
||
|
|
#WAV1Z core6.wav
|
||
|
|
#WAV20 core6b.wav
|
||
|
|
#WAV21 core7.wav
|
||
|
|
#WAV22 core7.wav
|
||
|
|
#WAV23 core7b.wav
|
||
|
|
#WAV24 core8.wav
|
||
|
|
#WAV25 core8.wav
|
||
|
|
#WAV26 core8b.wav
|
||
|
|
#WAV27 core9.wav
|
||
|
|
#WAV28 core9.wav
|
||
|
|
#WAV29 core9b.wav
|
||
|
|
#WAV2A arp-bgm.wav
|
||
|
|
#WAV2B arp1.wav
|
||
|
|
#WAV2C arp2.wav
|
||
|
|
#WAV2D arp3.wav
|
||
|
|
#WAV2E arp4.wav
|
||
|
|
#WAV2F arp5.wav
|
||
|
|
#WAV2G arp6.wav
|
||
|
|
#WAV2H p-8-1.wav
|
||
|
|
#WAV2I p-8-2.wav
|
||
|
|
#WAV2J p-8-3.wav
|
||
|
|
#WAV2K p-8-4.wav
|
||
|
|
#WAV2L p-8-5.wav
|
||
|
|
#WAV2M p-8-6.wav
|
||
|
|
#WAV2N p-8-7.wav
|
||
|
|
#WAV2O p-8-8.wav
|
||
|
|
#WAV2P p-8-9.wav
|
||
|
|
#WAV2Q p-8-10.wav
|
||
|
|
#WAV2R p-8-11.wav
|
||
|
|
#WAV2S p-8-12.wav
|
||
|
|
#WAV2T p-8-13.wav
|
||
|
|
#WAV2U pA-1.wav
|
||
|
|
#WAV2V pA-2.wav
|
||
|
|
#WAV2W pA-2b.wav
|
||
|
|
#WAV2X pA-3.wav
|
||
|
|
#WAV2Y pA-4.wav
|
||
|
|
#WAV2Z pA-4b.wav
|
||
|
|
#WAV30 pA-5.wav
|
||
|
|
#WAV31 pA-6.wav
|
||
|
|
#WAV32 pA-7.wav
|
||
|
|
#WAV33 pA-8.wav
|
||
|
|
#WAV34 pA-9.wav
|
||
|
|
#WAV35 pA-10.wav
|
||
|
|
#WAV36 pA-11.wav
|
||
|
|
#WAV37 pA-12.wav
|
||
|
|
#WAV38 pA-12b.wav
|
||
|
|
#WAV39 pA-13.wav
|
||
|
|
#WAV3A pA-13b.wav
|
||
|
|
#WAV3B pA-14.wav
|
||
|
|
#WAV3C pA-14b.wav
|
||
|
|
#WAV3D pA-15.wav
|
||
|
|
#WAV3E pA-15b.wav
|
||
|
|
#WAV3F p-16-1.wav
|
||
|
|
#WAV3G p-16-2.wav
|
||
|
|
#WAV3H p-16-3.wav
|
||
|
|
#WAV3I p-16-4.wav
|
||
|
|
#WAV3J p-16-5.wav
|
||
|
|
#WAV3K p-16-6.wav
|
||
|
|
#WAV3L p-16-7.wav
|
||
|
|
#WAV3M p-16-8.wav
|
||
|
|
#WAV3N p-16-9.wav
|
||
|
|
#WAV3O p-16-10.wav
|
||
|
|
#WAV3P p-16-11.wav
|
||
|
|
#WAV3Q p-16-12.wav
|
||
|
|
#WAV3R p-16-13.wav
|
||
|
|
#WAV3S p-16-14.wav
|
||
|
|
#WAV3T p-16-15.wav
|
||
|
|
#WAV3U p-16-16.wav
|
||
|
|
#WAV3V p-16-17.wav
|
||
|
|
#WAV3W ps-16-2.wav
|
||
|
|
#WAV3X ps-16-1.wav
|
||
|
|
#WAV3Y ps-16-1.wav
|
||
|
|
#WAV3Z ps-16-2.wav
|
||
|
|
#WAV40 ps-16-3.wav
|
||
|
|
#WAV41 ps-16-4.wav
|
||
|
|
#WAV42 ps-16-5.wav
|
||
|
|
#WAV43 ps-16-6.wav
|
||
|
|
#WAV44 ps-16-3.wav
|
||
|
|
#WAV45 ps-16-7.wav
|
||
|
|
#WAV46 ps-16-8.wav
|
||
|
|
#WAV47 ps-16-9.wav
|
||
|
|
#WAV48 ps-16-10.wav
|
||
|
|
#WAV49 ps-16-5.wav
|
||
|
|
#WAV4A ps-16-8.wav
|
||
|
|
#WAV4B ps-16-2.wav
|
||
|
|
#WAV4C ps-16-11.wav
|
||
|
|
#WAV4D ps-16-12.wav
|
||
|
|
#WAV4E ps-16-13.wav
|
||
|
|
#WAV4F ps-16-14.wav
|
||
|
|
#WAV4G ps-16-15.wav
|
||
|
|
#WAV4H ps-16-16.wav
|
||
|
|
#WAV4I ps-16-17.wav
|
||
|
|
#WAV4J ps-16-18.wav
|
||
|
|
#WAV4K ps-16-19.wav
|
||
|
|
#WAV4L ps-16-20.wav
|
||
|
|
#WAV4M ps-16-7.wav
|
||
|
|
#WAV4N ps-16-21.wav
|
||
|
|
#WAV4O ps-16-22.wav
|
||
|
|
#WAV4P ps-16-23.wav
|
||
|
|
#WAV4Q ps-16-24.wav
|
||
|
|
#WAV4R ps-16-25.wav
|
||
|
|
#WAV4S ps-16-26.wav
|
||
|
|
#WAV4T ps-16-27.wav
|
||
|
|
#WAV4U ps-16-28.wav
|
||
|
|
#WAV4V ps-16-29.wav
|
||
|
|
#WAV4W ps-16-30.wav
|
||
|
|
#WAV4X ps-16-23.wav
|
||
|
|
#WAV4Y ps-16-31.wav
|
||
|
|
#WAV4Z ps-32-1.wav
|
||
|
|
#WAV50 ps-32-1.wav
|
||
|
|
#WAV51 ps-32-1b.wav
|
||
|
|
#WAV52 ps-32-1b.wav
|
||
|
|
#WAV53 ps-32-2.wav
|
||
|
|
#WAV54 ps-32-2.wav
|
||
|
|
#WAV55 ps-32-2b.wav
|
||
|
|
#WAV56 ps-32-2b.wav
|
||
|
|
#WAV57 ps-32-3.wav
|
||
|
|
#WAV58 ps-32-4.wav
|
||
|
|
#WAV59 ps-32-5.wav
|
||
|
|
#WAV5A ps-32-6.wav
|
||
|
|
#WAV5B ps-32-7.wav
|
||
|
|
#WAV5C ps-32-8.wav
|
||
|
|
#WAV5D ps-32-9.wav
|
||
|
|
#WAV5E ps-32-10.wav
|
||
|
|
#WAV5F ps-32-10.wav
|
||
|
|
#WAV5G ps-32-10b.wav
|
||
|
|
#WAV5H ps-32-10b.wav
|
||
|
|
#WAV5I SE2.wav
|
||
|
|
#WAV5J chero 1.wav
|
||
|
|
#WAV5K chero 2.wav
|
||
|
|
#WAV5L chero 3.wav
|
||
|
|
#WAV5M chero 4.wav
|
||
|
|
#WAV5N chero 9.wav
|
||
|
|
#WAV5O chero 10.wav
|
||
|
|
#WAV5P chero 11.wav
|
||
|
|
#WAV5Q chero 12.wav
|
||
|
|
#WAV5R chero 13.wav
|
||
|
|
#WAV5S chero 14.wav
|
||
|
|
#WAV5T chero 15.wav
|
||
|
|
#WAV5U chero 16.wav
|
||
|
|
#WAV5V chero 17.wav
|
||
|
|
#WAV5W chero 18.wav
|
||
|
|
#WAV5X chero 19.wav
|
||
|
|
#WAV5Y chero 20.wav
|
||
|
|
#WAV5Z chero 21.wav
|
||
|
|
#WAV60 chero 22.wav
|
||
|
|
#WAV61 solo 1.wav
|
||
|
|
#WAV62 solo 2.wav
|
||
|
|
#WAV63 solo 3.wav
|
||
|
|
#WAV64 solo 4.wav
|
||
|
|
#WAV65 solo 5.wav
|
||
|
|
#WAV66 solo 6.wav
|
||
|
|
#WAV67 solo 7.wav
|
||
|
|
#WAV68 solo 8.wav
|
||
|
|
#WAV69 solo 9.wav
|
||
|
|
#WAV6A solo 10.wav
|
||
|
|
#WAV6B solo 11.wav
|
||
|
|
#WAV6C solo 12.wav
|
||
|
|
#WAV6D solo 13.wav
|
||
|
|
#WAV6E solo 14.wav
|
||
|
|
#WAV6F solo 15.wav
|
||
|
|
#WAV6G solo 16.wav
|
||
|
|
#WAV6H solo 17.wav
|
||
|
|
#WAV6I solo 18.wav
|
||
|
|
#WAV6J solo 19.wav
|
||
|
|
#WAV6K solo 20.wav
|
||
|
|
#WAV6L solo 21.wav
|
||
|
|
#WAV6M solo 22.wav
|
||
|
|
#WAV6N solo 23.wav
|
||
|
|
#WAV6O solo 24.wav
|
||
|
|
#WAV6P solo 25.wav
|
||
|
|
#WAV6Q solo 26.wav
|
||
|
|
#WAV6R solo 27.wav
|
||
|
|
#WAV6S solo 28.wav
|
||
|
|
#WAV6T solo 29.wav
|
||
|
|
#WAV6U solo 30.wav
|
||
|
|
#WAV6V solo 31.wav
|
||
|
|
#WAV6W solo 32.wav
|
||
|
|
#WAV6X solo 33.wav
|
||
|
|
#WAV6Y solo 34.wav
|
||
|
|
#WAV6Z solo 35.wav
|
||
|
|
#WAV70 solo 36.wav
|
||
|
|
#WAV71 solo 37.wav
|
||
|
|
#WAV72 solo 38.wav
|
||
|
|
#WAV73 solo 39.wav
|
||
|
|
#WAV74 solo 40.wav
|
||
|
|
#WAV75 solo 41.wav
|
||
|
|
#WAV76 solo 42.wav
|
||
|
|
#WAV77 solo 43.wav
|
||
|
|
#WAV78 solo 44.wav
|
||
|
|
#WAV79 solo 45.wav
|
||
|
|
#WAV7A solo 46.wav
|
||
|
|
#WAV7B bass1.wav
|
||
|
|
#WAV7C bass2.wav
|
||
|
|
#WAV7D bass3.wav
|
||
|
|
#WAV7E bass4.wav
|
||
|
|
#WAV7F bass5.wav
|
||
|
|
#WAV7G bass6.wav
|
||
|
|
#WAV7H bass7.wav
|
||
|
|
#WAV7I bass8.wav
|
||
|
|
#WAV7J bass9.wav
|
||
|
|
#WAV7K bass10.wav
|
||
|
|
#WAV7L bass11.wav
|
||
|
|
#WAV7M bass12.wav
|
||
|
|
#WAV7N bass13.wav
|
||
|
|
#WAV7O bass14.wav
|
||
|
|
#WAV7P bass15.wav
|
||
|
|
#WAV7Q bass16.wav
|
||
|
|
#WAV7R bass17.wav
|
||
|
|
#WAV7S bass18.wav
|
||
|
|
#WAV7T bass19.wav
|
||
|
|
#WAV7U bass20.wav
|
||
|
|
#WAV7V bass1.wav
|
||
|
|
#WAV7W bass3.wav
|
||
|
|
#WAV7X bass5.wav
|
||
|
|
#WAV7Y bass7.wav
|
||
|
|
#WAV7Z bass9.wav
|
||
|
|
#WAV80 bass11.wav
|
||
|
|
#WAV81 bass13.wav
|
||
|
|
#WAV82 bass15.wav
|
||
|
|
#WAV83 bass17.wav
|
||
|
|
#WAV84 bass19.wav
|
||
|
|
#WAV85 chero1.wav
|
||
|
|
#WAV86 chero2.wav
|
||
|
|
#WAV87 chero3.wav
|
||
|
|
#WAV88 chero4.wav
|
||
|
|
#WAV89 vio1.wav
|
||
|
|
#WAV8A vio2.wav
|
||
|
|
#WAV8B vio3.wav
|
||
|
|
#WAV8C vio4.wav
|
||
|
|
#WAV8D tim.wav
|
||
|
|
#WAV8E tanbarin.wav
|
||
|
|
#WAV8F suzu.wav
|
||
|
|
#WAV8G suzu32.wav
|
||
|
|
#WAV8H syuooo.wav
|
||
|
|
#WAV8I SE5.wav
|
||
|
|
#WAV8J horn.wav
|
||
|
|
#WAV8K suzu.wav
|
||
|
|
#WAV8L suzu32.wav
|
||
|
|
#WAV8M cym B.wav
|
||
|
|
#WAV8N cym C.wav
|
||
|
|
#WAV8O SE4.wav
|
||
|
|
|
||
|
|
#BMP01 joker.mpg
|
||
|
|
#BMP03 miss 01.bmp
|
||
|
|
#BMP04 miss 02.bmp
|
||
|
|
#BMP05 miss 03.bmp
|
||
|
|
#BMP06 miss 04.bmp
|
||
|
|
#BMP07 miss 05.bmp
|
||
|
|
#BMP08 miss 06.bmp
|
||
|
|
#BMP09 miss 07.bmp
|
||
|
|
#BMP0A miss 08.bmp
|
||
|
|
#BMP0B miss 09.bmp
|
||
|
|
#BMP0C miss 10.bmp
|
||
|
|
#BMP0D miss 11.bmp
|
||
|
|
#BMP0E miss 12.bmp
|
||
|
|
#BMP0F miss 13.bmp
|
||
|
|
#BMP0G miss 14.bmp
|
||
|
|
#BMP0H miss 15.bmp
|
||
|
|
#BMP0I miss 16.bmp
|
||
|
|
|
||
|
|
|
||
|
|
|
||
|
|
|
||
|
|
#DIFFICULTY 2
|
||
|
|
#BACKBMP logo.jpg
|
||
|
|
#LNOBJ LN
|
||
|
|
|
||
|
|
|
||
|
|
|
||
|
|
*---------------------- MAIN DATA FIELD
|
||
|
|
|
||
|
|
|
||
|
|
#00104:01
|
||
|
|
#00106:030405060708090A0B0C0D0E0F0G0H0I030405060708090A0B0C0D0E0F0G0H0I
|
||
|
|
#00116:000B0000LN000000
|
||
|
|
|
||
|
|
#00201:00
|
||
|
|
#00201:0400000400000000
|
||
|
|
#00201:00000L00000L0000
|
||
|
|
#00201:00
|
||
|
|
#00201:0000000000040000
|
||
|
|
#00201:00
|
||
|
|
#00201:00
|
||
|
|
#00201:00
|
||
|
|
#00201:00
|
||
|
|
#00201:00
|
||
|
|
#00201:00
|
||
|
|
#00201:00
|
||
|
|
#00201:00
|
||
|
|
#00201:7B7C7B7V7C7B7V7C7B7C7B7V7C7B7V7C
|
||
|
|
#00206:030405060708090A0B0C0D0E0F0G0H0I030405060708090A0B0C0D0E0F0G0H0I
|
||
|
|
#00211:0T0ULN0000000000
|
||
|
|
#00213:1011LN0000000000
|
||
|
|
#00214:0000000000000V0000LN000000000000
|
||
|
|
#00218:000000000000120000LN000000000000
|
||
|
|
|
||
|
|
#00301:00
|
||
|
|
#00301:0400000400000000
|
||
|
|
#00301:00000L00000L0000
|
||
|
|
#00301:00
|
||
|
|
#00301:0000000000040000
|
||
|
|
#00301:00
|
||
|
|
#00301:00
|
||
|
|
#00301:00
|
||
|
|
#00301:00
|
||
|
|
#00301:00
|
||
|
|
#00301:00
|
||
|
|
#00301:00
|
||
|
|
#00301:00
|
||
|
|
#00301:7B7C7B7V7C7B7V7C7B7C7B7V7C7B7V7C
|
||
|
|
#00306:030405060708090A0B0C0D0E0F0G0H0I030405060708090A0B0C0D0E0F0G0H0I
|
||
|
|
#00313:0W0XLN0000000000
|
||
|
|
#00315:13001400LN000Y0000LN000000000000
|
||
|
|
#00319:000000000000150000LN000000000000
|
||
|
|
|
||
|
|
#00401:00
|
||
|
|
#00401:00
|
||
|
|
#00401:0400000400040000
|
||
|
|
#00401:00
|
||
|
|
#00401:00
|
||
|
|
#00401:00
|
||
|
|
#00401:00
|
||
|
|
#00401:0F0F0F0F0F0F0F0F
|
||
|
|
#00401:000H000H000H000H000H000H000H000H
|
||
|
|
#00401:00
|
||
|
|
#00401:00
|
||
|
|
#00401:00
|
||
|
|
#00401:00
|
||
|
|
#00401:7B7C7B7V7C7B7V7C7B7C7B7V7C7B7V7C
|
||
|
|
#00406:030405060708090A0B0C0D0E0F0G0H0I030405060708090A0B0C0D0E0F0G0H0I
|
||
|
|
#00412:0000000000000V0000LN000000000000
|
||
|
|
#00413:0T0ULN0000000000
|
||
|
|
#00415:1011LN0000000000
|
||
|
|
#00416:0K00000J000J0000
|
||
|
|
#00418:000000000000120000LN000000000000
|
||
|
|
|
||
|
|
#00501:00
|
||
|
|
#00501:00
|
||
|
|
#00501:0400000000040000
|
||
|
|
#00501:00
|
||
|
|
#00501:00
|
||
|
|
#00501:00
|
||
|
|
#00501:00
|
||
|
|
#00501:0F0F0F0F0F0F0F0F
|
||
|
|
#00501:000H000H000H000H000H000H000H000H
|
||
|
|
#00501:00
|
||
|
|
#00501:00
|
||
|
|
#00501:00
|
||
|
|
#00501:00
|
||
|
|
#00501:7B7C7B7V7C7B7V7C7B7C7B7V7C7B7V7C
|
||
|
|
#00506:030405060708090A0B0C0D0E0F0G0H0I030405060708090A0B0C0D0E0F0G0H0I
|
||
|
|
#00511:0000000000000Y0000LN000000000000
|
||
|
|
#00512:0W0XLN0000000000
|
||
|
|
#00514:000000000000040000LN000000000000
|
||
|
|
#00516:0K00000000000000000J00000000000J00000000000700LN
|
||
|
|
#00518:1314LN0000000000
|
||
|
|
#00519:000000000000150000LN000000000000
|
||
|
|
|
||
|
|
#00601:000L000L
|
||
|
|
#00601:00
|
||
|
|
#00601:00
|
||
|
|
#00601:00
|
||
|
|
#00601:00
|
||
|
|
#00601:00
|
||
|
|
#00601:00
|
||
|
|
#00601:00
|
||
|
|
#00601:00
|
||
|
|
#00601:00
|
||
|
|
#00601:02030203020302030203020302030203
|
||
|
|
#00601:00
|
||
|
|
#00601:00
|
||
|
|
#00601:7B7C7B7V7C7B7V7C7B7C7B7V7C7B7V7C
|
||
|
|
#00601:00
|
||
|
|
#00601:00
|
||
|
|
#00601:00
|
||
|
|
#00601:00
|
||
|
|
#00601:00
|
||
|
|
#00601:00
|
||
|
|
#00601:00
|
||
|
|
#00601:00
|
||
|
|
#00601:00
|
||
|
|
#00601:00
|
||
|
|
#00601:00
|
||
|
|
#00601:00
|
||
|
|
#00601:00
|
||
|
|
#00601:00
|
||
|
|
#00601:00
|
||
|
|
#00601:00
|
||
|
|
#00601:00
|
||
|
|
#00601:0O
|
||
|
|
#00606:030405060708090A0B0C0D0E0F0G0H0I030405060708090A0B0C0D0E0F0G0H0I
|
||
|
|
#00611:04040404
|
||
|
|
#00612:0001000100000001
|
||
|
|
#00613:2H00000000010000
|
||
|
|
#00614:002I002I0000002I
|
||
|
|
#00615:00002J00002J0000
|
||
|
|
#00616:0C
|
||
|
|
#00618:0000002K
|
||
|
|
#00619:002L
|
||
|
|
|
||
|
|
#00701:000L000L
|
||
|
|
#00701:00
|
||
|
|
#00701:00
|
||
|
|
#00701:00
|
||
|
|
#00701:00
|
||
|
|
#00701:00
|
||
|
|
#00701:00
|
||
|
|
#00701:00
|
||
|
|
#00701:00
|
||
|
|
#00701:00
|
||
|
|
#00701:02030203020302030203020302030203
|
||
|
|
#00701:00
|
||
|
|
#00701:00
|
||
|
|
#00701:7B7C7B7V7C7B7V7C7B7C7B7V7C7B7V7C
|
||
|
|
#00706:030405060708090A0B0C0D0E0F0G0H0I030405060708090A0B0C0D0E0F0G0H0I
|
||
|
|
#00711:04040404
|
||
|
|
#00712:0001000000000001
|
||
|
|
#00713:2H00000100010000
|
||
|
|
#00714:002J00000000002J
|
||
|
|
#00715:00002K00002I0000
|
||
|
|
#00718:0000002L00002L00
|
||
|
|
#00719:002M
|
||
|
|
|
||
|
|
#00801:000L000L
|
||
|
|
#00801:00
|
||
|
|
#00801:00
|
||
|
|
#00801:00
|
||
|
|
#00801:00
|
||
|
|
#00801:00
|
||
|
|
#00801:00
|
||
|
|
#00801:00
|
||
|
|
#00801:00
|
||
|
|
#00801:00
|
||
|
|
#00801:02030203020302030203020302030203
|
||
|
|
#00801:00
|
||
|
|
#00801:00
|
||
|
|
#00801:7D7E7D7W7E7D7W7E7D7E7D7W7E7D7W7E
|
||
|
|
#00806:030405060708090A0B0C0D0E0F0G0H0I030405060708090A0B0C0D0E0F0G0H0I
|
||
|
|
#00811:04040404
|
||
|
|
#00812:0000000100000001
|
||
|
|
#00813:0001000000010000
|
||
|
|
#00815:2K000000002L0000
|
||
|
|
#00818:002L002I00002M00
|
||
|
|
#00819:00002M002N00002N
|
||
|
|
|
||
|
|
#00901:000L000L
|
||
|
|
#00901:00
|
||
|
|
#00901:00
|
||
|
|
#00901:00
|
||
|
|
#00901:00
|
||
|
|
#00901:00
|
||
|
|
#00901:00
|
||
|
|
#00901:00
|
||
|
|
#00901:00
|
||
|
|
#00901:00
|
||
|
|
#00901:02030203020302030203020302030203
|
||
|
|
#00901:00
|
||
|
|
#00901:00
|
||
|
|
#00901:7D7E7D7W7E7D7W7E7D7E7D7W7E7D7W7E
|
||
|
|
#00906:030405060708090A0B0C0D0E0F0G0H0I030405060708090A0B0C0D0E0F0G0H0I
|
||
|
|
#00911:04040404
|
||
|
|
#00912:000000000000002O
|
||
|
|
#00913:2I00002J002K0000
|
||
|
|
#00914:002L002J
|
||
|
|
#00915:002M00002L000000
|
||
|
|
#00919:0001000100010001
|
||
|
|
|
||
|
|
#01001:00
|
||
|
|
#01001:000L000L
|
||
|
|
#01001:00
|
||
|
|
#01001:00
|
||
|
|
#01001:00
|
||
|
|
#01001:00
|
||
|
|
#01001:00
|
||
|
|
#01001:00
|
||
|
|
#01001:00
|
||
|
|
#01001:00
|
||
|
|
#01001:02030203020302030203020302030203
|
||
|
|
#01001:00
|
||
|
|
#01001:00
|
||
|
|
#01001:7F7G7F7X7G7F7X7G7F7G7F7X7G7F7X7G
|
||
|
|
#01006:030405060708090A0B0C0D0E0F0G0H0I030405060708090A0B0C0D0E0F0G0H0I
|
||
|
|
#01011:04040404
|
||
|
|
#01012:0001000100000001
|
||
|
|
#01013:2H00000000010000
|
||
|
|
#01014:002I002I0000002I
|
||
|
|
#01015:00002J00002J0000
|
||
|
|
#01018:0000002K
|
||
|
|
#01019:002L
|
||
|
|
|
||
|
|
#01101:00
|
||
|
|
#01101:000L000L
|
||
|
|
#01101:00
|
||
|
|
#01101:00
|
||
|
|
#01101:00
|
||
|
|
#01101:00
|
||
|
|
#01101:00
|
||
|
|
#01101:00
|
||
|
|
#01101:00
|
||
|
|
#01101:00
|
||
|
|
#01101:02030203020302030203020302030203
|
||
|
|
#01101:00
|
||
|
|
#01101:00
|
||
|
|
#01101:7F7G7F7X7G7F7X7G7F7G7F7X7G7F7X7G
|
||
|
|
#01106:030405060708090A0B0C0D0E0F0G0H0I030405060708090A0B0C0D0E0F0G0H0I
|
||
|
|
#01111:04040404
|
||
|
|
#01112:0001000000000001
|
||
|
|
#01113:2H00000100010000
|
||
|
|
#01114:002J00000000002J
|
||
|
|
#01115:00002K00002I0000
|
||
|
|
#01118:0000002L00002L00
|
||
|
|
#01119:002M
|
||
|
|
|
||
|
|
#01201:00
|
||
|
|
#01201:000L000L
|
||
|
|
#01201:00
|
||
|
|
#01201:00
|
||
|
|
#01201:00
|
||
|
|
#01201:00
|
||
|
|
#01201:00
|
||
|
|
#01201:00
|
||
|
|
#01201:00
|
||
|
|
#01201:00
|
||
|
|
#01201:02030203020302030203020302030203
|
||
|
|
#01201:00
|
||
|
|
#01201:00
|
||
|
|
#01201:7B7C7B7V7C7B7V7C7B7C7B7V7C7B7V7C
|
||
|
|
#01206:030405060708090A0B0C0D0E0F0G0H0I030405060708090A0B0C0D0E0F0G0H0I
|
||
|
|
#01211:04040404
|
||
|
|
#01212:0001000000000001
|
||
|
|
#01213:2K00000100010000
|
||
|
|
#01214:002L000000000000
|
||
|
|
#01215:0000002I002L0000
|
||
|
|
#01218:002M002M
|
||
|
|
#01219:000000002N00002N
|
||
|
|
|
||
|
|
#01301:00
|
||
|
|
#01301:000L000L
|
||
|
|
#01301:00
|
||
|
|
#01301:00
|
||
|
|
#01301:00
|
||
|
|
#01301:00
|
||
|
|
#01301:00
|
||
|
|
#01301:00
|
||
|
|
#01301:00
|
||
|
|
#01301:00
|
||
|
|
#01301:02030203020302030203020302030203
|
||
|
|
#01301:00
|
||
|
|
#01301:00
|
||
|
|
#01301:7B7C7B7V7C7B7V7C7B7C7B7V7C7B7V7C
|
||
|
|
#01306:030405060708090A0B0C0D0E0F0G0H0I030405060708090A0B0C0D0E0F0G0H0I
|
||
|
|
#01311:04040404
|
||
|
|
#01312:0000000100000001
|
||
|
|
#01313:0001000000010000
|
||
|
|
#01314:2I00002J00000000
|
||
|
|
#01315:00002L00002K002O
|
||
|
|
#01316:000000000000000000000000008M0000
|
||
|
|
#01318:002M000000002J00
|
||
|
|
#01319:002L
|
||
|
|
|
||
|
|
#01401:00
|
||
|
|
#01401:00
|
||
|
|
#01401:00
|
||
|
|
#01401:00
|
||
|
|
#01401:00
|
||
|
|
#01401:00
|
||
|
|
#01401:000L000L
|
||
|
|
#01401:00
|
||
|
|
#01401:00
|
||
|
|
#01401:00
|
||
|
|
#01401:02030203020302030203020302030203
|
||
|
|
#01401:00
|
||
|
|
#01401:00
|
||
|
|
#01401:7B7C7B7V7C7B7V7C7B7C7B7V7C7B7V7C
|
||
|
|
#01406:030405060708090A0B0C0D0E0F0G0H0I030405060708090A0B0C0D0E0F0G0H0I
|
||
|
|
#01411:2H000000002J0000
|
||
|
|
#01412:002I002I0000002I
|
||
|
|
#01413:00002J0000010000
|
||
|
|
#01414:040000002L000001
|
||
|
|
#01415:0001000100002K00
|
||
|
|
#01418:00040400
|
||
|
|
#01419:00000004
|
||
|
|
|
||
|
|
#01501:00
|
||
|
|
#01501:00
|
||
|
|
#01501:00
|
||
|
|
#01501:00
|
||
|
|
#01501:00
|
||
|
|
#01501:00
|
||
|
|
#01501:000L000L
|
||
|
|
#01501:00
|
||
|
|
#01501:00
|
||
|
|
#01501:00
|
||
|
|
#01501:02030203020302030203020302030203
|
||
|
|
#01501:00
|
||
|
|
#01501:00
|
||
|
|
#01501:7B7C7B7V7C7B7V7C7B7C7B7V7C7B7V7C
|
||
|
|
#01506:030405060708090A0B0C0D0E0F0G0H0I030405060708090A0B0C0D0E0F0G0H0I
|
||
|
|
#01511:2H0000000000002J
|
||
|
|
#01512:002J0000002I0000
|
||
|
|
#01513:04002K0000000001
|
||
|
|
#01514:0001002L00010000
|
||
|
|
#01515:00042M2L
|
||
|
|
#01518:0000000100000000
|
||
|
|
#01519:00000404
|
||
|
|
|
||
|
|
#01601:00
|
||
|
|
#01601:00
|
||
|
|
#01601:00
|
||
|
|
#01601:00
|
||
|
|
#01601:00
|
||
|
|
#01601:00
|
||
|
|
#01601:000L000L
|
||
|
|
#01601:00
|
||
|
|
#01601:00
|
||
|
|
#01601:00
|
||
|
|
#01601:02030203020302030203020302030203
|
||
|
|
#01601:00
|
||
|
|
#01601:00
|
||
|
|
#01601:7D7E7D7W7E7D7W7E7D7E7D7W7E7D7W7E
|
||
|
|
#01606:030405060708090A0B0C0D0E0F0G0H0I030405060708090A0B0C0D0E0F0G0H0I
|
||
|
|
#01611:0000000000010000
|
||
|
|
#01612:2K000404
|
||
|
|
#01613:002L002I00000001
|
||
|
|
#01614:002M0000
|
||
|
|
#01615:04000000002L0000
|
||
|
|
#01618:0001000100002M00
|
||
|
|
#01619:000004002N00002N
|
||
|
|
|
||
|
|
#01701:00
|
||
|
|
#01701:00
|
||
|
|
#01701:00
|
||
|
|
#01701:00
|
||
|
|
#01701:00
|
||
|
|
#01701:00
|
||
|
|
#01701:000L000L
|
||
|
|
#01701:00
|
||
|
|
#01701:00
|
||
|
|
#01701:00
|
||
|
|
#01701:02030203020302030203020302030203
|
||
|
|
#01701:00
|
||
|
|
#01701:00
|
||
|
|
#01701:7D7E7D7W7E7D7W7E7D7E7D7W7E7D7W7E
|
||
|
|
#01706:030405060708090A0B0C0D0E0F0G0H0I030405060708090A0B0C0D0E0F0G0H0I
|
||
|
|
#01711:0000000100000000
|
||
|
|
#01712:0400040000000001
|
||
|
|
#01713:0001000004000400
|
||
|
|
#01714:0000002J0001002O
|
||
|
|
#01715:2I2L002J
|
||
|
|
#01718:002M0000002K0000
|
||
|
|
#01719:002L
|
||
|
|
|
||
|
|
#01801:00
|
||
|
|
#01801:00
|
||
|
|
#01801:00
|
||
|
|
#01801:00
|
||
|
|
#01801:00
|
||
|
|
#01801:00
|
||
|
|
#01801:000L000L
|
||
|
|
#01801:00
|
||
|
|
#01801:00
|
||
|
|
#01801:00
|
||
|
|
#01801:02030203020302030203020302030203
|
||
|
|
#01801:00
|
||
|
|
#01801:00
|
||
|
|
#01801:7F7G7F7X7G7F7X7G7F7G7F7X7G7F7X7G
|
||
|
|
#01806:030405060708090A0B0C0D0E0F0G0H0I030405060708090A0B0C0D0E0F0G0H0I
|
||
|
|
#01811:00040400
|
||
|
|
#01812:0001000100000400
|
||
|
|
#01813:0400000000010001
|
||
|
|
#01815:2H000000002J002I
|
||
|
|
#01818:002I002I00002K00
|
||
|
|
#01819:002J2L00
|
||
|
|
|
||
|
|
#01901:00
|
||
|
|
#01901:00
|
||
|
|
#01901:00
|
||
|
|
#01901:00
|
||
|
|
#01901:00
|
||
|
|
#01901:00
|
||
|
|
#01901:000L000L
|
||
|
|
#01901:00
|
||
|
|
#01901:00
|
||
|
|
#01901:00
|
||
|
|
#01901:02030203020302030203020302030203
|
||
|
|
#01901:00
|
||
|
|
#01901:00
|
||
|
|
#01901:7F7G7F7X7G7F7X7G7F7G7F7X7G7F7X7G
|
||
|
|
#01906:030405060708090A0B0C0D0E0F0G0H0I030405060708090A0B0C0D0E0F0G0H0I
|
||
|
|
#01911:2H0000000000002J
|
||
|
|
#01912:002J000004000000
|
||
|
|
#01913:00000400002I0001
|
||
|
|
#01914:0400000100000400
|
||
|
|
#01915:0001000000010000
|
||
|
|
#01918:002K2M2L
|
||
|
|
#01919:0000002L00000000
|
||
|
|
|
||
|
|
#02001:00
|
||
|
|
#02001:00
|
||
|
|
#02001:00
|
||
|
|
#02001:00
|
||
|
|
#02001:00
|
||
|
|
#02001:00
|
||
|
|
#02001:000L000L
|
||
|
|
#02001:00
|
||
|
|
#02001:00
|
||
|
|
#02001:00
|
||
|
|
#02001:02030203020302030203020302030203
|
||
|
|
#02001:00
|
||
|
|
#02001:00
|
||
|
|
#02001:7B7C7B7V7C7B7V7C7B7C7B7V7C7B7V7C
|
||
|
|
#02006:030405060708090A0B0C0D0E0F0G0H0I030405060708090A0B0C0D0E0F0G0H0I
|
||
|
|
#02011:0004
|
||
|
|
#02012:2K00000000010000
|
||
|
|
#02013:002L002I00000400
|
||
|
|
#02014:00002M0000000001
|
||
|
|
#02015:04000000002L0000
|
||
|
|
#02018:0001000100002M00
|
||
|
|
#02019:000004002N00002N
|
||
|
|
|
||
|
|
#02101:00
|
||
|
|
#02101:00
|
||
|
|
#02101:00
|
||
|
|
#02101:00
|
||
|
|
#02101:04000504000400050400040005060700
|
||
|
|
#02101:00
|
||
|
|
#02101:000L000L
|
||
|
|
#02101:00
|
||
|
|
#02101:00
|
||
|
|
#02101:0001000100010001
|
||
|
|
#02101:02030203020302030203020302030203
|
||
|
|
#02101:00
|
||
|
|
#02101:00
|
||
|
|
#02101:7B7C7B7V7C7B7V7C7B7C7B7V7C7B7V7C
|
||
|
|
#02106:030405060708090A0B0C0D0E0F0G0H0I030405060708090A0B0C0D0E0F0G0H0I
|
||
|
|
#02112:2I0000000000002O
|
||
|
|
#02113:0000002J00000000
|
||
|
|
#02114:0000002J
|
||
|
|
#02115:00002L00002K0000
|
||
|
|
#02116:0J000N0K00000I00
|
||
|
|
#02118:002M000000000000
|
||
|
|
#02119:002L
|
||
|
|
|
||
|
|
#02201:00
|
||
|
|
#02201:00
|
||
|
|
#02201:00
|
||
|
|
#02201:00
|
||
|
|
#02201:00
|
||
|
|
#02201:00
|
||
|
|
#02201:000L000L
|
||
|
|
#02201:00
|
||
|
|
#02201:00
|
||
|
|
#02201:00
|
||
|
|
#02201:02030203020302030203020302030203
|
||
|
|
#02201:00
|
||
|
|
#02201:00
|
||
|
|
#02201:7B7C7B7V7C7B7V7C7B7C7B7V7C7B7V7C
|
||
|
|
#02201:00
|
||
|
|
#02201:00
|
||
|
|
#02201:00
|
||
|
|
#02201:8F8K8F008F8K8F008F8K8F008F8K0000
|
||
|
|
#02201:000000000000008E
|
||
|
|
#02201:00
|
||
|
|
#02201:00
|
||
|
|
#02201:00
|
||
|
|
#02201:00
|
||
|
|
#02201:00
|
||
|
|
#02201:00
|
||
|
|
#02201:00
|
||
|
|
#02201:00
|
||
|
|
#02201:00
|
||
|
|
#02201:00
|
||
|
|
#02201:00
|
||
|
|
#02201:00
|
||
|
|
#02201:0P
|
||
|
|
#02206:030405060708090A0B0C0D0E0F0G0H0I030405060708090A0B0C0D0E0F0G0H0I
|
||
|
|
#02211:04040404
|
||
|
|
#02212:0001000100010001
|
||
|
|
#02213:0018181J
|
||
|
|
#02214:1J00000000000000001J000000001800
|
||
|
|
#02215:001L001J00190000
|
||
|
|
#02216:0C
|
||
|
|
#02218:001J001A
|
||
|
|
#02219:170000000000001K00001K0000001L00
|
||
|
|
|
||
|
|
#02301:00
|
||
|
|
#02301:00
|
||
|
|
#02301:00
|
||
|
|
#02301:00
|
||
|
|
#02301:00
|
||
|
|
#02301:00
|
||
|
|
#02301:000L000L
|
||
|
|
#02301:00
|
||
|
|
#02301:00
|
||
|
|
#02301:00
|
||
|
|
#02301:02030203020302030203020302030203
|
||
|
|
#02301:00
|
||
|
|
#02301:00
|
||
|
|
#02301:7B7C7B7V7C7B7V7C7B7C7B7V7C7B7V7C
|
||
|
|
#02301:00
|
||
|
|
#02301:00
|
||
|
|
#02301:00
|
||
|
|
#02301:8F008K008F0000008F008K008G8L8G8L8F0000008K0000008F008K0000000000
|
||
|
|
#02301:000000000000008E
|
||
|
|
#02306:030405060708090A0B0C0D0E0F0G0H0I030405060708090A0B0C0D0E0F0G0H0I
|
||
|
|
#02311:04040404
|
||
|
|
#02312:0001000100010001
|
||
|
|
#02313:1J00001J00001700
|
||
|
|
#02314:00001J001B1K0000
|
||
|
|
#02315:001L001800001J00
|
||
|
|
#02318:190000001900001K001J000000000000
|
||
|
|
#02319:001A00000000001L
|
||
|
|
|
||
|
|
#02401:00
|
||
|
|
#02401:00
|
||
|
|
#02401:00
|
||
|
|
#02401:00
|
||
|
|
#02401:00
|
||
|
|
#02401:00
|
||
|
|
#02401:000L000L
|
||
|
|
#02401:00
|
||
|
|
#02401:00
|
||
|
|
#02401:00
|
||
|
|
#02401:02030203020302030203020302030203
|
||
|
|
#02401:00
|
||
|
|
#02401:00
|
||
|
|
#02401:7D7E7D7W7E7D7W7E7D7E7D7W7E7D7W7E
|
||
|
|
#02401:00
|
||
|
|
#02401:00
|
||
|
|
#02401:00
|
||
|
|
#02401:8F8K8F008F8K8F008F8K8F008F8K0000
|
||
|
|
#02401:000000000000008E
|
||
|
|
#02406:030405060708090A0B0C0D0E0F0G0H0I030405060708090A0B0C0D0E0F0G0H0I
|
||
|
|
#02411:04040404
|
||
|
|
#02412:0001000100010001
|
||
|
|
#02413:1700000000000000001M00001M000000
|
||
|
|
#02414:0000180018000018
|
||
|
|
#02415:001O001M00190000
|
||
|
|
#02418:1M1M001A
|
||
|
|
#02419:000000000000001N00001N0000001O00
|
||
|
|
|
||
|
|
#02501:00
|
||
|
|
#02501:00
|
||
|
|
#02501:00
|
||
|
|
#02501:00
|
||
|
|
#02501:00
|
||
|
|
#02501:00
|
||
|
|
#02501:000L000L
|
||
|
|
#02501:00
|
||
|
|
#02501:00
|
||
|
|
#02501:00
|
||
|
|
#02501:02030203020302030203020302030203
|
||
|
|
#02501:00
|
||
|
|
#02501:00
|
||
|
|
#02501:7D7E7D7W7E7D7W7E7D7E7D7W7E7D7W7E
|
||
|
|
#02501:00
|
||
|
|
#02501:00
|
||
|
|
#02501:00
|
||
|
|
#02501:8F008K008F0000008F008K008G8L8G8L8F0000008K0000008F008K0000000000
|
||
|
|
#02501:000000000000008E
|
||
|
|
#02506:030405060708090A0B0C0D0E0F0G0H0I030405060708090A0B0C0D0E0F0G0H0I
|
||
|
|
#02511:04040404
|
||
|
|
#02512:0001000100010001
|
||
|
|
#02513:1M1B
|
||
|
|
#02514:000000001900001N0000180000001B00
|
||
|
|
#02515:00001A0000001800001M000019000000
|
||
|
|
#02518:1C001M00001N001O
|
||
|
|
#02519:001O001M00001M00
|
||
|
|
|
||
|
|
#02601:00
|
||
|
|
#02601:00
|
||
|
|
#02601:00
|
||
|
|
#02601:00
|
||
|
|
#02601:00
|
||
|
|
#02601:00
|
||
|
|
#02601:000L000L
|
||
|
|
#02601:00
|
||
|
|
#02601:00
|
||
|
|
#02601:00
|
||
|
|
#02601:02030203020302030203020302030203
|
||
|
|
#02601:00
|
||
|
|
#02601:00
|
||
|
|
#02601:7F7G7F7X7G7F7X7G7F7G7F7X7G7F7X7G
|
||
|
|
#02601:00
|
||
|
|
#02601:00
|
||
|
|
#02601:00
|
||
|
|
#02601:8F8K8F008F8K8F008F8K8F008F8K0000
|
||
|
|
#02601:000000000000008E
|
||
|
|
#02606:030405060708090A0B0C0D0E0F0G0H0I030405060708090A0B0C0D0E0F0G0H0I
|
||
|
|
#02611:04040404
|
||
|
|
#02612:0001000100010001
|
||
|
|
#02613:1700000000000018
|
||
|
|
#02614:0018181P
|
||
|
|
#02615:1P1R001P0019001R
|
||
|
|
#02618:000000001P000000001P00001A000000
|
||
|
|
#02619:000000000000001Q00001Q0000000000
|
||
|
|
|
||
|
|
#02701:00
|
||
|
|
#02701:00
|
||
|
|
#02701:00
|
||
|
|
#02701:00
|
||
|
|
#02701:00
|
||
|
|
#02701:00
|
||
|
|
#02701:000L000L
|
||
|
|
#02701:00
|
||
|
|
#02701:00
|
||
|
|
#02701:00
|
||
|
|
#02701:02030203020302030203020302030203
|
||
|
|
#02701:00
|
||
|
|
#02701:00
|
||
|
|
#02701:7F7G7F7X7G7F7X7G7F7G7F7X7G7F7X7G
|
||
|
|
#02701:00
|
||
|
|
#02701:00
|
||
|
|
#02701:00
|
||
|
|
#02701:8F008K008F0000008F008K008G8L8G8L8F0000008K0000008F008K0000000000
|
||
|
|
#02701:000000000000008E
|
||
|
|
#02706:030405060708090A0B0C0D0E0F0G0H0I030405060708090A0B0C0D0E0F0G0H0I
|
||
|
|
#02711:04040404
|
||
|
|
#02712:0001000100010001
|
||
|
|
#02713:001P1D1P
|
||
|
|
#02714:190000000000001Q00001D0000000000
|
||
|
|
#02715:00001A00000018000000001E00001G00
|
||
|
|
#02718:1P00000019000000001P00001F000000
|
||
|
|
#02719:001R001P001Q001R
|
||
|
|
|
||
|
|
#02801:00
|
||
|
|
#02801:00
|
||
|
|
#02801:00
|
||
|
|
#02801:00
|
||
|
|
#02801:00
|
||
|
|
#02801:00
|
||
|
|
#02801:000L000L
|
||
|
|
#02801:00
|
||
|
|
#02801:00
|
||
|
|
#02801:00
|
||
|
|
#02801:02030203020302030203020302030203
|
||
|
|
#02801:00
|
||
|
|
#02801:00
|
||
|
|
#02801:7B7C7B7V7C7B7V7C7B7C7B7V7C7B7V7C
|
||
|
|
#02801:00
|
||
|
|
#02801:00
|
||
|
|
#02801:00
|
||
|
|
#02801:8F8K8F008F8K8F008F8K8F008F8K0000
|
||
|
|
#02801:000000000000008E
|
||
|
|
#02806:030405060708090A0B0C0D0E0F0G0H0I030405060708090A0B0C0D0E0F0G0H0I
|
||
|
|
#02811:04040404
|
||
|
|
#02812:0001000100010001
|
||
|
|
#02813:1700001S
|
||
|
|
#02814:0000180018000018
|
||
|
|
#02815:001U001S0019001U
|
||
|
|
#02818:1S0000001S000000001S00001A000000
|
||
|
|
#02819:000000000000001T00001T0000000000
|
||
|
|
|
||
|
|
#02901:00
|
||
|
|
#02901:00
|
||
|
|
#02901:00
|
||
|
|
#02901:00
|
||
|
|
#02901:00
|
||
|
|
#02901:00
|
||
|
|
#02901:000L000L
|
||
|
|
#02901:00
|
||
|
|
#02901:00
|
||
|
|
#02901:00
|
||
|
|
#02901:02030203020302030203020302030203
|
||
|
|
#02901:00
|
||
|
|
#02901:00
|
||
|
|
#02901:7B7C7B7V7C7B7V7C7B7C7B7V7C7B7V7C
|
||
|
|
#02901:00
|
||
|
|
#02901:00
|
||
|
|
#02901:00
|
||
|
|
#02901:8F008K008F0000008F008K008G8L8G8L8F0000008K0000008F008K0000000000
|
||
|
|
#02901:000000000000008E
|
||
|
|
#02906:030405060708090A0B0C0D0E0F0G0H0I030405060708090A0B0C0D0E0F0G0H0I
|
||
|
|
#02911:04040404
|
||
|
|
#02912:0001000100010001
|
||
|
|
#02913:1S1S1B00
|
||
|
|
#02914:001U001E0000191U
|
||
|
|
#02915:000000001F00001T0000180000000000
|
||
|
|
#02916:000000000000000000000000008M0000
|
||
|
|
#02918:0000001I00000000001S000000001B00
|
||
|
|
#02919:1H1H001S001T1S00
|
||
|
|
|
||
|
|
#03001:00
|
||
|
|
#03001:00
|
||
|
|
#03001:00
|
||
|
|
#03001:00
|
||
|
|
#03001:00
|
||
|
|
#03001:00
|
||
|
|
#03001:000L000L
|
||
|
|
#03001:00
|
||
|
|
#03001:00
|
||
|
|
#03001:0001000100010001
|
||
|
|
#03001:02030203020302030203020002000200
|
||
|
|
#03001:00
|
||
|
|
#03001:00
|
||
|
|
#03001:7B7C7B7V7C7B7V7C7B7C7B7V7C7B7V7C
|
||
|
|
#03001:00
|
||
|
|
#03001:00
|
||
|
|
#03001:00
|
||
|
|
#03001:8F008F008F008F008F8K8F008F8K0000
|
||
|
|
#03001:000000000000008E
|
||
|
|
#03006:030405060708090A0B0C0D0E0F0G0H0I030405060708090A0B0C0D0E0F0G0H0I
|
||
|
|
#03011:LO
|
||
|
|
#03012:000000000000001K0000000004000000
|
||
|
|
#03013:1J001J000419001L
|
||
|
|
#03014:001L001J00001J00
|
||
|
|
#03015:04001800181K0018
|
||
|
|
#03018:008K0000008K00000000000300030000
|
||
|
|
#03019:1700000004000000001J00001A000003
|
||
|
|
|
||
|
|
#03101:00
|
||
|
|
#03101:00
|
||
|
|
#03101:00
|
||
|
|
#03101:00
|
||
|
|
#03101:00
|
||
|
|
#03101:00
|
||
|
|
#03101:000L000L
|
||
|
|
#03101:00
|
||
|
|
#03101:00
|
||
|
|
#03101:0001000100010000
|
||
|
|
#03101:02030203020302030203020302030203
|
||
|
|
#03101:00
|
||
|
|
#03101:00
|
||
|
|
#03101:7B7C7B7V7C7B7V7C7B7C7B7V7C7B7V7C
|
||
|
|
#03101:00
|
||
|
|
#03101:00
|
||
|
|
#03101:00
|
||
|
|
#03101:8F008K008F0000008F008K008G8L8G8L8F0000008K0000008F008K0000000000
|
||
|
|
#03101:000000000000008E
|
||
|
|
#03106:030405060708090A0B0C0D0E0F0G0H0I030405060708090A0B0C0D0E0F0G0H0I
|
||
|
|
#03111:000000000000000000000000000000LN
|
||
|
|
#03112:040000000400001K001J000000000000
|
||
|
|
#03113:0000001J001K1700
|
||
|
|
#03114:1J001J001B000001
|
||
|
|
#03115:001L001800001J00
|
||
|
|
#03118:190019000000001L
|
||
|
|
#03119:001A000004000400
|
||
|
|
|
||
|
|
#03201:00
|
||
|
|
#03201:00
|
||
|
|
#03201:00
|
||
|
|
#03201:00
|
||
|
|
#03201:00
|
||
|
|
#03201:00
|
||
|
|
#03201:000L000L
|
||
|
|
#03201:00
|
||
|
|
#03201:00
|
||
|
|
#03201:00
|
||
|
|
#03201:02030203020302030203020002000203
|
||
|
|
#03201:00
|
||
|
|
#03201:00
|
||
|
|
#03201:7D7E7D7W7E7D7W7E7D7E7D7W7E7D7W7E
|
||
|
|
#03201:00
|
||
|
|
#03201:00
|
||
|
|
#03201:00
|
||
|
|
#03201:8F008F008F008F008F8K8F008F8K0000
|
||
|
|
#03201:000000000000008E
|
||
|
|
#03206:030405060708090A0B0C0D0E0F0G0H0I030405060708090A0B0C0D0E0F0G0H0I
|
||
|
|
#03211:04040404
|
||
|
|
#03212:0001000100010001
|
||
|
|
#03213:LO
|
||
|
|
#03214:00001O00008K000000001N001M001O00
|
||
|
|
#03215:170000001M00001N001M000300030000
|
||
|
|
#03218:008K000000001M000000190000001800
|
||
|
|
#03219:1M18181A
|
||
|
|
|
||
|
|
#03301:00
|
||
|
|
#03301:001M0000
|
||
|
|
#03301:00
|
||
|
|
#03301:00
|
||
|
|
#03301:00
|
||
|
|
#03301:00
|
||
|
|
#03301:000L000L
|
||
|
|
#03301:00
|
||
|
|
#03301:00
|
||
|
|
#03301:00
|
||
|
|
#03301:02030203020302030203020302030203
|
||
|
|
#03301:00
|
||
|
|
#03301:00
|
||
|
|
#03301:7D7E7D7W7E7D7W7E7D7E7D7W7E7D7W7E
|
||
|
|
#03301:00
|
||
|
|
#03301:00
|
||
|
|
#03301:00
|
||
|
|
#03301:8F008K008F0000008F008K008G8L8G8L8F0000008K0000008F008K0000000000
|
||
|
|
#03301:000000000000008E
|
||
|
|
#03306:030405060708090A0B0C0D0E0F0G0H0I030405060708090A0B0C0D0E0F0G0H0I
|
||
|
|
#03311:04040404
|
||
|
|
#03312:0001000100010001
|
||
|
|
#03313:000000000000000000000000000000LN
|
||
|
|
#03314:001O00180018001B
|
||
|
|
#03315:1M0000001900001N001M000019000000
|
||
|
|
#03318:001A000000001M00
|
||
|
|
#03319:1C00001M1B1N001O
|
||
|
|
|
||
|
|
#03401:00
|
||
|
|
#03401:00
|
||
|
|
#03401:00
|
||
|
|
#03401:00
|
||
|
|
#03401:00
|
||
|
|
#03401:00
|
||
|
|
#03401:000L000L
|
||
|
|
#03401:0000000000000000008K000000000000
|
||
|
|
#03401:00
|
||
|
|
#03401:00
|
||
|
|
#03401:02030200020302030203020002030203
|
||
|
|
#03401:00
|
||
|
|
#03401:00
|
||
|
|
#03401:7F7G7F7X7G7F7X7G7F7G7F7X7G7F7X7G
|
||
|
|
#03401:00
|
||
|
|
#03401:00
|
||
|
|
#03401:00
|
||
|
|
#03401:8F8F8F8F8F8F8F00
|
||
|
|
#03401:000000000000008E
|
||
|
|
#03406:030405060708090A0B0C0D0E0F0G0H0I030405060708090A0B0C0D0E0F0G0H0I
|
||
|
|
#03411:04040404
|
||
|
|
#03412:0001000100010001
|
||
|
|
#03413:008K00001800000018000003008K0000
|
||
|
|
#03414:1P00000300001P00000019001P001800
|
||
|
|
#03415:LO
|
||
|
|
#03418:170000001P00001Q00001Q0000000000
|
||
|
|
#03419:00001R00008K0000001P00001A001R00
|
||
|
|
|
||
|
|
#03501:00000000000018000003000000000000
|
||
|
|
#03501:00
|
||
|
|
#03501:00
|
||
|
|
#03501:00
|
||
|
|
#03501:00
|
||
|
|
#03501:00
|
||
|
|
#03501:000L000L
|
||
|
|
#03501:00
|
||
|
|
#03501:00
|
||
|
|
#03501:0000000000000001
|
||
|
|
#03501:02000200020002030200020302030203
|
||
|
|
#03501:00
|
||
|
|
#03501:00
|
||
|
|
#03501:7F7G7F7X7G7F7X7G7F7G7F7X7G7F7X7G
|
||
|
|
#03501:00
|
||
|
|
#03501:00
|
||
|
|
#03501:00
|
||
|
|
#03501:8F008K008F0000008F008K008G8L8G8L8F0000008K0000008F00000000000000
|
||
|
|
#03501:000000000000008E
|
||
|
|
#03506:030405060708090A0B0C0D0E0F0G0H0I030405060708090A0B0C0D0E0F0G0H0I
|
||
|
|
#03511:04040404
|
||
|
|
#03512:000100010001001G
|
||
|
|
#03513:1P001R001P0000001D00001E008K0000
|
||
|
|
#03514:000300000003001Q00001D001P001R00
|
||
|
|
#03515:000000000000000000000000000000LN
|
||
|
|
#03518:190000030000000000001Q0000000000
|
||
|
|
#03519:00001A0019001P00001P00001F000000
|
||
|
|
|
||
|
|
#03601:00
|
||
|
|
#03601:1S
|
||
|
|
#03601:00
|
||
|
|
#03601:00
|
||
|
|
#03601:04040404
|
||
|
|
#03601:00
|
||
|
|
#03601:000L000L
|
||
|
|
#03601:00
|
||
|
|
#03601:00
|
||
|
|
#03601:0001000100010001
|
||
|
|
#03601:02030203020302030203020302030203
|
||
|
|
#03601:00
|
||
|
|
#03601:00
|
||
|
|
#03601:00
|
||
|
|
#03601:00
|
||
|
|
#03601:00
|
||
|
|
#03601:00
|
||
|
|
#03601:8F8K8F008F8K8F008F8K8F008F8K0000
|
||
|
|
#03601:000000000000008E
|
||
|
|
#03606:030405060708090A0B0C0D0E0F0G0H0I030405060708090A0B0C0D0E0F0G0H0I
|
||
|
|
#03611:177C187C
|
||
|
|
#03612:007B007V00190018
|
||
|
|
#03613:007C00001800007C007C007V00000000
|
||
|
|
#03614:7B000000007B000000007B001A007V00
|
||
|
|
#03615:0000007V00001S007B001T00007B007C
|
||
|
|
#03618:00001U001S00001T001S00001S001U00
|
||
|
|
#03619:LO
|
||
|
|
|
||
|
|
#03701:7B007C7V00000000
|
||
|
|
#03701:1S00000100000000
|
||
|
|
#03701:00
|
||
|
|
#03701:00
|
||
|
|
#03701:0000040004000407
|
||
|
|
#03701:00
|
||
|
|
#03701:000L000L
|
||
|
|
#03701:00
|
||
|
|
#03701:00
|
||
|
|
#03701:0001000000010001
|
||
|
|
#03701:02030203020302030203020302030203
|
||
|
|
#03701:00
|
||
|
|
#03701:00
|
||
|
|
#03701:00
|
||
|
|
#03701:00
|
||
|
|
#03701:00
|
||
|
|
#03701:00
|
||
|
|
#03701:8F008K008F0000008F008K008G8L8G8L8F0000008K0000008F008K0000000000
|
||
|
|
#03701:000000000000008E
|
||
|
|
#03706:030405060708090A0B0C0D0E0F0G0H0I030405060708090A0B0C0D0E0F0G0H0I
|
||
|
|
#03711:0400007V00001E001B0000007C001B00
|
||
|
|
#03712:000000007B0000001F00000000001T00000000001800000000007B0000M00000
|
||
|
|
#03713:0J00001I00000K0000007B000I00007C
|
||
|
|
#03714:000000001H0000000N00000000007C0000007C0000007V00000000007V0000M0
|
||
|
|
#03715:007C0000007B00007B001T0019000000
|
||
|
|
#03718:1H001U001S001S00001S00001S001U00
|
||
|
|
#03719:000000000000000000000000000000LN
|
||
|
|
|
||
|
|
#03801:00
|
||
|
|
#03801:00
|
||
|
|
#03801:00
|
||
|
|
#03801:00
|
||
|
|
#03801:00040404
|
||
|
|
#03801:00
|
||
|
|
#03801:0000000L
|
||
|
|
#03801:00
|
||
|
|
#03801:00
|
||
|
|
#03801:0001000100010001
|
||
|
|
#03801:02030203020300030203020302030203
|
||
|
|
#03801:00
|
||
|
|
#03801:00
|
||
|
|
#03801:00
|
||
|
|
#03801:00
|
||
|
|
#03801:00
|
||
|
|
#03801:00
|
||
|
|
#03801:00
|
||
|
|
#03801:00
|
||
|
|
#03801:00
|
||
|
|
#03801:00
|
||
|
|
#03801:00
|
||
|
|
#03801:5J5K5J5K005L005M
|
||
|
|
#03801:00
|
||
|
|
#03801:00
|
||
|
|
#03801:00
|
||
|
|
#03801:00
|
||
|
|
#03801:00
|
||
|
|
#03801:00
|
||
|
|
#03801:00
|
||
|
|
#03801:00
|
||
|
|
#03801:0Q
|
||
|
|
#03806:030405060708090A0B0C0D0E0F0G0H0I030405060708090A0B0C0D0E0F0G0H0I
|
||
|
|
#03811:61
|
||
|
|
#03812:0000007V00007V0000007B007C000000
|
||
|
|
#03813:2U0000007C00007C00000000007B0000
|
||
|
|
#03814:00007B00007B0000007C007V00007V00
|
||
|
|
#03815:04000L020000LN00
|
||
|
|
#03816:0C
|
||
|
|
#03818:007C0000000000007B0000000000007C
|
||
|
|
#03819:7B002V2W0000LN00
|
||
|
|
|
||
|
|
#03901:00
|
||
|
|
#03901:00
|
||
|
|
#03901:00
|
||
|
|
#03901:00
|
||
|
|
#03901:04040404
|
||
|
|
#03901:00
|
||
|
|
#03901:000L000L
|
||
|
|
#03901:00
|
||
|
|
#03901:00
|
||
|
|
#03901:0001000100010001
|
||
|
|
#03901:02030203020302030203020302030203
|
||
|
|
#03901:00
|
||
|
|
#03901:00
|
||
|
|
#03901:00
|
||
|
|
#03901:00
|
||
|
|
#03901:00
|
||
|
|
#03901:00
|
||
|
|
#03901:00
|
||
|
|
#03901:00
|
||
|
|
#03901:00
|
||
|
|
#03901:00
|
||
|
|
#03901:00
|
||
|
|
#03901:5J5K5J5K005L005M
|
||
|
|
#03906:030405060708090A0B0C0D0E0F0G0H0I030405060708090A0B0C0D0E0F0G0H0I
|
||
|
|
#03911:000000000000000000000000000000LN
|
||
|
|
#03912:7B007B00007B00007B0000000000007C
|
||
|
|
#03913:007C00002Q007V00007C007V00007V00
|
||
|
|
#03914:2M00007V000000002M002P00007B0064
|
||
|
|
#03915:002P002P00007C63
|
||
|
|
#03918:000000007C00007C00007B0000000000
|
||
|
|
#03919:620000000000000000000000000000LN
|
||
|
|
|
||
|
|
#04001:00
|
||
|
|
#04001:00
|
||
|
|
#04001:00
|
||
|
|
#04001:00
|
||
|
|
#04001:00000004
|
||
|
|
#04001:00
|
||
|
|
#04001:0000000L
|
||
|
|
#04001:00
|
||
|
|
#04001:00
|
||
|
|
#04001:0001000000010001
|
||
|
|
#04001:02030203000300030203020002030203
|
||
|
|
#04001:00
|
||
|
|
#04001:00
|
||
|
|
#04001:7F7G7F7X7G7F007G7F7G7F7X7G7F7X7G
|
||
|
|
#04001:00
|
||
|
|
#04001:00
|
||
|
|
#04001:00
|
||
|
|
#04001:00
|
||
|
|
#04001:00
|
||
|
|
#04001:00
|
||
|
|
#04001:00
|
||
|
|
#04001:00
|
||
|
|
#04001:5N5O5N5O005P005Q
|
||
|
|
#04006:030405060708090A0B0C0D0E0F0G0H0I030405060708090A0B0C0D0E0F0G0H0I
|
||
|
|
#04011:0400000002007X000400LN0300000000
|
||
|
|
#04012:000000000L000100000000LN68000000
|
||
|
|
#04013:650000000000000000000000LN690000
|
||
|
|
#04014:00000000000000000000000000LN6A00
|
||
|
|
#04015:000000000000000000LN67000000LN6B
|
||
|
|
#04018:2X0000002Y002Z0000000000000000LN
|
||
|
|
#04019:0000040266000000
|
||
|
|
|
||
|
|
#04101:00
|
||
|
|
#04101:00
|
||
|
|
#04101:00
|
||
|
|
#04101:00
|
||
|
|
#04101:00
|
||
|
|
#04101:00
|
||
|
|
#04101:000L000L
|
||
|
|
#04101:00
|
||
|
|
#04101:00
|
||
|
|
#04101:00
|
||
|
|
#04101:02030203020302030203020302030203
|
||
|
|
#04101:00
|
||
|
|
#04101:00
|
||
|
|
#04101:7F7G7F7X7G7F7X7G7F7G7F7X7G7F7X7G
|
||
|
|
#04101:00
|
||
|
|
#04101:00
|
||
|
|
#04101:00
|
||
|
|
#04101:00
|
||
|
|
#04101:00
|
||
|
|
#04101:00
|
||
|
|
#04101:00
|
||
|
|
#04101:00
|
||
|
|
#04101:5N5O5N5O005P005Q
|
||
|
|
#04106:030405060708090A0B0C0D0E0F0G0H0I030405060708090A0B0C0D0E0F0G0H0I
|
||
|
|
#04111:002R00002R000000
|
||
|
|
#04112:6C0000000000000000000000000000LN
|
||
|
|
#04113:0401040004000400
|
||
|
|
#04114:00000000000000006D000000000000LN
|
||
|
|
#04115:00002Q01002L0001
|
||
|
|
#04118:2P0000000000000000000000000000LN
|
||
|
|
#04119:LN00002P00010000
|
||
|
|
|
||
|
|
#04201:00
|
||
|
|
#04201:000L0000
|
||
|
|
#04201:00
|
||
|
|
#04201:00
|
||
|
|
#04201:00
|
||
|
|
#04201:0000000000020000
|
||
|
|
#04201:00
|
||
|
|
#04201:00
|
||
|
|
#04201:00
|
||
|
|
#04201:00
|
||
|
|
#04201:00030203020300030003000302030203
|
||
|
|
#04201:00
|
||
|
|
#04201:00
|
||
|
|
#04201:7H7I7H7Y7I7H7Y7I7H7I7H7Y7I7H7Y7I
|
||
|
|
#04201:00
|
||
|
|
#04201:00
|
||
|
|
#04201:00
|
||
|
|
#04201:00
|
||
|
|
#04201:00
|
||
|
|
#04201:00
|
||
|
|
#04201:00
|
||
|
|
#04201:00
|
||
|
|
#04201:5R5S5R5T005U005V
|
||
|
|
#04206:030405060708090A0B0C0D0E0F0G0H0I030405060708090A0B0C0D0E0F0G0H0I
|
||
|
|
#04211:0400000000LN00000200000000000000
|
||
|
|
#04212:000000000000310000000000000000LN
|
||
|
|
#04213:3000000000LN00000000010000000100
|
||
|
|
#04214:0000000000000100000000LN320000LN
|
||
|
|
#04215:6E00000000000000000000LN00000000
|
||
|
|
#04218:0000010000000200000000000L0000LN
|
||
|
|
#04219:02040404
|
||
|
|
|
||
|
|
#04301:00
|
||
|
|
#04301:00
|
||
|
|
#04301:00
|
||
|
|
#04301:00
|
||
|
|
#04301:00
|
||
|
|
#04301:00
|
||
|
|
#04301:000L0000
|
||
|
|
#04301:00
|
||
|
|
#04301:00
|
||
|
|
#04301:00
|
||
|
|
#04301:02030203020302030203000302030003
|
||
|
|
#04301:00
|
||
|
|
#04301:00
|
||
|
|
#04301:7H7I7H7Y7I7H7Y7I7H7I7H7Y7I7H7Y7I
|
||
|
|
#04301:00
|
||
|
|
#04301:00
|
||
|
|
#04301:00
|
||
|
|
#04301:00
|
||
|
|
#04301:00
|
||
|
|
#04301:00
|
||
|
|
#04301:00
|
||
|
|
#04301:00
|
||
|
|
#04301:5R5S5R5T005U005V
|
||
|
|
#04306:030405060708090A0B0C0D0E0F0G0H0I030405060708090A0B0C0D0E0F0G0H0I
|
||
|
|
#04311:6F0000000000000000000000000000LN
|
||
|
|
#04312:0000040L
|
||
|
|
#04313:000000012R2M0001
|
||
|
|
#04314:0000042P00000400
|
||
|
|
#04315:00012Q0000020000
|
||
|
|
#04318:042T000000010002
|
||
|
|
#04319:2S000000000000006G000000000000LN
|
||
|
|
|
||
|
|
#04401:00
|
||
|
|
#04401:00
|
||
|
|
#04401:00
|
||
|
|
#04401:00
|
||
|
|
#04401:00
|
||
|
|
#04401:00
|
||
|
|
#04401:000L000L
|
||
|
|
#04401:00
|
||
|
|
#04401:00
|
||
|
|
#04401:00
|
||
|
|
#04401:02030203020302030203020302030203
|
||
|
|
#04401:00
|
||
|
|
#04401:00
|
||
|
|
#04401:7F7G7F7X7G7F7X7G7F7G7F7X7G7F7X7G
|
||
|
|
#04401:00
|
||
|
|
#04401:00
|
||
|
|
#04401:00
|
||
|
|
#04401:00
|
||
|
|
#04401:00
|
||
|
|
#04401:00
|
||
|
|
#04401:00
|
||
|
|
#04401:00
|
||
|
|
#04401:5O5U5S5T005U005V
|
||
|
|
#04406:030405060708090A0B0C0D0E0F0G0H0I030405060708090A0B0C0D0E0F0G0H0I
|
||
|
|
#04411:04040404
|
||
|
|
#04412:0000002Q00000000
|
||
|
|
#04413:00002T00002S0001
|
||
|
|
#04414:33002T3F
|
||
|
|
#04415:6H0000000000000000000000000000LN
|
||
|
|
#04418:000000000000000000000000003G0000
|
||
|
|
#04419:000100010001003H
|
||
|
|
|
||
|
|
#04501:00
|
||
|
|
#04501:00
|
||
|
|
#04501:00
|
||
|
|
#04501:00
|
||
|
|
#04501:00
|
||
|
|
#04501:00
|
||
|
|
#04501:000L000L
|
||
|
|
#04501:00
|
||
|
|
#04501:00
|
||
|
|
#04501:0001000100000001
|
||
|
|
#04501:02030203020302030203020302030203
|
||
|
|
#04501:00
|
||
|
|
#04501:00
|
||
|
|
#04501:7J7K7J7Z7K7J7Z7K7L7M7L807M7L807M
|
||
|
|
#04506:030405060708090A0B0C0D0E0F0G0H0I030405060708090A0B0C0D0E0F0G0H0I
|
||
|
|
#04511:04040404
|
||
|
|
#04512:6I0000000000000000000000000000LN
|
||
|
|
#04513:005X005Z0000005Y
|
||
|
|
#04514:34000000000000LN0000010000000000
|
||
|
|
#04515:000000005Y0000006J000000000000LN
|
||
|
|
#04516:000000000000000000000000008M0000
|
||
|
|
#04518:5W00000000600000
|
||
|
|
#04519:000000000000000035000000000000LN
|
||
|
|
|
||
|
|
#04601:0000000000020000
|
||
|
|
#04601:00
|
||
|
|
#04601:00
|
||
|
|
#04601:00
|
||
|
|
#04601:0000000000000000000000000000003T
|
||
|
|
#04601:00
|
||
|
|
#04601:00040404
|
||
|
|
#04601:00
|
||
|
|
#04601:000L000L
|
||
|
|
#04601:0001000100010001
|
||
|
|
#04601:02030203020302030203000000000003
|
||
|
|
#04601:00
|
||
|
|
#04601:00
|
||
|
|
#04601:7B7C7B7V7C7B7V7C7B7C7B7V7C7B7V7C
|
||
|
|
#04601:00
|
||
|
|
#04601:00
|
||
|
|
#04601:00
|
||
|
|
#04601:00
|
||
|
|
#04601:00
|
||
|
|
#04601:00
|
||
|
|
#04601:00
|
||
|
|
#04601:00
|
||
|
|
#04601:5J5K5J5K0000005M
|
||
|
|
#04606:030405060708090A0B0C0D0E0F0G0H0I030405060708090A0B0C0D0E0F0G0H0I
|
||
|
|
#04611:04000000LN003K0000006O00000000LN
|
||
|
|
#04612:000000006K0000000000LN0300030000
|
||
|
|
#04613:6K000000LN00003L003N000002000200
|
||
|
|
#04614:00000000003J00006N000000000000LN
|
||
|
|
#04615:006L00LN3M3O3Q3S
|
||
|
|
#04618:000000003I006M000000LN3P003R0000
|
||
|
|
#04619:360000000000LN0000005L00000000LN
|
||
|
|
|
||
|
|
#04701:00
|
||
|
|
#04701:00
|
||
|
|
#04701:00
|
||
|
|
#04701:00
|
||
|
|
#04701:00
|
||
|
|
#04701:00
|
||
|
|
#04701:0004
|
||
|
|
#04701:00
|
||
|
|
#04701:00
|
||
|
|
#04701:00
|
||
|
|
#04701:02000203020302030203020302030203
|
||
|
|
#04701:00
|
||
|
|
#04701:00
|
||
|
|
#04701:7B7C7B7V7C7B7V7C7B7C7B7V7C7B7V7C
|
||
|
|
#04701:00
|
||
|
|
#04701:00
|
||
|
|
#04701:00
|
||
|
|
#04701:00
|
||
|
|
#04701:00
|
||
|
|
#04701:00
|
||
|
|
#04701:00
|
||
|
|
#04701:00
|
||
|
|
#04701:5J5K5J5K005L005M
|
||
|
|
#04706:030405060708090A0B0C0D0E0F0G0H0I030405060708090A0B0C0D0E0F0G0H0I
|
||
|
|
#04711:00006K0000LN002M
|
||
|
|
#04712:040300000400000000006O00000000LN
|
||
|
|
#04713:6K000000LN2Q0401
|
||
|
|
#04714:000000000L0000006N000000000000LN
|
||
|
|
#04715:006L00LN2P012R00
|
||
|
|
#04718:3738000000006M0000000000000000LN
|
||
|
|
#04719:0001000100000L00
|
||
|
|
|
||
|
|
#04801:0000000000000001
|
||
|
|
#04801:00
|
||
|
|
#04801:00000004
|
||
|
|
#04801:00
|
||
|
|
#04801:00
|
||
|
|
#04801:00
|
||
|
|
#04801:00040400
|
||
|
|
#04801:00
|
||
|
|
#04801:000L000L
|
||
|
|
#04801:0000000100010000
|
||
|
|
#04801:02030003020302030203020302000203
|
||
|
|
#04801:00
|
||
|
|
#04801:00
|
||
|
|
#04801:7F7G7F7X7G7F7X7G7F7G7F7X7G7F7X7G
|
||
|
|
#04801:00
|
||
|
|
#04801:00
|
||
|
|
#04801:00
|
||
|
|
#04801:00
|
||
|
|
#04801:00
|
||
|
|
#04801:00
|
||
|
|
#04801:00
|
||
|
|
#04801:00
|
||
|
|
#04801:5N5O5N5O005P005Q
|
||
|
|
#04806:030405060708090A0B0C0D0E0F0G0H0I030405060708090A0B0C0D0E0F0G0H0I
|
||
|
|
#04811:00006Q0000000000LN3M000000006W00
|
||
|
|
#04812:003U6T00
|
||
|
|
#04813:04006R00LN3N3A00
|
||
|
|
#04814:00000100003I003K00006U0000000000
|
||
|
|
#04815:3900000000006S000000LN3O00390000
|
||
|
|
#04818:0002003J3L006V00
|
||
|
|
#04819:6P0000000000LN3A
|
||
|
|
|
||
|
|
#04901:00
|
||
|
|
#04901:00
|
||
|
|
#04901:00
|
||
|
|
#04901:00
|
||
|
|
#04901:00
|
||
|
|
#04901:00
|
||
|
|
#04901:04040404
|
||
|
|
#04901:00
|
||
|
|
#04901:000L000L
|
||
|
|
#04901:0001000100010001
|
||
|
|
#04901:02030203020302030203020302030203
|
||
|
|
#04901:00
|
||
|
|
#04901:00
|
||
|
|
#04901:7F7G7F7X7G7F7X7G7F7G7F7X7G7F7X7G
|
||
|
|
#04901:00
|
||
|
|
#04901:00
|
||
|
|
#04901:00
|
||
|
|
#04901:00
|
||
|
|
#04901:00
|
||
|
|
#04901:00
|
||
|
|
#04901:00
|
||
|
|
#04901:00
|
||
|
|
#04901:5N5O5N5O005P005Q
|
||
|
|
#04901:00
|
||
|
|
#04901:00
|
||
|
|
#04901:00
|
||
|
|
#04901:00
|
||
|
|
#04901:00
|
||
|
|
#04901:00
|
||
|
|
#04901:00
|
||
|
|
#04901:008O
|
||
|
|
#04906:030405060708090A0B0C0D0E0F0G0H0I030405060708090A0B0C0D0E0F0G0H0I
|
||
|
|
#04911:6X0000000000000000000000000000LN
|
||
|
|
#04912:LN003R0000003P00003P003L00003L00
|
||
|
|
#04913:3V0000006Y00000000000000000000LN
|
||
|
|
#04914:00000000LN00003N00003N00003N003J
|
||
|
|
#04915:003T003P003R00003R000000700000LN
|
||
|
|
#04918:0000LN3P
|
||
|
|
#04919:000000003T0000006Z000000000000LN
|
||
|
|
|
||
|
|
#05001:00
|
||
|
|
#05001:00
|
||
|
|
#05001:00
|
||
|
|
#05001:00
|
||
|
|
#05001:00
|
||
|
|
#05001:00
|
||
|
|
#05001:00040400
|
||
|
|
#05001:00
|
||
|
|
#05001:000L000L
|
||
|
|
#05001:0001000000010001
|
||
|
|
#05001:02030203020302030203020302030203
|
||
|
|
#05001:00
|
||
|
|
#05001:00
|
||
|
|
#05001:7H7I7H7Y7I7H7Y7I7H7I7H7Y7I7H7Y7I
|
||
|
|
#05001:00
|
||
|
|
#05001:00
|
||
|
|
#05001:00
|
||
|
|
#05001:00
|
||
|
|
#05001:00
|
||
|
|
#05001:00
|
||
|
|
#05001:00
|
||
|
|
#05001:00
|
||
|
|
#05001:5R5S5R5T005U005V
|
||
|
|
#05006:030405060708090A0B0C0D0E0F0G0H0I030405060708090A0B0C0D0E0F0G0H0I
|
||
|
|
#05011:0400000000LN00000000000000007400
|
||
|
|
#05012:710000LN71000000000000000000LN00
|
||
|
|
#05013:3000000000LN3100000000LN00000000
|
||
|
|
#05014:00000000007300LN
|
||
|
|
#05015:0000000000000100000000LN040000LN
|
||
|
|
#05018:0000720000LN72000000000000000000
|
||
|
|
#05019:000000000000000000000000320000LN
|
||
|
|
|
||
|
|
#05101:00
|
||
|
|
#05101:00
|
||
|
|
#05101:00
|
||
|
|
#05101:00
|
||
|
|
#05101:00
|
||
|
|
#05101:00
|
||
|
|
#05101:04040404
|
||
|
|
#05101:00
|
||
|
|
#05101:000L0000
|
||
|
|
#05101:0001000100010000
|
||
|
|
#05101:02030203020302030203020302030203
|
||
|
|
#05101:00
|
||
|
|
#05101:00
|
||
|
|
#05101:7H7I7H7Y7I7H7Y7I7H7I7H7Y7I7H7Y7I
|
||
|
|
#05101:00
|
||
|
|
#05101:00
|
||
|
|
#05101:00
|
||
|
|
#05101:00
|
||
|
|
#05101:00
|
||
|
|
#05101:00
|
||
|
|
#05101:00
|
||
|
|
#05101:00
|
||
|
|
#05101:5R5S5R5T005U005V
|
||
|
|
#05106:030405060708090A0B0C0D0E0F0G0H0I030405060708090A0B0C0D0E0F0G0H0I
|
||
|
|
#05111:000000000000000000000000000000LN
|
||
|
|
#05112:0000002P002M0001
|
||
|
|
#05113:2S2Q000L
|
||
|
|
#05114:002T00002R000075
|
||
|
|
#05115:710000LN7100000000LN000074000000
|
||
|
|
#05118:LN00000000730000
|
||
|
|
#05119:0000720000LN72000000000000000000
|
||
|
|
|
||
|
|
#05201:33
|
||
|
|
#05201:76
|
||
|
|
#05201:04
|
||
|
|
#05201:00
|
||
|
|
#05201:00040404
|
||
|
|
#05201:00
|
||
|
|
#05201:00
|
||
|
|
#05201:00
|
||
|
|
#05201:00
|
||
|
|
#05201:0001000100010001
|
||
|
|
#05201:0F0H0F0H0F0H0F0H0F0H0F0H0F0H0F00
|
||
|
|
#05201:00
|
||
|
|
#05201:00
|
||
|
|
#05201:7F7G7F7X7G7F7X7G7F7G7F7X7G7F7X7G
|
||
|
|
#05201:00
|
||
|
|
#05201:00
|
||
|
|
#05201:00
|
||
|
|
#05201:00
|
||
|
|
#05201:00
|
||
|
|
#05201:00
|
||
|
|
#05201:0077
|
||
|
|
#05201:00
|
||
|
|
#05201:5O5U5S5T005U005V
|
||
|
|
#05206:030405060708090A0B0C0D0E0F0G0H0I030405060708090A0B0C0D0E0F0G0H0I
|
||
|
|
#05211:2L000000000000LN2T000000000000LN
|
||
|
|
#05212:002M00000000LN03002S00000000LN03
|
||
|
|
#05213:02002N0000LN020002002S0000LN0200
|
||
|
|
#05214:LN03002OLN03002SLN03002PLN03000H
|
||
|
|
#05215:00LN020002002Q0000LN020002003H00
|
||
|
|
#05218:0000LN03002S00000000LN03003G0000
|
||
|
|
#05219:000000LN2T000000000000LN3F000000
|
||
|
|
|
||
|
|
#05301:04
|
||
|
|
#05301:0004
|
||
|
|
#05301:00
|
||
|
|
#05301:00
|
||
|
|
#05301:0000040000000407
|
||
|
|
#05301:00
|
||
|
|
#05301:00
|
||
|
|
#05301:00
|
||
|
|
#05301:00
|
||
|
|
#05301:0001000100010001
|
||
|
|
#05301:02030203020302030203020302030203
|
||
|
|
#05301:00
|
||
|
|
#05301:00
|
||
|
|
#05301:7J7K7J7Z7K7J7Z7K7L7M7L807M7L807M
|
||
|
|
#05301:00
|
||
|
|
#05301:00
|
||
|
|
#05301:003C003B00000000003E003D00000000
|
||
|
|
#05301:00
|
||
|
|
#05301:00
|
||
|
|
#05301:00
|
||
|
|
#05301:00
|
||
|
|
#05301:00
|
||
|
|
#05301:5W5X5Y5Z0060005Y
|
||
|
|
#05301:00
|
||
|
|
#05301:00
|
||
|
|
#05301:008J
|
||
|
|
#05301:00
|
||
|
|
#05301:00
|
||
|
|
#05301:00
|
||
|
|
#05301:0000000000000000005I000000000000
|
||
|
|
#05301:0000008I
|
||
|
|
#05306:030405060708090A0B0C0D0E0F0G0H0I030405060708090A0B0C0D0E0F0G0H0I
|
||
|
|
#05311:780000000000000000000000000000LN
|
||
|
|
#05312:0F0F0F0F0F0F0F0F
|
||
|
|
#05313:3B0000000000000000000000000000LN
|
||
|
|
#05314:LN000N0K00000I00
|
||
|
|
#05315:LN0000000000000079000000000000LN
|
||
|
|
#05316:0J
|
||
|
|
#05318:LN0H000H000H000H000H000H000H000H
|
||
|
|
#05319:LN000000000000003D000000000000LN
|
||
|
|
|
||
|
|
#05401:00
|
||
|
|
#05401:00
|
||
|
|
#05401:00
|
||
|
|
#05401:00
|
||
|
|
#05401:00
|
||
|
|
#05401:00
|
||
|
|
#05401:00
|
||
|
|
#05401:00
|
||
|
|
#05401:00
|
||
|
|
#05401:00
|
||
|
|
#05401:00
|
||
|
|
#05401:00
|
||
|
|
#05401:00
|
||
|
|
#05401:00
|
||
|
|
#05401:00
|
||
|
|
#05401:00
|
||
|
|
#05401:00
|
||
|
|
#05401:00
|
||
|
|
#05401:00
|
||
|
|
#05401:00
|
||
|
|
#05401:00
|
||
|
|
#05401:00
|
||
|
|
#05401:00
|
||
|
|
#05401:00
|
||
|
|
#05401:00
|
||
|
|
#05401:00898989
|
||
|
|
#05401:00
|
||
|
|
#05401:00
|
||
|
|
#05401:00
|
||
|
|
#05401:00
|
||
|
|
#05401:00
|
||
|
|
#05401:0R
|
||
|
|
#05403:5C
|
||
|
|
#05406:030405060708090A0B0C0D0E0F0G0H0I030405060708090A0B0C0D0E0F0G0H0I
|
||
|
|
#05412:7A
|
||
|
|
#05414:08
|
||
|
|
#05416:0C0D
|
||
|
|
#05418:89
|
||
|
|
|
||
|
|
#05501:00
|
||
|
|
#05501:00
|
||
|
|
#05501:00
|
||
|
|
#05501:00
|
||
|
|
#05501:00
|
||
|
|
#05501:00
|
||
|
|
#05501:00
|
||
|
|
#05501:00
|
||
|
|
#05501:00
|
||
|
|
#05501:00
|
||
|
|
#05501:00
|
||
|
|
#05501:00
|
||
|
|
#05501:00
|
||
|
|
#05501:00
|
||
|
|
#05501:00
|
||
|
|
#05501:00
|
||
|
|
#05501:00
|
||
|
|
#05501:00
|
||
|
|
#05501:00
|
||
|
|
#05501:00
|
||
|
|
#05501:00
|
||
|
|
#05501:00
|
||
|
|
#05501:00
|
||
|
|
#05501:00
|
||
|
|
#05501:00
|
||
|
|
#05501:8A8A8A8A
|
||
|
|
#05506:030405060708090A0B0C0D0E0F0G0H0I030405060708090A0B0C0D0E0F0G0H0I
|
||
|
|
#05512:LN
|
||
|
|
#05514:LN
|
||
|
|
#05518:LN
|
||
|
|
|
||
|
|
#05601:00
|
||
|
|
#05601:00
|
||
|
|
#05601:00
|
||
|
|
#05601:00
|
||
|
|
#05601:00
|
||
|
|
#05601:00
|
||
|
|
#05601:00
|
||
|
|
#05601:00
|
||
|
|
#05601:00
|
||
|
|
#05601:00
|
||
|
|
#05601:00
|
||
|
|
#05601:00
|
||
|
|
#05601:00
|
||
|
|
#05601:00
|
||
|
|
#05601:00
|
||
|
|
#05601:00
|
||
|
|
#05601:00
|
||
|
|
#05601:00
|
||
|
|
#05601:00
|
||
|
|
#05601:00
|
||
|
|
#05601:00
|
||
|
|
#05601:00
|
||
|
|
#05601:00
|
||
|
|
#05601:00
|
||
|
|
#05601:00
|
||
|
|
#05601:8B8B8B8B
|
||
|
|
#05606:030405060708090A0B0C0D0E0F0G0H0I030405060708090A0B0C0D0E0F0G0H0I
|
||
|
|
#05616:000D
|
||
|
|
|
||
|
|
#05701:00
|
||
|
|
#05701:00
|
||
|
|
#05701:00
|
||
|
|
#05701:00
|
||
|
|
#05701:00
|
||
|
|
#05701:00
|
||
|
|
#05701:00
|
||
|
|
#05701:00
|
||
|
|
#05701:00
|
||
|
|
#05701:00
|
||
|
|
#05701:00
|
||
|
|
#05701:00
|
||
|
|
#05701:00
|
||
|
|
#05701:00
|
||
|
|
#05701:00
|
||
|
|
#05701:00
|
||
|
|
#05701:00
|
||
|
|
#05701:00
|
||
|
|
#05701:00
|
||
|
|
#05701:00
|
||
|
|
#05701:00
|
||
|
|
#05701:00
|
||
|
|
#05701:00
|
||
|
|
#05701:00
|
||
|
|
#05701:008D
|
||
|
|
#05701:8C8C8C8C
|
||
|
|
#05701:00
|
||
|
|
#05701:00
|
||
|
|
#05701:00
|
||
|
|
#05701:00
|
||
|
|
#05701:00
|
||
|
|
#05701:8H
|
||
|
|
#05706:030405060708090A0B0C0D0E0F0G0H0I030405060708090A0B0C0D0E0F0G0H0I
|
||
|
|
#05716:0000000000000000000B0000LN000000
|
||
|
|
|
||
|
|
#05801:00
|
||
|
|
#05801:00
|
||
|
|
#05801:00
|
||
|
|
#05801:00
|
||
|
|
#05801:04000000000000000000000000040000040000000000000000000000000400000000000000000400000000000004000004000000000000000000000000000000
|
||
|
|
#05801:000M000M
|
||
|
|
#05801:00
|
||
|
|
#05801:00
|
||
|
|
#05801:0000000000090000000000000009000000000000000900000000000000090000
|
||
|
|
#05801:00
|
||
|
|
#05801:00
|
||
|
|
#05801:0E000000000E00000E000000000E00000E000000000E00000E000000000E0000
|
||
|
|
#05803:8A458A458A458A45
|
||
|
|
#05806:030405060708090A0B0C0D0E0F0G0H0I030405060708090A0B0C0D0E0F0G0H0I
|
||
|
|
#05813:89LN89LN89LN89LN
|
||
|
|
#05816:0C
|
||
|
|
#05819:85LN85LN85LN85LN
|
||
|
|
|
||
|
|
#05901:00
|
||
|
|
#05901:00
|
||
|
|
#05901:00
|
||
|
|
#05901:00
|
||
|
|
#05901:04000000000000000000000000040000040000000000000000000000000400000000000000040000000000000004000004000000000000000000000000000000
|
||
|
|
#05901:000M000M
|
||
|
|
#05901:00
|
||
|
|
#05901:00
|
||
|
|
#05901:0000000000000000000000000000000000000000000000000000000000000900000000000000000000000000000000000000000000000000000000000000000000000000000000000000000000000900000000000000000000000000000000000000000000000000000000000000000000000000000000000000000000000900000000000000000000000000000000000000000000000000000000000000000000000000000000000000000000000F00000H0000000F00000000000000000000
|
||
|
|
#05901:00
|
||
|
|
#05901:00
|
||
|
|
#05901:0E000000000E00000E000000000E00000E000000000E00000E000000000E0000
|
||
|
|
#05903:8A458A458A458A45
|
||
|
|
#05906:030405060708090A0B0C0D0E0F0G0H0I030405060708090A0B0C0D0E0F0G0H0I
|
||
|
|
#05912:8ALN8ALN8ALN8ALN
|
||
|
|
#05918:86LN86LN86LN86LN
|
||
|
|
|
||
|
|
#06001:00
|
||
|
|
#06001:00
|
||
|
|
#06001:00
|
||
|
|
#06001:00
|
||
|
|
#06001:00000000000000000000000000040000040000000000000000000000000400000000000000000004000000000004000004000000000000000000000000000000
|
||
|
|
#06001:0000000M
|
||
|
|
#06001:00
|
||
|
|
#06001:0000000000090000000000000009000000000000000900000000000000090000
|
||
|
|
#06001:0000000000000A0000000000000A00000000000000000A0000000000000A00000000000000000A0000000000000A00000000000000000A0000000000000A0000
|
||
|
|
#06001:00
|
||
|
|
#06001:00
|
||
|
|
#06001:000000000E0000000E000000000E000000000000000E000000000000000E0000
|
||
|
|
#06003:8A458A458A458A45
|
||
|
|
#06006:030405060708090A0B0C0D0E0F0G0H0I030405060708090A0B0C0D0E0F0G0H0I
|
||
|
|
#06011:09LN09LN09LN09LN
|
||
|
|
#06013:8BLN8BLN8BLN8BLN
|
||
|
|
#06015:87LN87LN87LN87LN
|
||
|
|
#06016:0I
|
||
|
|
#06019:04LN0MLN0ELN0ELN
|
||
|
|
|
||
|
|
#06101:00
|
||
|
|
#06101:00
|
||
|
|
#06101:00
|
||
|
|
#06101:00
|
||
|
|
#06101:000000040000000400040004000000000000
|
||
|
|
#06101:00
|
||
|
|
#06101:00
|
||
|
|
#06101:000F0F0F0F0F0F0F000F0F0F000F0F000F00
|
||
|
|
#06101:000H000H000H000H000H000H000H000H000H000H000H000H000H000H00000H0000000H00
|
||
|
|
#06101:00
|
||
|
|
#06101:00
|
||
|
|
#06101:000E000E000E0E0E00
|
||
|
|
#06102:1.125
|
||
|
|
#06103:5C000000000000B800
|
||
|
|
#06106:030405060708090A0B0C0D0E0F0G0H0I030405060708090A0B0C0D0E0F0G0H0I00000000
|
||
|
|
#06111:04LN04LN0FLN0FLN00
|
||
|
|
#06112:0FLN0ELNLMLN04LN00
|
||
|
|
#06114:8CLN8CLN8CLN8CLN00
|
||
|
|
#06118:0ELN0MLN0ELN0MLN00
|
||
|
|
#06119:88LN88LN88LN88LN00
|
||
|
|
|
||
|
|
#06201:00
|
||
|
|
#06201:08
|
||
|
|
#06201:00
|
||
|
|
#06201:00
|
||
|
|
#06201:00
|
||
|
|
#06201:00
|
||
|
|
#06201:00
|
||
|
|
#06201:00
|
||
|
|
#06201:00
|
||
|
|
#06201:00
|
||
|
|
#06201:00
|
||
|
|
#06201:00
|
||
|
|
#06201:00
|
||
|
|
#06201:7B7C7B7V7C7B7V7C7B7C7B7V7C7B7V7C
|
||
|
|
#06201:00
|
||
|
|
#06201:00
|
||
|
|
#06201:00
|
||
|
|
#06201:00
|
||
|
|
#06201:00
|
||
|
|
#06201:00
|
||
|
|
#06201:00
|
||
|
|
#06201:00
|
||
|
|
#06201:00
|
||
|
|
#06201:00
|
||
|
|
#06201:00
|
||
|
|
#06201:00
|
||
|
|
#06201:00
|
||
|
|
#06201:00
|
||
|
|
#06201:00
|
||
|
|
#06201:00
|
||
|
|
#06201:00
|
||
|
|
#06201:2A
|
||
|
|
#06206:030405060708090A0B0C0D0E0F0G0H0I030405060708090A0B0C0D0E0F0G0H0I
|
||
|
|
#06211:00000000000000000000000000000042
|
||
|
|
#06212:0000000000004Z500000000040004000
|
||
|
|
#06213:00004000000000004100003Z003Z0000
|
||
|
|
#06214:003Z003Z000000000000410000000000
|
||
|
|
#06215:3Y00000000000000003Y000000000000
|
||
|
|
#06216:0C
|
||
|
|
#06218:00000000000051520000000000000000
|
||
|
|
|
||
|
|
#06301:00
|
||
|
|
#06301:00
|
||
|
|
#06301:00
|
||
|
|
#06301:00
|
||
|
|
#06301:00
|
||
|
|
#06301:00
|
||
|
|
#06301:00
|
||
|
|
#06301:00
|
||
|
|
#06301:00
|
||
|
|
#06301:00
|
||
|
|
#06301:00
|
||
|
|
#06301:00
|
||
|
|
#06301:00
|
||
|
|
#06301:7F7G7F7X7G7F7X7G7F7G7F7X7G7F7X7G
|
||
|
|
#06306:030405060708090A0B0C0D0E0F0G0H0I030405060708090A0B0C0D0E0F0G0H0I
|
||
|
|
#06312:4300000000000000530054000053000000000000000000004500000045000000
|
||
|
|
#06313:00400000000000000040000000470000
|
||
|
|
#06314:003Z000000000000
|
||
|
|
#06315:0000003Y000000003Z003Z0000480000
|
||
|
|
#06318:0000000000000000550056000055000000000000000000004600000046000000
|
||
|
|
|
||
|
|
#06401:00
|
||
|
|
#06401:00
|
||
|
|
#06401:00
|
||
|
|
#06401:00
|
||
|
|
#06401:00
|
||
|
|
#06401:00
|
||
|
|
#06401:00
|
||
|
|
#06401:00
|
||
|
|
#06401:00
|
||
|
|
#06401:00
|
||
|
|
#06401:00
|
||
|
|
#06401:00
|
||
|
|
#06401:00
|
||
|
|
#06401:7H7I7H7Y7I7H7Y7I7H7I7H7Y7I7H7Y7I
|
||
|
|
#06406:030405060708090A0B0C0D0E0F0G0H0I030405060708090A0B0C0D0E0F0G0H0I
|
||
|
|
#06411:4C
|
||
|
|
#06412:00004E00000000000000000000480000
|
||
|
|
#06413:004D000000004F000000000000005700
|
||
|
|
#06414:000000000000480000004E0000004G004G000000480000004600000000580000
|
||
|
|
#06415:000000004D0000000046000000000059
|
||
|
|
#06418:000000000000000000000000000000000000000000004700000000000000005A
|
||
|
|
|
||
|
|
#06501:00
|
||
|
|
#06501:00
|
||
|
|
#06501:00
|
||
|
|
#06501:00
|
||
|
|
#06501:00
|
||
|
|
#06501:00
|
||
|
|
#06501:00
|
||
|
|
#06501:00
|
||
|
|
#06501:00
|
||
|
|
#06501:00
|
||
|
|
#06501:00
|
||
|
|
#06501:00
|
||
|
|
#06501:00
|
||
|
|
#06501:7N7O7N817O7N817O7P7Q7P827Q7P827Q
|
||
|
|
#06501:00
|
||
|
|
#06501:00
|
||
|
|
#06501:00
|
||
|
|
#06501:00
|
||
|
|
#06501:00
|
||
|
|
#06501:00
|
||
|
|
#06501:00
|
||
|
|
#06501:00
|
||
|
|
#06501:00
|
||
|
|
#06501:00
|
||
|
|
#06501:00
|
||
|
|
#06501:00
|
||
|
|
#06501:00
|
||
|
|
#06501:00
|
||
|
|
#06501:00
|
||
|
|
#06501:00
|
||
|
|
#06501:0G
|
||
|
|
#06506:030405060708090A0B0C0D0E0F0G0H0I030405060708090A0B0C0D0E0F0G0H0I
|
||
|
|
#06511:3Z4J4K4L
|
||
|
|
#06513:42000000004I4I00420000003Z004A00
|
||
|
|
#06514:00464600004D4D00004H4H0000424942
|
||
|
|
#06515:004E4E00450000000048480000460046
|
||
|
|
#06519:4H434043
|
||
|
|
|
||
|
|
#06601:00
|
||
|
|
#06601:00
|
||
|
|
#06601:00
|
||
|
|
#06601:00
|
||
|
|
#06601:00
|
||
|
|
#06601:00
|
||
|
|
#06601:00
|
||
|
|
#06601:00
|
||
|
|
#06601:00
|
||
|
|
#06601:00
|
||
|
|
#06601:00
|
||
|
|
#06601:00
|
||
|
|
#06601:00
|
||
|
|
#06601:7B7C7B7V7C7B7V7C7B7C7B7V7C7B7V7C
|
||
|
|
#06606:030405060708090A0B0C0D0E0F0G0H0I030405060708090A0B0C0D0E0F0G0H0I
|
||
|
|
#06611:00004600000000000000000000470000
|
||
|
|
#06612:00470047000000000000003Z00004500
|
||
|
|
#06613:45000000450000000040000040000042
|
||
|
|
#06614:00000000004200000000410000000000
|
||
|
|
#06615:000000433Z000000
|
||
|
|
#06618:00000000000000400000000000000000
|
||
|
|
|
||
|
|
#06701:00
|
||
|
|
#06701:00
|
||
|
|
#06701:00
|
||
|
|
#06701:00
|
||
|
|
#06701:00
|
||
|
|
#06701:00
|
||
|
|
#06701:00
|
||
|
|
#06701:00
|
||
|
|
#06701:00
|
||
|
|
#06701:00
|
||
|
|
#06701:00
|
||
|
|
#06701:00
|
||
|
|
#06701:00
|
||
|
|
#06701:7L7M7L807M7L807M7L7M7L807M7L807M
|
||
|
|
#06706:030405060708090A0B0C0D0E0F0G0H0I030405060708090A0B0C0D0E0F0G0H0I
|
||
|
|
#06711:0042000000000000004O000000000000
|
||
|
|
#06712:000043000000000000000000004S0000
|
||
|
|
#06713:00000040000000004N004P0000004T00
|
||
|
|
#06714:LO
|
||
|
|
#06715:000000003Z0000000000004Q00000000
|
||
|
|
#06718:430000000041004L000000000000004U
|
||
|
|
#06719:0000003Y00004R00
|
||
|
|
|
||
|
|
#06801:00
|
||
|
|
#06801:00
|
||
|
|
#06801:00
|
||
|
|
#06801:00
|
||
|
|
#06801:00
|
||
|
|
#06801:00
|
||
|
|
#06801:00
|
||
|
|
#06801:00
|
||
|
|
#06801:00
|
||
|
|
#06801:00
|
||
|
|
#06801:00
|
||
|
|
#06801:00
|
||
|
|
#06801:00
|
||
|
|
#06801:007E7D7W7E7D7W7E7D7E7D7W7E7D7W7E
|
||
|
|
#06806:030405060708090A0B0C0D0E0F0G0H0I030405060708090A0B0C0D0E0F0G0H0I
|
||
|
|
#06811:43
|
||
|
|
#06812:003X003Y003X3Y000000000000000000
|
||
|
|
#06813:00000000000000000041000000000041
|
||
|
|
#06815:000000003Y3Y003Y
|
||
|
|
#06818:003Z004B003Z4B000000004L004L0000
|
||
|
|
#06819:7D00004N
|
||
|
|
|
||
|
|
#06901:00
|
||
|
|
#06901:00
|
||
|
|
#06901:00
|
||
|
|
#06901:00
|
||
|
|
#06901:00
|
||
|
|
#06901:00
|
||
|
|
#06901:00
|
||
|
|
#06901:00
|
||
|
|
#06901:00
|
||
|
|
#06901:00
|
||
|
|
#06901:00
|
||
|
|
#06901:00
|
||
|
|
#06901:00
|
||
|
|
#06901:7R7S7R837S7R837S7T7U7T847U7T847U
|
||
|
|
#06906:030405060708090A0B0C0D0E0F0G0H0I030405060708090A0B0C0D0E0F0G0H0I
|
||
|
|
#06911:3Y00000000000000004L000000000000
|
||
|
|
#06912:004L00000000000000004N0000000000
|
||
|
|
#06913:00004N00000000000000004O00000000
|
||
|
|
#06914:000000000000000000000000000000LN
|
||
|
|
#06915:003Y3Y4P
|
||
|
|
#06916:00000000000B0000
|
||
|
|
#06918:00000000004L004L00000000004Q004S
|
||
|
|
#06919:0000004L00004N000000000000004T00
|
||
|
|
|
||
|
|
#07001:00
|
||
|
|
#07001:0000002G
|
||
|
|
#07001:00
|
||
|
|
#07001:0S000000002C002C
|
||
|
|
#07001:002F
|
||
|
|
#07001:002C002E00000000
|
||
|
|
#07001:002D0000
|
||
|
|
#07001:00
|
||
|
|
#07001:000L000L
|
||
|
|
#07001:00
|
||
|
|
#07001:02030203020302030203020302030203
|
||
|
|
#07001:00
|
||
|
|
#07001:00
|
||
|
|
#07001:7B7C7B7V7C7B7V7C7B7C7B7V7C7B7V7C
|
||
|
|
#07001:00
|
||
|
|
#07001:00
|
||
|
|
#07001:1S001U001S001S1T001S1T001S001U00
|
||
|
|
#07001:00
|
||
|
|
#07001:00
|
||
|
|
#07001:8F8K8F008F8K8F008F8K8F008F8K0000
|
||
|
|
#07001:000000000000008E
|
||
|
|
#07001:00
|
||
|
|
#07001:00
|
||
|
|
#07001:00
|
||
|
|
#07001:00
|
||
|
|
#07001:00
|
||
|
|
#07001:00
|
||
|
|
#07001:00
|
||
|
|
#07001:00
|
||
|
|
#07001:0S
|
||
|
|
#07001:0S
|
||
|
|
#07001:0S
|
||
|
|
#07006:030405060708090A0B0C0D0E0F0G0H0I030405060708090A0B0C0D0E0F0G0H0I
|
||
|
|
#07011:04040404
|
||
|
|
#07012:0001000100010001
|
||
|
|
#07013:4500453Z
|
||
|
|
#07014:00004000000040000042000000410000
|
||
|
|
#07015:2B0000000000000000000000000000LN
|
||
|
|
#07016:0C
|
||
|
|
#07018:003Z003Z003Z00000000430000003Y00
|
||
|
|
#07019:000000004100003Z000000400000004L
|
||
|
|
|
||
|
|
#07101:00
|
||
|
|
#07101:0000002G
|
||
|
|
#07101:00
|
||
|
|
#07101:00000000002C002C
|
||
|
|
#07101:002F
|
||
|
|
#07101:002C002E00000000
|
||
|
|
#07101:002D0000
|
||
|
|
#07101:00
|
||
|
|
#07101:000L000L
|
||
|
|
#07101:00
|
||
|
|
#07101:02030203020302030203020302030203
|
||
|
|
#07101:00
|
||
|
|
#07101:00
|
||
|
|
#07101:7F7G7F7X7G7F7X7G7F7G7F7X7G7F7X7G
|
||
|
|
#07101:00
|
||
|
|
#07101:00
|
||
|
|
#07101:1P001R001P001P1Q001P1Q001P001R00
|
||
|
|
#07101:00
|
||
|
|
#07101:00
|
||
|
|
#07101:8F008K008F0000008F008K008G8L8G8L8F0000008K0000008F008K0000000000
|
||
|
|
#07101:000000000000008E
|
||
|
|
#07106:030405060708090A0B0C0D0E0F0G0H0I030405060708090A0B0C0D0E0F0G0H0I
|
||
|
|
#07111:04040404
|
||
|
|
#07112:0001000100010000
|
||
|
|
#07113:2B0000000000000000000000000000LN
|
||
|
|
#07114:00410000004100004V00000000000100
|
||
|
|
#07115:0000004000000042004G000047000040
|
||
|
|
#07118:3Y0000003Y00000000004E0000450000
|
||
|
|
#07119:00003Z00000040000000004800004200
|
||
|
|
|
||
|
|
#07201:00
|
||
|
|
#07201:0000002G
|
||
|
|
#07201:00
|
||
|
|
#07201:00000000002C002C
|
||
|
|
#07201:002F
|
||
|
|
#07201:002C002E00000000
|
||
|
|
#07201:002D0000
|
||
|
|
#07201:00
|
||
|
|
#07201:000L000L
|
||
|
|
#07201:00
|
||
|
|
#07201:02030203020302030203020302030203
|
||
|
|
#07201:00
|
||
|
|
#07201:00
|
||
|
|
#07201:7H7I7H7Y7I7H7Y7I7H7I7H7Y7I7H7Y7I
|
||
|
|
#07201:00
|
||
|
|
#07201:00
|
||
|
|
#07201:1M001O001M001M1N001M1N001M001O00
|
||
|
|
#07201:00
|
||
|
|
#07201:00
|
||
|
|
#07201:8F8K8F008F8K8F008F8K8F008F8K0000
|
||
|
|
#07201:000000000000008E
|
||
|
|
#07206:030405060708090A0B0C0D0E0F0G0H0I030405060708090A0B0C0D0E0F0G0H0I
|
||
|
|
#07211:04040404
|
||
|
|
#07212:2B0000000000000000000000000000LN
|
||
|
|
#07213:0001000100010000
|
||
|
|
#07214:5E000000005E000000002R00000000000000000000004L000000000001000000
|
||
|
|
#07215:005F00003Y00003Z00003Y00005B0000
|
||
|
|
#07218:5G000000005G000000002L000000000000000000000000004P00005C00000000
|
||
|
|
#07219:005H00003Z0000420000000000005D00
|
||
|
|
|
||
|
|
#07301:4H
|
||
|
|
#07301:00000000450000000000000000000049
|
||
|
|
#07301:4242
|
||
|
|
#07301:000043000000003Z
|
||
|
|
#07301:3Z0000000000000040000000004K0000
|
||
|
|
#07301:004J0000
|
||
|
|
#07301:00004K4L
|
||
|
|
#07301:00
|
||
|
|
#07301:000L000L
|
||
|
|
#07301:00
|
||
|
|
#07301:02030203020302030203020302030203
|
||
|
|
#07301:00
|
||
|
|
#07301:00
|
||
|
|
#07301:7N7O7N817O7N817O7P7Q000000000000
|
||
|
|
#07301:00
|
||
|
|
#07301:00
|
||
|
|
#07301:1V001X001V001V1W001P1Q001P001R00
|
||
|
|
#07301:00
|
||
|
|
#07301:002C2D2E002C2G2C
|
||
|
|
#07301:8F008K008F0000008F008K008G8L8G8L8F0000008K0000008F008K0000000000
|
||
|
|
#07301:000000000000008E
|
||
|
|
#07306:030405060708090A0B0C0D0E0F0G0H0I030405060708090A0B0C0D0E0F0G0H0I
|
||
|
|
#07311:2B000000000000LN0400000004000000
|
||
|
|
#07312:00000100000001002F000000000000LN
|
||
|
|
#07313:0400040000017Q01
|
||
|
|
#07314:0046460000LN00000048480000LN0000
|
||
|
|
#07315:00000000004I4I0000LN008200008200
|
||
|
|
#07318:004E4E0000LN0000004H4H0000LN007Q
|
||
|
|
#07319:00000000004D4D0000LN7P00007P0000
|
||
|
|
|
||
|
|
#07401:1S0000001S001S00001S00001S000000
|
||
|
|
#07401:00
|
||
|
|
#07401:00001U000000001T00001T0000001U00
|
||
|
|
#07401:00
|
||
|
|
#07401:00
|
||
|
|
#07401:00
|
||
|
|
#07401:00
|
||
|
|
#07401:00
|
||
|
|
#07401:000L000L
|
||
|
|
#07401:00
|
||
|
|
#07401:02030203020302030203020302030203
|
||
|
|
#07401:00
|
||
|
|
#07401:00
|
||
|
|
#07401:7B7C7B7V7C7B7V7C7B7C7B7V7C7B7V7C
|
||
|
|
#07401:00
|
||
|
|
#07401:00
|
||
|
|
#07401:00
|
||
|
|
#07401:00
|
||
|
|
#07401:002C2D2E2F2C2G2C
|
||
|
|
#07401:8F8K8F008F8K8F008F8K8F008F8K0000
|
||
|
|
#07401:000000000000008E
|
||
|
|
#07406:030405060708090A0B0C0D0E0F0G0H0I030405060708090A0B0C0D0E0F0G0H0I
|
||
|
|
#07411:2B0000000000000000000000000000LN
|
||
|
|
#07412:00470000004200000040000000470000
|
||
|
|
#07413:00004600000043000000003Z00000000
|
||
|
|
#07414:45000047000000400000410000004500
|
||
|
|
#07415:00000000450000003Z00000040000042
|
||
|
|
#07418:0001000100010001
|
||
|
|
#07419:04040404
|
||
|
|
|
||
|
|
#07501:00
|
||
|
|
#07501:1Y0000001Y001Y00001Y00001Y000000
|
||
|
|
#07501:00
|
||
|
|
#07501:00
|
||
|
|
#07501:00
|
||
|
|
#07501:00
|
||
|
|
#07501:00
|
||
|
|
#07501:00
|
||
|
|
#07501:000L000L
|
||
|
|
#07501:00
|
||
|
|
#07501:02030203020302030203020302030203
|
||
|
|
#07501:00
|
||
|
|
#07501:00
|
||
|
|
#07501:7L7M7L807M7L807M7L7M7L807M7L807M
|
||
|
|
#07501:00
|
||
|
|
#07501:00
|
||
|
|
#07501:00
|
||
|
|
#07501:00
|
||
|
|
#07501:002C2D2E2F2C2G2C
|
||
|
|
#07501:8F008K008F0000008F008K008G8L8G8L8F0000008K0000008F008K0000000000
|
||
|
|
#07501:000000000000008E
|
||
|
|
#07506:030405060708090A0B0C0D0E0F0G0H0I030405060708090A0B0C0D0E0F0G0H0I
|
||
|
|
#07511:000020000000001Z00001Z0000002000
|
||
|
|
#07512:2B0000000000000000000000000000LN
|
||
|
|
#07513:004200003Z00004L004O0000004S0000
|
||
|
|
#07514:4343003Y004P4R4T
|
||
|
|
#07515:00000040004100004N00004Q0000004U
|
||
|
|
#07518:0001000100010001
|
||
|
|
#07519:04040404
|
||
|
|
|
||
|
|
#07601:00
|
||
|
|
#07601:00
|
||
|
|
#07601:21000000210021000021000021000000
|
||
|
|
#07601:00000404
|
||
|
|
#07601:00002300000000220000220000002300
|
||
|
|
#07601:00
|
||
|
|
#07601:00
|
||
|
|
#07601:00
|
||
|
|
#07601:000L000L
|
||
|
|
#07601:0001000100010001
|
||
|
|
#07601:02030203020302030203020302030203
|
||
|
|
#07601:00
|
||
|
|
#07601:00
|
||
|
|
#07601:7D7E7D7W7E7D7W7E7D7E7D7W7E7D7W7E
|
||
|
|
#07601:00
|
||
|
|
#07601:00
|
||
|
|
#07601:00
|
||
|
|
#07601:00
|
||
|
|
#07601:002C2D2E2F2C2G2C
|
||
|
|
#07601:8F8K8F008F8K8F008F8K8F008F8K0000
|
||
|
|
#07601:000000000000008E
|
||
|
|
#07606:030405060708090A0B0C0D0E0F0G0H0I030405060708090A0B0C0D0E0F0G0H0I
|
||
|
|
#07611:430000000400000000003YLN004OLN00
|
||
|
|
#07612:00000000000000000041LN4LLN004PLN
|
||
|
|
#07613:45000000000000004BLN00004NLN004Q
|
||
|
|
#07614:2B0000000000000000000000000000LN
|
||
|
|
#07615:003X003Y003X3Y0043LN00003YLN004O
|
||
|
|
#07618:04000000000000000040LN41LN004NLN
|
||
|
|
#07619:003Z004B003Z4B0000003ZLN004LLN00
|
||
|
|
|
||
|
|
#07701:2B0004832F007U00
|
||
|
|
#07701:7R00242400000000
|
||
|
|
#07701:24
|
||
|
|
#07701:0026000000000000
|
||
|
|
#07701:8F8F000000280029
|
||
|
|
#07701:00
|
||
|
|
#07701:00
|
||
|
|
#07701:0000000004000407
|
||
|
|
#07701:000L000L
|
||
|
|
#07701:0001000100010001
|
||
|
|
#07701:00
|
||
|
|
#07701:00
|
||
|
|
#07701:00
|
||
|
|
#07701:00
|
||
|
|
#07701:00
|
||
|
|
#07701:00
|
||
|
|
#07701:00
|
||
|
|
#07701:00
|
||
|
|
#07701:002C2D00002C2G2C
|
||
|
|
#07701:00000000000000008F0000008G8L8G8L8F0000008K0000008F00000000000000
|
||
|
|
#07701:000000000000008E
|
||
|
|
#07706:030405060708090A0B0C0D0E0F0G0H0I030405060708090A0B0C0D0E0F0G0H0I
|
||
|
|
#07711:0003004RLN8K0025004RLNLF008K004K
|
||
|
|
#07712:02004XLN4PLN2E004XLN4PLN27004XLN
|
||
|
|
#07713:LN4PLN03004XLN4PLN03004XLN4YLN03
|
||
|
|
#07714:4RLN020002004RLN020002004SLN0200
|
||
|
|
#07715:LN7SLNLF007RLN7SLN270084LN7TLNLF
|
||
|
|
#07716:0J000N0K00000I00
|
||
|
|
#07718:04007RLN7SLN02007TLN7TLN020084LN
|
||
|
|
#07719:008K0083LN030003007ULN030003007U
|
||
|
|
|
||
|
|
#07801:00
|
||
|
|
#07801:00
|
||
|
|
#07801:000L000L
|
||
|
|
#07801:000000000000008E
|
||
|
|
#07801:00
|
||
|
|
#07801:00
|
||
|
|
#07801:00
|
||
|
|
#07801:00
|
||
|
|
#07801:00
|
||
|
|
#07801:00
|
||
|
|
#07801:02030203020302030203020302030203
|
||
|
|
#07801:00
|
||
|
|
#07801:00
|
||
|
|
#07801:7B7C7B7V7C7B7V7C7B7C7B7V7C7B7V7C
|
||
|
|
#07801:00
|
||
|
|
#07801:00
|
||
|
|
#07801:1S001U001S001S1T001S1T001S001U00
|
||
|
|
#07801:00
|
||
|
|
#07801:002C2D2E2F2C2G2C
|
||
|
|
#07801:8F8K8F008F8K8F008F8K8F008F8K0000
|
||
|
|
#07806:030405060708090A0B0C0D0E0F0G0H0I030405060708090A0B0C0D0E0F0G0H0I
|
||
|
|
#07811:LN040404
|
||
|
|
#07812:0401000100010001
|
||
|
|
#07813:003Z000041000000450000003Z000000
|
||
|
|
#07814:45004000000040000042000000410000
|
||
|
|
#07815:0000003Z003Z003Z0000430000003Y00
|
||
|
|
#07816:0C
|
||
|
|
#07818:2B0000000000000000000000000000LN
|
||
|
|
#07819:LN00000000000000000000400000004L
|
||
|
|
|
||
|
|
#07901:00
|
||
|
|
#07901:00
|
||
|
|
#07901:000L000L
|
||
|
|
#07901:000000000000008E
|
||
|
|
#07901:00
|
||
|
|
#07901:00
|
||
|
|
#07901:00
|
||
|
|
#07901:00
|
||
|
|
#07901:00
|
||
|
|
#07901:00
|
||
|
|
#07901:02030203020302030203020302030203
|
||
|
|
#07901:00
|
||
|
|
#07901:00
|
||
|
|
#07901:7F7G7F7X7G7F7X7G7F7G7F7X7G7F7X7G
|
||
|
|
#07901:00
|
||
|
|
#07901:00
|
||
|
|
#07901:1P001R001P001P1Q001P1Q001P001R00
|
||
|
|
#07901:00
|
||
|
|
#07901:002C2D2E2F2C2G2C
|
||
|
|
#07901:8F008K008F0000008F008K008G8L8G8L8F0000008K0000008F008K0000000000
|
||
|
|
#07906:030405060708090A0B0C0D0E0F0G0H0I030405060708090A0B0C0D0E0F0G0H0I
|
||
|
|
#07911:04040404
|
||
|
|
#07912:0001000100010001
|
||
|
|
#07913:00410000000000420000004800000040
|
||
|
|
#07914:3Y000040000040004V00000047000000
|
||
|
|
#07915:2B0000000000000000000000000000LN
|
||
|
|
#07918:00003Z0000410000004G000000450000
|
||
|
|
#07919:00003Y00004E0042
|
||
|
|
|
||
|
|
#08001:0001000000000000
|
||
|
|
#08001:5G
|
||
|
|
#08001:000L000L
|
||
|
|
#08001:000000000000008E
|
||
|
|
#08001:00
|
||
|
|
#08001:00
|
||
|
|
#08001:00
|
||
|
|
#08001:00
|
||
|
|
#08001:00
|
||
|
|
#08001:00
|
||
|
|
#08001:02030203020302030203020302030203
|
||
|
|
#08001:00
|
||
|
|
#08001:00
|
||
|
|
#08001:7H7I7H7Y7I7H7Y7I7H7I7H7Y7I7H7Y7I
|
||
|
|
#08001:00
|
||
|
|
#08001:00
|
||
|
|
#08001:1M001O001M001M1N001M1N001M001O00
|
||
|
|
#08001:00
|
||
|
|
#08001:002C2D2E2F2C2G2C
|
||
|
|
#08001:8F8K8F008F8K8F008F8K8F008F8K0000
|
||
|
|
#08006:030405060708090A0B0C0D0E0F0G0H0I030405060708090A0B0C0D0E0F0G0H0I
|
||
|
|
#08011:04040404
|
||
|
|
#08012:00000000005E0000000000000100000000000000010000000000000001000000
|
||
|
|
#08013:005H0000002L00000000000000000000
|
||
|
|
#08014:2B0000000000000000000000000000LN
|
||
|
|
#08015:005F00003Y00003Z00003Y00005B0000
|
||
|
|
#08018:5E000000005G000000002R00000000000000000000004L000000005C00000000
|
||
|
|
#08019:000000003Z000042000000004P005D00
|
||
|
|
|
||
|
|
#08101:00
|
||
|
|
#08101:00
|
||
|
|
#08101:00
|
||
|
|
#08101:00
|
||
|
|
#08101:04040404
|
||
|
|
#08101:00
|
||
|
|
#08101:000L000L
|
||
|
|
#08101:00
|
||
|
|
#08101:00
|
||
|
|
#08101:0001000100010001
|
||
|
|
#08101:02030203020302030203020302030203
|
||
|
|
#08101:00
|
||
|
|
#08101:00
|
||
|
|
#08101:7N7O7N817O7N817O7P7Q7P827Q7P827Q
|
||
|
|
#08101:00
|
||
|
|
#08101:00
|
||
|
|
#08101:1V001X001V001V1W001P1Q001P001R00
|
||
|
|
#08101:00
|
||
|
|
#08101:002C2D2E002C2G2C
|
||
|
|
#08101:8F008K008F0000008F008K008G8L8G8L8F0000008K0000008F008K0000000000
|
||
|
|
#08101:000000000000008E
|
||
|
|
#08106:030405060708090A0B0C0D0E0F0G0H0I030405060708090A0B0C0D0E0F0G0H0I
|
||
|
|
#08111:2B000000000000LN00000040003Y0000
|
||
|
|
#08112:4C004600000042000000003X00440000
|
||
|
|
#08113:4E004E0042003Z002F000000000000LN
|
||
|
|
#08114:004800004600003X004O000000000040
|
||
|
|
#08115:004G004500000040003X00004L000045
|
||
|
|
#08118:00000048004000004L004L003W003Z00
|
||
|
|
#08119:00000000004500004P003Z0000004200
|
||
|
|
|
||
|
|
#08201:0000002G
|
||
|
|
#08201:0000002E002C0000
|
||
|
|
#08201:2B0L000L
|
||
|
|
#08201:002C00002F00002C
|
||
|
|
#08201:002D0000
|
||
|
|
#08201:00
|
||
|
|
#08201:00
|
||
|
|
#08201:00
|
||
|
|
#08201:00
|
||
|
|
#08201:00
|
||
|
|
#08201:02030203020302030203020302030203
|
||
|
|
#08201:00
|
||
|
|
#08201:00
|
||
|
|
#08201:7B7C7B7V7C7B7V7C7B7C7B7V7C7B7V7C
|
||
|
|
#08201:00
|
||
|
|
#08201:00
|
||
|
|
#08201:1S001U001S001S1T001S1T001S001U00
|
||
|
|
#08201:00
|
||
|
|
#08201:00
|
||
|
|
#08201:8F8K8F008F8K8F008F8K8F008F8K0000
|
||
|
|
#08201:000000000000008E
|
||
|
|
#08206:030405060708090A0B0C0D0E0F0G0H0I030405060708090A0B0C0D0E0F0G0H0I
|
||
|
|
#08211:04040404
|
||
|
|
#08212:0000000100010000
|
||
|
|
#08213:0000010000000000004L000000000100
|
||
|
|
#08214:0040000000003Y0000004N0000000000
|
||
|
|
#08215:00003Z000000004L0000004O004Q004Q
|
||
|
|
#08218:3Z000041004100004N0000004P000000
|
||
|
|
#08219:00003Y000000004S
|
||
|
|
|
||
|
|
#08301:0000002E00002G00
|
||
|
|
#08301:2B000000002C0000
|
||
|
|
#08301:000L000L
|
||
|
|
#08301:002C00002F00002C
|
||
|
|
#08301:002D0000
|
||
|
|
#08301:00
|
||
|
|
#08301:00
|
||
|
|
#08301:00
|
||
|
|
#08301:00
|
||
|
|
#08301:00
|
||
|
|
#08301:02030203020302030203020302030203
|
||
|
|
#08301:00
|
||
|
|
#08301:00
|
||
|
|
#08301:7L7M7L807M7L807M7L7M7L807M7L807M
|
||
|
|
#08301:00
|
||
|
|
#08301:00
|
||
|
|
#08301:1Y0020001Y001Y1Z001Y1Z001Y002000
|
||
|
|
#08301:00
|
||
|
|
#08301:00
|
||
|
|
#08301:8F008K008F0000008F008K008G8L8G8L8F0000008K0000008F008K0000000000
|
||
|
|
#08301:000000000000008E
|
||
|
|
#08306:030405060708090A0B0C0D0E0F0G0H0I030405060708090A0B0C0D0E0F0G0H0I
|
||
|
|
#08311:04040404
|
||
|
|
#08312:0000000100000001
|
||
|
|
#08313:000001000000003Y0000010000000000
|
||
|
|
#08314:0000004O2S000000
|
||
|
|
#08315:0000004O004P000000004P004P00004O
|
||
|
|
#08318:4R004P004Q0000000000004W00004P00
|
||
|
|
#08319:004Q00000000000000000000004Q0000
|
||
|
|
|
||
|
|
#08401:00
|
||
|
|
#08401:00
|
||
|
|
#08401:00
|
||
|
|
#08401:00
|
||
|
|
#08401:04040404
|
||
|
|
#08401:00
|
||
|
|
#08401:00
|
||
|
|
#08401:00
|
||
|
|
#08401:00
|
||
|
|
#08401:0001000100010001
|
||
|
|
#08401:02030203020302030203020302030203
|
||
|
|
#08401:00
|
||
|
|
#08401:00
|
||
|
|
#08401:7D7E7D7W7E7D7W7E7D7E7D7W7E7D7W7E
|
||
|
|
#08401:00
|
||
|
|
#08401:00
|
||
|
|
#08401:21002300210021220021220021002300
|
||
|
|
#08401:00
|
||
|
|
#08401:2B2C2D2E2F2C2G2C
|
||
|
|
#08401:8F8K8F008F8K8F008F8K8F008F8K0000
|
||
|
|
#08401:000000000000008E
|
||
|
|
#08401:00
|
||
|
|
#08401:00
|
||
|
|
#08401:00
|
||
|
|
#08401:000000000000000043403Z413Y4L4N4O
|
||
|
|
#08406:030405060708090A0B0C0D0E0F0G0H0I030405060708090A0B0C0D0E0F0G0H0I
|
||
|
|
#08411:4300003Y000000004B0000004N000000
|
||
|
|
#08412:003X0000003X3Y0000410000004O0000
|
||
|
|
#08413:4500004B0000000000003Y0000004P00
|
||
|
|
#08414:003Z0000003Z4B000000004L0000004Q
|
||
|
|
#08415:0000000H0000000H000H0000000H0000
|
||
|
|
#08418:000H0000000H00000000000H0000000H
|
||
|
|
#08419:0F0F0F0F0F0F0F0F
|
||
|
|
|
||
|
|
#08501:000000030000000300000000028M0000
|
||
|
|
#08501:0J0000000J000K00000000000I000003
|
||
|
|
#08501:00
|
||
|
|
#08501:07070707
|
||
|
|
#08501:00
|
||
|
|
#08501:00
|
||
|
|
#08501:00
|
||
|
|
#08501:0F0F0F0F0F0F0F0F
|
||
|
|
#08501:000H000H000H000H000H000H000H000H
|
||
|
|
#08501:0001000100010001
|
||
|
|
#08501:00
|
||
|
|
#08501:00
|
||
|
|
#08501:00
|
||
|
|
#08501:7R7S7R837S7R837S7T7U7T847U7T847U
|
||
|
|
#08501:00
|
||
|
|
#08501:00
|
||
|
|
#08501:24002600240024250027280027002900
|
||
|
|
#08501:00
|
||
|
|
#08501:2B2C2D2E2F2C2G2C
|
||
|
|
#08501:8F008K008F0000008F008K008G8L8G8L8F0000008K0000008F008K0000000000
|
||
|
|
#08501:000000000000008E
|
||
|
|
#08506:030405060708090A0B0C0D0E0F0G0H0I030405060708090A0B0C0D0E0F0G0H0I
|
||
|
|
#08511:020000LN0200000000000200000000LN
|
||
|
|
#08512:00030000LN0300000003LN0300LN0200
|
||
|
|
#08513:0000020000LN020002000000LN030000
|
||
|
|
#08514:0000004R0000LN4P000000LN4S00004K
|
||
|
|
#08515:00004X0000LN4R004X000000LN4Y0000
|
||
|
|
#08518:004P0000LN4X0000004RLN4X00LN4X00
|
||
|
|
#08519:4R0000LN4P00000000004P00000000LN
|
||
|
|
|
||
|
|
#08601:00
|
||
|
|
#08601:0400000400000000
|
||
|
|
#08601:00
|
||
|
|
#08601:00
|
||
|
|
#08601:00
|
||
|
|
#08601:00
|
||
|
|
#08601:00
|
||
|
|
#08601:00
|
||
|
|
#08601:00
|
||
|
|
#08601:00
|
||
|
|
#08601:00
|
||
|
|
#08601:00
|
||
|
|
#08601:00
|
||
|
|
#08601:7B7C000000007B7C000000007B7C0000
|
||
|
|
#08606:030405060708090A0B0C0D0E0F0G0H0I030405060708090A0B0C0D0E0F0G0H0I
|
||
|
|
#08611:0Z000000LN43000000003Z00040000LN
|
||
|
|
#08612:4G00000000004000000000400000003Z
|
||
|
|
#08613:16000000LN000Z000000LN003Z3W0000
|
||
|
|
#08614:004800004500003Z00410000160000LN
|
||
|
|
#08615:0J000000LN000J000000LN00454M0000
|
||
|
|
#08616:0000000K
|
||
|
|
#08618:00004600000000003Y00000000000045
|
||
|
|
#08619:00000047000016000000LN000Z0000LN
|
||
|
|
|
||
|
|
#08701:00
|
||
|
|
#08701:0D00000400000000
|
||
|
|
#08701:04
|
||
|
|
#08701:00
|
||
|
|
#08701:00
|
||
|
|
#08701:00
|
||
|
|
#08701:00
|
||
|
|
#08701:00
|
||
|
|
#08701:00
|
||
|
|
#08701:00
|
||
|
|
#08701:00
|
||
|
|
#08701:00
|
||
|
|
#08701:00
|
||
|
|
#08701:7B7C000000007B7C000000007B7C0000
|
||
|
|
#08706:030405060708090A0B0C0D0E0F0G0H0I030405060708090A0B0C0D0E0F0G0H0I
|
||
|
|
#08711:0Z000000LN000Z000000LN00040000LN
|
||
|
|
#08712:0048000000430000000000003Z3W003Z
|
||
|
|
#08713:4G00000000000J000000LN4000000000
|
||
|
|
#08714:000046004500400000003Z00160000LN
|
||
|
|
#08715:0J000000LN00003Z0041000000000000
|
||
|
|
#08716:0000000K
|
||
|
|
#08718:00000047000000003Y000000454M0045
|
||
|
|
#08719:16000000LN0016000000LN000Z0000LN
|
||
|
|
|
||
|
|
#08801:0000000000000000005I000000000000
|
||
|
|
#08801:8N
|
||
|
|
#08801:00
|
||
|
|
#08801:00
|
||
|
|
#08801:00
|
||
|
|
#08801:00
|
||
|
|
#08801:00
|
||
|
|
#08801:00
|
||
|
|
#08801:00
|
||
|
|
#08801:00
|
||
|
|
#08801:00
|
||
|
|
#08801:00
|
||
|
|
#08801:00
|
||
|
|
#08801:7B00000000007B7C000000007B7C0000
|
||
|
|
#08801:00
|
||
|
|
#08801:00
|
||
|
|
#08801:00
|
||
|
|
#08801:00
|
||
|
|
#08801:00
|
||
|
|
#08801:00
|
||
|
|
#08801:00
|
||
|
|
#08801:00
|
||
|
|
#08801:00
|
||
|
|
#08801:00
|
||
|
|
#08801:00
|
||
|
|
#08801:000000000000000000000000454M0000
|
||
|
|
#08806:030405060708090A0B0C0D0E0F0G0H0I030405060708090A0B0C0D0E0F0G0H0I
|
||
|
|
#08811:0Z00LN0Z00LN07LN
|
||
|
|
#08812:007CLN41LNLMLN40LN0045LN3Y3XLN3Y
|
||
|
|
#08813:04000000LN0004000000LN47LN000000
|
||
|
|
#08814:4NLN3YLN3YLN3ZLN0040LN001600LN3Z
|
||
|
|
#08815:0J000000LN000J000000LNLNLN000000
|
||
|
|
#08816:0000000K
|
||
|
|
#08818:004LLN000041LN003ZLN00003Z4BLN45
|
||
|
|
#08819:1600LN1600LN0ZLN
|
||
|
|
|
||
|
|
#08901:00
|
||
|
|
#08901:00
|
||
|
|
#08901:00
|
||
|
|
#08901:00
|
||
|
|
#08901:00
|
||
|
|
#08901:00
|
||
|
|
#08901:00
|
||
|
|
#08901:2P
|
||
|
|
#08902:0.125
|
||
|
|
#08903:2E
|
||
|
|
#08906:030405060708090A0B0C0D0E
|
||
|
|
#08911:08
|
||
|
|
#08914:2M
|
||
|
|
#08916:0C
|
||
|
|
#08919:2I
|
||
|
|
|
||
|
|
#09002:0.125
|
||
|
|
#09006:0F000G000H000I03000400050006000700080009000A000B
|
||
|
|
|
||
|
|
#09102:0.125
|
||
|
|
#09106:000C000D000E000F000G000H000I03000400050006000700
|
||
|
|
|
||
|
|
#09202:0.125
|
||
|
|
#09206:080009000A000B000C000D000E000F000G000H000I030004
|
||
|
|
|
||
|
|
#09302:0.125
|
||
|
|
#09306:00050006000700080009000A000B000C000D000E000F000G
|
||
|
|
|
||
|
|
#09402:0.125
|
||
|
|
#09406:000H000I03000400050006000700080009000A000B000C00
|
||
|
|
|
||
|
|
#09502:0.125
|
||
|
|
#09506:0D000E000F000G000H000I03000400050006000700080009
|
||
|
|
|
||
|
|
#09602:0.125
|
||
|
|
#09606:0K
|
||
|
|
|
||
|
|
#09702:0.125
|
||
|
|
#09802:0.125
|
||
|
|
#09902:0.125
|
||
|
|
#10002:0.125
|
||
|
|
#10102:0.125
|
||
|
|
#10202:0.125
|
||
|
|
#10302:0.125
|
||
|
|
#10402:0.125
|
||
|
|
#10502:0.125
|
||
|
|
#10602:0.125
|
||
|
|
#10702:0.125
|
||
|
|
#10802:0.125
|
||
|
|
#10902:0.125
|
||
|
|
#11002:0.125
|