2609 lines
57 KiB
Plaintext
2609 lines
57 KiB
Plaintext
|
|
|
||
|
|
*---------------------- HEADER FIELD
|
||
|
|
|
||
|
|
#PLAYER 1
|
||
|
|
#GENRE RENAISSANCE
|
||
|
|
#TITLE Joker[LUNATIC]
|
||
|
|
#ARTIST D.J.Nero / obj.swa
|
||
|
|
#BPM 184
|
||
|
|
#PLAYLEVEL 0
|
||
|
|
#RANK 3
|
||
|
|
#TOTAL 600
|
||
|
|
#STAGEFILE title.jpg
|
||
|
|
|
||
|
|
#WAV01 opHH.ogg
|
||
|
|
#WAV02 close.ogg
|
||
|
|
#WAV03 close.ogg
|
||
|
|
#WAV04 kickA.ogg
|
||
|
|
#WAV05 kickB.ogg
|
||
|
|
#WAV06 kickB.ogg
|
||
|
|
#WAV07 kick32.ogg
|
||
|
|
#WAV08 FXkick.ogg
|
||
|
|
#WAV09 snare.ogg
|
||
|
|
#WAV0A snare.ogg
|
||
|
|
#WAV0B reverse.ogg
|
||
|
|
#WAV0C SE1.ogg
|
||
|
|
#WAV0D bell.ogg
|
||
|
|
#WAV0E ride.ogg
|
||
|
|
#WAV0F snare-Fill.ogg
|
||
|
|
#WAV0G SE3.ogg
|
||
|
|
#WAV0H snare-Fill.ogg
|
||
|
|
#WAV0I clashA.ogg
|
||
|
|
#WAV0J clashB.ogg
|
||
|
|
#WAV0K clashC.ogg
|
||
|
|
#WAV0L clap.ogg
|
||
|
|
#WAV0M clap-deep.ogg
|
||
|
|
#WAV0N clashB.ogg
|
||
|
|
#WAV0O bgm1.ogg
|
||
|
|
#WAV0P bgm1.ogg
|
||
|
|
#WAV0Q bgm2.ogg
|
||
|
|
#WAV0R bgm2.ogg
|
||
|
|
#WAV0S bgm3.ogg
|
||
|
|
#WAV0T str01.ogg
|
||
|
|
#WAV0U str01.ogg
|
||
|
|
#WAV0V str02.ogg
|
||
|
|
#WAV0W str03.ogg
|
||
|
|
#WAV0X str03.ogg
|
||
|
|
#WAV0Y str04.ogg
|
||
|
|
#WAV0Z str05.ogg
|
||
|
|
#WAV10 str-01.ogg
|
||
|
|
#WAV11 str-01.ogg
|
||
|
|
#WAV12 str-02.ogg
|
||
|
|
#WAV13 str-03.ogg
|
||
|
|
#WAV14 str-03.ogg
|
||
|
|
#WAV15 str-04.ogg
|
||
|
|
#WAV16 str-05.ogg
|
||
|
|
#WAV17 harp1.ogg
|
||
|
|
#WAV18 harp2.ogg
|
||
|
|
#WAV19 harp3.ogg
|
||
|
|
#WAV1A harp4.ogg
|
||
|
|
#WAV1B harp5.ogg
|
||
|
|
#WAV1C harp6.ogg
|
||
|
|
#WAV1D harp16-01.ogg
|
||
|
|
#WAV1E harp16-02.ogg
|
||
|
|
#WAV1F harp16-03.ogg
|
||
|
|
#WAV1G harp16-04.ogg
|
||
|
|
#WAV1H harp16-05.ogg
|
||
|
|
#WAV1I harp16-06.ogg
|
||
|
|
#WAV1J core1.ogg
|
||
|
|
#WAV1K core1.ogg
|
||
|
|
#WAV1L core1b.ogg
|
||
|
|
#WAV1M core2.ogg
|
||
|
|
#WAV1N core2.ogg
|
||
|
|
#WAV1O core2b.ogg
|
||
|
|
#WAV1P core3.ogg
|
||
|
|
#WAV1Q core3.ogg
|
||
|
|
#WAV1R core3b.ogg
|
||
|
|
#WAV1S core4.ogg
|
||
|
|
#WAV1T core4.ogg
|
||
|
|
#WAV1U core4b.ogg
|
||
|
|
#WAV1V core5.ogg
|
||
|
|
#WAV1W core5.ogg
|
||
|
|
#WAV1X core5b.ogg
|
||
|
|
#WAV1Y core6.ogg
|
||
|
|
#WAV1Z core6.ogg
|
||
|
|
#WAV20 core6b.ogg
|
||
|
|
#WAV21 core7.ogg
|
||
|
|
#WAV22 core7.ogg
|
||
|
|
#WAV23 core7b.ogg
|
||
|
|
#WAV24 core8.ogg
|
||
|
|
#WAV25 core8.ogg
|
||
|
|
#WAV26 core8b.ogg
|
||
|
|
#WAV27 core9.ogg
|
||
|
|
#WAV28 core9.ogg
|
||
|
|
#WAV29 core9b.ogg
|
||
|
|
#WAV2A arp-bgm.ogg
|
||
|
|
#WAV2B arp1.ogg
|
||
|
|
#WAV2C arp2.ogg
|
||
|
|
#WAV2D arp3.ogg
|
||
|
|
#WAV2E arp4.ogg
|
||
|
|
#WAV2F arp5.ogg
|
||
|
|
#WAV2G arp6.ogg
|
||
|
|
#WAV2H p-8-1.ogg
|
||
|
|
#WAV2I p-8-2.ogg
|
||
|
|
#WAV2J p-8-3.ogg
|
||
|
|
#WAV2K p-8-4.ogg
|
||
|
|
#WAV2L p-8-5.ogg
|
||
|
|
#WAV2M p-8-6.ogg
|
||
|
|
#WAV2N p-8-7.ogg
|
||
|
|
#WAV2O p-8-8.ogg
|
||
|
|
#WAV2P p-8-9.ogg
|
||
|
|
#WAV2Q p-8-10.ogg
|
||
|
|
#WAV2R p-8-11.ogg
|
||
|
|
#WAV2S p-8-12.ogg
|
||
|
|
#WAV2T p-8-13.ogg
|
||
|
|
#WAV2U pA-1.ogg
|
||
|
|
#WAV2V pA-2.ogg
|
||
|
|
#WAV2W pA-2b.ogg
|
||
|
|
#WAV2X pA-3.ogg
|
||
|
|
#WAV2Y pA-4.ogg
|
||
|
|
#WAV2Z pA-4b.ogg
|
||
|
|
#WAV30 pA-5.ogg
|
||
|
|
#WAV31 pA-6.ogg
|
||
|
|
#WAV32 pA-7.ogg
|
||
|
|
#WAV33 pA-8.ogg
|
||
|
|
#WAV34 pA-9.ogg
|
||
|
|
#WAV35 pA-10.ogg
|
||
|
|
#WAV36 pA-11.ogg
|
||
|
|
#WAV37 pA-12.ogg
|
||
|
|
#WAV38 pA-12b.ogg
|
||
|
|
#WAV39 pA-13.ogg
|
||
|
|
#WAV3A pA-13b.ogg
|
||
|
|
#WAV3B pA-14.ogg
|
||
|
|
#WAV3C pA-14b.ogg
|
||
|
|
#WAV3D pA-15.ogg
|
||
|
|
#WAV3E pA-15b.ogg
|
||
|
|
#WAV3F p-16-1.ogg
|
||
|
|
#WAV3G p-16-2.ogg
|
||
|
|
#WAV3H p-16-3.ogg
|
||
|
|
#WAV3I p-16-4.ogg
|
||
|
|
#WAV3J p-16-5.ogg
|
||
|
|
#WAV3K p-16-6.ogg
|
||
|
|
#WAV3L p-16-7.ogg
|
||
|
|
#WAV3M p-16-8.ogg
|
||
|
|
#WAV3N p-16-9.ogg
|
||
|
|
#WAV3O p-16-10.ogg
|
||
|
|
#WAV3P p-16-11.ogg
|
||
|
|
#WAV3Q p-16-12.ogg
|
||
|
|
#WAV3R p-16-13.ogg
|
||
|
|
#WAV3S p-16-14.ogg
|
||
|
|
#WAV3T p-16-15.ogg
|
||
|
|
#WAV3U p-16-16.ogg
|
||
|
|
#WAV3V p-16-17.ogg
|
||
|
|
#WAV3W ps-16-2.ogg
|
||
|
|
#WAV3X ps-16-1.ogg
|
||
|
|
#WAV3Y ps-16-1.ogg
|
||
|
|
#WAV3Z ps-16-2.ogg
|
||
|
|
#WAV40 ps-16-3.ogg
|
||
|
|
#WAV41 ps-16-4.ogg
|
||
|
|
#WAV42 ps-16-5.ogg
|
||
|
|
#WAV43 ps-16-6.ogg
|
||
|
|
#WAV44 ps-16-3.ogg
|
||
|
|
#WAV45 ps-16-7.ogg
|
||
|
|
#WAV46 ps-16-8.ogg
|
||
|
|
#WAV47 ps-16-9.ogg
|
||
|
|
#WAV48 ps-16-10.ogg
|
||
|
|
#WAV49 ps-16-5.ogg
|
||
|
|
#WAV4A ps-16-8.ogg
|
||
|
|
#WAV4B ps-16-2.ogg
|
||
|
|
#WAV4C ps-16-11.ogg
|
||
|
|
#WAV4D ps-16-12.ogg
|
||
|
|
#WAV4E ps-16-13.ogg
|
||
|
|
#WAV4F ps-16-14.ogg
|
||
|
|
#WAV4G ps-16-15.ogg
|
||
|
|
#WAV4H ps-16-16.ogg
|
||
|
|
#WAV4I ps-16-17.ogg
|
||
|
|
#WAV4J ps-16-18.ogg
|
||
|
|
#WAV4K ps-16-19.ogg
|
||
|
|
#WAV4L ps-16-20.ogg
|
||
|
|
#WAV4M ps-16-7.ogg
|
||
|
|
#WAV4N ps-16-21.ogg
|
||
|
|
#WAV4O ps-16-22.ogg
|
||
|
|
#WAV4P ps-16-23.ogg
|
||
|
|
#WAV4Q ps-16-24.ogg
|
||
|
|
#WAV4R ps-16-25.ogg
|
||
|
|
#WAV4S ps-16-26.ogg
|
||
|
|
#WAV4T ps-16-27.ogg
|
||
|
|
#WAV4U ps-16-28.ogg
|
||
|
|
#WAV4V ps-16-29.ogg
|
||
|
|
#WAV4W ps-16-30.ogg
|
||
|
|
#WAV4X ps-16-23.ogg
|
||
|
|
#WAV4Y ps-16-31.ogg
|
||
|
|
#WAV4Z ps-32-1.ogg
|
||
|
|
#WAV50 ps-32-1.ogg
|
||
|
|
#WAV51 ps-32-1b.ogg
|
||
|
|
#WAV52 ps-32-1b.ogg
|
||
|
|
#WAV53 ps-32-2.ogg
|
||
|
|
#WAV54 ps-32-2.ogg
|
||
|
|
#WAV55 ps-32-2b.ogg
|
||
|
|
#WAV56 ps-32-2b.ogg
|
||
|
|
#WAV57 ps-32-3.ogg
|
||
|
|
#WAV58 ps-32-4.ogg
|
||
|
|
#WAV59 ps-32-5.ogg
|
||
|
|
#WAV5A ps-32-6.ogg
|
||
|
|
#WAV5B ps-32-7.ogg
|
||
|
|
#WAV5C ps-32-8.ogg
|
||
|
|
#WAV5D ps-32-9.ogg
|
||
|
|
#WAV5E ps-32-10.ogg
|
||
|
|
#WAV5F ps-32-10.ogg
|
||
|
|
#WAV5G ps-32-10b.ogg
|
||
|
|
#WAV5H ps-32-10b.ogg
|
||
|
|
#WAV5I SE2.ogg
|
||
|
|
#WAV5J chero 1.ogg
|
||
|
|
#WAV5K chero 2.ogg
|
||
|
|
#WAV5L chero 3.ogg
|
||
|
|
#WAV5M chero 4.ogg
|
||
|
|
#WAV5N chero 9.ogg
|
||
|
|
#WAV5O chero 10.ogg
|
||
|
|
#WAV5P chero 11.ogg
|
||
|
|
#WAV5Q chero 12.ogg
|
||
|
|
#WAV5R chero 13.ogg
|
||
|
|
#WAV5S chero 14.ogg
|
||
|
|
#WAV5T chero 15.ogg
|
||
|
|
#WAV5U chero 16.ogg
|
||
|
|
#WAV5V chero 17.ogg
|
||
|
|
#WAV5W chero 18.ogg
|
||
|
|
#WAV5X chero 19.ogg
|
||
|
|
#WAV5Y chero 20.ogg
|
||
|
|
#WAV5Z chero 21.ogg
|
||
|
|
#WAV60 chero 22.ogg
|
||
|
|
#WAV61 solo 1.ogg
|
||
|
|
#WAV62 solo 2.ogg
|
||
|
|
#WAV63 solo 3.ogg
|
||
|
|
#WAV64 solo 4.ogg
|
||
|
|
#WAV65 solo 5.ogg
|
||
|
|
#WAV66 solo 6.ogg
|
||
|
|
#WAV67 solo 7.ogg
|
||
|
|
#WAV68 solo 8.ogg
|
||
|
|
#WAV69 solo 9.ogg
|
||
|
|
#WAV6A solo 10.ogg
|
||
|
|
#WAV6B solo 11.ogg
|
||
|
|
#WAV6C solo 12.ogg
|
||
|
|
#WAV6D solo 13.ogg
|
||
|
|
#WAV6E solo 14.ogg
|
||
|
|
#WAV6F solo 15.ogg
|
||
|
|
#WAV6G solo 16.ogg
|
||
|
|
#WAV6H solo 17.ogg
|
||
|
|
#WAV6I solo 18.ogg
|
||
|
|
#WAV6J solo 19.ogg
|
||
|
|
#WAV6K solo 20.ogg
|
||
|
|
#WAV6L solo 21.ogg
|
||
|
|
#WAV6M solo 22.ogg
|
||
|
|
#WAV6N solo 23.ogg
|
||
|
|
#WAV6O solo 24.ogg
|
||
|
|
#WAV6P solo 25.ogg
|
||
|
|
#WAV6Q solo 26.ogg
|
||
|
|
#WAV6R solo 27.ogg
|
||
|
|
#WAV6S solo 28.ogg
|
||
|
|
#WAV6T solo 29.ogg
|
||
|
|
#WAV6U solo 30.ogg
|
||
|
|
#WAV6V solo 31.ogg
|
||
|
|
#WAV6W solo 32.ogg
|
||
|
|
#WAV6X solo 33.ogg
|
||
|
|
#WAV6Y solo 34.ogg
|
||
|
|
#WAV6Z solo 35.ogg
|
||
|
|
#WAV70 solo 36.ogg
|
||
|
|
#WAV71 solo 37.ogg
|
||
|
|
#WAV72 solo 38.ogg
|
||
|
|
#WAV73 solo 39.ogg
|
||
|
|
#WAV74 solo 40.ogg
|
||
|
|
#WAV75 solo 41.ogg
|
||
|
|
#WAV76 solo 42.ogg
|
||
|
|
#WAV77 solo 43.ogg
|
||
|
|
#WAV78 solo 44.ogg
|
||
|
|
#WAV79 solo 45.ogg
|
||
|
|
#WAV7A solo 46.ogg
|
||
|
|
#WAV7B bass1.ogg
|
||
|
|
#WAV7C bass2.ogg
|
||
|
|
#WAV7D bass3.ogg
|
||
|
|
#WAV7E bass4.ogg
|
||
|
|
#WAV7F bass5.ogg
|
||
|
|
#WAV7G bass6.ogg
|
||
|
|
#WAV7H bass7.ogg
|
||
|
|
#WAV7I bass8.ogg
|
||
|
|
#WAV7J bass9.ogg
|
||
|
|
#WAV7K bass10.ogg
|
||
|
|
#WAV7L bass11.ogg
|
||
|
|
#WAV7M bass12.ogg
|
||
|
|
#WAV7N bass13.ogg
|
||
|
|
#WAV7O bass14.ogg
|
||
|
|
#WAV7P bass15.ogg
|
||
|
|
#WAV7Q bass16.ogg
|
||
|
|
#WAV7R bass17.ogg
|
||
|
|
#WAV7S bass18.ogg
|
||
|
|
#WAV7T bass19.ogg
|
||
|
|
#WAV7U bass20.ogg
|
||
|
|
#WAV7V bass1.ogg
|
||
|
|
#WAV7W bass3.ogg
|
||
|
|
#WAV7X bass5.ogg
|
||
|
|
#WAV7Y bass7.ogg
|
||
|
|
#WAV7Z bass9.ogg
|
||
|
|
#WAV80 bass11.ogg
|
||
|
|
#WAV81 bass13.ogg
|
||
|
|
#WAV82 bass15.ogg
|
||
|
|
#WAV83 bass17.ogg
|
||
|
|
#WAV84 bass19.ogg
|
||
|
|
#WAV85 chero1.ogg
|
||
|
|
#WAV86 chero2.ogg
|
||
|
|
#WAV87 chero3.ogg
|
||
|
|
#WAV88 chero4.ogg
|
||
|
|
#WAV89 vio1.ogg
|
||
|
|
#WAV8A vio2.ogg
|
||
|
|
#WAV8B vio3.ogg
|
||
|
|
#WAV8C vio4.ogg
|
||
|
|
#WAV8D tim.ogg
|
||
|
|
#WAV8E tanbarin.ogg
|
||
|
|
#WAV8F suzu.ogg
|
||
|
|
#WAV8G suzu32.ogg
|
||
|
|
#WAV8H syuooo.ogg
|
||
|
|
#WAV8I SE5.ogg
|
||
|
|
#WAV8J horn.ogg
|
||
|
|
#WAV8K suzu.ogg
|
||
|
|
#WAV8L suzu32.ogg
|
||
|
|
#WAV8M cym B.ogg
|
||
|
|
#WAV8N cym C.ogg
|
||
|
|
#WAV8O SE4.ogg
|
||
|
|
|
||
|
|
#BMP01 joker.mpg
|
||
|
|
#BMP03 miss 01.bmp
|
||
|
|
#BMP04 miss 02.bmp
|
||
|
|
#BMP05 miss 03.bmp
|
||
|
|
#BMP06 miss 04.bmp
|
||
|
|
#BMP07 miss 05.bmp
|
||
|
|
#BMP08 miss 06.bmp
|
||
|
|
#BMP09 miss 07.bmp
|
||
|
|
#BMP0A miss 08.bmp
|
||
|
|
#BMP0B miss 09.bmp
|
||
|
|
#BMP0C miss 10.bmp
|
||
|
|
#BMP0D miss 11.bmp
|
||
|
|
#BMP0E miss 12.bmp
|
||
|
|
#BMP0F miss 13.bmp
|
||
|
|
#BMP0G miss 14.bmp
|
||
|
|
#BMP0H miss 15.bmp
|
||
|
|
#BMP0I miss 16.bmp
|
||
|
|
|
||
|
|
|
||
|
|
|
||
|
|
|
||
|
|
#DIFFICULTY 5
|
||
|
|
#BACKBMP logo.jpg
|
||
|
|
|
||
|
|
|
||
|
|
|
||
|
|
*---------------------- MAIN DATA FIELD
|
||
|
|
|
||
|
|
|
||
|
|
#00104:01
|
||
|
|
#00106:030405060708090A0B0C0D0E0F0G0H0I030405060708090A0B0C0D0E0F0G0H0I
|
||
|
|
#00116:000B000000000000
|
||
|
|
|
||
|
|
#00201:00
|
||
|
|
#00201:00
|
||
|
|
#00201:00
|
||
|
|
#00201:00
|
||
|
|
#00201:00
|
||
|
|
#00201:00
|
||
|
|
#00201:00
|
||
|
|
#00201:00
|
||
|
|
#00201:00
|
||
|
|
#00201:00
|
||
|
|
#00201:00
|
||
|
|
#00201:00
|
||
|
|
#00201:00
|
||
|
|
#00201:007C007V7C7B007C7B7C7B7V7C7B7V7C
|
||
|
|
#00206:030405060708090A0B0C0D0E0F0G0H0I030405060708090A0B0C0D0E0F0G0H0I
|
||
|
|
#00211:0400000400040000
|
||
|
|
#00212:0T0U000000000000
|
||
|
|
#00213:0000000V00000000
|
||
|
|
#00214:7B7B000000000000
|
||
|
|
#00215:1011007V00000000
|
||
|
|
#00218:0000001200000000
|
||
|
|
#00219:00000L00000L0000
|
||
|
|
|
||
|
|
#00301:00
|
||
|
|
#00301:00
|
||
|
|
#00301:00
|
||
|
|
#00301:00
|
||
|
|
#00301:00
|
||
|
|
#00301:00
|
||
|
|
#00301:00
|
||
|
|
#00301:00
|
||
|
|
#00301:00
|
||
|
|
#00301:00
|
||
|
|
#00301:00
|
||
|
|
#00301:00
|
||
|
|
#00301:00
|
||
|
|
#00301:007C007V7C7B007C7B7C7B7V7C7B7V7C
|
||
|
|
#00306:030405060708090A0B0C0D0E0F0G0H0I030405060708090A0B0C0D0E0F0G0H0I
|
||
|
|
#00311:0400000400040000
|
||
|
|
#00313:0W0X000000000000
|
||
|
|
#00314:0000000Y00000000
|
||
|
|
#00315:7B7B000000000000
|
||
|
|
#00318:1314007V00000000
|
||
|
|
#00319:00000L15000L0000
|
||
|
|
|
||
|
|
#00401:1011000000000000
|
||
|
|
#00401:0000001200000000
|
||
|
|
#00406:030405060708090A0B0C0D0E0F0G0H0I030405060708090A0B0C0D0E0F0G0H0I
|
||
|
|
#00411:0F0F0F0F0F0F0F0F
|
||
|
|
#00412:0T0U000000000000
|
||
|
|
#00413:7B7B7C7V7B7B7C7V
|
||
|
|
#00414:0000000V00000000
|
||
|
|
#00415:000H000H000H000H000H000H000H000H
|
||
|
|
#00416:0K00000J000J0000
|
||
|
|
#00418:0400000400040000
|
||
|
|
#00419:007C007V007B007C007C007V007B007C
|
||
|
|
|
||
|
|
#00501:1314000000000000
|
||
|
|
#00501:0000001500000000
|
||
|
|
#00506:030405060708090A0B0C0D0E0F0G0H0I030405060708090A0B0C0D0E0F0G0H0I
|
||
|
|
#00511:0F0F0F0F0F0F0F0F
|
||
|
|
#00512:0400000400040007
|
||
|
|
#00513:7B7B7C7V7B7B7C7V
|
||
|
|
#00514:0W0X000000000000
|
||
|
|
#00515:000H000H000H000H000H000H000H000H
|
||
|
|
#00516:0K00000J000J0000
|
||
|
|
#00518:0000000Y00000000
|
||
|
|
#00519:007C007V007B007C007C007V007B007C
|
||
|
|
|
||
|
|
#00601:00
|
||
|
|
#00601:00
|
||
|
|
#00601:002J002K
|
||
|
|
#00601:00
|
||
|
|
#00601:00
|
||
|
|
#00601:00000000002J0000
|
||
|
|
#00601:000L0000
|
||
|
|
#00601:00
|
||
|
|
#00601:00
|
||
|
|
#00601:00
|
||
|
|
#00601:00000000000300000000000300000000
|
||
|
|
#00601:00
|
||
|
|
#00601:00
|
||
|
|
#00601:7B7C7B007C7B7V7C7B007B7V7C7B7V00
|
||
|
|
#00601:00
|
||
|
|
#00601:00
|
||
|
|
#00601:00
|
||
|
|
#00601:00
|
||
|
|
#00601:00
|
||
|
|
#00601:00
|
||
|
|
#00601:00
|
||
|
|
#00601:00
|
||
|
|
#00601:00
|
||
|
|
#00601:00
|
||
|
|
#00601:00
|
||
|
|
#00601:00
|
||
|
|
#00601:00
|
||
|
|
#00601:00
|
||
|
|
#00601:00
|
||
|
|
#00601:00
|
||
|
|
#00601:00
|
||
|
|
#00601:0O
|
||
|
|
#00606:030405060708090A0B0C0D0E0F0G0H0I030405060708090A0B0C0D0E0F0G0H0I
|
||
|
|
#00611:04040404
|
||
|
|
#00612:0001000100010001
|
||
|
|
#00613:2H00007V00000003000300000L00007C
|
||
|
|
#00614:00002I0000002I00007C000000002I00
|
||
|
|
#00615:00030000020000000200000002000003
|
||
|
|
#00616:0C
|
||
|
|
#00618:02000003000000002L00000000030000
|
||
|
|
#00619:0002000200020002
|
||
|
|
|
||
|
|
#00701:00
|
||
|
|
#00701:0002000L
|
||
|
|
#00701:2H00002L00000000
|
||
|
|
#00701:00
|
||
|
|
#00701:0000002L
|
||
|
|
#00701:00
|
||
|
|
#00701:00
|
||
|
|
#00701:00
|
||
|
|
#00701:00
|
||
|
|
#00701:00
|
||
|
|
#00701:00030000000000030000000000030000
|
||
|
|
#00701:00
|
||
|
|
#00701:00
|
||
|
|
#00701:7B7C7B7V7C007V7C7B7C7B007C7B7V7C
|
||
|
|
#00706:030405060708090A0B0C0D0E0F0G0H0I030405060708090A0B0C0D0E0F0G0H0I
|
||
|
|
#00711:04040404
|
||
|
|
#00712:0001000100010001
|
||
|
|
#00713:000000002K0000000003007V00000000
|
||
|
|
#00714:00002J00007B000000002I0000002J00
|
||
|
|
#00715:00000003000000000200000000000003
|
||
|
|
#00718:02000000000300002M00000300000000
|
||
|
|
#00719:00020L0200020202
|
||
|
|
|
||
|
|
#00801:00
|
||
|
|
#00801:0000000000000002
|
||
|
|
#00801:00
|
||
|
|
#00801:002M0002
|
||
|
|
#00801:002L000002000000
|
||
|
|
#00801:00
|
||
|
|
#00801:00
|
||
|
|
#00801:00
|
||
|
|
#00801:00
|
||
|
|
#00801:00
|
||
|
|
#00801:00000003000000000003000000000003
|
||
|
|
#00801:00
|
||
|
|
#00801:00
|
||
|
|
#00801:7D007D7W7E7D7W007D7E7D7W7E007W7E
|
||
|
|
#00806:030405060708090A0B0C0D0E0F0G0H0I030405060708090A0B0C0D0E0F0G0H0I
|
||
|
|
#00811:04040404
|
||
|
|
#00812:0001000100010001
|
||
|
|
#00813:2K0000000L00000300002L000L000000
|
||
|
|
#00814:0003000000002I00000000002M000000
|
||
|
|
#00815:007E00000200007E0000000000030000
|
||
|
|
#00818:02000000000300002N00000300002N00
|
||
|
|
#00819:000002000000020000000200007D0000
|
||
|
|
|
||
|
|
#00901:00
|
||
|
|
#00901:00
|
||
|
|
#00901:002L0000
|
||
|
|
#00901:00000002
|
||
|
|
#00901:00
|
||
|
|
#00901:00
|
||
|
|
#00901:00
|
||
|
|
#00901:00
|
||
|
|
#00901:00
|
||
|
|
#00901:00
|
||
|
|
#00901:00000000000300000000000300000000
|
||
|
|
#00901:00
|
||
|
|
#00901:00
|
||
|
|
#00901:7D7E7D7W7E7D7W7E7D7E7D7W7E7D7W7E
|
||
|
|
#00906:030405060708090A0B0C0D0E0F0G0H0I030405060708090A0B0C0D0E0F0G0H0I
|
||
|
|
#00911:04040404
|
||
|
|
#00912:0001000100010001
|
||
|
|
#00913:2I0000000L002J00000300000L002O00
|
||
|
|
#00914:00030000020000030000000000000003
|
||
|
|
#00915:020000030000000002002K002J000000
|
||
|
|
#00918:00002M00000000002L00000000030000
|
||
|
|
#00919:0002000200020002
|
||
|
|
|
||
|
|
#01001:00
|
||
|
|
#01001:00
|
||
|
|
#01001:002J0000
|
||
|
|
#01001:00
|
||
|
|
#01001:00
|
||
|
|
#01001:00000002
|
||
|
|
#01001:00
|
||
|
|
#01001:00
|
||
|
|
#01001:00
|
||
|
|
#01001:00
|
||
|
|
#01001:00030000000000030000000000030000
|
||
|
|
#01001:00
|
||
|
|
#01001:00
|
||
|
|
#01001:7F7G7F7X7G7F7X7G7F7G7F7X7G7F7X7G
|
||
|
|
#01006:030405060708090A0B0C0D0E0F0G0H0I030405060708090A0B0C0D0E0F0G0H0I
|
||
|
|
#01011:04040404
|
||
|
|
#01012:0001000100010001
|
||
|
|
#01013:2H0000000L000000000300000L000000
|
||
|
|
#01014:002I002I002J002I
|
||
|
|
#01015:02000000020000000200000300000000
|
||
|
|
#01018:00000003000300002L0000002K000003
|
||
|
|
#01019:0002000200020002
|
||
|
|
|
||
|
|
#01101:00
|
||
|
|
#01101:00000002
|
||
|
|
#01101:00
|
||
|
|
#01101:00
|
||
|
|
#01101:00
|
||
|
|
#01101:00
|
||
|
|
#01101:00
|
||
|
|
#01101:00
|
||
|
|
#01101:00
|
||
|
|
#01101:00
|
||
|
|
#01101:00000003000000000003000000000003
|
||
|
|
#01101:00
|
||
|
|
#01101:00
|
||
|
|
#01101:7F7G7F7X7G7F7X7G7F7G7F7X7G7F7X7G
|
||
|
|
#01106:030405060708090A0B0C0D0E0F0G0H0I030405060708090A0B0C0D0E0F0G0H0I
|
||
|
|
#01111:04040404
|
||
|
|
#01112:0001000100010001
|
||
|
|
#01113:2H0000002K000003000000000L000000
|
||
|
|
#01114:002J002L002I002J
|
||
|
|
#01115:02000000020000000200000300030000
|
||
|
|
#01118:00030000000300002M0000002L000000
|
||
|
|
#01119:00020L0200020002
|
||
|
|
|
||
|
|
#01201:00
|
||
|
|
#01201:00020000
|
||
|
|
#01201:0000002M
|
||
|
|
#01201:00
|
||
|
|
#01201:00
|
||
|
|
#01201:0000000000020000
|
||
|
|
#01201:000L0000
|
||
|
|
#01201:00
|
||
|
|
#01201:00
|
||
|
|
#01201:00
|
||
|
|
#01201:00000000000300000000000300000000
|
||
|
|
#01201:00
|
||
|
|
#01201:00
|
||
|
|
#01201:7B7C7B007C7B7V7C7B007B7V7C7B7V00
|
||
|
|
#01206:030405060708090A0B0C0D0E0F0G0H0I030405060708090A0B0C0D0E0F0G0H0I
|
||
|
|
#01211:04040404
|
||
|
|
#01212:0001000100010001
|
||
|
|
#01213:0003007V0000000300002L000L000003
|
||
|
|
#01214:00002L0000002I000003000000030000
|
||
|
|
#01215:02000003000000000200000002002N00
|
||
|
|
#01218:2K0000002M0000002N0000000000007C
|
||
|
|
#01219:0000020000000200007C000000000200
|
||
|
|
|
||
|
|
#01301:00
|
||
|
|
#01301:00
|
||
|
|
#01301:002L002J
|
||
|
|
#01301:00000000000000000000007V00000000
|
||
|
|
#01301:00
|
||
|
|
#01301:00000000000000000000000300000000
|
||
|
|
#01301:00
|
||
|
|
#01301:00
|
||
|
|
#01301:00
|
||
|
|
#01301:00
|
||
|
|
#01301:00030000000000030000000000000003
|
||
|
|
#01301:00
|
||
|
|
#01301:00
|
||
|
|
#01301:7B7C7B7V7C007V7C7B7C7B007C7B007C
|
||
|
|
#01306:030405060708090A0B0C0D0E0F0G0H0I030405060708090A0B0C0D0E0F0G0H0I
|
||
|
|
#01311:04040404
|
||
|
|
#01312:0001000100010001
|
||
|
|
#01313:000000000L002J00000300000L002O00
|
||
|
|
#01314:2I000003007B00000000000000030000
|
||
|
|
#01315:02000200022K0200
|
||
|
|
#01316:000000000000000000000000008M0000
|
||
|
|
#01318:00002M00000300002L00000000007V00
|
||
|
|
#01319:0002000200020002
|
||
|
|
|
||
|
|
#01401:00
|
||
|
|
#01401:00020000
|
||
|
|
#01401:00
|
||
|
|
#01401:00
|
||
|
|
#01401:00
|
||
|
|
#01401:00
|
||
|
|
#01401:00
|
||
|
|
#01401:00
|
||
|
|
#01401:00
|
||
|
|
#01401:00
|
||
|
|
#01401:00000003000000000000000300000003
|
||
|
|
#01401:00
|
||
|
|
#01401:00
|
||
|
|
#01401:7B7C7B7V7C007V7C7B007B7V7C7B7V7C
|
||
|
|
#01406:030405060708090A0B0C0D0E0F0G0H0I030405060708090A0B0C0D0E0F0G0H0I
|
||
|
|
#01411:04040404
|
||
|
|
#01412:000300000L000003007C00000L000000
|
||
|
|
#01413:2H000000000300000003000000002I00
|
||
|
|
#01414:00002I0000002I0000002J0000030000
|
||
|
|
#01415:02000000007B00000200000002000000
|
||
|
|
#01418:00012J0100012K01
|
||
|
|
#01419:000200022L020002
|
||
|
|
|
||
|
|
#01501:00
|
||
|
|
#01501:0002000000000000
|
||
|
|
#01501:00
|
||
|
|
#01501:00
|
||
|
|
#01501:00
|
||
|
|
#01501:00
|
||
|
|
#01501:000L0000
|
||
|
|
#01501:00
|
||
|
|
#01501:00
|
||
|
|
#01501:00
|
||
|
|
#01501:00000000000000030000000300000000
|
||
|
|
#01501:00
|
||
|
|
#01501:00
|
||
|
|
#01501:7B007B7V7C007V7C7B7C7B7V7C007V7C
|
||
|
|
#01506:030405060708090A0B0C0D0E0F0G0H0I030405060708090A0B0C0D0E0F0G0H0I
|
||
|
|
#01511:04040404
|
||
|
|
#01512:2H000003007B0000000000000L002J00
|
||
|
|
#01513:000300000003000000002I00007B0000
|
||
|
|
#01514:00002J002K0000000003000000030003
|
||
|
|
#01515:0200022L02000200
|
||
|
|
#01518:0001000100012L01
|
||
|
|
#01519:007C0000000002002M00020000000200
|
||
|
|
|
||
|
|
#01601:0001000000000000
|
||
|
|
#01601:00
|
||
|
|
#01601:00000002
|
||
|
|
#01601:00
|
||
|
|
#01601:00
|
||
|
|
#01601:00
|
||
|
|
#01601:00
|
||
|
|
#01601:00
|
||
|
|
#01601:00
|
||
|
|
#01601:00
|
||
|
|
#01601:00000003000000030000000000000003
|
||
|
|
#01601:00
|
||
|
|
#01601:00
|
||
|
|
#01601:7D007D7W7E7D7W7E7D007D7W7E007W7E
|
||
|
|
#01606:030405060708090A0B0C0D0E0F0G0H0I030405060708090A0B0C0D0E0F0G0H0I
|
||
|
|
#01611:04040404
|
||
|
|
#01612:0003000000002I00000300000L000000
|
||
|
|
#01613:2K0000000L00000000002L0000030000
|
||
|
|
#01614:00002L0000030000007E0003007D0000
|
||
|
|
#01615:0200020002002M2N
|
||
|
|
#01618:007E00002M0001000000010000000100
|
||
|
|
#01619:000200022N020002
|
||
|
|
|
||
|
|
#01701:00
|
||
|
|
#01701:00
|
||
|
|
#01701:0000000L
|
||
|
|
#01701:00020000
|
||
|
|
#01701:00
|
||
|
|
#01701:00
|
||
|
|
#01701:00
|
||
|
|
#01701:00
|
||
|
|
#01701:00
|
||
|
|
#01701:00
|
||
|
|
#01701:00000003000000000000000300000003
|
||
|
|
#01701:00
|
||
|
|
#01701:00
|
||
|
|
#01701:7D7E7D7W7E7D7W7E7D7E7D7W7E7D7W7E
|
||
|
|
#01706:030405060708090A0B0C0D0E0F0G0H0I030405060708090A0B0C0D0E0F0G0H0I
|
||
|
|
#01711:04040404
|
||
|
|
#01712:000000000L0000030000000000030000
|
||
|
|
#01713:2I00002J0000002O
|
||
|
|
#01714:0003000000030000000300002J000000
|
||
|
|
#01715:022M2L00022K0200
|
||
|
|
#01718:000100012L010001
|
||
|
|
#01719:0002000200020002
|
||
|
|
|
||
|
|
#01801:00
|
||
|
|
#01801:00
|
||
|
|
#01801:00
|
||
|
|
#01801:00
|
||
|
|
#01801:00
|
||
|
|
#01801:00
|
||
|
|
#01801:00
|
||
|
|
#01801:00
|
||
|
|
#01801:00
|
||
|
|
#01801:00
|
||
|
|
#01801:00000000000000030000000300000000
|
||
|
|
#01801:00
|
||
|
|
#01801:00
|
||
|
|
#01801:7F7G7F7X7G7F7X7G7F7G7F7X7G7F7X7G
|
||
|
|
#01806:030405060708090A0B0C0D0E0F0G0H0I030405060708090A0B0C0D0E0F0G0H0I
|
||
|
|
#01811:04040404
|
||
|
|
#01812:000300000L000000000300000L002I00
|
||
|
|
#01813:2H000003000300000000000000000003
|
||
|
|
#01814:00002I0000002I0000002J0000030000
|
||
|
|
#01815:02020202
|
||
|
|
#01818:00012J0100012K01
|
||
|
|
#01819:000200022L020002
|
||
|
|
|
||
|
|
#01901:00
|
||
|
|
#01901:00
|
||
|
|
#01901:00
|
||
|
|
#01901:00
|
||
|
|
#01901:00
|
||
|
|
#01901:00
|
||
|
|
#01901:00
|
||
|
|
#01901:00
|
||
|
|
#01901:00
|
||
|
|
#01901:00
|
||
|
|
#01901:00000003000000030000000000000003
|
||
|
|
#01901:00
|
||
|
|
#01901:00
|
||
|
|
#01901:7F7G7F7X7G7F7X7G7F7G7F7X7G7F7X7G
|
||
|
|
#01906:030405060708090A0B0C0D0E0F0G0H0I030405060708090A0B0C0D0E0F0G0H0I
|
||
|
|
#01911:04040404
|
||
|
|
#01912:2H0L000L
|
||
|
|
#01913:00002J000003000000002I0000030000
|
||
|
|
#01914:000300002K0000000003000300002J00
|
||
|
|
#01915:0200022L02000200
|
||
|
|
#01918:0001000100012L01
|
||
|
|
#01919:000200022M020002
|
||
|
|
|
||
|
|
#02001:00
|
||
|
|
#02001:0000000L
|
||
|
|
#02001:00
|
||
|
|
#02001:00
|
||
|
|
#02001:00
|
||
|
|
#02001:00
|
||
|
|
#02001:00
|
||
|
|
#02001:00
|
||
|
|
#02001:00
|
||
|
|
#02001:00
|
||
|
|
#02001:00000003000000000000000300000000
|
||
|
|
#02001:00
|
||
|
|
#02001:00
|
||
|
|
#02001:7B7C7B7V7C007V7C7B007B7V7C007V00
|
||
|
|
#02006:030405060708090A0B0C0D0E0F0G0H0I030405060708090A0B0C0D0E0F0G0H0I
|
||
|
|
#02011:04040404
|
||
|
|
#02012:000300000L002I00007C0000007B0003
|
||
|
|
#02013:2K000000007B000300002L000003007C
|
||
|
|
#02014:00002L0000030000000300002M000000
|
||
|
|
#02015:020002000200022N
|
||
|
|
#02018:00012M0100010001
|
||
|
|
#02019:000200022N020002
|
||
|
|
|
||
|
|
#02101:00
|
||
|
|
#02101:00
|
||
|
|
#02101:00
|
||
|
|
#02101:00
|
||
|
|
#02101:00
|
||
|
|
#02101:00
|
||
|
|
#02101:00
|
||
|
|
#02101:00
|
||
|
|
#02101:00
|
||
|
|
#02101:00
|
||
|
|
#02101:00030003000300030003000300030003
|
||
|
|
#02101:00
|
||
|
|
#02101:00
|
||
|
|
#02101:7B7C7B7V7C7B7V7C7B7C7B7V7C7B7V7C
|
||
|
|
#02106:030405060708090A0B0C0D0E0F0G0H0I030405060708090A0B0C0D0E0F0G0H0I
|
||
|
|
#02111:04000004000400000400040005000700
|
||
|
|
#02112:000000000L000005000000000L002O00
|
||
|
|
#02113:0000050000002J0000002K0000060000
|
||
|
|
#02114:2I2L002J
|
||
|
|
#02115:022M020002000200
|
||
|
|
#02116:0J000N0K00000I00
|
||
|
|
#02118:000100012L010001
|
||
|
|
#02119:0002000200020002
|
||
|
|
|
||
|
|
#02201:00
|
||
|
|
#02201:008F1800
|
||
|
|
#02201:00
|
||
|
|
#02201:0000001J00000000
|
||
|
|
#02201:00
|
||
|
|
#02201:00
|
||
|
|
#02201:000L0000
|
||
|
|
#02201:00
|
||
|
|
#02201:00
|
||
|
|
#02201:00
|
||
|
|
#02201:02030203000300000200020300030003
|
||
|
|
#02201:00
|
||
|
|
#02201:00
|
||
|
|
#02201:7B007B7V7C7B00007B007B7V7C7B7V7C
|
||
|
|
#02201:00
|
||
|
|
#02201:8F000000008K00008F008F008F8K0000
|
||
|
|
#02201:000000000000008E
|
||
|
|
#02201:00
|
||
|
|
#02201:00
|
||
|
|
#02201:00
|
||
|
|
#02201:00
|
||
|
|
#02201:00
|
||
|
|
#02201:00
|
||
|
|
#02201:00
|
||
|
|
#02201:00
|
||
|
|
#02201:00
|
||
|
|
#02201:00
|
||
|
|
#02201:00
|
||
|
|
#02201:00
|
||
|
|
#02201:00
|
||
|
|
#02201:00
|
||
|
|
#02201:0P
|
||
|
|
#02206:030405060708090A0B0C0D0E0F0G0H0I030405060708090A0B0C0D0E0F0G0H0I
|
||
|
|
#02211:1J0001001J00001K001J00001J000000
|
||
|
|
#02212:007C000000000003000300000L000100
|
||
|
|
#02213:00001L000200007C007C000000001L00
|
||
|
|
#02214:1700000000000100008K000002000000
|
||
|
|
#02215:008K00001800020000001K0000001800
|
||
|
|
#02216:0C
|
||
|
|
#02218:008F007V00011A02
|
||
|
|
#02219:0400048F04190400
|
||
|
|
|
||
|
|
#02301:00
|
||
|
|
#02301:001B
|
||
|
|
#02301:00
|
||
|
|
#02301:007C0000
|
||
|
|
#02301:04
|
||
|
|
#02301:00
|
||
|
|
#02301:00
|
||
|
|
#02301:00
|
||
|
|
#02301:00
|
||
|
|
#02301:0001000000000000
|
||
|
|
#02301:02030203020302000200000300030003
|
||
|
|
#02301:00
|
||
|
|
#02301:00
|
||
|
|
#02301:7B007B7V007B7V007B00007V7C7B007C
|
||
|
|
#02301:00
|
||
|
|
#02301:00000000000000008F008K008G8L008L8F0000008K0000008F008K0000000000
|
||
|
|
#02301:000000000000008E
|
||
|
|
#02306:030405060708090A0B0C0D0E0F0G0H0I030405060708090A0B0C0D0E0F0G0H0I
|
||
|
|
#02311:1J0000001J000003001J00001J000000
|
||
|
|
#02312:00008F000000008G0003000004001L00
|
||
|
|
#02313:007C00000400001K007C000000000100
|
||
|
|
#02314:8F001L000000007C00001K0017000000
|
||
|
|
#02315:008K0000190001000000010000007V00
|
||
|
|
#02318:1900001J00020L02
|
||
|
|
#02319:001A0L18047B0200
|
||
|
|
|
||
|
|
#02401:00
|
||
|
|
#02401:0018
|
||
|
|
#02401:00
|
||
|
|
#02401:00
|
||
|
|
#02401:04040004
|
||
|
|
#02401:00
|
||
|
|
#02401:000L000L
|
||
|
|
#02401:00
|
||
|
|
#02401:00
|
||
|
|
#02401:0001000000010001
|
||
|
|
#02401:02030203000300000200000300030003
|
||
|
|
#02401:00
|
||
|
|
#02401:00
|
||
|
|
#02401:7D00007W007D00007D007D7W007D007E
|
||
|
|
#02401:00
|
||
|
|
#02401:000000008F8K8F008F008F00008K0000
|
||
|
|
#02401:000000000000008E
|
||
|
|
#02406:030405060708090A0B0C0D0E0F0G0H0I030405060708090A0B0C0D0E0F0G0H0I
|
||
|
|
#02411:007D007W04021M7W
|
||
|
|
#02412:1M001M1M00190002
|
||
|
|
#02413:007E00001800010000001N0002000000
|
||
|
|
#02414:17001O0000000200000300007E000000
|
||
|
|
#02415:008K00000200001N007E00008F000000
|
||
|
|
#02418:000000007E000003008K000000001O00
|
||
|
|
#02419:8F008F000000007E001M00001A001800
|
||
|
|
|
||
|
|
#02501:00
|
||
|
|
#02501:001B
|
||
|
|
#02501:00
|
||
|
|
#02501:0002
|
||
|
|
#02501:04047D04
|
||
|
|
#02501:00
|
||
|
|
#02501:000L000L
|
||
|
|
#02501:00
|
||
|
|
#02501:00
|
||
|
|
#02501:0001000000000000
|
||
|
|
#02501:02030203000302000000000300030203
|
||
|
|
#02501:00
|
||
|
|
#02501:00
|
||
|
|
#02501:7D007D7W007D7W0000007D7W007D007E
|
||
|
|
#02501:00
|
||
|
|
#02501:00000000000000008F008K008G8L008L8F0000008K00000000008K0000000000
|
||
|
|
#02501:000000000000008E
|
||
|
|
#02506:030405060708090A0B0C0D0E0F0G0H0I030405060708090A0B0C0D0E0F0G0H0I
|
||
|
|
#02511:008F000104011M1O
|
||
|
|
#02512:1M001M1M00020001
|
||
|
|
#02513:008K0000020018000000180002000000
|
||
|
|
#02514:00001O000000001N00001N007E000000
|
||
|
|
#02515:8F0000007E000003007E00008F000000
|
||
|
|
#02518:007E00001900007E001M000000007W00
|
||
|
|
#02519:1C001A000000008G0003000019001B00
|
||
|
|
|
||
|
|
#02601:00
|
||
|
|
#02601:00000000181Q0000
|
||
|
|
#02601:00000000007F0000
|
||
|
|
#02601:000000000000001Q0000000000000000
|
||
|
|
#02601:0400040000190400
|
||
|
|
#02601:00
|
||
|
|
#02601:000L000L
|
||
|
|
#02601:00
|
||
|
|
#02601:00
|
||
|
|
#02601:00
|
||
|
|
#02601:02030203020300000200000300030003
|
||
|
|
#02601:00
|
||
|
|
#02601:00
|
||
|
|
#02601:7F7G7F7X007F00007F00007X007F007G
|
||
|
|
#02601:00
|
||
|
|
#02601:00000000008K00008F008F00008K0000
|
||
|
|
#02601:000000000000008E
|
||
|
|
#02606:030405060708090A0B0C0D0E0F0G0H0I030405060708090A0B0C0D0E0F0G0H0I
|
||
|
|
#02611:17000000180000030003000002001800
|
||
|
|
#02612:00008F001P00007G001P00007G000000
|
||
|
|
#02613:1P00000000007X00008K000000000100
|
||
|
|
#02614:008K000000001P00000300001P000200
|
||
|
|
#02615:00001R0000000100007G00008F000000
|
||
|
|
#02618:8F007G020002007X
|
||
|
|
#02619:00018F8F04011A1R
|
||
|
|
|
||
|
|
#02701:00
|
||
|
|
#02701:00
|
||
|
|
#02701:00
|
||
|
|
#02701:00
|
||
|
|
#02701:04040404
|
||
|
|
#02701:00
|
||
|
|
#02701:000L000L
|
||
|
|
#02701:00
|
||
|
|
#02701:00
|
||
|
|
#02701:0001000100000000
|
||
|
|
#02701:02030203000302000200000300030003
|
||
|
|
#02701:00
|
||
|
|
#02701:00
|
||
|
|
#02701:7F007F7X007F7X007F7G007X007F007G
|
||
|
|
#02701:00
|
||
|
|
#02701:00000000000000008F008K008G8L008L8F0000008K00000000008K008E000000
|
||
|
|
#02706:030405060708090A0B0C0D0E0F0G0H0I030405060708090A0B0C0D0E0F0G0H0I
|
||
|
|
#02711:8F00000002000003000300001P001G00
|
||
|
|
#02712:008K00001P00008G001P001E00000100
|
||
|
|
#02713:1P008F000000001Q00001D001F000000
|
||
|
|
#02714:190000000000000300001Q0002000200
|
||
|
|
#02715:00001R000000007G0000010000007X00
|
||
|
|
#02718:007G00007G001800000002008F000000
|
||
|
|
#02719:001A191P1D7F7G1R
|
||
|
|
|
||
|
|
#02801:00
|
||
|
|
#02801:00
|
||
|
|
#02801:00
|
||
|
|
#02801:00
|
||
|
|
#02801:04040400
|
||
|
|
#02801:00
|
||
|
|
#02801:000L0000
|
||
|
|
#02801:00
|
||
|
|
#02801:00
|
||
|
|
#02801:0001000000010000
|
||
|
|
#02801:02030203000300000200020302030003
|
||
|
|
#02801:00
|
||
|
|
#02801:00
|
||
|
|
#02801:7B00007V007B007C7B007B7V007B007C
|
||
|
|
#02801:00
|
||
|
|
#02801:00000000008K00008F008F00008K0000
|
||
|
|
#02801:000000000000008E
|
||
|
|
#02806:030405060708090A0B0C0D0E0F0G0H0I030405060708090A0B0C0D0E0F0G0H0I
|
||
|
|
#02811:177B000118190400
|
||
|
|
#02812:007C00008F00020000001T000L000200
|
||
|
|
#02813:00008F0018007V00000300007C007V00
|
||
|
|
#02814:1S0000001S001S00001S00001S000200
|
||
|
|
#02815:008K000002008F00000300008F000100
|
||
|
|
#02818:00001U007C00001T007C00001A001800
|
||
|
|
#02819:8F00000000000003008K000000001U00
|
||
|
|
|
||
|
|
#02901:00
|
||
|
|
#02901:00
|
||
|
|
#02901:00
|
||
|
|
#02901:00
|
||
|
|
#02901:04040404
|
||
|
|
#02901:00
|
||
|
|
#02901:000L0000
|
||
|
|
#02901:00
|
||
|
|
#02901:00
|
||
|
|
#02901:0001000100000000
|
||
|
|
#02901:00030203020302000200000300030003
|
||
|
|
#02901:00
|
||
|
|
#02901:00
|
||
|
|
#02901:007C0000007B7V007B7C007V007B007C
|
||
|
|
#02901:00
|
||
|
|
#02901:00008K008F0000008F008K008G8L008L8F0000008K00000000008K0000000000
|
||
|
|
#02901:000000000000008E
|
||
|
|
#02906:030405060708090A0B0C0D0E0F0G0H0I030405060708090A0B0C0D0E0F0G0H0I
|
||
|
|
#02911:7B007C1E1B7B0002
|
||
|
|
#02912:8F001F1S00010L1B
|
||
|
|
#02913:0000007V00000003000018008F007V00
|
||
|
|
#02914:1S007B001S00008G000002001S000100
|
||
|
|
#02915:0000001I0000007C00001T007C000200
|
||
|
|
#02916:000000000000000000000000008M0000
|
||
|
|
#02918:02001U000000001T0003000002001U00
|
||
|
|
#02919:1H001H0000000003001S000019000000
|
||
|
|
|
||
|
|
#03001:00
|
||
|
|
#03001:00
|
||
|
|
#03001:0018
|
||
|
|
#03001:00
|
||
|
|
#03001:00
|
||
|
|
#03001:00
|
||
|
|
#03001:000L0000
|
||
|
|
#03001:00
|
||
|
|
#03001:00
|
||
|
|
#03001:0000000000000001
|
||
|
|
#03001:020300000203000002001K0302030003
|
||
|
|
#03001:00
|
||
|
|
#03001:00
|
||
|
|
#03001:007C00007C7B00007B007B7V007B007C
|
||
|
|
#03001:00
|
||
|
|
#03001:8F8K8F008F8K8F008F008F008F8K0000
|
||
|
|
#03001:000000000000008E
|
||
|
|
#03006:030405060708090A0B0C0D0E0F0G0H0I030405060708090A0B0C0D0E0F0G0H0I
|
||
|
|
#03011:040001000400007C008K000004000000
|
||
|
|
#03012:1J00020000000003000300001J000200
|
||
|
|
#03013:17007B001J00001K007C000000007V00
|
||
|
|
#03014:7B001L0000007V00001J00007C000000
|
||
|
|
#03015:000018020402001L
|
||
|
|
#03018:0000007V00000100000001000L001800
|
||
|
|
#03019:0000000300001J00000019001A000000
|
||
|
|
|
||
|
|
#03101:00
|
||
|
|
#03101:00
|
||
|
|
#03101:000000021B000000
|
||
|
|
#03101:00000000000000000003000000000000
|
||
|
|
#03101:00
|
||
|
|
#03101:00
|
||
|
|
#03101:000L000L
|
||
|
|
#03101:00
|
||
|
|
#03101:00
|
||
|
|
#03101:0001000000000000
|
||
|
|
#03101:00030200020300000200000300030003
|
||
|
|
#03101:00
|
||
|
|
#03101:00
|
||
|
|
#03101:7B7C0000007B7V007B00007V007B007C
|
||
|
|
#03101:00
|
||
|
|
#03101:8F008K00000000008F008K008G8L008L8F0000008K0000008F008K0000000000
|
||
|
|
#03101:000000000000008E
|
||
|
|
#03106:030405060708090A0B0C0D0E0F0G0H0I030405060708090A0B0C0D0E0F0G0H0I
|
||
|
|
#03111:04001L000400008G007C000004000000
|
||
|
|
#03112:1J001A001J00007C000300001J000100
|
||
|
|
#03113:19007B0000000003001J000000000200
|
||
|
|
#03114:02008F007C00001K0000020002000000
|
||
|
|
#03115:0000007V000001000400010000001L00
|
||
|
|
#03118:00001918001K7C7V
|
||
|
|
#03119:0000000300001J0000007B0017000000
|
||
|
|
|
||
|
|
#03201:00
|
||
|
|
#03201:00
|
||
|
|
#03201:0018
|
||
|
|
#03201:00
|
||
|
|
#03201:00
|
||
|
|
#03201:00
|
||
|
|
#03201:000L0000
|
||
|
|
#03201:00
|
||
|
|
#03201:00
|
||
|
|
#03201:0000000000000001
|
||
|
|
#03201:02030000020300000200020302030003
|
||
|
|
#03201:00
|
||
|
|
#03201:00
|
||
|
|
#03201:007E00007E7D00007D007D7W007D007E
|
||
|
|
#03201:00
|
||
|
|
#03201:8F8K8F008F8K8F008F008F008F8K0000
|
||
|
|
#03201:000000000000008E
|
||
|
|
#03206:030405060708090A0B0C0D0E0F0G0H0I030405060708090A0B0C0D0E0F0G0H0I
|
||
|
|
#03211:00000401001N0402
|
||
|
|
#03212:0401001M0019007W
|
||
|
|
#03213:17021M0204011M00
|
||
|
|
#03214:1M007D0000007W00008K00007E000000
|
||
|
|
#03215:7D001O001800001N007E00000L000000
|
||
|
|
#03218:0000000300000003001M000000001800
|
||
|
|
#03219:0000007W0000007E000300001A001O00
|
||
|
|
|
||
|
|
#03301:00
|
||
|
|
#03301:00
|
||
|
|
#03301:001B
|
||
|
|
#03301:00
|
||
|
|
#03301:00
|
||
|
|
#03301:00
|
||
|
|
#03301:000L000L
|
||
|
|
#03301:00
|
||
|
|
#03301:00
|
||
|
|
#03301:0001000100010001
|
||
|
|
#03301:02030000020302000200020300030003
|
||
|
|
#03301:00
|
||
|
|
#03301:00
|
||
|
|
#03301:007E0000007D00007D7E007W007D007E
|
||
|
|
#03301:00
|
||
|
|
#03301:8F008K008F0000008F008K008G8L008L8F000000000000008F008K0000000000
|
||
|
|
#03301:000000000000008E
|
||
|
|
#03306:030405060708090A0B0C0D0E0F0G0H0I030405060708090A0B0C0D0E0F0G0H0I
|
||
|
|
#03311:0000000300001M0000007D0004001B00
|
||
|
|
#03312:0402041800180002
|
||
|
|
#03313:1M7D1M7W041N1M00
|
||
|
|
#03314:1C001O000000007E00008K0002000000
|
||
|
|
#03315:7D001A007E00001N000300007E000000
|
||
|
|
#03318:0000000019000003001M000000007W00
|
||
|
|
#03319:0000007W0000008G0003000019001O00
|
||
|
|
|
||
|
|
#03401:00
|
||
|
|
#03401:00
|
||
|
|
#03401:00
|
||
|
|
#03401:0018
|
||
|
|
#03401:00
|
||
|
|
#03401:00
|
||
|
|
#03401:000L0000
|
||
|
|
#03401:00
|
||
|
|
#03401:00
|
||
|
|
#03401:0000000000010000
|
||
|
|
#03401:02030000020300030200020302030003
|
||
|
|
#03401:00
|
||
|
|
#03401:00
|
||
|
|
#03401:007G00007G7F00007F007F7X007F007G
|
||
|
|
#03401:00
|
||
|
|
#03401:8F8K8F008F8K00008F008F008F8K0000
|
||
|
|
#03401:000000000000008E
|
||
|
|
#03406:030405060708090A0B0C0D0E0F0G0H0I030405060708090A0B0C0D0E0F0G0H0I
|
||
|
|
#03411:000000030000001Q001P000004001800
|
||
|
|
#03412:0000007X0000007G000300000L000100
|
||
|
|
#03413:0400010004008F00007G000000000000
|
||
|
|
#03414:1700020000007X00008K00001P007X00
|
||
|
|
#03415:1P007F001P000100000300007G000000
|
||
|
|
#03418:7F1R000204190002
|
||
|
|
#03419:0000181P001Q1A1R
|
||
|
|
|
||
|
|
#03501:00
|
||
|
|
#03501:00
|
||
|
|
#03501:00
|
||
|
|
#03501:00
|
||
|
|
#03501:001D
|
||
|
|
#03501:00
|
||
|
|
#03501:000L000L
|
||
|
|
#03501:00
|
||
|
|
#03501:00
|
||
|
|
#03501:0001000100000000
|
||
|
|
#03501:02030000020302000203000300030003
|
||
|
|
#03501:00
|
||
|
|
#03501:00
|
||
|
|
#03501:007G0000007F7X007F00007X007F007G
|
||
|
|
#03501:00
|
||
|
|
#03501:8F008K008F0000008F008K008G8L008L8F0000008K0000008F008K0000000000
|
||
|
|
#03501:000000000000008E
|
||
|
|
#03506:030405060708090A0B0C0D0E0F0G0H0I030405060708090A0B0C0D0E0F0G0H0I
|
||
|
|
#03511:0000007X0000001Q001P000004001G00
|
||
|
|
#03512:000000000400008G007G001E00000100
|
||
|
|
#03513:040002001P00007G00001D0002000000
|
||
|
|
#03514:7F007F000000000300007F001P007X00
|
||
|
|
#03515:1P001R007G00001Q0000010000000200
|
||
|
|
#03518:191A1918041Q7G00
|
||
|
|
#03519:0000000300001P00000002001F001R00
|
||
|
|
|
||
|
|
#03601:00
|
||
|
|
#03601:00
|
||
|
|
#03601:00
|
||
|
|
#03601:0018
|
||
|
|
#03601:00
|
||
|
|
#03601:00
|
||
|
|
#03601:000L0000
|
||
|
|
#03601:00
|
||
|
|
#03601:00
|
||
|
|
#03601:0000000000010000
|
||
|
|
#03601:02030000020300030200020300030003
|
||
|
|
#03601:00
|
||
|
|
#03601:00
|
||
|
|
#03601:007C00007C7B00007B007B7V007B007C
|
||
|
|
#03601:00
|
||
|
|
#03601:8F8K8F008F8K00008F008F008F8K0000
|
||
|
|
#03601:000000000000008E
|
||
|
|
#03606:030405060708090A0B0C0D0E0F0G0H0I030405060708090A0B0C0D0E0F0G0H0I
|
||
|
|
#03611:0000000300001S000000190004000000
|
||
|
|
#03612:0000007V0000010004001T000L000200
|
||
|
|
#03613:0000000018000200001S000002001800
|
||
|
|
#03614:0400010000007V00007C00007C000100
|
||
|
|
#03615:170002001S008F00000300001S000200
|
||
|
|
#03618:1S007B000000007C008K00001A007V00
|
||
|
|
#03619:7B001U000400001T0003000000001U00
|
||
|
|
|
||
|
|
#03701:00
|
||
|
|
#03701:00
|
||
|
|
#03701:00
|
||
|
|
#03701:00
|
||
|
|
#03701:00
|
||
|
|
#03701:00
|
||
|
|
#03701:000L0000
|
||
|
|
#03701:001B
|
||
|
|
#03701:00
|
||
|
|
#03701:0001000100000000
|
||
|
|
#03701:02030003020302000203000300030003
|
||
|
|
#03701:00
|
||
|
|
#03701:00
|
||
|
|
#03701:007C00007C7B7V007B00007V007B007C
|
||
|
|
#03701:00
|
||
|
|
#03701:8F008K008F0000008F008K008G8L008L8F0000008K0000008F008K0000000000
|
||
|
|
#03701:000000000000008E
|
||
|
|
#03706:030405060708090A0B0C0D0E0F0G0H0I030405060708090A0B0C0D0E0F0G0H0I
|
||
|
|
#03711:0000041E00010007
|
||
|
|
#03712:0000007V00001S000400020004001B00
|
||
|
|
#03713:000002001F000003000018000L000100
|
||
|
|
#03714:0400001I0000007C00007B0002000200
|
||
|
|
#03715:1S007B001S00008G00001T007C007V00
|
||
|
|
#03716:0J000N0K00000I00
|
||
|
|
#03718:1H001H0000000003007C00001S001U00
|
||
|
|
#03719:7B001U000000001T001S000019000000
|
||
|
|
|
||
|
|
#03801:00
|
||
|
|
#03801:00
|
||
|
|
#03801:00
|
||
|
|
#03801:00
|
||
|
|
#03801:00040404
|
||
|
|
#03801:00
|
||
|
|
#03801:0000000L
|
||
|
|
#03801:00
|
||
|
|
#03801:00
|
||
|
|
#03801:0000000100000000
|
||
|
|
#03801:00030203000300030203020302030203
|
||
|
|
#03801:00
|
||
|
|
#03801:00
|
||
|
|
#03801:7B7C007V7C7B007C7B7C7B7V7C7B7V7C
|
||
|
|
#03801:00
|
||
|
|
#03801:00
|
||
|
|
#03801:00
|
||
|
|
#03801:00
|
||
|
|
#03801:00
|
||
|
|
#03801:00
|
||
|
|
#03801:00
|
||
|
|
#03801:00
|
||
|
|
#03801:00
|
||
|
|
#03801:00
|
||
|
|
#03801:00
|
||
|
|
#03801:00
|
||
|
|
#03801:00
|
||
|
|
#03801:00
|
||
|
|
#03801:00
|
||
|
|
#03801:00
|
||
|
|
#03801:00
|
||
|
|
#03801:0Q
|
||
|
|
#03806:030405060708090A0B0C0D0E0F0G0H0I030405060708090A0B0C0D0E0F0G0H0I
|
||
|
|
#03811:61
|
||
|
|
#03812:0400000000010000
|
||
|
|
#03813:5J015J5K00000001
|
||
|
|
#03814:005K0L00005L0000
|
||
|
|
#03815:020002020000005M
|
||
|
|
#03816:0C
|
||
|
|
#03818:007B007V00000000
|
||
|
|
#03819:2U002V2W00000000
|
||
|
|
|
||
|
|
#03901:00
|
||
|
|
#03901:00
|
||
|
|
#03901:00
|
||
|
|
#03901:00
|
||
|
|
#03901:04040004
|
||
|
|
#03901:00
|
||
|
|
#03901:000L000L
|
||
|
|
#03901:00
|
||
|
|
#03901:00
|
||
|
|
#03901:0001000100000001
|
||
|
|
#03901:02030203020302030203020302030203
|
||
|
|
#03901:00
|
||
|
|
#03901:00
|
||
|
|
#03901:007C007V007B007C007C007V7C7B7V00
|
||
|
|
#03906:030405060708090A0B0C0D0E0F0G0H0I030405060708090A0B0C0D0E0F0G0H0I
|
||
|
|
#03911:5J5J0400
|
||
|
|
#03912:005K005K00010000
|
||
|
|
#03913:7B007B0000007V002M0000000000007C
|
||
|
|
#03914:2M007C007B5L0000
|
||
|
|
#03915:002P002P007B005M
|
||
|
|
#03918:620000000000000000002P0000000064
|
||
|
|
#03919:00002Q0000000063
|
||
|
|
|
||
|
|
#04001:00
|
||
|
|
#04001:00
|
||
|
|
#04001:00
|
||
|
|
#04001:00
|
||
|
|
#04001:04040404
|
||
|
|
#04001:00
|
||
|
|
#04001:000L000L
|
||
|
|
#04001:00
|
||
|
|
#04001:00
|
||
|
|
#04001:0000000100010001
|
||
|
|
#04001:00030203000300030203020302030203
|
||
|
|
#04001:00
|
||
|
|
#04001:00
|
||
|
|
#04001:007G007X007F007G7F7G7F7X7G7F7X7G
|
||
|
|
#04006:030405060708090A0B0C0D0E0F0G0H0I030405060708090A0B0C0D0E0F0G0H0I
|
||
|
|
#04011:5N000068
|
||
|
|
#04012:02007F005N005O000000670000690000
|
||
|
|
#04013:005O007X6600006A
|
||
|
|
#04014:2X00000002000200000000000000006B
|
||
|
|
#04015:65017G00005P0000
|
||
|
|
#04018:00002Y2Z0000005Q
|
||
|
|
#04019:7F
|
||
|
|
|
||
|
|
#04101:00
|
||
|
|
#04101:00
|
||
|
|
#04101:00
|
||
|
|
#04101:00
|
||
|
|
#04101:04040404
|
||
|
|
#04101:00
|
||
|
|
#04101:000L000L
|
||
|
|
#04101:00
|
||
|
|
#04101:00
|
||
|
|
#04101:0001000000000001
|
||
|
|
#04101:02030203000302030203020302030203
|
||
|
|
#04101:00
|
||
|
|
#04101:00
|
||
|
|
#04101:7F7G7F7X007F007G007G007X7G7F007G
|
||
|
|
#04106:030405060708090A0B0C0D0E0F0G0H0I030405060708090A0B0C0D0E0F0G0H0I
|
||
|
|
#04111:5N005N0000010000
|
||
|
|
#04112:005O005O002L007X
|
||
|
|
#04113:000000006D7F0000
|
||
|
|
#04114:002R00017F5P0000
|
||
|
|
#04115:2P00027X2R000000
|
||
|
|
#04118:00007G2P0000005Q
|
||
|
|
#04119:6C2Q0000
|
||
|
|
|
||
|
|
#04201:00
|
||
|
|
#04201:00
|
||
|
|
#04201:00
|
||
|
|
#04201:00
|
||
|
|
#04201:04040400
|
||
|
|
#04201:00
|
||
|
|
#04201:000L0000
|
||
|
|
#04201:00
|
||
|
|
#04201:00
|
||
|
|
#04201:0001000000010001
|
||
|
|
#04201:00030203020300030203020300030203
|
||
|
|
#04201:00
|
||
|
|
#04201:00
|
||
|
|
#04201:007I007Y007H007I7H7I007Y007H007I
|
||
|
|
#04206:030405060708090A0B0C0D0E0F0G0H0I030405060708090A0B0C0D0E0F0G0H0I
|
||
|
|
#04211:02007I00007H0000
|
||
|
|
#04212:007H000100000400
|
||
|
|
#04213:5R00000200000L5V
|
||
|
|
#04214:7H5R0032
|
||
|
|
#04215:6E000031005U007Y
|
||
|
|
#04218:005S007Y00000200
|
||
|
|
#04219:3000005T00007I00
|
||
|
|
|
||
|
|
#04301:00
|
||
|
|
#04301:00
|
||
|
|
#04301:00
|
||
|
|
#04301:00
|
||
|
|
#04301:04040404
|
||
|
|
#04301:00
|
||
|
|
#04301:000L000L
|
||
|
|
#04301:00
|
||
|
|
#04301:00
|
||
|
|
#04301:0001000100010001
|
||
|
|
#04301:00030003000300030003000302030203
|
||
|
|
#04301:00
|
||
|
|
#04301:00
|
||
|
|
#04301:007I007Y007H007I007I007Y7I7H7Y7I
|
||
|
|
#04306:030405060708090A0B0C0D0E0F0G0H0I030405060708090A0B0C0D0E0F0G0H0I
|
||
|
|
#04311:5R00020000020000
|
||
|
|
#04312:00025R00022M0000
|
||
|
|
#04313:025S00022R000000
|
||
|
|
#04314:6F007I2P007H005V
|
||
|
|
#04315:007H2Q007H5U0000
|
||
|
|
#04318:7H2T007Y6G000000
|
||
|
|
#04319:2S00005T00000000
|
||
|
|
|
||
|
|
#04401:00
|
||
|
|
#04401:00
|
||
|
|
#04401:00
|
||
|
|
#04401:00
|
||
|
|
#04401:04040404
|
||
|
|
#04401:00
|
||
|
|
#04401:000L0000
|
||
|
|
#04401:00
|
||
|
|
#04401:00
|
||
|
|
#04401:0001000100010001
|
||
|
|
#04401:00030203000300030003020300030003
|
||
|
|
#04401:00
|
||
|
|
#04401:00
|
||
|
|
#04401:007G7F7X007F007G007G007X007F007G
|
||
|
|
#04406:030405060708090A0B0C0D0E0F0G0H0I030405060708090A0B0C0D0E0F0G0H0I
|
||
|
|
#04411:0200000200000200
|
||
|
|
#04412:5O00022Q02000L7X
|
||
|
|
#04413:33002T7X2T000000
|
||
|
|
#04414:00007G007F2S7G5V
|
||
|
|
#04415:6H005S00007F3F02
|
||
|
|
#04418:00005U000000000000005U00003G0000
|
||
|
|
#04419:7F00005T0000003H
|
||
|
|
|
||
|
|
#04501:005Y0000
|
||
|
|
#04501:00
|
||
|
|
#04501:00
|
||
|
|
#04501:00
|
||
|
|
#04501:04040404
|
||
|
|
#04501:00
|
||
|
|
#04501:000L000L
|
||
|
|
#04501:00
|
||
|
|
#04501:00
|
||
|
|
#04501:0001000100010001
|
||
|
|
#04501:00030203020302030003020302030203
|
||
|
|
#04501:00
|
||
|
|
#04501:00
|
||
|
|
#04501:7J7K7J7Z7K7J7Z7K007M7L807M7L807M
|
||
|
|
#04506:030405060708090A0B0C0D0E0F0G0H0I030405060708090A0B0C0D0E0F0G0H0I
|
||
|
|
#04511:5W
|
||
|
|
#04512:005X005Z02000000
|
||
|
|
#04513:340000000060005Y
|
||
|
|
#04514:0035
|
||
|
|
#04515:6I
|
||
|
|
#04516:000000000000000000000000008M0000
|
||
|
|
#04518:026J
|
||
|
|
#04519:007L
|
||
|
|
|
||
|
|
#04601:00
|
||
|
|
#04601:006K0000
|
||
|
|
#04601:00000000006O005M
|
||
|
|
#04601:00
|
||
|
|
#04601:04040404
|
||
|
|
#04601:00
|
||
|
|
#04601:000L000L
|
||
|
|
#04601:00
|
||
|
|
#04601:00
|
||
|
|
#04601:0001000100010001
|
||
|
|
#04601:00030203020302030203020302030203
|
||
|
|
#04601:00
|
||
|
|
#04601:00
|
||
|
|
#04601:007C7B7V7C007V007B007B000000007C
|
||
|
|
#04606:030405060708090A0B0C0D0E0F0G0H0I030405060708090A0B0C0D0E0F0G0H0I
|
||
|
|
#04611:5J000000007B0000000000003Q000000
|
||
|
|
#04612:7B0000005J005K006N000000003R0000
|
||
|
|
#04613:02005K000000007C007C000000003S00
|
||
|
|
#04614:00000000003J00003M005L007C000000
|
||
|
|
#04615:360000003I003K00003N007V007B003T
|
||
|
|
#04618:000000000000003L00003O0000007V00
|
||
|
|
#04619:6K006L0000006M000000003P00000000
|
||
|
|
|
||
|
|
#04701:00
|
||
|
|
#04701:006L000000000000
|
||
|
|
#04701:00
|
||
|
|
#04701:005K000000000000
|
||
|
|
#04701:00040404
|
||
|
|
#04701:00
|
||
|
|
#04701:000L000L
|
||
|
|
#04701:00
|
||
|
|
#04701:00
|
||
|
|
#04701:0001000100010001
|
||
|
|
#04701:00000203020302030203020302030203
|
||
|
|
#04701:00
|
||
|
|
#04701:00
|
||
|
|
#04701:7B007B7V7C7B7V7C007C007V007B007C
|
||
|
|
#04706:030405060708090A0B0C0D0E0F0G0H0I030405060708090A0B0C0D0E0F0G0H0I
|
||
|
|
#04711:6K006K00006O007V
|
||
|
|
#04712:02030000000000006N00000000000000
|
||
|
|
#04713:00005J6M00007C2M
|
||
|
|
#04714:5J7C00000000000000005L0000000000
|
||
|
|
#04715:0000005K2P002R00
|
||
|
|
#04718:37380000000000007B007B0000005M00
|
||
|
|
#04719:04000000002Q0000
|
||
|
|
|
||
|
|
#04801:00
|
||
|
|
#04801:00000000006U0000
|
||
|
|
#04801:00
|
||
|
|
#04801:0000005O00000000
|
||
|
|
#04801:04040400
|
||
|
|
#04801:00
|
||
|
|
#04801:000L000L
|
||
|
|
#04801:00
|
||
|
|
#04801:00
|
||
|
|
#04801:0001000100010000
|
||
|
|
#04801:00030203020302030203020300030003
|
||
|
|
#04801:00
|
||
|
|
#04801:00
|
||
|
|
#04801:7F7G7F7X7G007X007F007F007G7F7X7G
|
||
|
|
#04806:030405060708090A0B0C0D0E0F0G0H0I030405060708090A0B0C0D0E0F0G0H0I
|
||
|
|
#04811:5N005N006T000401
|
||
|
|
#04812:020000003U00007G007G000000000000
|
||
|
|
#04813:00005O00003I000000005P0002000200
|
||
|
|
#04814:3900000000003J003L00007X00005Q00
|
||
|
|
#04815:00006Q006R00003K003M00003A003A00
|
||
|
|
#04818:6P000000007F000000003N006V000000
|
||
|
|
#04819:0000000000006S000000003O00006W00
|
||
|
|
|
||
|
|
#04901:00
|
||
|
|
#04901:00
|
||
|
|
#04901:00
|
||
|
|
#04901:00
|
||
|
|
#04901:04040404
|
||
|
|
#04901:00
|
||
|
|
#04901:000L000L
|
||
|
|
#04901:00
|
||
|
|
#04901:00
|
||
|
|
#04901:0001000100010001
|
||
|
|
#04901:02030203020302030203020302030203
|
||
|
|
#04901:00
|
||
|
|
#04901:00
|
||
|
|
#04901:007F7G7X7F7F7G7X
|
||
|
|
#04901:00
|
||
|
|
#04901:00
|
||
|
|
#04901:00
|
||
|
|
#04901:00
|
||
|
|
#04901:00
|
||
|
|
#04901:00
|
||
|
|
#04901:00
|
||
|
|
#04901:00
|
||
|
|
#04901:00
|
||
|
|
#04901:00
|
||
|
|
#04901:00
|
||
|
|
#04901:00
|
||
|
|
#04901:00
|
||
|
|
#04901:00
|
||
|
|
#04901:00
|
||
|
|
#04901:00
|
||
|
|
#04901:008O
|
||
|
|
#04906:030405060708090A0B0C0D0E0F0G0H0I030405060708090A0B0C0D0E0F0G0H0I
|
||
|
|
#04911:5N0000005N005O000000007X00000000
|
||
|
|
#04912:6X00007X007F0000000000007000003J
|
||
|
|
#04913:00005O006Y00003N00005P0000003L00
|
||
|
|
#04914:007G003P00003P00007G003L003N0000
|
||
|
|
#04915:7F003R00003R00006Z003N003P00007G
|
||
|
|
#04918:003T00003T00007G003P000000005Q00
|
||
|
|
#04919:3V000000000000003R000000007F0000
|
||
|
|
|
||
|
|
#05001:00
|
||
|
|
#05001:00
|
||
|
|
#05001:00
|
||
|
|
#05001:00
|
||
|
|
#05001:04040404
|
||
|
|
#05001:00
|
||
|
|
#05001:000L0000
|
||
|
|
#05001:00
|
||
|
|
#05001:00
|
||
|
|
#05001:0001000100010001
|
||
|
|
#05001:00030203020302030203020300030203
|
||
|
|
#05001:00
|
||
|
|
#05001:00
|
||
|
|
#05001:7H7I7H7Y7I7H007I7H7I7H7Y007H7Y7I
|
||
|
|
#05006:030405060708090A0B0C0D0E0F0G0H0I030405060708090A0B0C0D0E0F0G0H0I
|
||
|
|
#05011:7171000L
|
||
|
|
#05012:007200720000005V
|
||
|
|
#05013:5R005R31005U0000
|
||
|
|
#05014:005S000000007I74
|
||
|
|
#05015:0000007Y00000200
|
||
|
|
#05018:0200005T00730000
|
||
|
|
#05019:30000032
|
||
|
|
|
||
|
|
#05101:00
|
||
|
|
#05101:00
|
||
|
|
#05101:00
|
||
|
|
#05101:00
|
||
|
|
#05101:04040404
|
||
|
|
#05101:00
|
||
|
|
#05101:000L000L
|
||
|
|
#05101:00
|
||
|
|
#05101:00
|
||
|
|
#05101:0001000100010001
|
||
|
|
#05101:02030203020302030003020302030203
|
||
|
|
#05101:00
|
||
|
|
#05101:00
|
||
|
|
#05101:007I007Y007H007I007I007Y7I7H7Y7I
|
||
|
|
#05106:030405060708090A0B0C0D0E0F0G0H0I030405060708090A0B0C0D0E0F0G0H0I
|
||
|
|
#05111:71007172007H0000
|
||
|
|
#05112:007200007H2M0075
|
||
|
|
#05113:5R005R7Y2R007400
|
||
|
|
#05114:005S7I2P00730000
|
||
|
|
#05115:007H2Q000200005V
|
||
|
|
#05118:7H2T0000005U0000
|
||
|
|
#05119:2S00005T00000000
|
||
|
|
|
||
|
|
#05201:00
|
||
|
|
#05201:00
|
||
|
|
#05201:00
|
||
|
|
#05201:00
|
||
|
|
#05201:04040404
|
||
|
|
#05201:00
|
||
|
|
#05201:00
|
||
|
|
#05201:000H000H000H000H000H000H0000000H
|
||
|
|
#05201:0F0F0F0F0F0F000F
|
||
|
|
#05201:0001000100010001
|
||
|
|
#05201:00030203000300030003000302030203
|
||
|
|
#05201:00
|
||
|
|
#05201:00
|
||
|
|
#05201:007G7F7X007F007G007G007X0000007G
|
||
|
|
#05201:00
|
||
|
|
#05201:00
|
||
|
|
#05201:00
|
||
|
|
#05201:00
|
||
|
|
#05201:00
|
||
|
|
#05201:00
|
||
|
|
#05201:7677
|
||
|
|
#05206:030405060708090A0B0C0D0E0F0G0H0I030405060708090A0B0C0D0E0F0G0H0I
|
||
|
|
#05211:0200000200000F00
|
||
|
|
#05212:0000000002002Q0002000000000H0000
|
||
|
|
#05213:7F002T7X2T027G5V
|
||
|
|
#05214:5O0000007G0000007F002S00007F0000
|
||
|
|
#05215:005U0000007F3F7X
|
||
|
|
#05218:330000005S00000000000000003G0000
|
||
|
|
#05219:0000005T005U003H
|
||
|
|
|
||
|
|
#05301:00
|
||
|
|
#05301:00
|
||
|
|
#05301:00
|
||
|
|
#05301:00
|
||
|
|
#05301:00
|
||
|
|
#05301:00
|
||
|
|
#05301:00
|
||
|
|
#05301:00000000000H000H0000000H000H000H
|
||
|
|
#05301:000F0F0F00000F0F
|
||
|
|
#05301:0001000100010001
|
||
|
|
#05301:00000200020302030000020002030203
|
||
|
|
#05301:00
|
||
|
|
#05301:00
|
||
|
|
#05301:7J7K7J7Z7K7J7Z7K7L7M7L807M7L807M
|
||
|
|
#05301:00
|
||
|
|
#05301:00
|
||
|
|
#05301:00
|
||
|
|
#05301:00
|
||
|
|
#05301:00
|
||
|
|
#05301:00
|
||
|
|
#05301:7879
|
||
|
|
#05301:00
|
||
|
|
#05301:5W5X5Y5Z0060005Y
|
||
|
|
#05301:00
|
||
|
|
#05301:00
|
||
|
|
#05301:008J
|
||
|
|
#05301:00
|
||
|
|
#05301:00
|
||
|
|
#05301:00
|
||
|
|
#05301:00
|
||
|
|
#05301:0000008I
|
||
|
|
#05306:030405060708090A0B0C0D0E0F0G0H0I030405060708090A0B0C0D0E0F0G0H0I
|
||
|
|
#05311:0400040004000407
|
||
|
|
#05312:0203000H000000000000000000000000
|
||
|
|
#05313:0000000000000000020H000F00000000
|
||
|
|
#05314:0F0H0003000000000000000000000000
|
||
|
|
#05315:00000000000000000F03000300000000
|
||
|
|
#05316:0J0000000N000K00005I00000I000000
|
||
|
|
#05318:3B3C003B000000000000000000000000
|
||
|
|
#05319:00000000000000003D3E003D00000000
|
||
|
|
|
||
|
|
#05401:00
|
||
|
|
#05401:000D
|
||
|
|
#05401:00
|
||
|
|
#05401:00
|
||
|
|
#05401:00
|
||
|
|
#05401:00
|
||
|
|
#05401:00
|
||
|
|
#05401:00
|
||
|
|
#05401:00
|
||
|
|
#05401:00
|
||
|
|
#05401:00
|
||
|
|
#05401:00
|
||
|
|
#05401:00
|
||
|
|
#05401:00
|
||
|
|
#05401:00
|
||
|
|
#05401:00
|
||
|
|
#05401:00
|
||
|
|
#05401:00
|
||
|
|
#05401:00
|
||
|
|
#05401:00
|
||
|
|
#05401:7A
|
||
|
|
#05401:00
|
||
|
|
#05401:00
|
||
|
|
#05401:00
|
||
|
|
#05401:00
|
||
|
|
#05401:00
|
||
|
|
#05401:00
|
||
|
|
#05401:00
|
||
|
|
#05401:00
|
||
|
|
#05401:00
|
||
|
|
#05401:00
|
||
|
|
#05401:0R
|
||
|
|
#05403:5C
|
||
|
|
#05406:030405060708090A0B0C0D0E0F0G0H0I030405060708090A0B0C0D0E0F0G0H0I
|
||
|
|
#05411:08
|
||
|
|
#05414:89898989
|
||
|
|
#05416:0C
|
||
|
|
|
||
|
|
#05506:030405060708090A0B0C0D0E0F0G0H0I030405060708090A0B0C0D0E0F0G0H0I
|
||
|
|
#05512:8A8A8A8A
|
||
|
|
|
||
|
|
#05601:00
|
||
|
|
#05601:000D
|
||
|
|
#05606:030405060708090A0B0C0D0E0F0G0H0I030405060708090A0B0C0D0E0F0G0H0I
|
||
|
|
#05614:8B8B8B8B
|
||
|
|
|
||
|
|
#05701:00
|
||
|
|
#05701:00
|
||
|
|
#05701:00
|
||
|
|
#05701:00
|
||
|
|
#05701:00
|
||
|
|
#05701:00
|
||
|
|
#05701:00
|
||
|
|
#05701:00
|
||
|
|
#05701:00
|
||
|
|
#05701:00
|
||
|
|
#05701:00
|
||
|
|
#05701:00
|
||
|
|
#05701:00
|
||
|
|
#05701:00
|
||
|
|
#05701:00
|
||
|
|
#05701:00
|
||
|
|
#05701:00
|
||
|
|
#05701:00
|
||
|
|
#05701:00
|
||
|
|
#05701:00
|
||
|
|
#05701:00
|
||
|
|
#05701:00
|
||
|
|
#05701:00
|
||
|
|
#05701:00
|
||
|
|
#05701:00
|
||
|
|
#05701:00
|
||
|
|
#05701:00
|
||
|
|
#05701:00
|
||
|
|
#05701:00
|
||
|
|
#05701:00
|
||
|
|
#05701:008D
|
||
|
|
#05701:8H
|
||
|
|
#05706:030405060708090A0B0C0D0E0F0G0H0I030405060708090A0B0C0D0E0F0G0H0I
|
||
|
|
#05716:0000000000000000000B000000000000
|
||
|
|
#05718:8C8C8C8C
|
||
|
|
|
||
|
|
#05806:030405060708090A0B0C0D0E0F0G0H0I030405060708090A0B0C0D0E0F0G0H0I
|
||
|
|
#05811:04000004040000040004000404000000
|
||
|
|
#05813:89898989
|
||
|
|
#05814:000M000M
|
||
|
|
#05815:85858585
|
||
|
|
#05816:0C
|
||
|
|
#05818:0009000900090009
|
||
|
|
#05819:0E0E0E0E0E0E0E0E
|
||
|
|
|
||
|
|
#05906:030405060708090A0B0C0D0E0F0G0H0I030405060708090A0B0C0D0E0F0G0H0I
|
||
|
|
#05911:04000004040000040004000404000000
|
||
|
|
#05912:8A0000008A0000008A0000008A00000F
|
||
|
|
#05913:000M000M
|
||
|
|
#05914:86000000000000008600000000000000860000000000000086000000000H0000
|
||
|
|
#05918:000900090009000F
|
||
|
|
#05919:0E0E0E0E0E0E0E0E
|
||
|
|
|
||
|
|
#06001:00
|
||
|
|
#06001:00
|
||
|
|
#06001:00
|
||
|
|
#06001:00
|
||
|
|
#06001:00
|
||
|
|
#06001:00
|
||
|
|
#06001:00
|
||
|
|
#06001:00
|
||
|
|
#06001:00
|
||
|
|
#06001:00
|
||
|
|
#06001:00
|
||
|
|
#06001:000E0E0E0E0E0E0E
|
||
|
|
#06006:030405060708090A0B0C0D0E0F0G0H0I030405060708090A0B0C0D0E0F0G0H0I
|
||
|
|
#06011:04000004040000040004000404050400
|
||
|
|
#06012:00000000000000000M0000000000000000000000000000000M00000600000000
|
||
|
|
#06013:8B8B8B8B
|
||
|
|
#06014:0000000000000000000000000000000A
|
||
|
|
#06015:8700870087008709
|
||
|
|
#06016:0I
|
||
|
|
#06018:000A000A000A000A000A000A000A0000
|
||
|
|
#06019:0909090909090900
|
||
|
|
|
||
|
|
#06101:00040000
|
||
|
|
#06101:00008C04
|
||
|
|
#06101:8C8C008C
|
||
|
|
#06101:00
|
||
|
|
#06101:00
|
||
|
|
#06101:000M0000
|
||
|
|
#06101:00
|
||
|
|
#06101:00
|
||
|
|
#06101:00
|
||
|
|
#06101:00
|
||
|
|
#06101:00
|
||
|
|
#06101:0E0E0E0E0E0E0E0E
|
||
|
|
#06106:030405060708090A0B0C0D0E0F0G0H0I030405060708090A0B0C0D0E0F0G0H0I
|
||
|
|
#06111:0400000H0000000H0000000H0000000H0000000H0000000H0000000H0000000H
|
||
|
|
#06113:880F000F880F000F880F000F880F000F
|
||
|
|
#06115:000H0000000H0000000H0000000H0000000H0000000H0000000H0000000H0000
|
||
|
|
#06116:0000000M
|
||
|
|
#06119:0F000F040F000F040F040F040F000F00
|
||
|
|
|
||
|
|
#06201:00
|
||
|
|
#06201:00
|
||
|
|
#06201:00
|
||
|
|
#06201:00
|
||
|
|
#06201:00
|
||
|
|
#06201:00
|
||
|
|
#06201:00
|
||
|
|
#06201:00
|
||
|
|
#06201:00
|
||
|
|
#06201:00
|
||
|
|
#06201:00
|
||
|
|
#06201:00
|
||
|
|
#06201:00
|
||
|
|
#06201:7B0000007C7B7V7C0000000000000000
|
||
|
|
#06201:00
|
||
|
|
#06201:00
|
||
|
|
#06201:00
|
||
|
|
#06201:00
|
||
|
|
#06201:00
|
||
|
|
#06201:00
|
||
|
|
#06201:00
|
||
|
|
#06201:00
|
||
|
|
#06201:00
|
||
|
|
#06201:00
|
||
|
|
#06201:00
|
||
|
|
#06201:00
|
||
|
|
#06201:00
|
||
|
|
#06201:00
|
||
|
|
#06201:00
|
||
|
|
#06201:00
|
||
|
|
#06201:00
|
||
|
|
#06201:2A
|
||
|
|
#06203:B8
|
||
|
|
#06206:030405060708090A0B0C0D0E0F0G0H0I030405060708090A0B0C0D0E0F0G0H0I
|
||
|
|
#06211:00000000000000000000007V007B0042
|
||
|
|
#06212:007B00007B7B7C7V
|
||
|
|
#06213:007C007V00000000007C000040004000
|
||
|
|
#06214:08000000000051520000003Z003Z0000
|
||
|
|
#06215:0000400000000000410041000000007C
|
||
|
|
#06216:0C
|
||
|
|
#06218:003Z003Z00004Z50003Y000000000000
|
||
|
|
#06219:3Y
|
||
|
|
|
||
|
|
#06301:00
|
||
|
|
#06301:00
|
||
|
|
#06301:00
|
||
|
|
#06301:00
|
||
|
|
#06301:00
|
||
|
|
#06301:00
|
||
|
|
#06301:00
|
||
|
|
#06301:00
|
||
|
|
#06301:00
|
||
|
|
#06301:00
|
||
|
|
#06301:00
|
||
|
|
#06301:00
|
||
|
|
#06301:00
|
||
|
|
#06301:00007F007G7F7X7G007G007X7G7F7X7G
|
||
|
|
#06306:030405060708090A0B0C0D0E0F0G0H0I030405060708090A0B0C0D0E0F0G0H0I
|
||
|
|
#06311:00000000000000007F007F0000480000
|
||
|
|
#06312:4300000000004646
|
||
|
|
#06313:0040007X000000000040000000470000
|
||
|
|
#06314:0000000000000000550056000055000000000000000000004500000045000000
|
||
|
|
#06315:003Z00003Z3Z0000
|
||
|
|
#06318:7F00000000000000530054000053000000000000000000000000000000000000
|
||
|
|
#06319:007G003Y000000000000000000000000
|
||
|
|
|
||
|
|
#06401:00
|
||
|
|
#06401:00
|
||
|
|
#06401:00
|
||
|
|
#06401:00
|
||
|
|
#06401:00
|
||
|
|
#06401:00
|
||
|
|
#06401:00
|
||
|
|
#06401:00
|
||
|
|
#06401:00
|
||
|
|
#06401:00
|
||
|
|
#06401:00
|
||
|
|
#06401:00
|
||
|
|
#06401:00
|
||
|
|
#06401:007I7H00007H007I7H007H007I007Y7I
|
||
|
|
#06406:030405060708090A0B0C0D0E0F0G0H0I030405060708090A0B0C0D0E0F0G0H0I
|
||
|
|
#06411:0000000000004F00007I000000005700
|
||
|
|
#06412:0000007Y0000004G4G00007Y00000000
|
||
|
|
#06413:4C0000000000000000004E000000000000000000000000000000480000580000
|
||
|
|
#06414:00004E00000000000000480000000059
|
||
|
|
#06415:00004D00000000004D0000007Y0000000000460000000000460000000000005A
|
||
|
|
#06418:000000480000000000000000007H0000
|
||
|
|
#06419:7H0000007I0000000000004700000000
|
||
|
|
|
||
|
|
#06501:00
|
||
|
|
#06501:00
|
||
|
|
#06501:00
|
||
|
|
#06501:00
|
||
|
|
#06501:00
|
||
|
|
#06501:00
|
||
|
|
#06501:00
|
||
|
|
#06501:00
|
||
|
|
#06501:00
|
||
|
|
#06501:00
|
||
|
|
#06501:00
|
||
|
|
#06501:00
|
||
|
|
#06501:00
|
||
|
|
#06501:7N7O7N817O7N817O7P7Q7P827Q7P827Q
|
||
|
|
#06501:00
|
||
|
|
#06501:00
|
||
|
|
#06501:00
|
||
|
|
#06501:00
|
||
|
|
#06501:00
|
||
|
|
#06501:00
|
||
|
|
#06501:00
|
||
|
|
#06501:00
|
||
|
|
#06501:00
|
||
|
|
#06501:00
|
||
|
|
#06501:00
|
||
|
|
#06501:00
|
||
|
|
#06501:00
|
||
|
|
#06501:00
|
||
|
|
#06501:00
|
||
|
|
#06501:00
|
||
|
|
#06501:0G
|
||
|
|
#06506:030405060708090A0B0C0D0E0F0G0H0I030405060708090A0B0C0D0E0F0G0H0I
|
||
|
|
#06511:004E4E00000000000000000000000000
|
||
|
|
#06512:00464600004D4D000000000000000000
|
||
|
|
#06513:4H000000450000000048480043000000
|
||
|
|
#06514:42000000004I4I004200000000464A46
|
||
|
|
#06515:0000000043000000004H4H003Z000000
|
||
|
|
#06518:3Z0000004J0000004000000000424942
|
||
|
|
#06519:00004K4L
|
||
|
|
|
||
|
|
#06601:00
|
||
|
|
#06601:00
|
||
|
|
#06601:00
|
||
|
|
#06601:00
|
||
|
|
#06601:00
|
||
|
|
#06601:00
|
||
|
|
#06601:00
|
||
|
|
#06601:00
|
||
|
|
#06601:00
|
||
|
|
#06601:00
|
||
|
|
#06601:00
|
||
|
|
#06601:00
|
||
|
|
#06601:00
|
||
|
|
#06601:7B7C000000000000007C007V0000007C
|
||
|
|
#06606:030405060708090A0B0C0D0E0F0G0H0I030405060708090A0B0C0D0E0F0G0H0I
|
||
|
|
#06611:00004600000000000000000000470000
|
||
|
|
#06612:0000004700007V000000000040000000
|
||
|
|
#06613:004700004500007C00007B0000004500
|
||
|
|
#06614:00007B00004200007B00003Z007B0000
|
||
|
|
#06615:4500007V000043000040000000000042
|
||
|
|
#06618:000000007C0000400000410000007V00
|
||
|
|
#06619:00000000007B00003Z0000007C000000
|
||
|
|
|
||
|
|
#06701:00
|
||
|
|
#06701:00
|
||
|
|
#06701:00
|
||
|
|
#06701:00
|
||
|
|
#06701:00
|
||
|
|
#06701:00
|
||
|
|
#06701:00
|
||
|
|
#06701:00
|
||
|
|
#06701:00
|
||
|
|
#06701:00
|
||
|
|
#06701:00
|
||
|
|
#06701:00
|
||
|
|
#06701:00
|
||
|
|
#06701:7L007L000000007M0000000000000000
|
||
|
|
#06706:030405060708090A0B0C0D0E0F0G0H0I030405060708090A0B0C0D0E0F0G0H0I
|
||
|
|
#06711:000000003Z0000007L00004Q00008000
|
||
|
|
#06712:0042000000410000007M000000000000
|
||
|
|
#06713:0000008000003Y0000007L004R00007M
|
||
|
|
#06714:000043000000004L00000000004S0000
|
||
|
|
#06715:007M00007M0000004N00008000004T00
|
||
|
|
#06718:00000040007L0000004O00007M000000
|
||
|
|
#06719:430000000000800000004P00007L004U
|
||
|
|
|
||
|
|
#06801:00
|
||
|
|
#06801:00
|
||
|
|
#06801:00
|
||
|
|
#06801:00
|
||
|
|
#06801:00
|
||
|
|
#06801:00
|
||
|
|
#06801:00
|
||
|
|
#06801:00
|
||
|
|
#06801:00
|
||
|
|
#06801:00
|
||
|
|
#06801:00
|
||
|
|
#06801:00
|
||
|
|
#06801:00
|
||
|
|
#06801:007E7D7W7E7D7W7E000000000000007E
|
||
|
|
#06806:030405060708090A0B0C0D0E0F0G0H0I030405060708090A0B0C0D0E0F0G0H0I
|
||
|
|
#06811:000000000000007W
|
||
|
|
#06812:43000000000000000000007W007D0000
|
||
|
|
#06813:003Z004B003Z4B00004100007E000041
|
||
|
|
#06814:000000003Y3Y0000
|
||
|
|
#06815:7D00000000000000007E000000003Y00
|
||
|
|
#06818:003X003Y003X3Y000000004L004L0000
|
||
|
|
#06819:000000007D7D4N00
|
||
|
|
|
||
|
|
#06906:030405060708090A0B0C0D0E0F0G0H0I030405060708090A0B0C0D0E0F0G0H0I
|
||
|
|
#06911:3Y3Y3Y00
|
||
|
|
#06912:004L004L004L004L004L00007U000000
|
||
|
|
#06913:000000000000000000004N00007T007U
|
||
|
|
#06914:7R004N007S004N007T00004O00008400
|
||
|
|
#06915:007S0083007R007S007U00004P000000
|
||
|
|
#06916:00000000000B0000
|
||
|
|
#06918:000000000000000000007T00004Q004S
|
||
|
|
#06919:00007R00000083000000008400004T00
|
||
|
|
|
||
|
|
#07001:00
|
||
|
|
#07001:00
|
||
|
|
#07001:00
|
||
|
|
#07001:00
|
||
|
|
#07001:04040404
|
||
|
|
#07001:00
|
||
|
|
#07001:000L000L
|
||
|
|
#07001:00
|
||
|
|
#07001:00
|
||
|
|
#07001:0001000100010001
|
||
|
|
#07001:02030203020302030203020302030203
|
||
|
|
#07001:00
|
||
|
|
#07001:00
|
||
|
|
#07001:00
|
||
|
|
#07001:00
|
||
|
|
#07001:00
|
||
|
|
#07001:1S001U001S001S1T001S1T001S001U00
|
||
|
|
#07001:00
|
||
|
|
#07001:2B2C2D2E2F2C2G2C
|
||
|
|
#07001:8F8K8F008F8K8F008F8K8F008F8K0000
|
||
|
|
#07001:000000000000008E
|
||
|
|
#07001:00
|
||
|
|
#07001:00
|
||
|
|
#07001:00
|
||
|
|
#07001:00
|
||
|
|
#07001:00
|
||
|
|
#07001:00
|
||
|
|
#07001:00
|
||
|
|
#07001:00
|
||
|
|
#07001:00
|
||
|
|
#07001:00
|
||
|
|
#07001:0S
|
||
|
|
#07006:030405060708090A0B0C0D0E0F0G0H0I030405060708090A0B0C0D0E0F0G0H0I
|
||
|
|
#07011:4500457C
|
||
|
|
#07012:00000000007B007C00004300007B0000
|
||
|
|
#07013:000040007C004000004200003Z000000
|
||
|
|
#07014:003Z003Z000000007B00004000007V00
|
||
|
|
#07015:7B000000003Z003Z00007B000041007C
|
||
|
|
#07016:0C
|
||
|
|
#07018:007C007V00000000007C000000003Y00
|
||
|
|
#07019:00007B0041007V000000007V0000004L
|
||
|
|
|
||
|
|
#07101:00
|
||
|
|
#07101:00
|
||
|
|
#07101:00
|
||
|
|
#07101:00
|
||
|
|
#07101:04040404
|
||
|
|
#07101:00
|
||
|
|
#07101:000L000L
|
||
|
|
#07101:00
|
||
|
|
#07101:00
|
||
|
|
#07101:0001000100010001
|
||
|
|
#07101:02030203020302030203020302030203
|
||
|
|
#07101:00
|
||
|
|
#07101:00
|
||
|
|
#07101:00000000000000000000007X00000000
|
||
|
|
#07101:00
|
||
|
|
#07101:00
|
||
|
|
#07101:1P001R001P001P1Q001P1Q001P001R00
|
||
|
|
#07101:00
|
||
|
|
#07101:2B2C2D2E2F2C2G2C
|
||
|
|
#07101:8F008K008F0000008F008K008G8L8G8L8F0000008K0000008F008K0000000000
|
||
|
|
#07101:000000000000008E
|
||
|
|
#07106:030405060708090A0B0C0D0E0F0G0H0I030405060708090A0B0C0D0E0F0G0H0I
|
||
|
|
#07111:0000007X000000004V00000047000000
|
||
|
|
#07112:00007F0000000042004G000000007X00
|
||
|
|
#07113:007G0040000040007F00000000450000
|
||
|
|
#07114:7F003Z000041007G00004E007G00007G
|
||
|
|
#07115:004100003Y007X00007G000000004200
|
||
|
|
#07118:3Y000000007F000000000048007F0000
|
||
|
|
#07119:000000007G00000000007F0000000040
|
||
|
|
|
||
|
|
#07201:00
|
||
|
|
#07201:00
|
||
|
|
#07201:00
|
||
|
|
#07201:00
|
||
|
|
#07201:04040404
|
||
|
|
#07201:00
|
||
|
|
#07201:000L000L
|
||
|
|
#07201:00
|
||
|
|
#07201:00
|
||
|
|
#07201:0001000100010001
|
||
|
|
#07201:02030203020302030203020302030203
|
||
|
|
#07201:00
|
||
|
|
#07201:00
|
||
|
|
#07201:7H7I7H7Y7I7H7Y7I7H7I7H000000007I
|
||
|
|
#07201:00
|
||
|
|
#07201:00
|
||
|
|
#07201:1M001O001M001M1N001M1N001M001O00
|
||
|
|
#07201:00
|
||
|
|
#07201:2B2C2D2E2F2C2G2C
|
||
|
|
#07201:8F8K8F008F8K8F008F8K8F008F8K0000
|
||
|
|
#07201:000000000000008E
|
||
|
|
#07206:030405060708090A0B0C0D0E0F0G0H0I030405060708090A0B0C0D0E0F0G0H0I
|
||
|
|
#07211:00000000000000420000007Y00000000
|
||
|
|
#07212:5G005H00005G00000000000000000000000000003Y0000007I00000000000000
|
||
|
|
#07213:00000000002L00000000004L007H0000
|
||
|
|
#07214:000000003Z00003Z000000004P007Y00
|
||
|
|
#07215:5E005F00005E00000000000000000000000000000000000000005B0000000000
|
||
|
|
#07218:000000000000000000002R000000000000000000000000000000005C00000000
|
||
|
|
#07219:00003Y000000005D
|
||
|
|
|
||
|
|
#07301:00
|
||
|
|
#07301:00
|
||
|
|
#07301:00
|
||
|
|
#07301:00
|
||
|
|
#07301:04040404
|
||
|
|
#07301:00
|
||
|
|
#07301:000L000L
|
||
|
|
#07301:00
|
||
|
|
#07301:0000000000000000000000000000007Q
|
||
|
|
#07301:0001000100010001
|
||
|
|
#07301:02030203020302030203020302030203
|
||
|
|
#07301:00
|
||
|
|
#07301:00
|
||
|
|
#07301:7N7O7N817O7N817O7P7Q7P8200000000
|
||
|
|
#07301:00
|
||
|
|
#07301:00
|
||
|
|
#07301:1V001X001V001V1W001P1Q001P001R00
|
||
|
|
#07301:00
|
||
|
|
#07301:2B2C2D2E2F2C2G2C
|
||
|
|
#07301:8F008K008F0000008F008K008G8L8G8L8F0000008K00000000008K0000000000
|
||
|
|
#07301:000000000000008E
|
||
|
|
#07306:030405060708090A0B0C0D0E0F0G0H0I030405060708090A0B0C0D0E0F0G0H0I
|
||
|
|
#07311:004E4E00000000000000000000008200
|
||
|
|
#07312:00464600004D4D0000000000007P0049
|
||
|
|
#07313:4H000000450000000048480000003Z00
|
||
|
|
#07314:42000000004I4I0042000000004K0000
|
||
|
|
#07315:0000000043000000004H4H008F000000
|
||
|
|
#07318:3Z4J407Q
|
||
|
|
#07319:00004K4L
|
||
|
|
|
||
|
|
#07401:00
|
||
|
|
#07401:00
|
||
|
|
#07401:00
|
||
|
|
#07401:00
|
||
|
|
#07401:04040404
|
||
|
|
#07401:00
|
||
|
|
#07401:000L000L
|
||
|
|
#07401:00
|
||
|
|
#07401:00
|
||
|
|
#07401:0001000100010001
|
||
|
|
#07401:02030203020302030203020302030203
|
||
|
|
#07401:00
|
||
|
|
#07401:00
|
||
|
|
#07401:7B007B007C007V7C007C7B007C007V00
|
||
|
|
#07401:00
|
||
|
|
#07401:00
|
||
|
|
#07401:00
|
||
|
|
#07401:00
|
||
|
|
#07401:2B2C2D2E2F2C2G2C
|
||
|
|
#07401:8F8K8F008F8K8F008F8K8F008F8K0000
|
||
|
|
#07401:000000000000008E
|
||
|
|
#07406:030405060708090A0B0C0D0E0F0G0H0I030405060708090A0B0C0D0E0F0G0H0I
|
||
|
|
#07411:1S0000001S001S00001S00001S000000
|
||
|
|
#07412:00001U000000001T00001T0000001U00
|
||
|
|
#07413:007C007V000043007B00007V0047007C
|
||
|
|
#07414:00004600007B00400000000040004500
|
||
|
|
#07415:00000047000000000040003Z00000042
|
||
|
|
#07418:00470000450000000000410000000000
|
||
|
|
#07419:45000000004200003Z000000007B0000
|
||
|
|
|
||
|
|
#07501:00
|
||
|
|
#07501:00
|
||
|
|
#07501:00
|
||
|
|
#07501:00
|
||
|
|
#07501:04040404
|
||
|
|
#07501:00
|
||
|
|
#07501:000L000L
|
||
|
|
#07501:00
|
||
|
|
#07501:00
|
||
|
|
#07501:0001000100010001
|
||
|
|
#07501:02030203020302030203020302030203
|
||
|
|
#07501:00
|
||
|
|
#07501:00
|
||
|
|
#07501:7L007L007M00807M007M7L007M008000
|
||
|
|
#07501:00
|
||
|
|
#07501:00
|
||
|
|
#07501:00
|
||
|
|
#07501:00
|
||
|
|
#07501:2B2C2D2E2F2C2G2C
|
||
|
|
#07501:8F008K008F0000008F008K008G8L8G8L8F0000008K0000008F008K0000000000
|
||
|
|
#07501:000000000000008E
|
||
|
|
#07506:030405060708090A0B0C0D0E0F0G0H0I030405060708090A0B0C0D0E0F0G0H0I
|
||
|
|
#07511:00420080000000007L0000004R000000
|
||
|
|
#07512:1Y0000001Y003Y00001Y00001Y00007M
|
||
|
|
#07513:00002000007L001Z00001Z00007L0000
|
||
|
|
#07514:0000430000001Y004N000080004S0000
|
||
|
|
#07515:007M00400000004L004O000000004T00
|
||
|
|
#07518:43003Z00004P0020
|
||
|
|
#07519:00000000004100000000004Q0000004U
|
||
|
|
|
||
|
|
#07601:00
|
||
|
|
#07601:00
|
||
|
|
#07601:00
|
||
|
|
#07601:00
|
||
|
|
#07601:04040404
|
||
|
|
#07601:00
|
||
|
|
#07601:000L000L
|
||
|
|
#07601:00
|
||
|
|
#07601:00
|
||
|
|
#07601:0001000100010001
|
||
|
|
#07601:02030203020302030203020302030203
|
||
|
|
#07601:00
|
||
|
|
#07601:00
|
||
|
|
#07601:7D7E007W007D7W7E7D7E7D7W7E7D7W7E
|
||
|
|
#07601:00
|
||
|
|
#07601:00
|
||
|
|
#07601:00
|
||
|
|
#07601:00
|
||
|
|
#07601:2B2C2D2E2F2C2G2C
|
||
|
|
#07601:8F8K8F008F8K8F008F8K8F008F8K0000
|
||
|
|
#07601:000000000000008E
|
||
|
|
#07606:030405060708090A0B0C0D0E0F0G0H0I030405060708090A0B0C0D0E0F0G0H0I
|
||
|
|
#07611:21000000210021000021000021000000
|
||
|
|
#07612:0023000043224N23
|
||
|
|
#07613:000000007E00002200400000004O004O
|
||
|
|
#07614:007D00004B3Z3Y4P
|
||
|
|
#07615:003Z004B003Z4B0000410041004L004Q
|
||
|
|
#07618:43000000003Y004N
|
||
|
|
#07619:003X003Y003X3Y000000004L00000000
|
||
|
|
|
||
|
|
#07701:00
|
||
|
|
#07701:00
|
||
|
|
#07701:00240000
|
||
|
|
#07701:00
|
||
|
|
#07701:00
|
||
|
|
#07701:00
|
||
|
|
#07701:00
|
||
|
|
#07701:00
|
||
|
|
#07701:00
|
||
|
|
#07701:0001000100010001
|
||
|
|
#07701:02030203020302030203020302030203
|
||
|
|
#07701:00
|
||
|
|
#07701:00
|
||
|
|
#07701:7R007R007S00007S007U7T007U7T847U
|
||
|
|
#07701:00
|
||
|
|
#07701:00
|
||
|
|
#07701:00
|
||
|
|
#07701:00
|
||
|
|
#07701:2B2C2D2E2F2C2G2C
|
||
|
|
#07701:8F008K008F0000008F008K008G8L8G8L8F0000008K0000008F008K0000000000
|
||
|
|
#07701:000000000000008E
|
||
|
|
#07706:030405060708090A0B0C0D0E0F0G0H0I030405060708090A0B0C0D0E0F0G0H0I
|
||
|
|
#07711:0400042404000407
|
||
|
|
#07712:00002600007R00007T00008400000000
|
||
|
|
#07713:00004X00004X00004X00004X0000004K
|
||
|
|
#07714:007S00000L0000250000280027002900
|
||
|
|
#07715:004P00004P00004P00004P000L004X00
|
||
|
|
#07716:0J000N0K00000I00
|
||
|
|
#07718:240000830000830000270000004Y0000
|
||
|
|
#07719:4R00004R00004R00004R00004S000000
|
||
|
|
|
||
|
|
#07801:00
|
||
|
|
#07801:00
|
||
|
|
#07801:00
|
||
|
|
#07801:00
|
||
|
|
#07801:00
|
||
|
|
#07801:00
|
||
|
|
#07801:00
|
||
|
|
#07801:00
|
||
|
|
#07801:00
|
||
|
|
#07801:00
|
||
|
|
#07801:02030203020302000200020302030203
|
||
|
|
#07801:00
|
||
|
|
#07801:00
|
||
|
|
#07801:7B7C7B7V7C7B00007B007B7V7C7B7V7C
|
||
|
|
#07801:00
|
||
|
|
#07801:00
|
||
|
|
#07801:00
|
||
|
|
#07801:00
|
||
|
|
#07801:00
|
||
|
|
#07801:8F8K8F008F8K8F008F008F008F8K0000
|
||
|
|
#07801:00
|
||
|
|
#07801:00
|
||
|
|
#07801:453Z403Z413Z403Z454243403Z413Y4L
|
||
|
|
#07806:030405060708090A0B0C0D0E0F0G0H0I030405060708090A0B0C0D0E0F0G0H0I
|
||
|
|
#07811:0400042E042C0400
|
||
|
|
#07812:2B00001S001T008E
|
||
|
|
#07813:002C00012F012G00
|
||
|
|
#07814:00001U002D007V00008K000000001U00
|
||
|
|
#07815:1S0000001S00001T000300001S000000
|
||
|
|
#07816:0C
|
||
|
|
#07818:0000010000000003007C000000000100
|
||
|
|
#07819:000000000L00007C001S00000L002C00
|
||
|
|
|
||
|
|
#07901:00
|
||
|
|
#07901:00
|
||
|
|
#07901:00
|
||
|
|
#07901:00
|
||
|
|
#07901:00
|
||
|
|
#07901:00
|
||
|
|
#07901:00
|
||
|
|
#07901:00
|
||
|
|
#07901:00
|
||
|
|
#07901:00
|
||
|
|
#07901:02030203020300000200020302030203
|
||
|
|
#07901:00
|
||
|
|
#07901:00
|
||
|
|
#07901:7F7G7F7X7G7F7X007F007F7X7G7F7X7G
|
||
|
|
#07901:00
|
||
|
|
#07901:00
|
||
|
|
#07901:00
|
||
|
|
#07901:00
|
||
|
|
#07901:00
|
||
|
|
#07901:8F008K008F0000008F008K008G8L8G8L8F0000008K0000008F008K0000000000
|
||
|
|
#07901:00
|
||
|
|
#07901:00
|
||
|
|
#07901:3Y413Z403Y4140424V004E4847454240
|
||
|
|
#07906:030405060708090A0B0C0D0E0F0G0H0I030405060708090A0B0C0D0E0F0G0H0I
|
||
|
|
#07911:040000000400007G004G000004000000
|
||
|
|
#07912:0000000000000003007G00002G008E00
|
||
|
|
#07913:2B001R000000001Q0003000000001R00
|
||
|
|
#07914:1P0000001P000200001P00001P000000
|
||
|
|
#07915:002C002E041Q002C
|
||
|
|
#07918:00012D1P002C0001
|
||
|
|
#07919:00000L012F010L00
|
||
|
|
|
||
|
|
#08001:00
|
||
|
|
#08001:00
|
||
|
|
#08001:00
|
||
|
|
#08001:00
|
||
|
|
#08001:00
|
||
|
|
#08001:00
|
||
|
|
#08001:00
|
||
|
|
#08001:00
|
||
|
|
#08001:00
|
||
|
|
#08001:00
|
||
|
|
#08001:02030203020302030203020302030203
|
||
|
|
#08001:00
|
||
|
|
#08001:00
|
||
|
|
#08001:7H7I7H7Y7I7H7Y007H00007Y7I7H7Y7I
|
||
|
|
#08001:00
|
||
|
|
#08001:00
|
||
|
|
#08001:00
|
||
|
|
#08001:00
|
||
|
|
#08001:00
|
||
|
|
#08001:8F8K8F008F8K8F008F008F008F8K0000
|
||
|
|
#08001:00
|
||
|
|
#08001:00
|
||
|
|
#08001:000000000000000000003Y4L4P000000
|
||
|
|
#08001:5E005F00005E00003Y002R0000000000000000000000000000005B5C5D000000
|
||
|
|
#08001:5G005H00005G00003Z002L000000000000000000000000000000000000000000
|
||
|
|
#08006:030405060708090A0B0C0D0E0F0G0H0I030405060708090A0B0C0D0E0F0G0H0I
|
||
|
|
#08011:0400041M047H0400
|
||
|
|
#08012:001O002E001N001O
|
||
|
|
#08013:1M001M012F2C1M00
|
||
|
|
#08014:2B0000000000003Z0000010000008E00
|
||
|
|
#08015:00002C002D000042008K00002G000000
|
||
|
|
#08018:000001000000007I007I000000000100
|
||
|
|
#08019:000000000L00001N001M00000L002C00
|
||
|
|
|
||
|
|
#08101:00
|
||
|
|
#08101:00
|
||
|
|
#08101:00
|
||
|
|
#08101:00
|
||
|
|
#08101:04040404
|
||
|
|
#08101:00
|
||
|
|
#08101:000L000L
|
||
|
|
#08101:00
|
||
|
|
#08101:00
|
||
|
|
#08101:0001000100010001
|
||
|
|
#08101:02030203020302030203020302030203
|
||
|
|
#08101:00
|
||
|
|
#08101:00
|
||
|
|
#08101:7N7O7N817O7N817O7P7Q7P827Q7P827Q
|
||
|
|
#08101:00
|
||
|
|
#08101:00
|
||
|
|
#08101:1V001X001V001V1W001P1Q001P001R00
|
||
|
|
#08101:00
|
||
|
|
#08101:2B2C2D2E2F2C2G2C
|
||
|
|
#08101:8F008K008F0000008F008K008G8L8G8L8F0000008K0000008F008K0000000000
|
||
|
|
#08101:000000000000008E
|
||
|
|
#08106:030405060708090A0B0C0D0E0F0G0H0I030405060708090A0B0C0D0E0F0G0H0I
|
||
|
|
#08111:4C00460000000042
|
||
|
|
#08112:004G0000004500000000004000440045
|
||
|
|
#08113:4E4E0042003Z3W00
|
||
|
|
#08114:0048004800000040003X003X00000040
|
||
|
|
#08115:004642004L4L003Z
|
||
|
|
#08118:000000450040003X004O0000003Y0000
|
||
|
|
#08119:0000003Z4P004L00
|
||
|
|
|
||
|
|
#08201:00
|
||
|
|
#08201:00
|
||
|
|
#08201:00
|
||
|
|
#08201:00
|
||
|
|
#08201:00
|
||
|
|
#08201:00
|
||
|
|
#08201:00
|
||
|
|
#08201:00
|
||
|
|
#08201:00
|
||
|
|
#08201:00
|
||
|
|
#08201:02030203020302000203020302030203
|
||
|
|
#08201:00
|
||
|
|
#08201:00
|
||
|
|
#08201:7B7C7B7V7C7B7V007B00007V7C7B7V7C
|
||
|
|
#08201:00
|
||
|
|
#08201:00
|
||
|
|
#08201:1S1U1S1S001T1S1U
|
||
|
|
#08201:00
|
||
|
|
#08201:00
|
||
|
|
#08201:8F8K8F008F8K8F008F8K8F008F8K0000
|
||
|
|
#08206:030405060708090A0B0C0D0E0F0G0H0I030405060708090A0B0C0D0E0F0G0H0I
|
||
|
|
#08211:0400042E04010400
|
||
|
|
#08212:0040000000003Y004N004N002G008E00
|
||
|
|
#08213:3Z3Z00012F2C4P00
|
||
|
|
#08214:000000410041004L00007B00004Q004Q
|
||
|
|
#08215:2B0000003Y00007C001S000000002C00
|
||
|
|
#08218:00002C000L00001T007C00000L004S00
|
||
|
|
#08219:000001002D000003004L004O00000100
|
||
|
|
|
||
|
|
#08301:00
|
||
|
|
#08301:0000001Y00000000
|
||
|
|
#08301:00
|
||
|
|
#08301:00
|
||
|
|
#08301:00
|
||
|
|
#08301:00
|
||
|
|
#08301:00
|
||
|
|
#08301:00
|
||
|
|
#08301:00
|
||
|
|
#08301:00
|
||
|
|
#08301:02030203020302030200020302030203
|
||
|
|
#08301:00
|
||
|
|
#08301:00
|
||
|
|
#08301:7L7M7L807M7L00007L007L807M7L807M
|
||
|
|
#08301:00
|
||
|
|
#08301:00
|
||
|
|
#08301:1Y201Y00001Z1Y20
|
||
|
|
#08301:00
|
||
|
|
#08301:00
|
||
|
|
#08301:8F008K008F0000008F008K008G8L8G8L8F0000008K0000008F008K0000000000
|
||
|
|
#08306:030405060708090A0B0C0D0E0F0G0H0I030405060708090A0B0C0D0E0F0G0H0I
|
||
|
|
#08311:040000000400001Z0003000004000000
|
||
|
|
#08312:0000004O004P003Y007M00002G008E00
|
||
|
|
#08313:2B0001000000007M001Y004W00002C00
|
||
|
|
#08314:00004P0000008000000300004P000100
|
||
|
|
#08315:00002C004Q004O002S002C000000004O
|
||
|
|
#08318:004Q00000L00010004004P000L004P00
|
||
|
|
#08319:4R0000002D002E002F000100004Q0000
|
||
|
|
|
||
|
|
#08401:00
|
||
|
|
#08401:00
|
||
|
|
#08401:00
|
||
|
|
#08401:00
|
||
|
|
#08401:00
|
||
|
|
#08401:00
|
||
|
|
#08401:00
|
||
|
|
#08401:000H000H000H000H000H000H000H000H
|
||
|
|
#08401:0F0F0F0F0F0F0F0F
|
||
|
|
#08401:0001000100010001
|
||
|
|
#08401:02030203020302030203020302030203
|
||
|
|
#08401:00
|
||
|
|
#08401:00
|
||
|
|
#08401:7D7E7D7W7E7D7W7E7D7E7D7W7E7D7W7E
|
||
|
|
#08401:00
|
||
|
|
#08401:00
|
||
|
|
#08401:21002300210021220021220021002300
|
||
|
|
#08401:00
|
||
|
|
#08401:00
|
||
|
|
#08401:8F8K8F008F8K8F008F8K8F008F8K0000
|
||
|
|
#08401:000000000000008E
|
||
|
|
#08406:030405060708090A0B0C0D0E0F0G0H0I030405060708090A0B0C0D0E0F0G0H0I
|
||
|
|
#08411:04040404
|
||
|
|
#08412:2B0000000000000043002C002G00004O
|
||
|
|
#08413:00002C0000002E00004000004N002C00
|
||
|
|
#08414:43002D004B3Z3Y4P
|
||
|
|
#08415:003Z004B003Z4B0000410041004O004Q
|
||
|
|
#08418:000000002F3Y004N
|
||
|
|
#08419:003X003Y003X3Y000000004L004L0000
|
||
|
|
|
||
|
|
#08501:00
|
||
|
|
#08501:00
|
||
|
|
#08501:00
|
||
|
|
#08501:00
|
||
|
|
#08501:00
|
||
|
|
#08501:00
|
||
|
|
#08501:00
|
||
|
|
#08501:00
|
||
|
|
#08501:00
|
||
|
|
#08501:0001000100010001
|
||
|
|
#08501:02030203020302030203020302030203
|
||
|
|
#08501:00
|
||
|
|
#08501:00
|
||
|
|
#08501:7R7S7R837S00837S7T007T007U7T847U
|
||
|
|
#08501:00
|
||
|
|
#08501:00
|
||
|
|
#08501:24002600240024250027280027002900
|
||
|
|
#08501:00
|
||
|
|
#08501:2B2C2D2E2F2C2G2C
|
||
|
|
#08501:8F008K008F0000008F008K008G8L8G8L8F0000008K0000008F008K0000000000
|
||
|
|
#08501:000000000000008E
|
||
|
|
#08506:030405060708090A0B0C0D0E0F0G0H0I030405060708090A0B0C0D0E0F0G0H0I
|
||
|
|
#08511:07000000000F00000700000F00000000
|
||
|
|
#08512:00000H00004X00004X00004X008M000F
|
||
|
|
#08513:004X4P000H0H070F
|
||
|
|
#08514:000F00000H00000F00004P00000H004K
|
||
|
|
#08515:004P000F007R004P000F00000H004X00
|
||
|
|
#08516:0J000J0K00000I00
|
||
|
|
#08518:0H00004R00000H00004R0084004Y0000
|
||
|
|
#08519:4R00000007004R00007U00004S000000
|
||
|
|
|
||
|
|
#08601:00
|
||
|
|
#08601:00
|
||
|
|
#08601:00
|
||
|
|
#08601:00
|
||
|
|
#08601:00
|
||
|
|
#08601:00
|
||
|
|
#08601:00
|
||
|
|
#08601:00
|
||
|
|
#08601:00
|
||
|
|
#08601:00
|
||
|
|
#08601:00
|
||
|
|
#08601:00
|
||
|
|
#08601:00
|
||
|
|
#08601:7B7C000000007B7C000000007B000000
|
||
|
|
#08606:030405060708090A0B0C0D0E0F0G0H0I030405060708090A0B0C0D0E0F0G0H0I
|
||
|
|
#08611:4G00000400000400
|
||
|
|
#08612:004800000000000000000000454M0000
|
||
|
|
#08613:0400460000000Z000000004000000045
|
||
|
|
#08614:0000004700000000000000000Z7C0000
|
||
|
|
#08615:0Z0000004500400000003Z000000003Z
|
||
|
|
#08616:0J00000J00000K00
|
||
|
|
#08618:000000000043003Z004100003Z3W0000
|
||
|
|
#08619:160000163Y001600
|
||
|
|
|
||
|
|
#08701:00
|
||
|
|
#08701:00
|
||
|
|
#08701:00
|
||
|
|
#08701:0D
|
||
|
|
#08701:00
|
||
|
|
#08701:00
|
||
|
|
#08701:00
|
||
|
|
#08701:00
|
||
|
|
#08701:00
|
||
|
|
#08701:00
|
||
|
|
#08701:00
|
||
|
|
#08701:00
|
||
|
|
#08701:00
|
||
|
|
#08701:7B7C000000007B7C000000007B000000
|
||
|
|
#08706:030405060708090A0B0C0D0E0F0G0H0I030405060708090A0B0C0D0E0F0G0H0I
|
||
|
|
#08711:4G00000400000400
|
||
|
|
#08712:004800000000000000000000454M0000
|
||
|
|
#08713:0400460000000Z000000004000000045
|
||
|
|
#08714:0000004700000000000000000Z7C0000
|
||
|
|
#08715:0Z0000004500400000003Z000000003Z
|
||
|
|
#08716:0J00000J00000K00
|
||
|
|
#08718:000000000043003Z004100003Z3W0000
|
||
|
|
#08719:160000163Y001600
|
||
|
|
|
||
|
|
#08801:00
|
||
|
|
#08801:00
|
||
|
|
#08801:8N
|
||
|
|
#08801:00
|
||
|
|
#08801:00000007
|
||
|
|
#08801:00
|
||
|
|
#08801:00
|
||
|
|
#08801:00
|
||
|
|
#08801:00
|
||
|
|
#08801:00
|
||
|
|
#08801:00
|
||
|
|
#08801:00
|
||
|
|
#08801:00
|
||
|
|
#08801:7B7C000000007B7C000000007B7C0000
|
||
|
|
#08806:030405060708090A0B0C0D0E0F0G0H0I030405060708090A0B0C0D0E0F0G0H0I
|
||
|
|
#08811:0400000400000Z00
|
||
|
|
#08812:0000004100000000005I0000454M0000
|
||
|
|
#08813:0Z00000000003Z000000004700000045
|
||
|
|
#08814:00003Y0000410040000045003Z4B0000
|
||
|
|
#08815:1600000000000Z00004000000000003Z
|
||
|
|
#08816:0J00000J00000K00
|
||
|
|
#08818:004L00003Y0000003Z0000003Y3X0000
|
||
|
|
#08819:4N00000000001600000000001600003Y
|
||
|
|
|
||
|
|
#08906:030405060708090A0B0C0D0E0F0G0H0I030405060708090A0B0C0D0E0F0G0H0I
|
||
|
|
#08911:08
|
||
|
|
#08913:2I
|
||
|
|
#08915:2M
|
||
|
|
#08916:0C
|
||
|
|
#08919:2P
|
||
|
|
|