Files
admin-d-j-nero-joker/Joker-XaaaCi.bme

2844 lines
57 KiB
Plaintext
Raw Normal View History

2026-01-30 16:10:38 +09:00
*---------------------- HEADER FIELD
#PLAYER 1
#GENRE RENAISSANCE
#TITLE Joker -XaaaCi-
#ARTIST D.J.Nero / obj.vese
#BPM 184
#PLAYLEVEL 12
#RANK 3
#TOTAL 410
#STAGEFILE title.jpg
#WAV01 opHH.wav
#WAV02 close.wav
#WAV03 close.wav
#WAV04 kickA.wav
#WAV05 kickB.wav
#WAV06 kickB.wav
#WAV07 kick32.wav
#WAV08 FXkick.wav
#WAV09 snare.wav
#WAV0A snare.wav
#WAV0B reverse.wav
#WAV0C SE1.wav
#WAV0D bell.wav
#WAV0E ride.wav
#WAV0F snare-Fill.wav
#WAV0G snare-Fill.wav
#WAV0H clashA.wav
#WAV0I clashB.wav
#WAV0J clashC.wav
#WAV0K clap.wav
#WAV0L clap-deep.wav
#WAV0M clashB.wav
#WAV0N bgm1.wav
#WAV0O bgm1.wav
#WAV0P bgm2.wav
#WAV0Q bgm2.wav
#WAV0R bgm3.wav
#WAV0S str01.wav
#WAV0T str01.wav
#WAV0U str02.wav
#WAV0V str03.wav
#WAV0W str03.wav
#WAV0X str04.wav
#WAV0Y str05.wav
#WAV0Z str-01.wav
#WAV10 str-01.wav
#WAV11 str-02.wav
#WAV12 str-03.wav
#WAV13 str-03.wav
#WAV14 str-04.wav
#WAV15 str-05.wav
#WAV16 harp1.wav
#WAV17 harp2.wav
#WAV18 harp3.wav
#WAV19 harp4.wav
#WAV1A harp5.wav
#WAV1B harp6.wav
#WAV1C harp16-01.wav
#WAV1D harp16-02.wav
#WAV1E harp16-03.wav
#WAV1F harp16-04.wav
#WAV1G harp16-05.wav
#WAV1H harp16-06.wav
#WAV1I core1.wav
#WAV1J core1.wav
#WAV1K core1b.wav
#WAV1L core2.wav
#WAV1M core2.wav
#WAV1N core2b.wav
#WAV1O core3.wav
#WAV1P core3.wav
#WAV1Q core3b.wav
#WAV1R core4.wav
#WAV1S core4.wav
#WAV1T core4b.wav
#WAV1U core5.wav
#WAV1V core5.wav
#WAV1W core5b.wav
#WAV1X core6.wav
#WAV1Y core6.wav
#WAV1Z core6b.wav
#WAV20 core7.wav
#WAV21 core7.wav
#WAV22 core7b.wav
#WAV23 core8.wav
#WAV24 core8.wav
#WAV25 core8b.wav
#WAV26 core9.wav
#WAV27 core9.wav
#WAV28 core9b.wav
#WAV29 arp-bgm.wav
#WAV2A arp1.wav
#WAV2B arp2.wav
#WAV2C arp3.wav
#WAV2D arp4.wav
#WAV2E arp5.wav
#WAV2F arp6.wav
#WAV2G p-8-1.wav
#WAV2H p-8-2.wav
#WAV2I p-8-3.wav
#WAV2J p-8-4.wav
#WAV2K p-8-5.wav
#WAV2L p-8-6.wav
#WAV2M p-8-7.wav
#WAV2N p-8-8.wav
#WAV2O p-8-9.wav
#WAV2P p-8-10.wav
#WAV2Q p-8-11.wav
#WAV2R p-8-12.wav
#WAV2S p-8-13.wav
#WAV2T pA-1.wav
#WAV2U pA-2.wav
#WAV2V pA-2b.wav
#WAV2W pA-3.wav
#WAV2X pA-4.wav
#WAV2Y pA-4b.wav
#WAV2Z pA-5.wav
#WAV30 pA-6.wav
#WAV31 pA-7.wav
#WAV32 pA-8.wav
#WAV33 pA-9.wav
#WAV34 pA-10.wav
#WAV35 pA-11.wav
#WAV36 pA-12.wav
#WAV37 SE3.wav
#WAV38 pA-12b.wav
#WAV39 pA-13.wav
#WAV3A pA-13b.wav
#WAV3B pA-14.wav
#WAV3C pA-14b.wav
#WAV3D pA-15.wav
#WAV3E pA-15b.wav
#WAV3F p-16-1.wav
#WAV3G p-16-2.wav
#WAV3H p-16-3.wav
#WAV3I p-16-4.wav
#WAV3J p-16-5.wav
#WAV3K p-16-6.wav
#WAV3L p-16-7.wav
#WAV3M p-16-8.wav
#WAV3N p-16-9.wav
#WAV3O p-16-10.wav
#WAV3P p-16-11.wav
#WAV3Q p-16-12.wav
#WAV3R p-16-13.wav
#WAV3S p-16-14.wav
#WAV3T p-16-15.wav
#WAV3U p-16-16.wav
#WAV3V p-16-17.wav
#WAV3W ps-16-2.wav
#WAV3X ps-16-1.wav
#WAV3Y ps-16-1.wav
#WAV3Z ps-16-2.wav
#WAV40 ps-16-3.wav
#WAV41 ps-16-4.wav
#WAV42 ps-16-5.wav
#WAV43 ps-16-6.wav
#WAV44 ps-16-3.wav
#WAV45 ps-16-7.wav
#WAV46 ps-16-8.wav
#WAV47 ps-16-9.wav
#WAV48 ps-16-10.wav
#WAV49 ps-16-5.wav
#WAV4A ps-16-8.wav
#WAV4B ps-16-2.wav
#WAV4C ps-16-11.wav
#WAV4D ps-16-12.wav
#WAV4E ps-16-13.wav
#WAV4F ps-16-14.wav
#WAV4G ps-16-15.wav
#WAV4H ps-16-16.wav
#WAV4I ps-16-17.wav
#WAV4J ps-16-18.wav
#WAV4K ps-16-19.wav
#WAV4L ps-16-20.wav
#WAV4M ps-16-7.wav
#WAV4N ps-16-21.wav
#WAV4O ps-16-22.wav
#WAV4P ps-16-23.wav
#WAV4Q ps-16-24.wav
#WAV4R ps-16-25.wav
#WAV4S ps-16-26.wav
#WAV4T ps-16-27.wav
#WAV4U ps-16-28.wav
#WAV4V ps-16-29.wav
#WAV4W ps-16-30.wav
#WAV4X ps-16-23.wav
#WAV4Y ps-16-31.wav
#WAV4Z ps-32-1.wav
#WAV50 ps-32-1.wav
#WAV51 ps-32-1b.wav
#WAV52 ps-32-1b.wav
#WAV53 ps-32-2.wav
#WAV54 ps-32-2.wav
#WAV55 ps-32-2b.wav
#WAV56 ps-32-2b.wav
#WAV57 ps-32-3.wav
#WAV58 ps-32-4.wav
#WAV59 ps-32-5.wav
#WAV5A ps-32-6.wav
#WAV5B ps-32-7.wav
#WAV5C ps-32-8.wav
#WAV5D ps-32-9.wav
#WAV5E ps-32-10.wav
#WAV5F ps-32-10.wav
#WAV5G ps-32-10b.wav
#WAV5H ps-32-10b.wav
#WAV5I SE2.wav
#WAV5J chero 1.wav
#WAV5K chero 2.wav
#WAV5L chero 3.wav
#WAV5M chero 4.wav
#WAV5N chero 9.wav
#WAV5O chero 10.wav
#WAV5P chero 11.wav
#WAV5Q chero 12.wav
#WAV5R chero 13.wav
#WAV5S chero 14.wav
#WAV5T chero 15.wav
#WAV5U chero 16.wav
#WAV5V chero 17.wav
#WAV5W chero 18.wav
#WAV5X chero 19.wav
#WAV5Y chero 20.wav
#WAV5Z chero 21.wav
#WAV60 chero 22.wav
#WAV61 solo 1.wav
#WAV62 solo 2.wav
#WAV63 solo 3.wav
#WAV64 solo 4.wav
#WAV65 solo 5.wav
#WAV66 solo 6.wav
#WAV67 solo 7.wav
#WAV68 solo 8.wav
#WAV69 solo 9.wav
#WAV6A solo 10.wav
#WAV6B solo 11.wav
#WAV6C solo 12.wav
#WAV6D solo 13.wav
#WAV6E solo 14.wav
#WAV6F solo 15.wav
#WAV6G solo 16.wav
#WAV6H solo 17.wav
#WAV6I solo 18.wav
#WAV6J solo 19.wav
#WAV6K solo 20.wav
#WAV6L solo 21.wav
#WAV6M solo 22.wav
#WAV6N solo 23.wav
#WAV6O solo 24.wav
#WAV6P solo 25.wav
#WAV6Q solo 26.wav
#WAV6R solo 27.wav
#WAV6S solo 28.wav
#WAV6T solo 29.wav
#WAV6U solo 30.wav
#WAV6V solo 31.wav
#WAV6W solo 32.wav
#WAV6X solo 33.wav
#WAV6Y solo 34.wav
#WAV6Z solo 35.wav
#WAV70 solo 36.wav
#WAV71 solo 37.wav
#WAV72 solo 38.wav
#WAV73 solo 39.wav
#WAV74 solo 40.wav
#WAV75 solo 41.wav
#WAV76 solo 42.wav
#WAV77 solo 43.wav
#WAV78 solo 44.wav
#WAV79 solo 45.wav
#WAV7A solo 46.wav
#WAV7B bass1.wav
#WAV7C bass2.wav
#WAV7D bass3.wav
#WAV7E bass4.wav
#WAV7F bass5.wav
#WAV7G bass6.wav
#WAV7H bass7.wav
#WAV7I bass8.wav
#WAV7J bass9.wav
#WAV7K bass10.wav
#WAV7L bass11.wav
#WAV7M bass12.wav
#WAV7N bass13.wav
#WAV7O bass14.wav
#WAV7P bass15.wav
#WAV7Q bass16.wav
#WAV7R bass17.wav
#WAV7S bass18.wav
#WAV7T bass19.wav
#WAV7U bass20.wav
#WAV7V bass1.wav
#WAV7W bass3.wav
#WAV7X bass5.wav
#WAV7Y bass7.wav
#WAV7Z bass9.wav
#WAV80 bass11.wav
#WAV81 bass13.wav
#WAV82 bass15.wav
#WAV83 bass17.wav
#WAV84 bass19.wav
#WAV85 chero1.wav
#WAV86 chero2.wav
#WAV87 chero3.wav
#WAV88 chero4.wav
#WAV89 vio1.wav
#WAV8A vio2.wav
#WAV8B vio3.wav
#WAV8C vio4.wav
#WAV8D tim.wav
#WAV8E tanbarin.wav
#WAV8F suzu.wav
#WAV8G suzu32.wav
#WAV8H syuooo.wav
#WAV8I SE5.wav
#WAV8J horn.wav
#WAV8K suzu.wav
#WAV8L suzu32.wav
#WAV8M cym B.wav
#WAV8N cym C.wav
#WAV8O SE4.wav
#BMP01 joker.mpg
#BMP03 miss 01.bmp
#BMP04 miss 02.bmp
#BMP05 miss 03.bmp
#BMP06 miss 04.bmp
#BMP07 miss 05.bmp
#BMP08 miss 06.bmp
#BMP09 miss 07.bmp
#BMP0A miss 08.bmp
#BMP0B miss 09.bmp
#BMP0C miss 10.bmp
#BMP0D miss 11.bmp
#BMP0E miss 12.bmp
#BMP0F miss 13.bmp
#BMP0G miss 14.bmp
#BMP0H miss 15.bmp
#BMP0I miss 16.bmp
#DIFFICULTY 5
#BACKBMP logo.jpg
*---------------------- MAIN DATA FIELD
#00104:01
#00106:030405060708090A0B0C0D0E0F0G0H0I030405060708090A0B0C0D0E0F0G0H0I
#00116:000B000000000000
#00201:00
#00201:00
#00201:0400000000040000
#00201:00
#00201:00
#00201:00
#00201:00
#00201:00
#00201:00
#00201:00
#00201:00
#00201:00
#00201:00
#00201:007C007V7C7B7V7C7B7C7B7V7C7B7V7C
#00206:030405060708090A0B0C0D0E0F0G0H0I030405060708090A0B0C0D0E0F0G0H0I
#00212:0S0T000000000000
#00213:0000000U00000000
#00214:7B7B000000000000
#00215:0000001100000000
#00216:00000K00000K0000
#00218:0Z10000000000000
#00219:0000000400000000
#00301:0400000000040000
#00301:00
#00301:00
#00301:00
#00301:00
#00301:00
#00301:00
#00301:00
#00301:00
#00301:00
#00301:00
#00301:00
#00301:00
#00301:007C007V7C7B007C7B7C7B7V7C7B7V7C
#00306:030405060708090A0B0C0D0E0F0G0H0I030405060708090A0B0C0D0E0F0G0H0I
#00311:0000007V00000000
#00312:0V0W000000000000
#00313:0000000400000000
#00314:1213000000000000
#00315:0000000X00000000
#00316:00000K00000K0000
#00318:7B7B000000000000
#00319:0000001400000000
#00401:00
#00401:0000001100000000
#00401:00
#00401:00
#00401:00
#00401:00
#00401:00
#00401:00
#00401:00
#00401:00
#00401:00
#00401:00
#00401:00
#00401:7B7C7B7V7C7B7V7C7B7C7B7V7C7B7V7C
#00406:030405060708090A0B0C0D0E0F0G0H0I030405060708090A0B0C0D0E0F0G0H0I
#00411:0400000400040000
#00412:0S0T00000F00000F
#00413:00000F0F000F0F00
#00414:0F0F000000000000
#00415:000G000G000G000G000G0000000G0000
#00416:0J00000I000I0000
#00418:0Z001000000000000000000G0000000G
#00419:0000000U00000000
#00501:00
#00501:00
#00501:00
#00501:00
#00501:00
#00501:00
#00501:00
#00501:00
#00501:00
#00501:00
#00501:00
#00501:00
#00501:00
#00501:7B7C7B7V7C7B7V7C7B7C7B7V7C7B7V7C
#00506:030405060708090A0B0C0D0E0F0G0H0I030405060708090A0B0C0D0E0F0G0H0I
#00511:0400000400040000
#00512:00000G0000000G0000000G00000000000F00000000000G0000000G0000000004
#00513:0V000W0000000F000000000000000004
#00514:0000000000000000000000000000000000000G00000000000F00000000040000
#00515:1213000X00000004
#00516:0J00000I000I0000
#00518:000000000F00000G00000F000000000G
#00519:0F0F00140000000F
#00601:00
#00601:00
#00601:00
#00601:00
#00601:00
#00601:00
#00601:00
#00601:00
#00601:00
#00601:00
#00601:02030203020302030203020302030203
#00601:00
#00601:00
#00601:7B7C7B7V7C7B7V7C7B7C7B7V7C7B7V7C
#00601:00
#00601:00
#00601:00
#00601:00
#00601:00
#00601:00
#00601:00
#00601:00
#00601:00
#00601:00
#00601:00
#00601:00
#00601:00
#00601:00
#00601:00
#00601:00
#00601:00
#00601:0N
#00606:030405060708090A0B0C0D0E0F0G0H0I030405060708090A0B0C0D0E0F0G0H0I
#00611:04040404
#00612:0001000100010001
#00613:000K000K
#00614:2G000000002I002H
#00615:0000002H00002J00
#00616:0C
#00618:002H00002K000000
#00619:002I0000
#00701:00
#00701:00
#00701:00
#00701:00
#00701:00
#00701:00
#00701:00
#00701:00
#00701:00
#00701:00
#00701:02030203020302030203020302030203
#00701:00
#00701:00
#00701:7B7C7B7V7C7B7V7C7B7C7B7V7C7B7V7C
#00706:030405060708090A0B0C0D0E0F0G0H0I030405060708090A0B0C0D0E0F0G0H0I
#00711:04040404
#00712:0001000100010001
#00713:000K000K
#00714:000000000000002I
#00715:2G002J00002H0000
#00718:002I002K00002K00
#00719:002L
#00801:00
#00801:00
#00801:00
#00801:00
#00801:00
#00801:00
#00801:00
#00801:00
#00801:00
#00801:00
#00801:02030203020302030203020302030203
#00801:00
#00801:00
#00801:7D7E7D7W7E7D7W7E7D7E7D7W7E7D7W7E
#00806:030405060708090A0B0C0D0E0F0G0H0I030405060708090A0B0C0D0E0F0G0H0I
#00811:04040404
#00812:0001000100010001
#00813:000K000K
#00814:0000002H00000000
#00815:2J000000002K0000
#00818:002K00002M002L00
#00819:00002L000000002M
#00901:00
#00901:00
#00901:00
#00901:00
#00901:00
#00901:00
#00901:00
#00901:00
#00901:00
#00901:00
#00901:02030203020302030203020302030203
#00901:00
#00901:00
#00901:7D7E7D7W7E7D7W7E7D7E7D7W7E7D7W7E
#00906:030405060708090A0B0C0D0E0F0G0H0I030405060708090A0B0C0D0E0F0G0H0I
#00911:04040404
#00912:0001000100010001
#00913:000K000K
#00914:2H00002I0000002N
#00915:0000002I
#00918:00002K00002J0000
#00919:002L00002K000000
#01001:00
#01001:00
#01001:00
#01001:00
#01001:00
#01001:00
#01001:00
#01001:00
#01001:00
#01001:00
#01001:02030203020302030203020302030203
#01001:00
#01001:00
#01001:7F7G7F7X7G7F7X7G7F7G7F7X7G7F7X7G
#01006:030405060708090A0B0C0D0E0F0G0H0I030405060708090A0B0C0D0E0F0G0H0I
#01011:04040404
#01012:0001000100010001
#01013:000K000K
#01014:00000000002I002H
#01015:2G00002H00000000
#01018:002H00002K002J00
#01019:002I0000
#01101:00
#01101:00
#01101:00
#01101:00
#01101:00
#01101:00
#01101:00
#01101:00
#01101:00
#01101:00
#01101:02030203020302030203020302030203
#01101:00
#01101:00
#01101:7F7G7F7X7G7F7X7G7F7G7F7X7G7F7X7G
#01106:030405060708090A0B0C0D0E0F0G0H0I030405060708090A0B0C0D0E0F0G0H0I
#01111:04040404
#01112:0001000100010001
#01113:000K000K
#01114:000000000000002I
#01115:2G002J00002H0000
#01118:002I002K00002K00
#01119:002L
#01201:00
#01201:00
#01201:00
#01201:00
#01201:00
#01201:00
#01201:00
#01201:00
#01201:00
#01201:00
#01201:02030203020302030203020302030203
#01201:00
#01201:00
#01201:7B7C7B7V7C7B7V7C7B7C7B7V7C7B7V7C
#01206:030405060708090A0B0C0D0E0F0G0H0I030405060708090A0B0C0D0E0F0G0H0I
#01211:04040404
#01212:0001000100010001
#01213:000K000K
#01214:0000002H00000000
#01215:2J002L00002K0000
#01218:002K000000002L00
#01219:000000002M00002M
#01301:00
#01301:00
#01301:00
#01301:00
#01301:00
#01301:00
#01301:00
#01301:00
#01301:00
#01301:00
#01301:02030203020302030203020302030203
#01301:00
#01301:00
#01301:7B7C7B7V7C7B7V7C7B7C7B7V7C7B7V7C
#01306:030405060708090A0B0C0D0E0F0G0H0I030405060708090A0B0C0D0E0F0G0H0I
#01311:04040404
#01312:0001000100010001
#01313:2H0K000K
#01314:0000002I002J002N
#01315:002K002I
#01316:000000000000000000000000008M0000
#01318:002L00002K000000
#01401:00
#01401:00
#01401:00
#01401:00
#01401:00
#01401:00
#01401:00
#01401:00
#01401:00
#01401:00
#01401:02030203020302030203020302030203
#01401:00
#01401:00
#01401:7B7C7B7V7C7B7V7C7B7C7B7V7C7B7V7C
#01406:030405060708090A0B0C0D0E0F0G0H0I030405060708090A0B0C0D0E0F0G0H0I
#01411:2G040404
#01413:002H002H00000K00
#01414:00000000002I002H
#01415:042I002J
#01418:0001000100010001
#01419:000K2K00
#01501:00
#01501:00
#01501:00
#01501:00
#01501:00
#01501:00
#01501:00
#01501:00
#01501:00
#01501:00
#01501:02030203020302030203020302030203
#01501:00
#01501:00
#01501:7B7C7B7V7C7B7V7C7B7C7B7V7C7B7V7C
#01506:030405060708090A0B0C0D0E0F0G0H0I030405060708090A0B0C0D0E0F0G0H0I
#01511:2G040404
#01513:002I002K00000K00
#01514:00002J00002H002I
#01515:0400002K
#01518:0001000100010001
#01519:000K2L00
#01601:00
#01601:00
#01601:00
#01601:00
#01601:00
#01601:00
#01601:00
#01601:00
#01601:00
#01601:00
#01601:02030203020302030203020302030203
#01601:00
#01601:00
#01601:7D7E7D7W7E7D7W7E7D7E7D7W7E7D7W7E
#01606:030405060708090A0B0C0D0E0F0G0H0I030405060708090A0B0C0D0E0F0G0H0I
#01611:04040404
#01613:2J00000000010000
#01614:002K002H00000K00
#01615:00000K00002K0001
#01618:0001000100002L00
#01619:00002L002M00002M
#01701:00
#01701:00
#01701:00
#01701:00
#01701:00
#01701:00
#01701:00
#01701:00
#01701:00
#01701:00
#01701:02030203020302030203020302030203
#01701:00
#01701:00
#01701:7D7E7D7W7E7D7W7E7D7E7D7W7E7D7W7E
#01706:030405060708090A0B0C0D0E0F0G0H0I030405060708090A0B0C0D0E0F0G0H0I
#01711:04040404
#01713:2H000K000000002N
#01714:0001002I00002I00
#01715:00002K00002J0001
#01718:00002K0K
#01719:002L000100010000
#01801:00
#01801:00
#01801:00
#01801:00
#01801:00
#01801:00
#01801:00
#01801:00
#01801:00
#01801:00
#01801:02030203020302030203020302030203
#01801:00
#01801:00
#01801:7F7G7F7X7G7F7X7G7F7G7F7X7G7F7X7G
#01806:030405060708090A0B0C0D0E0F0G0H0I030405060708090A0B0C0D0E0F0G0H0I
#01811:2G040404
#01813:002H002H00000K00
#01814:04000000002I002H
#01815:002I002J
#01818:0001000100010001
#01819:000K2K00
#01901:00
#01901:00
#01901:00
#01901:00
#01901:00
#01901:00
#01901:00
#01901:00
#01901:00
#01901:00
#01901:02030203020302030203020302030203
#01901:00
#01901:00
#01901:7F7G7F7X7G7F7X7G7F7G7F7X7G7F7X7G
#01906:030405060708090A0B0C0D0E0F0G0H0I030405060708090A0B0C0D0E0F0G0H0I
#01911:2G040404
#01913:00000K00002H0000
#01914:002I000100000K00
#01915:04002J000001002I
#01918:0001002K00002K00
#01919:000000002L000001
#02001:00
#02001:00
#02001:00
#02001:00
#02001:00
#02001:00
#02001:00
#02001:00
#02001:00
#02001:00
#02001:02030203020302030203020302030203
#02001:00
#02001:00
#02001:7B7C7B7V7C7B7V7C7B7C7B7V7C7B7V7C
#02006:030405060708090A0B0C0D0E0F0G0H0I030405060708090A0B0C0D0E0F0G0H0I
#02011:04040404
#02013:0001002H00000K00
#02014:2J000K00002K0001
#02015:002K000100002L00
#02018:00002L0000010000
#02019:000000002M00002M
#02101:00
#02101:00
#02101:00
#02101:00
#02101:00
#02101:00
#02101:00
#02101:00
#02101:00
#02101:0000000000000001
#02101:02030203020302030203020302030203
#02101:00
#02101:00
#02101:7B7C7B7V7C7B7V7C7B7C7B7V7C7B7V7C
#02106:030405060708090A0B0C0D0E0F0G0H0I030405060708090A0B0C0D0E0F0G0H0I
#02111:04000504000400050400040005060000
#02112:0000000000000004
#02113:0000000001000000000000000100000000000000000000000K00000000040000
#02114:000000000K0000000000010000000004
#02115:2H00000000000000000000002I00000000000000000000002I00000000000004
#02116:0I000M0J00000H00
#02118:00002K00002J0000
#02119:002L00002K00002N
#02201:00
#02201:1I0K0000
#02201:00
#02201:00
#02201:00
#02201:00
#02201:00
#02201:00
#02201:00
#02201:0000000100010001
#02201:00030203020302030203020302030203
#02201:00
#02201:00
#02201:7B7C7B7V7C7B7V7C7B7C7B7V7C7B7V7C
#02201:00
#02201:00
#02201:00
#02201:00
#02201:8F8K8F008F8K8F008F8K8F008F8K0000
#02201:000000000000008E
#02201:00
#02201:00
#02201:00
#02201:00
#02201:00
#02201:00
#02201:00
#02201:00
#02201:00
#02201:00
#02201:00
#02201:0O
#02206:030405060708090A0B0C0D0E0F0G0H0I030405060708090A0B0C0D0E0F0G0H0I
#02211:04040404
#02212:00001K0000001I00001I000000001K00
#02213:16001I00001J1I00
#02214:000001000000001J000000000K000000
#02215:0000170017000017
#02216:0C
#02218:0200000000180000
#02219:00000019
#02301:000K000K
#02301:00
#02301:00
#02301:00
#02301:00
#02301:00
#02301:00
#02301:00
#02301:00
#02301:0001000100010001
#02301:02030203020302030203020302030203
#02301:00
#02301:00
#02301:7B7C7B7V7C7B7V7C7B7C7B7V7C7B7V7C
#02301:00
#02301:00
#02301:00
#02301:00
#02301:8F008K008F0000008F008K008G8L8G8L8F0000008K0000008F008K0000000000
#02301:000000000000008E
#02306:030405060708090A0B0C0D0E0F0G0H0I030405060708090A0B0C0D0E0F0G0H0I
#02311:04040404
#02312:00001K0000001I00001I000000001K00
#02313:1I0000000000001J000000001I000000
#02314:00001I00001J0000
#02315:0000001700001600
#02318:18181A00
#02319:0019000000000000
#02401:000K000K
#02401:00
#02401:00
#02401:00
#02401:00
#02401:00
#02401:00
#02401:00
#02401:00
#02401:0001000100010001
#02401:02030203020302030203020302030203
#02401:00
#02401:00
#02401:7D7E7D7W7E7D7W7E7D7E7D7W7E7D7W7E
#02401:00
#02401:00
#02401:00
#02401:00
#02401:8F8K8F008F8K8F008F8K8F008F8K0000
#02401:000000000000008E
#02406:030405060708090A0B0C0D0E0F0G0H0I030405060708090A0B0C0D0E0F0G0H0I
#02411:04040404
#02412:00001N0000001L00001L000000001N00
#02413:1L0000000000001M000000001L000000
#02414:00001L00001M0000
#02415:1617
#02418:0000170000180017
#02419:00000019
#02501:000K000K
#02501:00
#02501:00
#02501:00
#02501:00
#02501:00
#02501:00
#02501:00
#02501:00
#02501:0001000100010001
#02501:02030203020302030203020302030203
#02501:00
#02501:00
#02501:7D7E7D7W7E7D7W7E7D7E7D7W7E7D7W7E
#02501:00
#02501:00
#02501:00
#02501:00
#02501:8F008K008F0000008F008K008G8L8G8L8F0000008K0000008F008K0000000000
#02501:000000000000008E
#02506:030405060708090A0B0C0D0E0F0G0H0I030405060708090A0B0C0D0E0F0G0H0I
#02511:04040404
#02512:0000000000001L00001L000000000000
#02513:001N1L001A001L00
#02514:1L0000170017001A
#02515:00180018
#02518:000019000000001M00001M0000000000
#02519:1B0000000000001N
#02601:000K000K
#02601:00
#02601:00
#02601:00
#02601:00
#02601:00
#02601:00
#02601:00
#02601:00
#02601:0001000100010001
#02601:02030203020302030203020302030203
#02601:00
#02601:00
#02601:7F7G7F7X7G7F7X7G7F7G7F7X7G7F7X7G
#02601:00
#02601:00
#02601:00
#02601:00
#02601:8F8K8F008F8K8F008F8K8F008F8K0000
#02601:000000000000008E
#02606:030405060708090A0B0C0D0E0F0G0H0I030405060708090A0B0C0D0E0F0G0H0I
#02611:04040404
#02612:00001Q0000001O00001O000000001Q00
#02613:1600001O
#02614:0000170017000017
#02615:1O00000000180000
#02618:001O0019
#02619:000000000000001P00001P0000000000
#02701:000K000K
#02701:00
#02701:00
#02701:00
#02701:00
#02701:00
#02701:00
#02701:00
#02701:00
#02701:0001000100010001
#02701:02030203020302030203020302030203
#02701:00
#02701:00
#02701:7F7G7F7X7G7F7X7G7F7G7F7X7G7F7X7G
#02701:00
#02701:00
#02701:00
#02701:00
#02701:8F008K008F0000008F008K008G8L8G8L8F0000008K0000008F008K0000000000
#02701:000000000000008E
#02706:030405060708090A0B0C0D0E0F0G0H0I030405060708090A0B0C0D0E0F0G0H0I
#02711:04040404
#02712:001Q0000001C001F
#02713:1O0000001O0000001C00001D00000000
#02714:0000001700001E00
#02715:1800000018000000001O000000001Q00
#02718:0019001O00001O00
#02719:000000000000001P00001P0000000000
#02801:000K000K
#02801:00
#02801:00
#02801:00
#02801:00
#02801:00
#02801:00
#02801:00
#02801:00
#02801:0001000100010001
#02801:02030203020302030203020302030203
#02801:00
#02801:00
#02801:7B7C7B7V7C7B7V7C7B7C7B7V7C7B7V7C
#02801:00
#02801:00
#02801:00
#02801:00
#02801:8F8K8F008F8K8F008F8K8F008F8K0000
#02801:000000000000008E
#02806:030405060708090A0B0C0D0E0F0G0H0I030405060708090A0B0C0D0E0F0G0H0I
#02811:04040404
#02812:0000000000000000001R000000001T00
#02813:1600001R
#02814:0000001R001S0000
#02815:0000170017000017
#02818:00001T000000001S0000180000000000
#02819:1R1R0019
#02901:000K000K
#02901:00
#02901:00
#02901:00
#02901:00
#02901:00
#02901:00
#02901:00
#02901:00
#02901:0001000100010001
#02901:02030203020302030203020302030203
#02901:00
#02901:00
#02901:7B7C7B7V7C7B7V7C7B7C7B7V7C7B7V7C
#02901:00
#02901:00
#02901:00
#02901:00
#02901:8F008K008F0000008F008K008G8L8G8L8F0000008K0000008F008K0000000000
#02901:000000000000008E
#02906:030405060708090A0B0C0D0E0F0G0H0I030405060708090A0B0C0D0E0F0G0H0I
#02911:04040404
#02912:001T000000000000
#02913:001R1A00
#02914:1R00001D0017001A
#02915:000000001E000000001R000018000000
#02916:000000000000000000000000008M0000
#02918:0000001H00001R0000001S0000001T00
#02919:1G001G000000001S000000001R000000
#03001:0000000000020002
#03001:00
#03001:00
#03001:00
#03001:04040404
#03001:00
#03001:000K000K
#03001:00
#03001:00
#03001:0001000100010001
#03001:00
#03001:00
#03001:00
#03001:7B7C7B7V7C7B7V7C7B7C7B7V7C7B7V7C
#03001:00
#03001:00
#03001:00
#03001:00
#03001:8F8K8F008F8K8F008F8K8F008F8K0000
#03001:000000000000008E
#03006:030405060708090A0B0C0D0E0F0G0H0I030405060708090A0B0C0D0E0F0G0H0I
#03011:1I0000001I001I00001I00001I000000
#03012:00001K000000001J00001J0000001K00
#03013:00000003000000000200000300000003
#03014:16000200000300030003000000030000
#03015:00030000020000001700000002001700
#03018:0000000200180000
#03019:02170019
#03101:0000000200000000
#03101:00
#03101:00
#03101:00
#03101:04040404
#03101:00
#03101:000K000K
#03101:00
#03101:00
#03101:0001000100010001
#03101:00
#03101:00
#03101:00
#03101:7B7C7B7V7C7B7V7C7B7C7B7V7C7B7V7C
#03101:00
#03101:00
#03101:00
#03101:00
#03101:8F008K008F0000008F008K008G8L8G8L8F0000008K0000008F008K0000000000
#03101:000000000000008E
#03106:030405060708090A0B0C0D0E0F0G0H0I030405060708090A0B0C0D0E0F0G0H0I
#03111:1I0000001I001I00001I00001I000003
#03112:000300000000001J0000000000030000
#03113:001K0200021J001K
#03114:02000003000000030000000016000000
#03115:00000200000017000003000300000200
#03118:18181A02
#03119:00001900000300000000020000000000
#03201:0000000000000002
#03201:00
#03201:00
#03201:00
#03201:04040404
#03201:00
#03201:000K000K
#03201:00
#03201:00
#03201:0001000100010001
#03201:00
#03201:00
#03201:00
#03201:7D7E7D7W7E7D7W7E7D7E7D7W7E7D7W7E
#03201:00
#03201:00
#03201:00
#03201:00
#03201:8F8K8F008F8K8F008F8K8F008F8K0000
#03201:000000000000008E
#03206:030405060708090A0B0C0D0E0F0G0H0I030405060708090A0B0C0D0E0F0G0H0I
#03211:00000003000000030000020000030000
#03212:1L0000001L001L00001L00001L000000
#03213:00030000000300000200000300000000
#03214:16001N000000001M00001M0000001N00
#03215:00000000170000001700000002000003
#03218:0002000200180017
#03219:02000000020000000003000019000000
#03301:0000000000020000
#03301:00
#03301:00
#03301:00
#03301:04040404
#03301:00
#03301:000K000K
#03301:00
#03301:00
#03301:0001000100010001
#03301:00
#03301:00
#03301:00
#03301:7D7E7D7W7E7D7W7E7D7E7D7W7E7D7W7E
#03301:00
#03301:00
#03301:00
#03301:00
#03301:8F008K008F0000008F008K008G8L8G8L8F0000008K0000008F008K0000000000
#03301:000000000000008E
#03306:030405060708090A0B0C0D0E0F0G0H0I030405060708090A0B0C0D0E0F0G0H0I
#03311:1L00000300001L00001L000002000000
#03312:000300001L0000030000000300000200
#03313:02001N0000000200000300001L000003
#03314:000000000200001M00001M0000001N00
#03315:00000200000017001A00000000030000
#03318:000018000017001A
#03319:1B001900000300000200000018000000
#03401:0000000000020000
#03401:00
#03401:00
#03401:00
#03401:04040404
#03401:00
#03401:000K000K
#03401:00
#03401:00
#03401:0001000100010001
#03401:00
#03401:00
#03401:00
#03401:7F7G7F7X7G7F7X7G7F7G7F7X7G7F7X7G
#03401:00
#03401:00
#03401:00
#03401:00
#03401:8F8K8F008F8K8F008F8K8F008F8K0000
#03401:000000000000008E
#03406:030405060708090A0B0C0D0E0F0G0H0I030405060708090A0B0C0D0E0F0G0H0I
#03411:16000003000000001700000000030000
#03412:0003000000030000001O00001O001700
#03413:000000001O0000030000180000000003
#03414:1O001Q0000001O000000000300001Q00
#03415:000000001700001P00001P0002000000
#03418:00000200000002000003000000000200
#03419:02020219
#03501:00000002
#03501:00
#03501:00
#03501:00
#03501:04040404
#03501:00
#03501:000K000K
#03501:00
#03501:00
#03501:0001000100010001
#03501:00
#03501:00
#03501:00
#03501:7F7G7F7X7G7F7X7G7F7G7F7X7G7F7X7G
#03501:00
#03501:00
#03501:00
#03501:00
#03501:8F008K008F0000008F008K008G8L8G8L8F0000008K0000008F008K0000000000
#03501:000000000000008E
#03506:030405060708090A0B0C0D0E0F0G0H0I030405060708090A0B0C0D0E0F0G0H0I
#03511:02000003000000001C001C0000000000
#03512:000300001O001O000000001D00001F00
#03513:0000020000030003001O00001O000003
#03514:1O000000020017000000020000030000
#03515:00001Q000000001P0003000300001Q00
#03518:18001802001P1E00
#03519:0019000002000002
#03601:00000002
#03601:00
#03601:00
#03601:00
#03601:04040404
#03601:00
#03601:000K000K
#03601:00
#03601:00
#03601:0001000100010001
#03601:00
#03601:00
#03601:00
#03601:7B7C7B7V7C7B7V7C7B7C7B7V7C7B7V7C
#03601:00
#03601:00
#03601:00
#03601:00
#03601:8F8K8F008F8K8F008F8K8F008F8K0000
#03601:000000000000008E
#03606:030405060708090A0B0C0D0E0F0G0H0I030405060708090A0B0C0D0E0F0G0H0I
#03611:16000003000002000003000019000000
#03612:0000170017000017
#03613:0000020000001R000000180000000003
#03614:1R0000001R000003001R00001R000200
#03615:00030000000300000000020000030000
#03618:02001T000000001S0000000300001T00
#03619:00000200021S0000
#03701:00
#03701:00
#03701:00
#03701:00
#03701:00
#03701:00
#03701:000K000K
#03701:00
#03701:00
#03701:0001000100010001
#03701:02030203020302030000000000000203
#03701:00
#03701:00
#03701:7B7C7B7V7C7B7V7C7B7C7B7V7C7B7V7C
#03701:00
#03701:00
#03701:0000000000000000001R1S001R001T00
#03701:00
#03701:8F008K008F0000008F008K008G8L8G8L8F0000008K0000008F008K0000000000
#03701:000000000000008E
#03706:030405060708090A0B0C0D0E0F0G0H0I030405060708090A0B0C0D0E0F0G0H0I
#03711:04040404
#03712:0000000000000000000000001R00000000000300000000000000000000000004
#03713:00001T001R0000001A00020002000004
#03714:1R00000000000000000000001D00000000000000000003000000030000040000
#03715:00001E0000170004
#03716:0I000M0J00000H00
#03718:0000001H0000001S0000000018000000
#03719:1G1G00000200001A
#03801:00
#03801:00
#03801:00
#03801:00
#03801:00
#03801:00
#03801:0000000K
#03801:00
#03801:00
#03801:0001000000010001
#03801:00030203000300030203020302030203
#03801:00
#03801:00
#03801:007C7B7V7C7B7V7C7B7C7B7V7C7B7V7C
#03801:00
#03801:00
#03801:00
#03801:00
#03801:00
#03801:00
#03801:00
#03801:00
#03801:5J5K5J5K005L005M
#03801:00
#03801:00
#03801:00
#03801:00
#03801:00
#03801:00
#03801:00
#03801:00
#03801:0P
#03806:030405060708090A0B0C0D0E0F0G0H0I030405060708090A0B0C0D0E0F0G0H0I
#03811:04040404
#03813:7B00020100000000
#03814:02
#03815:2T000K0200000000
#03816:0C
#03819:61002U2V00000000
#03901:0000000000000K01
#03901:00
#03901:00
#03901:00
#03901:00
#03901:00
#03901:00
#03901:00
#03901:00
#03901:00
#03901:02030203020302030003020302030203
#03901:00
#03901:00
#03901:7B7C7B7V7C7B7V7C7B7C7B7V7C7B7V7C
#03901:00
#03901:00
#03901:00
#03901:00
#03901:00
#03901:00
#03901:00
#03901:00
#03901:5J5K5J5K005L005M
#03906:030405060708090A0B0C0D0E0F0G0H0I030405060708090A0B0C0D0E0F0G0H0I
#03911:04040404
#03913:2L2L
#03914:002O002O002O0000
#03915:620K0200
#03918:00000100000001000000010000000064
#03919:00002P0000000063
#04001:02000K0100000000
#04001:00
#04001:00
#04001:00
#04001:00
#04001:00
#04001:0000000K
#04001:00
#04001:00
#04001:0001000000000001
#04001:00030203000300030003020300000000
#04001:00
#04001:00
#04001:7F7G7F7X7G7F007G7F7G7F7X7G7F7X7G
#04001:00
#04001:00
#04001:00
#04001:00
#04001:00
#04001:00
#04001:00
#04001:00
#04001:5N5O5N5O005P005Q
#04006:030405060708090A0B0C0D0E0F0G0H0I030405060708090A0B0C0D0E0F0G0H0I
#04011:04000404
#04012:00000068
#04013:2W00000004007X000000670000690000
#04014:000000006600026A
#04015:650000002X002Y00000001000003006B
#04018:0000000002000002
#04019:00000000020002000000000000000003
#04101:00
#04101:00
#04101:00
#04101:00
#04101:00
#04101:00
#04101:000K0000
#04101:00
#04101:00
#04101:00
#04101:00030203020302030203020302030203
#04101:00
#04101:00
#04101:7F7G7F7X7G7F7X7G7F7G7F7X7G7F7X7G
#04101:00
#04101:00
#04101:00
#04101:00
#04101:00
#04101:00
#04101:00
#04101:00
#04101:5N5O5N5O005P005Q
#04106:030405060708090A0B0C0D0E0F0G0H0I030405060708090A0B0C0D0E0F0G0H0I
#04111:04040400
#04112:002Q0000002K0000
#04113:6C6D
#04114:2O01000100000400
#04115:002Q
#04118:0200002O00000K00
#04119:00002P0000010001
#04201:00
#04201:00
#04201:00
#04201:00
#04201:00
#04201:00
#04201:00
#04201:00
#04201:00
#04201:00
#04201:00030203020300030203020300030203
#04201:00
#04201:00
#04201:7H7I7H7Y7I7H7Y7I7H7I7H7Y7I7H7Y7I
#04201:00
#04201:00
#04201:00
#04201:00
#04201:00
#04201:00
#04201:00
#04201:00
#04201:5R5S5R5T005U005V
#04206:030405060708090A0B0C0D0E0F0G0H0I030405060708090A0B0C0D0E0F0G0H0I
#04211:04040404
#04212:0001000200010001
#04213:2Z0K000K
#04214:6E00003000000000
#04215:00000002
#04218:0200000100000000
#04219:00000031
#04301:00
#04301:00
#04301:00
#04301:00
#04301:00
#04301:00
#04301:000K0000
#04301:00
#04301:00
#04301:00
#04301:02030203020302030203020302030203
#04301:00
#04301:00
#04301:7H7I7H7Y7I7H7Y7I7H7I7H7Y7I7H7Y7I
#04301:00
#04301:00
#04301:00
#04301:00
#04301:00
#04301:00
#04301:00
#04301:00
#04301:5R5S5R5T005U005V
#04306:030405060708090A0B0C0D0E0F0G0H0I030405060708090A0B0C0D0E0F0G0H0I
#04311:04040404
#04312:00010001002L0000
#04313:6F002Q0K
#04314:0000002O00000000
#04315:00002P0000010001
#04318:002S000000000000
#04319:2R6G
#04401:00
#04401:00
#04401:00
#04401:00
#04401:00
#04401:00
#04401:00
#04401:00
#04401:00
#04401:00
#04401:00030203020302030003020302000203
#04401:00
#04401:00
#04401:7F7G7F7X7G7F7X7G7F7G7F7X7G7F7X7G
#04401:00
#04401:00
#04401:00
#04401:00
#04401:00
#04401:00
#04401:6H
#04401:00
#04401:5O5U5S5T005U005V
#04406:030405060708090A0B0C0D0E0F0G0H0I030405060708090A0B0C0D0E0F0G0H0I
#04411:04040404
#04412:0000002P00000000
#04413:002S2S0K
#04414:320000000000010000002R0000030000
#04415:00000K0002003F01
#04418:020000000000000000000100003G0000
#04419:000100000000003H
#04501:00
#04501:00
#04501:00
#04501:00
#04501:00
#04501:00
#04501:00
#04501:00
#04501:00
#04501:00
#04501:00030203020302030003020302030203
#04501:00
#04501:00
#04501:7J7K7J7Z7K7J7Z7K7L7M7L807M7L807M
#04501:00
#04501:00
#04501:00
#04501:00
#04501:00
#04501:00
#04501:6I6J
#04501:00
#04501:5W5X5Y5Z0060005Y
#04506:030405060708090A0B0C0D0E0F0G0H0I030405060708090A0B0C0D0E0F0G0H0I
#04511:04040404
#04513:020K020K
#04514:0001000100000000
#04515:0000000000010001
#04516:000000000000000000000000008M0000
#04518:33
#04519:0034
#04601:00
#04601:00
#04601:00
#04601:00
#04601:00040404
#04601:00
#04601:000K000K
#04601:00
#04601:00
#04601:0001000100010001
#04601:00
#04601:00
#04601:00
#04601:7B7C7B7V7C7B7V7C7B7C7B7V7C7B7V7C
#04601:00
#04601:00
#04601:00
#04601:00
#04601:00
#04601:00
#04601:6K6L6K6M6N6O0000
#04601:00
#04601:5J5K5J5K005L005M
#04606:030405060708090A0B0C0D0E0F0G0H0I030405060708090A0B0C0D0E0F0G0H0I
#04611:040000003I0000000000003P00000000
#04612:00000003003J0000000300003Q000000
#04613:0000000000003K0002000200003R003T
#04614:020000000200003L0000000300003S00
#04615:00000200000300003M00000002000000
#04618:3500000000000200003N000000030003
#04619:000300000000000300003O0000000200
#04701:00
#04701:6K
#04701:00
#04701:00
#04701:04040404
#04701:00
#04701:000K000K
#04701:00
#04701:00
#04701:0001000100010001
#04701:00
#04701:00
#04701:00
#04701:00007B7V7C7B7V7C7B7C7B7V7C7B7V7C
#04701:00
#04701:00
#04701:00
#04701:00
#04701:00
#04701:00
#04701:00
#04701:00
#04701:5J5K5J5K005L005M
#04706:030405060708090A0B0C0D0E0F0G0H0I030405060708090A0B0C0D0E0F0G0H0I
#04711:020300000000000000006O0000030003
#04712:000000006K0000006N00000300000000
#04713:00006L0000006M000003000000000200
#04714:7B7C0000020000000200000002000000
#04715:000200020002002L
#04718:00000000000300002O0000002Q000000
#04719:363800030000000300002P0000000000
#04801:00
#04801:00
#04801:00
#04801:00
#04801:00040400
#04801:00
#04801:000K0000
#04801:00
#04801:00
#04801:0001000100010000
#04801:0000000000000000000000000K030003
#04801:00
#04801:00
#04801:7F7G7F7X7G7F7X7G7F7G7F7X7G7F7X7G
#04801:00
#04801:00
#04801:00
#04801:00
#04801:00
#04801:00
#04801:6P6Q6R6S6T6U6V6W
#04801:00
#04801:5N5O5N5O005P005Q
#04806:030405060708090A0B0C0D0E0F0G0H0I030405060708090A0B0C0D0E0F0G0H0I
#04811:00003U00003N0000
#04812:0400023J00000401
#04813:000000023L020000
#04814:00000200003I00000200000002000200
#04815:390000000003003K0000000300000000
#04818:0003000300000003003M00003A003A00
#04819:02000000000000000003003O00000000
#04901:00
#04901:00
#04901:00
#04901:00
#04901:04040404
#04901:00
#04901:000K000K
#04901:00
#04901:00
#04901:0001000100010001
#04901:00
#04901:00
#04901:00
#04901:7F7G7F7X7G7F7X7G7F7G7F7X7G7F7X7G
#04901:00
#04901:00
#04901:00
#04901:00
#04901:00
#04901:00
#04901:6X6Y6Z70
#04901:00
#04901:5N5O5N5O005P005Q
#04901:00
#04901:00
#04901:00
#04901:00
#04901:00
#04901:00
#04901:00
#04901:008O
#04906:030405060708090A0B0C0D0E0F0G0H0I030405060708090A0B0C0D0E0F0G0H0I
#04911:0000000002000003000000000000003J
#04912:00000003000002000000003L00003L00
#04913:000002000003003N00003N00003N0000
#04914:0003003P00003P00003P00003P000003
#04915:02003R00003R00003R00020000000200
#04918:003T00003T0000000003000300030000
#04919:3V000202
#05001:71
#05001:00
#05001:00
#05001:00
#05001:00
#05001:00
#05001:000K0000
#05001:00
#05001:00
#05001:00
#05001:00030203020300030203020300030203
#05001:00
#05001:00
#05001:007I7H7Y7I7H7Y7I7H7I7H7Y7I7H7Y7I
#05001:00
#05001:00
#05001:00
#05001:00
#05001:00
#05001:00
#05001:0000000000730000
#05001:00
#05001:5R5S5R5T005U005V
#05006:030405060708090A0B0C0D0E0F0G0H0I030405060708090A0B0C0D0E0F0G0H0I
#05011:00040404
#05012:0401003000000001
#05013:2Z00710000010000
#05014:0072000100000K00
#05015:0200007200003100
#05018:7H00000000000074
#05019:0000000200000200
#05101:00
#05101:00
#05101:00
#05101:00
#05101:00
#05101:00
#05101:000K000K
#05101:00
#05101:00
#05101:00
#05101:02030203020302030203020302030203
#05101:00
#05101:00
#05101:7H7I7H7Y7I7H7Y7I7H7I7H7Y7I7H7Y7I
#05101:00
#05101:00
#05101:00
#05101:00
#05101:00
#05101:00
#05101:00
#05101:00
#05101:5R5S5R5T005U005V
#05106:030405060708090A0B0C0D0E0F0G0H0I030405060708090A0B0C0D0E0F0G0H0I
#05111:04040404
#05112:00010001002L0075
#05113:71712Q00
#05114:0072002O00010001
#05115:002P0000
#05118:002S007200007400
#05119:2R00000000730000
#05201:00
#05201:00
#05201:00
#05201:00
#05201:00
#05201:00
#05201:00
#05201:00
#05201:00
#05201:0001000100010001
#05201:00030203020302030203020302030203
#05201:00
#05201:00
#05201:7F7G7F7X7G7F7X7G7F7G7F7X7G7F7X7G
#05201:00
#05201:02
#05201:00
#05201:00
#05201:00
#05201:00
#05201:7677
#05201:00
#05201:5O5U5S5T005U005V
#05206:030405060708090A0B0C0D0E0F0G0H0I030405060708090A0B0C0D0E0F0G0H0I
#05211:04040404
#05212:0000000000002P0000002R00003G0000
#05213:32002S002S003F3H
#05215:0F0F0F0F0F0F0F0F
#05219:000G000G000G000G000G000G000G000G
#05301:00
#05301:00
#05301:00
#05301:00
#05301:04040404
#05301:00
#05301:00
#05301:00
#05301:00
#05301:0001000100000001
#05301:00000200020302030000020002030203
#05301:00
#05301:00
#05301:7J7K7J7Z7K7J7Z7K00007L807M7L807M
#05301:00
#05301:00
#05301:00
#05301:00
#05301:00
#05301:00
#05301:7879
#05301:00
#05301:5W5X5Y5Z0060005Y
#05301:00
#05301:00
#05301:008J
#05301:00
#05301:00
#05301:00
#05301:0000000000000000005I000000000000
#05301:0000008I
#05306:030405060708090A0B0C0D0E0F0G0H0I030405060708090A0B0C0D0E0F0G0H0I
#05311:02030003000000000203000300000000
#05312:0000000000000000000000000000000000000000000000000F0000000F000004
#05313:0F0G000G000000000F0G000F00000004
#05314:000000000000000000000G0000000G0000000000010000000000000000040000
#05315:3B3C003B000000003D3E000G00000400
#05316:0I000M0J00000H00
#05318:00000F000F000F0000000000000G000G
#05319:00000000000000007L7M003D00000000
#05401:00890089
#05401:00
#05401:00
#05401:00
#05401:00
#05401:00
#05401:00
#05401:00
#05401:00
#05401:00
#05401:00
#05401:00
#05401:00
#05401:00
#05401:00
#05401:00
#05401:00
#05401:00
#05401:00
#05401:00
#05401:00
#05401:00
#05401:00
#05401:00
#05401:00
#05401:00
#05401:00
#05401:00
#05401:00
#05401:00
#05401:00
#05401:0Q
#05403:5C
#05406:030405060708090A0B0C0D0E0F0G0H0I030405060708090A0B0C0D0E0F0G0H0I
#05411:08
#05413:0089
#05415:89
#05416:0C0D
#05419:7A
#05506:030405060708090A0B0C0D0E0F0G0H0I030405060708090A0B0C0D0E0F0G0H0I
#05513:8A
#05514:008A008A
#05515:008A
#05601:008B8B8B
#05606:030405060708090A0B0C0D0E0F0G0H0I030405060708090A0B0C0D0E0F0G0H0I
#05615:8B
#05616:000D
#05701:008C008C
#05701:00
#05701:00
#05701:00
#05701:00
#05701:00
#05701:00
#05701:00
#05701:00
#05701:00
#05701:00
#05701:00
#05701:00
#05701:00
#05701:00
#05701:00
#05701:00
#05701:00
#05701:00
#05701:00
#05701:00
#05701:00
#05701:00
#05701:00
#05701:008D
#05701:00
#05701:00
#05701:00
#05701:00
#05701:00
#05701:00
#05701:8H
#05706:030405060708090A0B0C0D0E0F0G0H0I030405060708090A0B0C0D0E0F0G0H0I
#05712:008C
#05716:0000000000000000000B000000000000
#05718:8C
#05801:04000004040000040004000404000000
#05801:00
#05801:000L000L
#05801:00
#05801:00
#05801:00
#05801:00
#05801:00
#05801:0009000900090009
#05801:00
#05801:00
#05801:000E000E000E000E
#05806:030405060708090A0B0C0D0E0F0G0H0I030405060708090A0B0C0D0E0F0G0H0I
#05811:0E0E0E0E
#05813:89898989
#05815:89898989
#05816:0C
#05819:85858585
#05901:04000004040000040004000404000000
#05901:00
#05901:000L000L
#05901:00
#05901:00
#05901:00
#05901:00
#05901:00
#05901:000000000900000000000000090000000000000009000000000000000F0G0F00
#05901:00
#05901:00
#05901:0E0E0E0E0E0E0E0E
#05906:030405060708090A0B0C0D0E0F0G0H0I030405060708090A0B0C0D0E0F0G0H0I
#05912:8A8A8A8A
#05914:8A8A8A8A
#05918:86868686
#06001:00000004040000040004000404060400
#06001:00
#06001:00000000000000000L0000000000000000000000000000000L00000500000000
#06001:00
#06001:00
#06001:00
#06001:00
#06001:000A000A000A000A000A000A000A000A
#06001:0909090909090909
#06001:00
#06001:00
#06001:000E000E000E000E
#06006:030405060708090A0B0C0D0E0F0G0H0I030405060708090A0B0C0D0E0F0G0H0I
#06012:040E0E0E
#06013:8B8B8B8B
#06015:8B8B8B8B
#06016:0H
#06018:87878787
#06101:04000004040000040004000404000000
#06101:00
#06101:000L000L
#06101:00
#06101:00
#06101:00
#06101:00
#06101:000G000G000G000G000G000G000G000G000G000G000G000G000G000G000G000G
#06101:000F0F0F000F0F0F000F0F0F000F0F0F
#06101:00
#06101:00
#06101:000E000E000E000E
#06106:030405060708090A0B0C0D0E0F0G0H0I030405060708090A0B0C0D0E0F0G0H0I
#06111:0F0F0F0F
#06112:0E0E0E0E
#06114:8C8C8C8C
#06118:8C8C8C8C
#06119:88888888
#06201:00
#06201:00
#06201:00
#06201:08
#06201:00
#06201:00
#06201:00
#06201:00
#06201:00
#06201:00
#06201:00
#06201:00
#06201:00
#06201:7B7C7B7V7C7B7V7C7B7C7B7V7C7B7V7C
#06201:00
#06201:00
#06201:00
#06201:00
#06201:00
#06201:00
#06201:00
#06201:00
#06201:00
#06201:00
#06201:00
#06201:00
#06201:00
#06201:00
#06201:00
#06201:00
#06201:29
#06203:B8
#06206:030405060708090A0B0C0D0E0F0G0H0I030405060708090A0B0C0D0E0F0G0H0I
#06211:00000000000000000000000000000042
#06212:00000000000051520000000040004000
#06213:00000000000000000000003Z003Z0000
#06214:0040000041410000
#06215:003Z003Z00000000003Y000000000000
#06216:0C
#06218:3Y00000000004Z500000000000000000
#06301:00
#06301:00
#06301:00
#06301:00
#06301:00
#06301:00
#06301:00
#06301:00
#06301:00
#06301:00
#06301:00
#06301:00
#06301:00
#06301:7F7G7F7X7G7F7X7G7F7G7F7X7G7F7X7G
#06306:030405060708090A0B0C0D0E0F0G0H0I030405060708090A0B0C0D0E0F0G0H0I
#06312:4300000000000000550056000055000000000000000000004600000046000000
#06313:00400000000000000040000000480000
#06314:003Z000000000000
#06315:0000003Y000000003Z003Z0000470000
#06318:0000000000000000530054000053000000000000000000004500000045000000
#06401:00
#06401:00
#06401:00
#06401:00
#06401:00
#06401:00
#06401:00
#06401:00
#06401:00
#06401:00
#06401:00
#06401:00
#06401:00
#06401:7H7I7H7Y7I7H7Y7I7H7I7H7Y7I7H7Y7I
#06406:030405060708090A0B0C0D0E0F0G0H0I030405060708090A0B0C0D0E0F0G0H0I
#06411:4C00004F00000000
#06412:00004E00004E00000000000000480000
#06413:000000000000004G4G00000000005700
#06414:00000000000000004D0000000000000000000000480000004600000000580000
#06415:004D0000000000000000000000000059
#06418:000000000000480000000000000000000000460000004700000000000000005A
#06501:00450000
#06501:42
#06501:00
#06501:00
#06501:00
#06501:00
#06501:00
#06501:00
#06501:00
#06501:00
#06501:00
#06501:00
#06501:00
#06501:7N7O7N817O7N817O7P7Q7P827Q7P827Q
#06501:00
#06501:00
#06501:00
#06501:00
#06501:00
#06501:00
#06501:00
#06501:00
#06501:00
#06501:00
#06501:00
#06501:00
#06501:00
#06501:00
#06501:00
#06501:00
#06501:37
#06506:030405060708090A0B0C0D0E0F0G0H0I030405060708090A0B0C0D0E0F0G0H0I
#06511:4H00424L
#06512:000000004300000000484H0000464900
#06513:004E4600004D4I000000000000000046
#06514:00004043
#06515:00464E00004I4D000000000000000042
#06518:000000004J000000004H480000424A00
#06519:3Z004K3Z
#06601:00
#06601:00
#06601:00
#06601:00
#06601:00
#06601:00
#06601:00
#06601:00
#06601:00
#06601:00
#06601:00
#06601:00
#06601:00
#06601:7B7C7B7V7C7B7V7C7B7C7B7V7C7B7V7C
#06606:030405060708090A0B0C0D0E0F0G0H0I030405060708090A0B0C0D0E0F0G0H0I
#06612:00004600450000000040000000000000
#06613:00000000004200000000000040000042
#06614:00470047000043000000000000470000
#06615:00000000000000400000003Z00000000
#06618:450000003Z000045
#06619:0000000000410000
#06701:00
#06701:00
#06701:00
#06701:00
#06701:00
#06701:00
#06701:00
#06701:00
#06701:00
#06701:00
#06701:00
#06701:00
#06701:00
#06701:7L7M7L807M7L807M7L7M7L807M7L807M
#06706:030405060708090A0B0C0D0E0F0G0H0I030405060708090A0B0C0D0E0F0G0H0I
#06711:0042000000000000004O000000000000
#06712:434300004N4P0000
#06713:00000040000000000000004Q00000000
#06714:003Z004R
#06715:000000000041000000000000004S0000
#06718:0000003Y0000004T
#06719:000000000000004L000000000000004U
#06801:00
#06801:00
#06801:00
#06801:00
#06801:00
#06801:00
#06801:00
#06801:00
#06801:00
#06801:00
#06801:00
#06801:00
#06801:00
#06801:7D7E7D7W7E7D7W7E7D7E7D7W7E7D7W7E
#06806:030405060708090A0B0C0D0E0F0G0H0I030405060708090A0B0C0D0E0F0G0H0I
#06811:00000000000000000041000000000000
#06812:003Z004B003Z4B000000000000000041
#06813:00000000003Y0000
#06814:430000003Y00003Y
#06815:00000000000000000000004L00000000
#06818:003X003Y003X3Y0000000000004L0000
#06819:0000004N
#06901:00
#06901:00
#06901:00
#06901:00
#06901:00
#06901:00
#06901:00
#06901:00
#06901:00
#06901:00
#06901:00
#06901:00
#06901:00
#06901:7R7S7R837S7R837S7T7U7T847U7T847U
#06906:030405060708090A0B0C0D0E0F0G0H0I030405060708090A0B0C0D0E0F0G0H0I
#06911:003Y
#06912:0000000000000000004L000000000000
#06913:00003Y00004N4P00
#06914:3Y000000004L004L0000004O004Q0000
#06915:0000004L000000000000000000004T00
#06916:00000000000B0000
#06918:004L000000004N00000000000000004S
#06919:004N000000000000
#07001:00
#07001:00
#07001:00
#07001:00
#07001:00
#07001:00
#07001:00
#07001:00
#07001:00
#07001:00
#07001:00030203020302030203020302030203
#07001:00
#07001:00
#07001:7B7C7B7V7C7B7V7C7B7C7B7V7C7B7V7C
#07001:00
#07001:00
#07001:1R001T001R001R1S001R1S001R001T00
#07001:00
#07001:2A2B2C2D2E2B2F2B
#07001:8F8K8F008F8K8F008F8K8F008F8K0000
#07001:000000000000008E
#07001:00
#07001:00
#07001:00
#07001:00
#07001:00
#07001:00
#07001:00
#07001:00
#07001:00
#07001:00
#07001:0R
#07006:030405060708090A0B0C0D0E0F0G0H0I030405060708090A0B0C0D0E0F0G0H0I
#07011:04044500
#07012:0000010000000100004200003Z000000
#07013:450000000K0000000000430000410000
#07014:00004000000000000000004000003Y00
#07015:003Z000000004000000000000K00004L
#07016:0C
#07018:0000003Z003Z003Z0000010000000100
#07019:02410404
#07101:00
#07101:00
#07101:00
#07101:00
#07101:00
#07101:00
#07101:00
#07101:00
#07101:00
#07101:00
#07101:02030203020302030203020302030203
#07101:00
#07101:00
#07101:7F7G7F7X7G7F7X7G7F7G7F7X7G7F7X7G
#07101:00
#07101:00
#07101:1O001Q001O001O1P001O1P001O001Q00
#07101:00
#07101:2A2B2C2D2E2B2F2B
#07101:8F008K008F0000008F008K008G8L8G8L8F0000008K0000008F008K0000000000
#07101:000000000000008E
#07106:030405060708090A0B0C0D0E0F0G0H0I030405060708090A0B0C0D0E0F0G0H0I
#07111:04044V00
#07112:0000010000000042004G000047000000
#07113:000000000000400000004E0000450000
#07114:00000040004100000000004800004200
#07115:00003Z003Y000000000000000K000040
#07118:00410000000001000000010000000100
#07119:3Y0K0404
#07201:00
#07201:00
#07201:00
#07201:00
#07201:00
#07201:000K0000
#07201:00
#07201:00
#07201:00
#07201:0000000000000001
#07201:02030203020302030203020302030203
#07201:00
#07201:00
#07201:7H7I7H7Y7I7H7Y7I7H7I7H7Y7I7H7Y7I
#07201:00
#07201:00
#07201:1L001N001L001L1M001L1M001L001N00
#07201:00
#07201:2A2B2C2D2E2B2F2B
#07201:8F8K8F008F8K8F008F8K8F008F8K0000
#07201:000000000000008E
#07206:030405060708090A0B0C0D0E0F0G0H0I030405060708090A0B0C0D0E0F0G0H0I
#07211:00000400003Y0000
#07212:5G000000000001000041004L00000000
#07213:00005H00005G000000002K000000000043000000000000004P00000000000000
#07214:040000003Z00004200000000005B0000
#07215:00005F00005E000000002Q000000000000000000000000000K00005C00000000
#07218:5E0000003Y00003Z0000010000005D00
#07219:0001000004000400
#07301:00
#07301:00
#07301:00
#07301:00
#07301:0004
#07301:00
#07301:00
#07301:00
#07301:00
#07301:0001000100000000
#07301:02000203020302030203020302030203
#07301:00
#07301:00
#07301:7N7O7N817O7N817O7P7Q7P827Q7P827Q
#07301:00
#07301:00
#07301:1U001W001U001U1V001O1P001O001Q00
#07301:00
#07301:2A2B2C2D2E2B2F2B
#07301:8F008K008F0000008F008K008G8L8G8L8F0000008K0000008F008K0000000000
#07301:000000000000008E
#07301:00
#07301:00
#07301:00
#07301:00
#07301:00
#07301:0046004I004H0000
#07301:004E0000004D00000048000000000000
#07306:030405060708090A0B0C0D0E0F0G0H0I030405060708090A0B0C0D0E0F0G0H0I
#07311:4H0K4204
#07312:00030000450000000000010000000100
#07313:4200004D00000K00
#07314:00004E00430000004000000000000049
#07315:3Z000000004I00000000480000003W00
#07318:004600004J000000004H004H004K0000
#07319:04044K4L
#07401:00
#07401:00
#07401:00
#07401:00
#07401:00
#07401:00
#07401:00
#07401:00
#07401:00
#07401:00
#07401:02030203020302030203020302030203
#07401:00
#07401:00
#07401:7B7C7B7V7C7B7V7C7B7C7B7V7C7B7V7C
#07401:00
#07401:00
#07401:1R001T001R001R1S001R1S001R001T00
#07401:00
#07401:2A2B2C2D2E2B2F2B
#07401:8F8K8F008F8K8F008F8K8F008F8K0000
#07401:000000000000008E
#07406:030405060708090A0B0C0D0E0F0G0H0I030405060708090A0B0C0D0E0F0G0H0I
#07411:04040404
#07412:0001000100010001
#07413:0000004700420000000000000K000042
#07414:0046454300000045
#07415:00470000000000400040000000470000
#07418:450000003Z414000
#07419:000000000K0000000000003Z00000000
#07501:00
#07501:00
#07501:00
#07501:00
#07501:00
#07501:00
#07501:0000000K
#07501:00
#07501:00
#07501:0000000000000001
#07501:02030203020302030203020302000000
#07501:00
#07501:00
#07501:7L7M7L807M7L807M7L7M7L807M7L807M
#07501:00
#07501:00
#07501:1X001Z001X001X1Y001X1Y001X001Z00
#07501:00
#07501:2A2B2C2D2E2B2F2B
#07501:8F008K008F0000008F008K008G8L8G8L8F0000008K0000008F008K0000000000
#07501:000000000000008E
#07506:030405060708090A0B0C0D0E0F0G0H0I030405060708090A0B0C0D0E0F0G0H0I
#07511:04000000040000000400000004000003
#07512:0001000100000002
#07513:004200000K00004L0000010000030000
#07514:4343003Y4N004R00
#07515:0000004000000000004O0000004S0000
#07518:00003Z00004P004T
#07519:00000000004100000000004Q0000004U
#07601:00
#07601:00
#07601:00
#07601:00
#07601:00040404
#07601:00
#07601:000K000K
#07601:00
#07601:00
#07601:0001000100010001
#07601:00000200020000030203020302030203
#07601:00
#07601:00
#07601:7D7E7D7W7E7D7W7E7D7E7D7W7E7D7W7E
#07601:00
#07601:00
#07601:20002200200020002120002120002200
#07601:00
#07601:2A2B2C2D2E2B2F2B
#07601:8F8K8F008F8K8F008F8K8F008F8K0000
#07601:000000000000008E
#07606:030405060708090A0B0C0D0E0F0G0H0I030405060708090A0B0C0D0E0F0G0H0I
#07611:0003000300030200430000003Y000000
#07612:450000000000000000400000004L0000
#07613:04000000003Z004N
#07614:003Z004B003Z4B004B000041004O004O
#07615:0200000000000000004100004N004P00
#07618:430000000000000000003Y000000004Q
#07619:003X003Y003X3Y000000004L00000000
#07701:00
#07701:00
#07701:00
#07701:00
#07701:0400040004000407
#07701:00
#07701:000K000K
#07701:00
#07701:00
#07701:0001000100010001
#07701:00
#07701:00
#07701:00
#07701:7R7S7R837S7R837S7T7U7T847U7T847U
#07701:00
#07701:00
#07701:23002500230023240026270026002800
#07701:00
#07701:2A2B2C2D2E2B2F2B
#07701:8F008K008F0000008F008K008G8L8G8L8F0000008K0000008F008K0000000000
#07701:000000000000008E
#07706:030405060708090A0B0C0D0E0F0G0H0I030405060708090A0B0C0D0E0F0G0H0I
#07711:00000000020300030200020300000000
#07712:00030200000000000000000000000003
#07713:000000004P4X004P4X004P4X00000200
#07714:004P4X0000000000000300000003004K
#07715:0200004R00004R000000000002004X00
#07716:0I000M0J00000H00
#07718:0000000000000000004R0000004Y0000
#07719:4R00000300000200000000004S000000
#07801:00
#07801:00
#07801:2A00002F
#07801:002B0000002B002B
#07801:002E
#07801:0000002D00000000
#07801:00002C000000008E
#07801:00
#07801:00
#07801:00
#07801:02030203020302030203020302030203
#07801:00
#07801:00
#07801:7B7C7B7V7C7B7V7C7B7C7B7V7C7B7V7C
#07801:00
#07801:00
#07801:1R001T001R001R1S001R1S001R001T00
#07801:00
#07801:00
#07801:8F8K8F008F8K8F008F8K8F008F8K0000
#07806:030405060708090A0B0C0D0E0F0G0H0I030405060708090A0B0C0D0E0F0G0H0I
#07811:04040404
#07812:0001000100010001
#07813:000K4500
#07814:0000000000004000004200003Z000000
#07815:45004000003Z003Z0000430000410000
#07816:0C
#07818:003Z0000410000000000004000003Y00
#07819:0000003Z00000000000000000K00004L
#07901:00
#07901:00
#07901:00
#07901:000000000000008E
#07901:2A000000002B0000
#07901:002B002D00002F00
#07901:00002C002E00002B
#07901:00
#07901:00
#07901:00
#07901:02030203020302030203020302030203
#07901:00
#07901:00
#07901:7F7G7F7X7G7F7X7G7F7G7F7X7G7F7X7G
#07901:00
#07901:00
#07901:1O001Q001O001O1P001O1P001O001Q00
#07901:00
#07901:00
#07901:8F008K008F0000008F008K008G8L8G8L8F0000008K0000008F008K0000000000
#07906:030405060708090A0B0C0D0E0F0G0H0I030405060708090A0B0C0D0E0F0G0H0I
#07911:04040404
#07912:0001000100010001
#07913:00000040000000004V00000047000000
#07914:00003Z000K00004200004E0000450000
#07915:0041000000410000004G000000004200
#07918:3Y000000000040000000004800000040
#07919:003Y000K
#08001:000000003Y2Q003Z0000000000000000
#08001:00
#08001:00
#08001:000000000000008E
#08001:2A00002F
#08001:002B0000002B002B
#08001:002C2E00
#08001:00
#08001:00
#08001:00
#08001:02030203020302030203020302030203
#08001:00
#08001:00
#08001:7H7I7H7Y7I7H7Y7I7H7I7H7Y7I7H7Y7I
#08001:00
#08001:00
#08001:1L001N001L001L1M001L1M001L001N00
#08001:00
#08001:00
#08001:8F8K8F008F8K8F008F8K8F008F8K0000
#08006:030405060708090A0B0C0D0E0F0G0H0I030405060708090A0B0C0D0E0F0G0H0I
#08011:04040404
#08012:0001000100010001
#08013:5E0K400K
#08014:00005F00005E0000000000000000420000004100000000000000000000000000
#08015:00000000002K000000003Y00005B0000
#08018:00005H00005G0000000000002D0000000000000000004L000000005C00000000
#08019:5G003Z0000004P5D
#08101:00
#08101:00
#08101:00
#08101:00
#08101:04040404
#08101:00
#08101:000K000K
#08101:00
#08101:00
#08101:0001000100010001
#08101:00
#08101:00
#08101:00
#08101:7N7O7N817O7N817O7P7Q7P827Q7P827Q
#08101:00
#08101:00
#08101:1U001W001U001U1V001O1P001O001Q00
#08101:00
#08101:2A2B2C2D2E2B2F2B
#08101:8F008K008F0000008F008K008G8L8G8L8F0000008K0000008F008K0000000000
#08101:000000000000008E
#08101:00
#08101:00
#08101:4E48464542403Z3X4P4O4L3X4L3Y3Z40
#08106:030405060708090A0B0C0D0E0F0G0H0I030405060708090A0B0C0D0E0F0G0H0I
#08111:4C000200000002000000000300000045
#08112:00000000460000000003004000030000
#08113:02004E0000004200003X000000000003
#08114:004G00000200000300003Z0000440000
#08115:00000048004500000200000000000200
#08118:0003000000000040000002003W004200
#08119:00000003000300004L00000002000000
#08201:2A2B2C2D2E2B2F2B
#08201:00
#08201:00
#08201:00
#08201:04040404
#08201:00
#08201:00
#08201:00
#08201:00
#08201:00
#08201:02030203020302030203020302030203
#08201:00
#08201:00
#08201:7B7C7B7V7C7B7V7C7B7C7B7V7C7B7V7C
#08201:00
#08201:00
#08201:00
#08201:00
#08201:00
#08201:8F8K8F008F8K8F008F8K8F008F8K0000
#08201:000000000000008E
#08206:030405060708090A0B0C0D0E0F0G0H0I030405060708090A0B0C0D0E0F0G0H0I
#08211:00001T0000001R00001R00001R000000
#08212:1R0000001R00001S00001S0000001T00
#08213:0040000000410000004L00004P00004Q
#08214:3Z003Z003Y003Y0000004N00004Q0000
#08215:000000410000004L0000004O00004S00
#08218:000K4N0K
#08219:0001000100010001
#08301:2A2B2C2D2E2B2F2B
#08301:00
#08301:00
#08301:00
#08301:04040404
#08301:00
#08301:00
#08301:00
#08301:00
#08301:00
#08301:02030203020302030203020302030203
#08301:00
#08301:00
#08301:7L7M7L807M7L807M7L7M7L807M7L807M
#08301:00
#08301:00
#08301:00
#08301:00
#08301:00
#08301:8F008K008F0000008F008K008G8L8G8L8F0000008K0000008F008K0000000000
#08301:000000000000008E
#08306:030405060708090A0B0C0D0E0F0G0H0I030405060708090A0B0C0D0E0F0G0H0I
#08311:4R00004O0000003Y0000004W00000000
#08312:004P4Q4O004P4P4P
#08313:004Q0000004P00002R000000004Q004O
#08314:1X0000001X00001Y00001Y001X000000
#08315:00001Z0000001X00001X000000001Z00
#08318:000K000K
#08319:0001000100010001
#08401:00
#08401:20002200200020210020210020002200
#08401:00
#08401:00
#08401:04040404
#08401:00
#08401:00
#08401:00
#08401:00
#08401:0001000100010001
#08401:02030203020302030203020302030203
#08401:00
#08401:00
#08401:7D7E7D7W7E7D7W7E7D7E7D7W7E7D7W7E
#08401:00
#08401:00
#08401:00
#08401:00
#08401:2A2B2C2D2E2B2F2B
#08401:8F8K8F008F8K8F008F8K8F008F8K0000
#08401:000000000000008E
#08401:00
#08401:00
#08401:00
#08401:000000000000000043403Z413Y4L4N4O
#08406:030405060708090A0B0C0D0E0F0G0H0I030405060708090A0B0C0D0E0F0G0H0I
#08411:0F0F0F0F0F0F0F0F
#08412:000G0000000G0000000G0000000G0000
#08413:0000000G0000000G0000000G0000000G
#08414:43000000000000004B000000004O0000
#08415:003Z004B003Z4B00004100004N004P00
#08418:450000000000000000003Y000000004Q
#08419:003X003Y003X3Y000000004L00000000
#08501:000025002300002400002700008M2800
#08501:00
#08501:07070707
#08501:00
#08501:00
#08501:00
#08501:00
#08501:00
#08501:00
#08501:0001000100010001
#08501:02030200020302030203020302030200
#08501:00
#08501:00
#08501:7R7S7R837S7R837S7T7U7T847U7T847U
#08501:00
#08501:00
#08501:00
#08501:00
#08501:2A2B2C2D2E2B2F2B
#08501:8F008K008F0000008F008K008G8L8G8L8F0000008K0000008F008K0000000000
#08501:000000000000008E
#08506:030405060708090A0B0C0D0E0F0G0H0I030405060708090A0B0C0D0E0F0G0H0I
#08511:4R00004R00004S00
#08512:0000004R00000000004R0000004Y004Y
#08513:004P4X004P4X004P4X004P4X00004X00
#08514:2300000300002300002600002600000F
#08515:000F0G000G0F000F0G000G0F00000G00
#08516:0I000I0J00000H00
#08518:0000000F00000000000F0000000F0003
#08519:0G00000G00000G00
#08601:00
#08601:00
#08601:00
#08601:00
#08601:00
#08601:00
#08601:00
#08601:00
#08601:1500001500001500
#08601:00
#08601:00
#08601:00
#08601:00
#08601:7B7C000000007B7C000000007B7C0000
#08606:030405060708090A0B0C0D0E0F0G0H0I030405060708090A0B0C0D0E0F0G0H0I
#08611:0400000400000400
#08612:00000000450000000041000000000000
#08613:4G0000000000400000000000454M0045
#08614:00004600004300003Y00004000000000
#08615:004800000000003Z000000003Z3W003Z
#08616:0I00000I00000J00
#08618:000000470000000000003Z0000000000
#08619:0Y00000Y00000Y00
#08701:0D
#08701:00
#08701:00
#08701:00
#08701:00
#08701:00
#08701:00
#08701:00
#08701:1500001500001500
#08701:00
#08701:00
#08701:00
#08701:00
#08701:7B7C000000007B7C000000007B7C0000
#08706:030405060708090A0B0C0D0E0F0G0H0I030405060708090A0B0C0D0E0F0G0H0I
#08711:0400000400000400
#08712:00480000450000000000004000000000
#08713:000000000043000000000000454M0045
#08714:4G4600403Y3Z0000
#08715:000000000000003Z000000003Z3W003Z
#08716:0I00000I00000J00
#08718:00000047000000000041000000000000
#08719:0Y00000Y00000Y00
#08801:8N00000000000000005I000000000000
#08801:00
#08801:00
#08801:00
#08801:00
#08801:00
#08801:00
#08801:00
#08801:1500001500001500
#08801:00
#08801:00
#08801:00
#08801:00
#08801:7B7C000000007B7C000000007B7C0000
#08806:030405060708090A0B0C0D0E0F0G0H0I030405060708090A0B0C0D0E0F0G0H0I
#08811:0Y00000Y00000Y00
#08812:000000410000000000000000454M0045
#08813:00000000004100000000004700000000
#08814:4N003Y0000003Z00000045003Z4B003Z
#08815:000000003Y0000400040000000000000
#08816:0I00000I00000J00
#08818:004L0000000000003Z0000003Y3X003Y
#08819:0400000400000700
#08901:00
#08901:00
#08901:2L
#08902:0.125
#08903:2E
#08906:030405060708090A0B0C0D0E
#08911:08
#08914:2H
#08916:0C
#08919:2O
#09002:0.125
#09006:0F000G000H000I03000400050006000700080009000A000B
#09102:0.125
#09106:000C000D000E000F000G000H000I03000400050006000700
#09202:0.125
#09206:080009000A000B000C000D000E000F000G000H000I030004
#09302:0.125
#09306:00050006000700080009000A000B000C000D000E000F000G
#09402:0.125
#09406:000H000I03000400050006000700080009000A000B000C00
#09502:0.125
#09506:0D000E000F000G000H000I03000400050006000700080009
#09602:0.125
#09606:0K
#09702:0.125
#09802:0.125
#09902:0.125
#10002:0.125
#10102:0.125
#10202:0.125
#10302:0.125
#10402:0.125