*---------------------- HEADER FIELD
#PLAYER 1
#GENRE RENAISSANCE
#TITLE Joker[EX]
#ARTIST D.J.Nero / Ds
#BPM 184
#PLAYLEVEL 13
#RANK 3
#TOTAL 700
#STAGEFILE title.jpg
#WAV01 opHH.wav
#WAV02 close.wav
#WAV03 close.wav
#WAV04 kickA.wav
#WAV05 kickB.wav
#WAV06 kickB.wav
#WAV07 kick32.wav
#WAV08 FXkick.wav
#WAV09 snare.wav
#WAV0A snare.wav
#WAV0B reverse.wav
#WAV0C SE1.wav
#WAV0D bell.wav
#WAV0E ride.wav
#WAV0F snare-Fill.wav
#WAV0G SE3.wav
#WAV0H snare-Fill.wav
#WAV0I clashA.wav
#WAV0J clashB.wav
#WAV0K clashC.wav
#WAV0L clap.wav
#WAV0M clap-deep.wav
#WAV0N clashB.wav
#WAV0O bgm1.wav
#WAV0P bgm1.wav
#WAV0Q bgm2.wav
#WAV0R bgm2.wav
#WAV0S bgm3.wav
#WAV0T str01.wav
#WAV0U str01.wav
#WAV0V str02.wav
#WAV0W str03.wav
#WAV0X str03.wav
#WAV0Y str04.wav
#WAV0Z str05.wav
#WAV10 str-01.wav
#WAV11 str-01.wav
#WAV12 str-02.wav
#WAV13 str-03.wav
#WAV14 str-03.wav
#WAV15 str-04.wav
#WAV16 str-05.wav
#WAV17 harp1.wav
#WAV18 harp2.wav
#WAV19 harp3.wav
#WAV1A harp4.wav
#WAV1B harp5.wav
#WAV1C harp6.wav
#WAV1D harp16-01.wav
#WAV1E harp16-02.wav
#WAV1F harp16-03.wav
#WAV1G harp16-04.wav
#WAV1H harp16-05.wav
#WAV1I harp16-06.wav
#WAV1J core1.wav
#WAV1K core1.wav
#WAV1L core1b.wav
#WAV1M core2.wav
#WAV1N core2.wav
#WAV1O core2b.wav
#WAV1P core3.wav
#WAV1Q core3.wav
#WAV1R core3b.wav
#WAV1S core4.wav
#WAV1T core4.wav
#WAV1U core4b.wav
#WAV1V core5.wav
#WAV1W core5.wav
#WAV1X core5b.wav
#WAV1Y core6.wav
#WAV1Z core6.wav
#WAV20 core6b.wav
#WAV21 core7.wav
#WAV22 core7.wav
#WAV23 core7b.wav
#WAV24 core8.wav
#WAV25 core8.wav
#WAV26 core8b.wav
#WAV27 core9.wav
#WAV28 core9.wav
#WAV29 core9b.wav
#WAV2A arp-bgm.wav
#WAV2B arp1.wav
#WAV2C arp2.wav
#WAV2D arp3.wav
#WAV2E arp4.wav
#WAV2F arp5.wav
#WAV2G arp6.wav
#WAV2H p-8-1.wav
#WAV2I p-8-2.wav
#WAV2J p-8-3.wav
#WAV2K p-8-4.wav
#WAV2L p-8-5.wav
#WAV2M p-8-6.wav
#WAV2N p-8-7.wav
#WAV2O p-8-8.wav
#WAV2P p-8-9.wav
#WAV2Q p-8-10.wav
#WAV2R p-8-11.wav
#WAV2S p-8-12.wav
#WAV2T p-8-13.wav
#WAV2U pA-1.wav
#WAV2V pA-2.wav
#WAV2W pA-2b.wav
#WAV2X pA-3.wav
#WAV2Y pA-4.wav
#WAV2Z pA-4b.wav
#WAV30 pA-5.wav
#WAV31 pA-6.wav
#WAV32 pA-7.wav
#WAV33 pA-8.wav
#WAV34 pA-9.wav
#WAV35 pA-10.wav
#WAV36 pA-11.wav
#WAV37 pA-12.wav
#WAV38 pA-12b.wav
#WAV39 pA-13.wav
#WAV3A pA-13b.wav
#WAV3B pA-14.wav
#WAV3C pA-14b.wav
#WAV3D pA-15.wav
#WAV3E pA-15b.wav
#WAV3F p-16-1.wav
#WAV3G p-16-2.wav
#WAV3H p-16-3.wav
#WAV3I p-16-4.wav
#WAV3J p-16-5.wav
#WAV3K p-16-6.wav
#WAV3L p-16-7.wav
#WAV3M p-16-8.wav
#WAV3N p-16-9.wav
#WAV3O p-16-10.wav
#WAV3P p-16-11.wav
#WAV3Q p-16-12.wav
#WAV3R p-16-13.wav
#WAV3S p-16-14.wav
#WAV3T p-16-15.wav
#WAV3U p-16-16.wav
#WAV3V p-16-17.wav
#WAV3W ps-16-2.wav
#WAV3X ps-16-1.wav
#WAV3Y ps-16-1.wav
#WAV3Z ps-16-2.wav
#WAV40 ps-16-3.wav
#WAV41 ps-16-4.wav
#WAV42 ps-16-5.wav
#WAV43 ps-16-6.wav
#WAV44 ps-16-3.wav
#WAV45 ps-16-7.wav
#WAV46 ps-16-8.wav
#WAV47 ps-16-9.wav
#WAV48 ps-16-10.wav
#WAV49 ps-16-5.wav
#WAV4A ps-16-8.wav
#WAV4B ps-16-2.wav
#WAV4C ps-16-11.wav
#WAV4D ps-16-12.wav
#WAV4E ps-16-13.wav
#WAV4F ps-16-14.wav
#WAV4G ps-16-15.wav
#WAV4H ps-16-16.wav
#WAV4I ps-16-17.wav
#WAV4J ps-16-18.wav
#WAV4K ps-16-19.wav
#WAV4L ps-16-20.wav
#WAV4M ps-16-7.wav
#WAV4N ps-16-21.wav
#WAV4O ps-16-22.wav
#WAV4P ps-16-23.wav
#WAV4Q ps-16-24.wav
#WAV4R ps-16-25.wav
#WAV4S ps-16-26.wav
#WAV4T ps-16-27.wav
#WAV4U ps-16-28.wav
#WAV4V ps-16-29.wav
#WAV4W ps-16-30.wav
#WAV4X ps-16-23.wav
#WAV4Y ps-16-31.wav
#WAV4Z ps-32-1.wav
#WAV50 ps-32-1.wav
#WAV51 ps-32-1b.wav
#WAV52 ps-32-1b.wav
#WAV53 ps-32-2.wav
#WAV54 ps-32-2.wav
#WAV55 ps-32-2b.wav
#WAV56 ps-32-2b.wav
#WAV57 ps-32-3.wav
#WAV58 ps-32-4.wav
#WAV59 ps-32-5.wav
#WAV5A ps-32-6.wav
#WAV5B ps-32-7.wav
#WAV5C ps-32-8.wav
#WAV5D ps-32-9.wav
#WAV5E ps-32-10.wav
#WAV5F ps-32-10.wav
#WAV5G ps-32-10b.wav
#WAV5H ps-32-10b.wav
#WAV5I SE2.wav
#WAV5J chero 1.wav
#WAV5K chero 2.wav
#WAV5L chero 3.wav
#WAV5M chero 4.wav
#WAV5N chero 9.wav
#WAV5O chero 10.wav
#WAV5P chero 11.wav
#WAV5Q chero 12.wav
#WAV5R chero 13.wav
#WAV5S chero 14.wav
#WAV5T chero 15.wav
#WAV5U chero 16.wav
#WAV5V chero 17.wav
#WAV5W chero 18.wav
#WAV5X chero 19.wav
#WAV5Y chero 20.wav
#WAV5Z chero 21.wav
#WAV60 chero 22.wav
#WAV61 solo 1.wav
#WAV62 solo 2.wav
#WAV63 solo 3.wav
#WAV64 solo 4.wav
#WAV65 solo 5.wav
#WAV66 solo 6.wav
#WAV67 solo 7.wav
#WAV68 solo 8.wav
#WAV69 solo 9.wav
#WAV6A solo 10.wav
#WAV6B solo 11.wav
#WAV6C solo 12.wav
#WAV6D solo 13.wav
#WAV6E solo 14.wav
#WAV6F solo 15.wav
#WAV6G solo 16.wav
#WAV6H solo 17.wav
#WAV6I solo 18.wav
#WAV6J solo 19.wav
#WAV6K solo 20.wav
#WAV6L solo 21.wav
#WAV6M solo 22.wav
#WAV6N solo 23.wav
#WAV6O solo 24.wav
#WAV6P solo 25.wav
#WAV6Q solo 26.wav
#WAV6R solo 27.wav
#WAV6S solo 28.wav
#WAV6T solo 29.wav
#WAV6U solo 30.wav
#WAV6V solo 31.wav
#WAV6W solo 32.wav
#WAV6X solo 33.wav
#WAV6Y solo 34.wav
#WAV6Z solo 35.wav
#WAV70 solo 36.wav
#WAV71 solo 37.wav
#WAV72 solo 38.wav
#WAV73 solo 39.wav
#WAV74 solo 40.wav
#WAV75 solo 41.wav
#WAV76 solo 42.wav
#WAV77 solo 43.wav
#WAV78 solo 44.wav
#WAV79 solo 45.wav
#WAV7A solo 46.wav
#WAV7B bass1.wav
#WAV7C bass2.wav
#WAV7D bass3.wav
#WAV7E bass4.wav
#WAV7F bass5.wav
#WAV7G bass6.wav
#WAV7H bass7.wav
#WAV7I bass8.wav
#WAV7J bass9.wav
#WAV7K bass10.wav
#WAV7L bass11.wav
#WAV7M bass12.wav
#WAV7N bass13.wav
#WAV7O bass14.wav
#WAV7P bass15.wav
#WAV7Q bass16.wav
#WAV7R bass17.wav
#WAV7S bass18.wav
#WAV7T bass19.wav
#WAV7U bass20.wav
#WAV7V bass1.wav
#WAV7W bass3.wav
#WAV7X bass5.wav
#WAV7Y bass7.wav
#WAV7Z bass9.wav
#WAV80 bass11.wav
#WAV81 bass13.wav
#WAV82 bass15.wav
#WAV83 bass17.wav
#WAV84 bass19.wav
#WAV85 chero1.wav
#WAV86 chero2.wav
#WAV87 chero3.wav
#WAV88 chero4.wav
#WAV89 vio1.wav
#WAV8A vio2.wav
#WAV8B vio3.wav
#WAV8C vio4.wav
#WAV8D tim.wav
#WAV8E tanbarin.wav
#WAV8F suzu.wav
#WAV8G suzu32.wav
#WAV8H syuooo.wav
#WAV8I SE5.wav
#WAV8J horn.wav
#WAV8K suzu.wav
#WAV8L suzu32.wav
#WAV8M cym B.wav
#WAV8N cym C.wav
#WAV8O SE4.wav
#BMP01 joker.mpg
#BMP03 miss 01.bmp
#BMP04 miss 02.bmp
#BMP05 miss 03.bmp
#BMP06 miss 04.bmp
#BMP07 miss 05.bmp
#BMP08 miss 06.bmp
#BMP09 miss 07.bmp
#BMP0A miss 08.bmp
#BMP0B miss 09.bmp
#BMP0C miss 10.bmp
#BMP0D miss 11.bmp
#BMP0E miss 12.bmp
#BMP0F miss 13.bmp
#BMP0G miss 14.bmp
#BMP0H miss 15.bmp
#BMP0I miss 16.bmp
#DIFFICULTY 4
#BACKBMP logo.jpg *---------------------- MAIN DATA FIELD
#00104:01
#00106:030405060708090A0B0C0D0E0F0G0H0I030405060708090A0B0C0D0E0F0G0H0I
#00116:000B000000000000
#00201:00
#00201:00
#00201:00
#00201:00
#00201:00
#00201:00
#00201:00
#00201:00
#00201:00
#00201:00
#00201:00
#00201:00
#00201:00
#00201:007C007V007B007C7B7C007V7C7B7V7C
#00206:030405060708090A0B0C0D0E0F0G0H0I030405060708090A0B0C0D0E0F0G0H0I
#00211:0400000400040000
#00212:0T0U000000000000
#00213:7B7B000V00000000
#00214:00007C00007B0000
#00215:1011007V00000000
#00218:0000001200000000
#00219:00000L00000L0000
#00301:00
#00301:00
#00301:00
#00301:00
#00301:00
#00301:00
#00301:00
#00301:00
#00301:00
#00301:00
#00301:00
#00301:00
#00301:00
#00301:007C007V007B007C7B7C007V7C7B7V7C
#00306:030405060708090A0B0C0D0E0F0G0H0I030405060708090A0B0C0D0E0F0G0H0I
#00311:0400000400040000
#00312:0000007V00000000
#00313:0W0X0000007B0000
#00314:7B7B000Y00000000
#00315:007C0000
#00318:1314000000000000
#00319:00000L15000L0000
#00401:00
#00401:00
#00401:00
#00401:00
#00401:00
#00401:00
#00401:00
#00401:00
#00401:00
#00401:00
#00401:00
#00401:00
#00401:00
#00401:007C7B00007B007C0000000000000000
#00406:030405060708090A0B0C0D0E0F0G0H0I030405060708090A0B0C0D0E0F0G0H0I
#00411:0400000400040000
#00412:0T00007V00000V00007C007V007B007C
#00413:0F0F0F0F0F0F0F0F
#00414:100U001200000000
#00415:000H000H000H000H000H000H000H000H
#00416:0K00000J000J0000
#00418:00117C007B007C7V
#00419:7B00007V007B0000
#00501:00
#00501:00
#00501:00
#00501:00
#00501:00
#00501:00
#00501:00
#00501:00
#00501:00
#00501:00
#00501:00
#00501:00
#00501:00
#00501:007C007V000000000000000000000000
#00506:030405060708090A0B0C0D0E0F0G0H0I030405060708090A0B0C0D0E0F0G0H0I
#00511:0400000400040007
#00512:00000X00007B007C007C007V007B0000
#00513:0F0F0F0F0F0F0F0F
#00514:0W14000Y00000000
#00515:000H000H000H000H000H000H000H000H
#00516:0K00000J000J0000
#00518:137B7C157B007C7V
#00519:7B00000000007V0000007B000000007C
#00601:00
#00601:00
#00601:00
#00601:00
#00601:00
#00601:00
#00601:00
#00601:00
#00601:00
#00601:00
#00601:00030003000300030003000300030003
#00601:00
#00601:00
#00601:7B7C007V7C7B007C7B7C007V7C7B007C
#00601:00
#00601:00
#00601:00
#00601:00
#00601:00
#00601:00
#00601:00
#00601:00
#00601:00
#00601:00
#00601:00
#00601:00
#00601:00
#00601:00
#00601:00
#00601:00
#00601:00
#00601:0O
#00606:030405060708090A0B0C0D0E0F0G0H0I030405060708090A0B0C0D0E0F0G0H0I
#00611:04040404
#00612:0001000100010001
#00613:2H000L00002J0L00
#00614:002I002I0200022I
#00615:0002020200020002
#00616:0C
#00618:022J2L2K
#00619:007B007V007B007V
#00701:00
#00701:00
#00701:00
#00701:00
#00701:00
#00701:00
#00701:00
#00701:00
#00701:00
#00701:00
#00701:00030003000300030003000300030003
#00701:00
#00701:00
#00701:007C007V7C7B7V7C007C007V7C7B007C
#00706:030405060708090A0B0C0D0E0F0G0H0I030405060708090A0B0C0D0E0F0G0H0I
#00711:04040404
#00712:000100017B000L00
#00713:2H002K0002010001
#00714:002J002L002I0200
#00715:020002002M002L2J
#00718:7B020L0200020002
#00719:007B007V007B007V
#00801:00
#00801:00
#00801:00
#00801:00
#00801:00
#00801:00
#00801:00
#00801:00
#00801:00
#00801:00
#00801:00030003000300030003000300030003
#00801:00
#00801:00
#00801:007E007W7E7D007E7D7E007W7E7D007E
#00806:030405060708090A0B0C0D0E0F0G0H0I030405060708090A0B0C0D0E0F0G0H0I
#00811:7D040404
#00812:04000L0100010001
#00813:0001002I002L0L00
#00814:2K00020002002M7W
#00815:002L2M002N000200
#00818:02020002007D002N
#00819:007D007W00020002
#00901:00
#00901:00
#00901:00
#00901:00
#00901:00
#00901:00
#00901:00
#00901:00
#00901:00
#00901:00
#00901:00030003000300030003000300030003
#00901:00
#00901:00
#00901:7D7E007W7E7D007E007E007W7E7D007E
#00906:030405060708090A0B0C0D0E0F0G0H0I030405060708090A0B0C0D0E0F0G0H0I
#00911:04040404
#00912:0001000100010001
#00913:2I000L2J7D000L2O
#00914:007D2L00007D2J00
#00915:02000200022K0200
#00918:002M007W2L00007W
#00919:0002000200020002
#01001:00
#01001:00
#01001:00
#01001:00
#01001:00
#01001:00
#01001:00
#01001:00
#01001:00
#01001:00
#01001:00030003000300030003000300030003
#01001:00
#01001:00
#01001:007G007X007F007G007G007X007F007G
#01006:030405060708090A0B0C0D0E0F0G0H0I030405060708090A0B0C0D0E0F0G0H0I
#01011:04040404
#01012:00017G0100017G01
#01013:2H0L7F0L
#01014:7F2I002I002J002I
#01015:0200027X0200027X
#01018:007F2J002L7F2K00
#01019:0002000200020002
#01101:00
#01101:00
#01101:00
#01101:00
#01101:00
#01101:00
#01101:00
#01101:00
#01101:00
#01101:00
#01101:00030003000300030003000300030003
#01101:00
#01101:00
#01101:007G007X007F007G007G007X007F007G
#01106:030405060708090A0B0C0D0E0F0G0H0I030405060708090A0B0C0D0E0F0G0H0I
#01111:04040404
#01112:0001000100017G00
#01113:2H002K007F000L2J
#01114:002J002L007F007X
#01115:0200027X022I0200
#01118:7F7F7G002M002L01
#01119:00020L0200020002
#01201:00
#01201:00
#01201:00
#01201:00
#01201:00
#01201:00
#01201:00
#01201:00
#01201:00
#01201:00
#01201:00030003000300030003000300030003
#01201:00
#01201:00
#01201:007C007V007B007C007C007V7C7B007C
#01206:030405060708090A0B0C0D0E0F0G0H0I030405060708090A0B0C0D0E0F0G0H0I
#01211:04040404
#01212:00017C0000010001
#01213:7B000L017B2L0L00
#01214:002L002I007B2M00
#01215:027B02000200022N
#01218:2K002M7V2N00007V
#01219:0002000200020002
#01301:00
#01301:00
#01301:00
#01301:00
#01301:00
#01301:00
#01301:00
#01301:00
#01301:00
#01301:00
#01301:00030003000300030003000300030003
#01301:00
#01301:00
#01301:007C007V7C7B007C007C007V7C7B007C
#01306:030405060708090A0B0C0D0E0F0G0H0I030405060708090A0B0C0D0E0F0G0H0I
#01311:04040404
#01312:0001000100010001
#01313:7B000L2J007B0L2O
#01314:2I7B2L007B002J00
#01315:02000200022K0200
#01316:000000000000000000000000008M0000
#01318:002M007V2L00007V
#01319:0002000200020002
#01401:00
#01401:00
#01401:00
#01401:00
#01401:00
#01401:00
#01401:00
#01401:00
#01401:00
#01401:00
#01401:00030003000300030003000300030003
#01401:00
#01401:00
#01401:007C007V007B007C007C007V7C7B007C
#01406:030405060708090A0B0C0D0E0F0G0H0I030405060708090A0B0C0D0E0F0G0H0I
#01411:04040404
#01412:007B0L7V007B0L00
#01413:2H007C007B00002I
#01414:7B2I002I002J007V
#01415:02020202
#01418:00012J0100012K01
#01419:000200022L020002
#01501:00
#01501:00
#01501:00
#01501:00
#01501:00
#01501:00
#01501:00
#01501:00
#01501:00
#01501:00
#01501:00030003000300030003000300030003
#01501:00
#01501:00
#01501:007C007V7C7B007C007C007V7C7B007C
#01506:030405060708090A0B0C0D0E0F0G0H0I030405060708090A0B0C0D0E0F0G0H0I
#01511:04040404
#01512:2H0L7B0L
#01513:002J007V002I007V
#01514:7B7B2K00007B002J
#01515:0200022L02000200
#01518:0001000100012L01
#01519:000200022M020002
#01601:00
#01601:00
#01601:00
#01601:00
#01601:00
#01601:00
#01601:00
#01601:00
#01601:00
#01601:00
#01601:00030003000300030003000300030003
#01601:00
#01601:00
#01601:007E007W7E7D007E007E007W7E7D007E
#01606:030405060708090A0B0C0D0E0F0G0H0I030405060708090A0B0C0D0E0F0G0H0I
#01611:04040404
#01612:7D7D0L007D000L00
#01613:2K00007W002L007W
#01614:002L002I007D2M00
#01615:020002000200022N
#01618:00012M0100010001
#01619:000200022N020002
#01701:00
#01701:00
#01701:00
#01701:00
#01701:00
#01701:00
#01701:00
#01701:00
#01701:00
#01701:00
#01701:00030003000300030003000300030003
#01701:00
#01701:00
#01701:007E007W7E7D007E007E007W7E7D007E
#01706:030405060708090A0B0C0D0E0F0G0H0I030405060708090A0B0C0D0E0F0G0H0I
#01711:04040404
#01712:7D0L7D0L
#01713:2I00002J007D002O
#01714:007D2L7W00002J7W
#01715:022M0200022K0200
#01718:000100012L010001
#01719:0002000200020002
#01801:00
#01801:00
#01801:00
#01801:00
#01801:00
#01801:00
#01801:00
#01801:00
#01801:00
#01801:00
#01801:00030003000300030003000300030003
#01801:00
#01801:00
#01801:007G007X7G7F007G007G007X7G7F007G
#01806:030405060708090A0B0C0D0E0F0G0H0I030405060708090A0B0C0D0E0F0G0H0I
#01811:04040404
#01812:7F0L7F0L
#01813:2H7F007X007F002I
#01814:002I002I002J007X
#01815:02020202
#01818:00012J0100012K01
#01819:000200022L020002
#01901:00
#01901:00
#01901:00
#01901:00
#01901:00
#01901:00
#01901:00
#01901:00
#01901:00
#01901:00
#01901:00030003000300030003000300030003
#01901:00
#01901:00
#01901:007G007X7G7F007G007G007X7G7F007G
#01906:030405060708090A0B0C0D0E0F0G0H0I030405060708090A0B0C0D0E0F0G0H0I
#01911:04040404
#01912:2H0L7F0L
#01913:002J007X002I007X
#01914:7F7F2K00007F002J
#01915:0200022L02000200
#01918:0001000100012L01
#01919:000200022M020002
#02001:00
#02001:00
#02001:00
#02001:00
#02001:00
#02001:00
#02001:00
#02001:00
#02001:00
#02001:00
#02001:00030003000300030003000300030003
#02001:00
#02001:00
#02001:007C007V007B007C007C007V7C7B007C
#02006:030405060708090A0B0C0D0E0F0G0H0I030405060708090A0B0C0D0E0F0G0H0I
#02011:04040404
#02012:7B7B0L7V007B0L00
#02013:2K007C007B2L007V
#02014:002L002I00002M00
#02015:020002000200022N
#02018:00012M0100010001
#02019:000200022N020002
#02101:0002020000000200
#02101:00
#02101:00
#02101:00
#02101:00
#02101:00
#02101:00
#02101:00
#02101:00
#02101:00
#02101:00
#02101:00
#02101:00
#02101:00007B7V7C7B7V7C7B007B007C7B7V00
#02106:030405060708090A0B0C0D0E0F0G0H0I030405060708090A0B0C0D0E0F0G0H0I
#02111:04000004000400000400040005000700
#02112:7B0000000L000005007C007V0006007C
#02113:2I05002J002K002O
#02114:000300002L000000020000002J000000
#02115:02002M00000300030003000300030003
#02116:0J000N0K00000I00
#02118:007C0003000001002L0001000L000100
#02119:0001000200020002
#02201:7B8F0000
#02201:00
#02201:00
#02201:00
#02201:04040400
#02201:00
#02201:000L000L
#02201:00
#02201:00
#02201:0001000100010001
#02201:0002020000020202
#02201:00
#02201:00
#02201:0000007C
#02201:00
#02201:8F8K0000008K8F008F8K8F008F8K0000
#02201:000000000000008E
#02201:00
#02201:00
#02201:00
#02201:00
#02201:00
#02201:00
#02201:00
#02201:00
#02201:00
#02201:00
#02201:00
#02201:00
#02201:00
#02201:00
#02201:0P
#02206:030405060708090A0B0C0D0E0F0G0H0I030405060708090A0B0C0D0E0F0G0H0I
#02211:1J0000001J00001K001J00001J000000
#02212:00030000000300030003000300030003
#02213:02001L007C00007C007C000004001L00
#02214:007C0003007B00000200007V007B007C
#02215:007B1802181K0018
#02216:0C
#02218:1700007V00001J007B0019001A000000
#02219:008F007V007B007V
#02301:00
#02301:00
#02301:00
#02301:00
#02301:00040000
#02301:00
#02301:0000000L
#02301:00
#02301:00
#02301:0001000100000001
#02301:02000200020302000000000002000000
#02301:00
#02301:00
#02301:7B007C007B7B7C00
#02301:00
#02301:8F0000008F0000008F0000008G8L8G8L8F0000008K0000008F00000000000000
#02301:000000000000008E
#02306:030405060708090A0B0C0D0E0F0G0H0I030405060708090A0B0C0D0E0F0G0H0I
#02311:1J7B1J1J02001J1L
#02312:000300030000180004001K0000030000
#02313:0400000019007V001B00020000000003
#02314:00001L00007B00030000010017000200
#02315:007C007V0000001K001J0003007B007C
#02318:19001A000L00007C0003000004007V00
#02319:008K0000008K0000007C007V008K0000
#02401:00
#02401:00
#02401:00
#02401:00
#02401:04040004
#02401:00
#02401:0000000L
#02401:00
#02401:00000000000300000000000000000000
#02401:0000000000000001
#02401:0000020000020002
#02401:00
#02401:00
#02401:7D7D7E7W7D7D7E7W
#02401:00
#02401:8F008F008F008F008F8K8F008F000000
#02401:000000000000008E
#02406:030405060708090A0B0C0D0E0F0G0H0I030405060708090A0B0C0D0E0F0G0H0I
#02411:000300000L001M0000001N000003007E
#02412:1M02000102011M00
#02413:007E00001M0002000400190000001O00
#02414:17000003007D000018000003007D0003
#02415:00001O001800001N0003000002001800
#02418:008K007W008K0003007E007W008K0000
#02419:020001000000007E001M00001A000000
#02501:00
#02501:00
#02501:00
#02501:00
#02501:00040004
#02501:00
#02501:000L0000
#02501:00
#02501:00
#02501:0000000000010001
#02501:0202020200020200
#02501:00
#02501:00
#02501:7D7D007W7D007E7W
#02501:00
#02501:8F0000008F0000008F0000008G8L8G8L8F0000008K0000008F008K0000000000
#02501:000000000000008E
#02506:030405060708090A0B0C0D0E0F0G0H0I030405060708090A0B0C0D0E0F0G0H0I
#02511:00030000008K00000200007W00000200
#02512:1M011M01047D1M00
#02513:007E000300001M001B001N0000030003
#02514:001O191800180L1O
#02515:0400007W0003001N001M0003007D007E
#02518:008K00007E0000030003000000001B00
#02519:1C001A00007D007E007E000019000000
#02601:0000000L
#02601:00
#02601:00
#02601:00
#02601:00040000
#02601:00
#02601:000L0000
#02601:00
#02601:00
#02601:0001000100010000
#02601:0200000000000202
#02601:00
#02601:00
#02601:7F007G007F7F7G7X
#02601:00
#02601:8F008F008F8K8F008F8K8F008F000000
#02601:000000000000008E
#02606:030405060708090A0B0C0D0E0F0G0H0I030405060708090A0B0C0D0E0F0G0H0I
#02611:00030000180000000003000300030000
#02612:170002000003007G007G00001P001800
#02613:007G00001P000003001P007X007F0003
#02614:1P000003007F001Q0000190004000000
#02615:001R021P021Q001R
#02618:008K007X0000020004000200008K007G
#02619:047F007X18001A01
#02701:00
#02701:00
#02701:00
#02701:00
#02701:00040000
#02701:00
#02701:000L000L
#02701:00
#02701:00
#02701:0001000100000000
#02701:0200020000020202
#02701:00
#02701:00
#02701:7F7F7G7X7F7F7G7X
#02701:00
#02701:8F0000008F0000008F0000008G8L8G8L8F0000008K0000008F00000000000000
#02701:000000000000008E
#02706:030405060708090A0B0C0D0E0F0G0H0I030405060708090A0B0C0D0E0F0G0H0I
#02711:0003000300030000001P007X00030000
#02712:1P000200008K001Q000300001P001G00
#02713:007G00001P000003007G001E007F0003
#02714:1900007X007F007G0000000300001R00
#02715:00001R00190018001D001D001F00007G
#02718:008K00000000020004001Q00008K0000
#02719:041A001P02010401
#02801:00
#02801:00
#02801:00
#02801:00
#02801:00000404
#02801:00
#02801:000L000L
#02801:00
#02801:00
#02801:0001000100010000
#02801:02000000020300000000000000000200
#02801:00
#02801:00
#02801:7B007C00007B7C7V
#02801:00
#02801:8F008F008F008F008F8K8F008F000000
#02801:000000000000008E
#02806:030405060708090A0B0C0D0E0F0G0H0I030405060708090A0B0C0D0E0F0G0H0I
#02811:170218007B000201
#02812:00030003000002000200020000030000
#02813:00007B0000007V001800190000000003
#02814:1S001S1S001T1S18
#02815:007C007V007B000300030003007B007C
#02818:04001U000400001T007C00001A001U00
#02819:008K0000008K007C001S007V008K0000
#02901:00
#02901:00
#02901:00
#02901:00
#02901:00000004
#02901:00
#02901:000L0000
#02901:00
#02901:00
#02901:0001000100010000
#02901:0202020000000202
#02901:00
#02901:00
#02901:7B7B7C0000007C7V
#02901:00
#02901:8F0000008F0000008F008K008G8L8G8L8F0000008K0000008F00000000000000
#02901:000000000000008E
#02906:030405060708090A0B0C0D0E0F0G0H0I030405060708090A0B0C0D0E0F0G0H0I
#02911:0003000300001E000400020000030000
#02912:04001F1S1B180L1B
#02913:007C007V007B000300030003007B0003
#02914:1S001U001S00001T001S00001S000100
#02915:008K00000003007C007C007V008K0000
#02916:000000000000000000000000008M0000
#02918:0000001I0000020002001T0000001U00
#02919:1H001H0004007V007B007B001900007C
#03001:00
#03001:00
#03001:00
#03001:00
#03001:00
#03001:00
#03001:000L000L
#03001:00000000000300000000000000000000
#03001:00
#03001:0001000100010000
#03001:0200020000000202
#03001:00
#03001:00
#03001:7B007C007B7B7C7V
#03001:00
#03001:8F008F008F008F008F8K8F008F000000
#03001:000000000000008E
#03006:030405060708090A0B0C0D0E0F0G0H0I030405060708090A0B0C0D0E0F0G0H0I
#03011:0402047V021K0401
#03012:00030003000002000400020000030000
#03013:00001L0000001J00180019001J000003
#03014:170000001J0000000003000000001L00
#03015:007C007V007B001K001J0003007B007C
#03018:1J007B0018000003007C00001A001800
#03019:008K0000008K007C0000007V008K0000
#03101:00
#03101:007B
#03101:00
#03101:00
#03101:00
#03101:00
#03101:000L000L
#03101:00
#03101:00
#03101:0001000100010001
#03101:0202020000000200
#03101:00
#03101:00
#03101:7B007C7V00007C00
#03101:00000000008K00000000000000000000
#03101:8F0000008F0000008F0000008G8L8G8L8F0000008K0000008F00000000000000
#03101:000000000000008E
#03106:030405060708090A0B0C0D0E0F0G0H0I030405060708090A0B0C0D0E0F0G0H0I
#03111:00030000000300000003000300030000
#03112:04007B001J00007C001J00001J000200
#03113:007C0003007B0003007C007V00000003
#03114:1J001L000400001K0000000004001L00
#03115:0000007V0000180004001K00007B007C
#03118:008K000019001J001B007B0017007V00
#03119:19001A000000020002000200008K0000
#03201:00
#03201:00
#03201:00
#03201:00
#03201:00
#03201:00
#03201:000L000L
#03201:00
#03201:00
#03201:0001000100010001
#03201:02000000020300000000000002000000
#03201:00
#03201:007D
#03201:7D007E00007D7E7W
#03201:00
#03201:8F008F008F008F008F8K8F008F000000
#03201:000000000000008E
#03206:030405060708090A0B0C0D0E0F0G0H0I030405060708090A0B0C0D0E0F0G0H0I
#03211:00030000007D001N0000000300030000
#03212:040002000400007E001M000004001800
#03213:007E0000008K0003007E007W007D0003
#03214:1M00000300001M00000300001M000000
#03215:001O187W041N001O
#03218:008K007W0000020018001900008K007E
#03219:177D1M0002021A02
#03301:00
#03301:00190000
#03301:00
#03301:00
#03301:00
#03301:00
#03301:000L000L
#03301:00
#03301:00
#03301:0000000100010001
#03301:0202020000000200
#03301:00
#03301:00
#03301:7D7D7E7W7D7D7E7W
#03301:00
#03301:8F0000008F0000008F0000008G8L8G8L8F0000008K0000008F00000000000000
#03301:000000000000008E
#03306:030405060708090A0B0C0D0E0F0G0H0I030405060708090A0B0C0D0E0F0G0H0I
#03311:00030000040002000200000004000200
#03312:0400000300001M000400020000030003
#03313:001A1M181B18001B
#03314:007E007W007D007E00001N001M000000
#03315:1M001O000000001N007E0003007D007E
#03318:008K000000030003001M000019001O00
#03319:1C000100008K00000003007W008K0000
#03401:00
#03401:00
#03401:00
#03401:00000000000300000000000000000000
#03401:00
#03401:00
#03401:000L000L
#03401:00
#03401:00
#03401:0001000100010000
#03401:0200020000000202
#03401:00
#03401:00
#03401:7F007G00007F7G7X
#03401:00
#03401:8F008F008F008F008F8K8F008F000000
#03401:000000000000008E
#03406:030405060708090A0B0C0D0E0F0G0H0I030405060708090A0B0C0D0E0F0G0H0I
#03411:04000200007F007G007G000300030000
#03412:00030000040000030003000004001800
#03413:00000003008K001Q001P007X007F0003
#03414:1P7F1P1P02021P00
#03415:007G007X000002000400190000001R00
#03418:17001R0000007X007F001Q00008K007G
#03419:008K000018000000180000001A000100
#03501:00
#03501:00
#03501:00
#03501:00
#03501:00
#03501:00
#03501:000L000L
#03501:00
#03501:00
#03501:0001000000010001
#03501:0200020200000200
#03501:00
#03501:00
#03501:7F007F007G007X0000007F7X7G007X00
#03501:00
#03501:8F0000008F0000008F008K008G8L8G8L8F0000008K0000008F00000000000000
#03501:000000000000008E
#03506:030405060708090A0B0C0D0E0F0G0H0I030405060708090A0B0C0D0E0F0G0H0I
#03511:00030000040000000400000004001G00
#03512:04000200000001001D001D0000030000
#03513:007G0003000018000200020000000003
#03514:1P1R1P1P7F1Q1P1R
#03515:0000007X0003007G007G001E007F007G
#03518:008K000019000003000300001F000200
#03519:19001A00007F001Q001P0003008K0000
#03601:00
#03601:00
#03601:00
#03601:00
#03601:00
#03601:00
#03601:000L000L
#03601:00
#03601:00
#03601:0001000000010001
#03601:0200020000000202
#03601:00
#03601:0000007C
#03601:7B7C7B00
#03601:00
#03601:8F008F008F8K8F008F8K8F008F000000
#03601:000000000000008E
#03606:030405060708090A0B0C0D0E0F0G0H0I030405060708090A0B0C0D0E0F0G0H0I
#03611:000300000400010000001T0004007V00
#03612:1700020000007V0004007B0000030000
#03613:007C000300001S00020019000000007C
#03614:1S7B180218021S18
#03615:0000007V0003000300030003007B0003
#03618:008K00001S00001T001S00001A001U00
#03619:04001U00007B007C007C007V008K0000
#03701:00
#03701:00
#03701:00
#03701:00
#03701:00
#03701:00
#03701:000L000L
#03701:00
#03701:0000000000180000
#03701:0001000100010000
#03701:02000000020000000000000000030003
#03701:00
#03701:7B7B00007B000000
#03701:000000007C000000000000007C7B007C
#03701:00
#03701:8F0000008F0000008F008K008G8L8G8L8F0000008K0000008F008K0000000000
#03701:000000000000008E
#03706:030405060708090A0B0C0D0E0F0G0H0I030405060708090A0B0C0D0E0F0G0H0I
#03711:008K00000003001T001S000004000700
#03712:04000200040000030003000300001B00
#03713:0003001I007B007C007C00001S000200
#03714:1S001H001F001E001B00007V00000000
#03715:007C000300001S0004001T0002007V00
#03716:0J000N0K00000I00
#03718:1H1U1S0202021901
#03719:0000007V00007V0000007B0000001U00
#03801:00
#03801:00
#03801:00
#03801:00
#03801:00
#03801:00
#03801:000L000L
#03801:00
#03801:00
#03801:0000000000010001
#03801:00030003000300030003000300030003
#03801:00
#03801:00
#03801:007C007V007B007C007C007V007B007C
#03801:00
#03801:00
#03801:00
#03801:00
#03801:00
#03801:00
#03801:00
#03801:00
#03801:00
#03801:00
#03801:00
#03801:00
#03801:00
#03801:00
#03801:00
#03801:00
#03801:00
#03801:0Q
#03806:03000400050006000700080009000A000B000C00000D0E000F000G000H000I0003000400050006000700080009000A000B000C000D000E000F000G000H000I00
#03811:617C0404
#03812:04025J7V00020000
#03813:005K005K02000202
#03814:5J000200005L0000
#03815:02010002007B005M
#03816:0C
#03818:7B7B04017B00007V
#03819:2U002V2W00007C00
#03901:00
#03901:00
#03901:00
#03901:00
#03901:04
#03901:00
#03901:000L000L
#03901:00
#03901:000000000000007V
#03901:0001000100010000
#03901:00030003000300030003000300030000
#03901:00
#03901:00
#03901:007C007V007B007C007C007V007B007C
#03906:030405060708090A0B0C0D0E0F0G0H0I030405060708090A0B0C0D0E0F0G0H0I
#03911:5J5J0204
#03912:02005K0002005K000000020000000003
#03913:000200022M000202
#03914:2M0004007B5L0001
#03915:002P7C2P007B005M
#03918:62007B0000007V0000002P007C000064
#03919:7B002Q0004000063
#04001:00
#04001:00
#04001:00
#04001:0004
#04001:04000004
#04001:00
#04001:000L000L
#04001:00
#04001:00
#04001:0001000000000001
#04001:00030003000300030003000300000003
#04001:00
#04001:00
#04001:7F7G007X007F007G007G007X007F7X00
#04006:030405060708090A0B0C0D0E0F0G0H0I030405060708090A0B0C0D0E0F0G0H0I
#04011:5N005N0002026800
#04012:0000020004005O000000670000690000
#04013:025O00016600026A
#04014:2X0000000200020000007F000003006B
#04015:657F00007F5P0002
#04018:000000002Y002Z00000000007G00007G
#04019:00007G7X0001005Q
#04101:00
#04101:00
#04101:00
#04101:00
#04101:04
#04101:00
#04101:000L000L
#04101:00
#04101:00
#04101:0001000000010001
#04101:00030003000300030003000300030003
#04101:00
#04101:00
#04101:007G007X007F007G007G007X007F007G
#04106:030405060708090A0B0C0D0E0F0G0H0I030405060708090A0B0C0D0E0F0G0H0I
#04111:5N5N0404
#04112:7F5O005O002L0002
#04113:020202016D020200
#04114:002R0002025P0000
#04115:2P007G002R00007X
#04118:007F042P007F7G5Q
#04119:6C002Q7X7F000000
#04201:00
#04201:00
#04201:00
#04201:00
#04201:00
#04201:00
#04201:000L000L
#04201:00
#04201:00
#04201:0001000000000001
#04201:00030003000300030003000300030003
#04201:00
#04201:00
#04201:7H7I007Y007H007I007I007Y7I7H007I
#04206:030405060708090A0B0C0D0E0F0G0H0I030405060708090A0B0C0D0E0F0G0H0I
#04211:04040404
#04212:0202000100020002
#04213:5R0002020200005V
#04214:007H5R0000013200
#04215:6E007I31005U007Y
#04218:005S007Y7H000200
#04219:3000005T007H0000
#04301:00
#04301:00
#04301:00
#04301:00
#04301:00
#04301:00
#04301:000L000L
#04301:00
#04301:00
#04301:0001000100010000
#04301:00030003000300030003000300030003
#04301:00
#04301:00
#04301:007I007Y007H007I007I007Y007H007I
#04306:030405060708090A0B0C0D0E0F0G0H0I030405060708090A0B0C0D0E0F0G0H0I
#04311:04040404
#04312:5R020200022M0002
#04313:00005R022R000200
#04314:025S002P0002005V
#04315:6F7H2Q007H5U007Y
#04318:7H2T007Y6G007I00
#04319:2S007I5T007H0001
#04401:00
#04401:00
#04401:00
#04401:00
#04401:00
#04401:00
#04401:000L000L
#04401:00
#04401:00
#04401:0000000000010001
#04401:00030003000300030003000300000003
#04401:00
#04401:00
#04401:7F7G007X007F007G007G007X7G007X7G
#04406:030405060708090A0B0C0D0E0F0G0H0I030405060708090A0B0C0D0E0F0G0H0I
#04411:04040404
#04412:0200000002002Q000000020000030000
#04413:5O012T012T00025V
#04414:000002000000020000002S00007F0000
#04415:33005S00027F3F02
#04418:6H005U007G007X0000005U00003G0000
#04419:007F005T7F00003H
#04501:00
#04501:00
#04501:00
#04501:00
#04501:00
#04501:00
#04501:0000000L
#04501:00
#04501:00
#04501:0001000100000000
#04501:00030003000300030003000300030003
#04501:00
#04501:00
#04501:007K007Z007J007K007M0080007L007M
#04506:030405060708090A0B0C0D0E0F0G0H0I030405060708090A0B0C0D0E0F0G0H0I
#04511:04040404
#04512:5W000L0202010001
#04513:0002005Z0002005Y
#04514:345Y3502
#04515:6I5X007Z00600002
#04516:000000000000000000000000008M0000
#04518:027J02006J7L0080
#04519:7J7K7L7M
#04601:00
#04601:00000000006O0L02
#04601:00
#04601:00
#04601:00040400
#04601:00
#04601:000L0000
#04601:00
#04601:0000000200000000
#04601:0001000100010001
#04601:00030003020000000000000000000000
#04601:00
#04601:00
#04601:7B7C007V7C7B7V7C7B7C7B007C007V00
#04606:030405060708090A0B0C0D0E0F0G0H0I030405060708090A0B0C0D0E0F0G0H0I
#04611:045J023Q
#04612:02000200000300000003007V003R007C
#04613:005K3I5K3M5L023S
#04614:36000000003J0003003N00030003003T
#04615:007B003K6N3O045M
#04618:6K0000006K00003L0000003P00000003
#04619:5J006L0000006M0000000200007B0000
#04701:00
#04701:00
#04701:00
#04701:00
#04701:04
#04701:00
#04701:000L0000
#04701:00
#04701:00
#04701:0001000100010001
#04701:00000003000300030003000300030003
#04701:00
#04701:00
#04701:7B007B7V007B007C007C007V007B007C
#04706:030405060708090A0B0C0D0E0F0G0H0I030405060708090A0B0C0D0E0F0G0H0I
#04711:6K006K00046O0400
#04712:007C0000020000006N00020000000200
#04713:5J025J6M0200022M
#04714:006L0002005L0000
#04715:0203000004005K002P007B002R007V00
#04718:005K007V002Q0L5M
#04719:373800007C0000007B0000007C000000
#04801:0000006S00000000
#04801:00
#04801:00
#04801:00
#04801:00040400
#04801:00
#04801:000L000L
#04801:00
#04801:00
#04801:0001000100010000
#04801:00030003000002000000020000030003
#04801:00
#04801:00
#04801:007G007X7G7F7X7G007G7F007G7F7X7G
#04806:030405060708090A0B0C0D0E0F0G0H0I030405060708090A0B0C0D0E0F0G0H0I
#04811:5N003U00025P0401
#04812:02000200003I00007F00007X00000000
#04813:045O023J006U0202
#04814:390000000003003K003M000300005Q00
#04815:006Q005O3L3N3A3A
#04818:6P0000006R000003000300006V000000
#04819:7F007F005N0000006T00003O00006W00
#04901:00
#04901:005O5N5O00000000
#04901:0002007G
#04901:00
#04901:04040404
#04901:00
#04901:000L000L
#04901:00
#04901:00
#04901:0001000100010000
#04901:0000000000020002
#04901:00
#04901:00
#04901:7F007F007G007X007F007F0000007X7G
#04901:00
#04901:00
#04901:00
#04901:00
#04901:00
#04901:00
#04901:00
#04901:00
#04901:00
#04901:00
#04901:00
#04901:00
#04901:00
#04901:00
#04901:00
#04901:00
#04901:008O
#04906:030405060708090A0B0C0D0E0F0G0H0I030405060708090A0B0C0D0E0F0G0H0I
#04911:007G0000007F0000007G000000000100
#04912:5N0000030000003N000000030003003J
#04913:6X026Y3P025P023L
#04914:0003003P003R00030003003L003N0003
#04915:023R3T026Z3N3P00
#04918:003T00000003007G003P000070005Q00
#04919:3V00007X000000003R00007X007F0000
#05001:00
#05001:00
#05001:00
#05001:00
#05001:00
#05001:00
#05001:0000000L
#05001:00
#05001:00
#05001:0001000100010001
#05001:00030003000300030003000300030003
#05001:00
#05001:00
#05001:7H7I007Y7I7H7Y7I007I007Y007H007I
#05006:030405060708090A0B0C0D0E0F0G0H0I030405060708090A0B0C0D0E0F0G0H0I
#05011:71710204
#05012:00720L720002005V
#05013:5R005R007H5U7I02
#05014:005S023100000074
#05015:307H005T007H0200
#05018:020004000073007Y
#05019:0402000204003200
#05101:00
#05101:00
#05101:00
#05101:00
#05101:04040000
#05101:00
#05101:000L000L
#05101:00
#05101:00
#05101:0001000100010001
#05101:00030003000300030003000300030003
#05101:00
#05101:00
#05101:007I007Y007H007I007I007Y007H007I
#05106:030405060708090A0B0C0D0E0F0G0H0I030405060708090A0B0C0D0E0F0G0H0I
#05111:71710404
#05112:02720072002M0075
#05113:5R025R022R007402
#05114:005S022P00730200
#05115:7H002Q000202005V
#05118:002T007Y005U007Y
#05119:2S7H7I5T7H7H7I00
#05201:00
#05201:00
#05201:00
#05201:00
#05201:04040004
#05201:00
#05201:00
#05201:00
#05201:0F
#05201:0001000100010001
#05201:00000000020002000200020302000200
#05201:00
#05201:00
#05201:7F007F007G007X007F007F00007F7X7G
#05201:00
#05201:00
#05201:00
#05201:00
#05201:00
#05201:00
#05201:7677
#05206:030405060708090A0B0C0D0E0F0G0H0I030405060708090A0B0C0D0E0F0G0H0I
#05211:0200007X00002Q0004000F000F000F00
#05212:00000F002T00007G000H000H00030000
#05213:000H000H000300002T0000007G005V00
#05214:5O005U005S000F0000002S00000H000H
#05215:007G0000000H000H0003007X00003H00
#05218:330002000F005T000F005U003F000003
#05219:00030003007F0003007G0000003G0000
#05301:00
#05301:00
#05301:00040400
#05301:00
#05301:00
#05301:00
#05301:00
#05301:00000000000H000H0000000H000H000H
#05301:000F0F0000000F00
#05301:0001000000000000
#05301:00
#05301:00
#05301:00
#05301:00
#05301:00
#05301:00
#05301:00
#05301:00
#05301:00
#05301:00
#05301:7879
#05301:00
#05301:5W5X5Y5Z0060005Y
#05301:00
#05301:00
#05301:008J
#05301:00
#05301:00
#05301:00
#05301:00
#05301:0000008I
#05306:030405060708090A0B0C0D0E0F0G0H0I030405060708090A0B0C0D0E0F0G0H0I
#05311:0203000H00000F007L7M008000000700
#05312:0F0H0003000000030000010004000100
#05313:3B3C003B00000200020H000F00030003
#05314:000002000003007K0000020002000F00
#05315:7J00000002007Z000F030003007L007M
#05316:0J0000000N000K00005I00000I000000
#05318:007K007Z007J000000007L007M000200
#05319:04007J007K0001003D3E003D00008000
#05401:00
#05401:00
#05401:00
#05401:00
#05401:00
#05401:00
#05401:00
#05401:00
#05401:00
#05401:00
#05401:00
#05401:00
#05401:00
#05401:00
#05401:00
#05401:00
#05401:00
#05401:00
#05401:00
#05401:00
#05401:00
#05401:00
#05401:00
#05401:00
#05401:00
#05401:00
#05401:00
#05401:00
#05401:00
#05401:00
#05401:00
#05401:0R
#05403:5C
#05406:030405060708090A0B0C0D0E0F0G0H0I030405060708090A0B0C0D0E0F0G0H0I
#05411:08
#05413:000D
#05414:7A
#05416:0C
#05418:89898989
#05506:030405060708090A0B0C0D0E0F0G0H0I030405060708090A0B0C0D0E0F0G0H0I
#05514:8A8A8A8A
#05606:030405060708090A0B0C0D0E0F0G0H0I030405060708090A0B0C0D0E0F0G0H0I
#05613:000D
#05615:8B8B8B8B
#05701:00
#05701:00
#05701:00
#05701:00
#05701:00
#05701:00
#05701:00
#05701:00
#05701:00
#05701:00
#05701:00
#05701:00
#05701:00
#05701:00
#05701:00
#05701:00
#05701:00
#05701:00
#05701:00
#05701:00
#05701:00
#05701:00
#05701:00
#05701:00
#05701:00
#05701:00
#05701:00
#05701:00
#05701:00
#05701:00
#05701:008D
#05701:8H
#05706:030405060708090A0B0C0D0E0F0G0H0I030405060708090A0B0C0D0E0F0G0H0I
#05716:0000000000000000000B000000000000
#05719:8C8C8C8C
#05806:030405060708090A0B0C0D0E0F0G0H0I030405060708090A0B0C0D0E0F0G0H0I
#05811:04000004040000040004000404000000
#05813:89898989
#05814:000M000M
#05815:85858585
#05816:0C
#05818:0009000900090009
#05819:0E0E0E0E0E0E0E0E
#05906:030405060708090A0B0C0D0E0F0G0H0I030405060708090A0B0C0D0E0F0G0H0I
#05911:04000004040000040004000404000000
#05912:8A8A8A8A
#05913:000M000M
#05914:8600000086000000860000008600000F
#05915:00000000000000000000000000000000000000000000000000000000000H0000
#05918:000900090009000F
#05919:0E0E0E0E0E0E0E0E
#06006:030405060708090A0B0C0D0E0F0G0H0I030405060708090A0B0C0D0E0F0G0H0I
#06011:04000004040000040004000404050400
#06012:000000000E0000000E000000000000000E000000000000000E00000600000000
#06013:8B000M0E000E0M0E
#06014:000000008B0000008B0000008B00000A
#06015:000A000A000A000A000A000A000A0000
#06016:0I
#06018:8700870087008709
#06019:0909090909090900
#06101:00
#06101:00
#06101:00
#06101:00
#06101:00
#06101:00
#06101:00
#06101:00
#06101:00
#06101:00
#06101:00
#06101:0E0E0E0E
#06106:030405060708090A0B0C0D0E0F0G0H0I030405060708090A0B0C0D0E0F0G0H0I
#06111:04000004040000040004000404000000
#06112:000E0M0E000E0M0E
#06113:8C8C8C8C
#06114:0000000H0000000H0000000H0000000H0000000H0000000H0000000H0000000H
#06115:880F000F880F000F880F000F880F000F
#06118:000H0000000H0000000H0000000H0000000H0000000H0000000H0000000H0000
#06119:0F0F0F0F0F0F0F0F
#06201:00
#06201:00
#06201:00
#06201:00
#06201:00
#06201:00
#06201:00
#06201:00
#06201:00
#06201:00
#06201:00
#06201:00
#06201:00
#06201:000000007C7B00000000000000000000
#06201:00
#06201:00
#06201:00
#06201:00
#06201:00
#06201:00
#06201:00
#06201:00
#06201:00
#06201:00
#06201:00
#06201:00
#06201:00
#06201:00
#06201:00
#06201:00
#06201:00
#06201:2A
#06203:B8
#06206:030405060708090A0B0C0D0E0F0G0H0I030405060708090A0B0C0D0E0F0G0H0I
#06211:0800000000000000000000007C000042
#06212:0000000000007V7C0000007V007B0000
#06213:00007B00000000007B007B004000007C
#06214:007C007V00005152007C003Z003Z0000
#06215:7B40000041410040
#06216:0C
#06218:003Z003Z00004Z50003Y000000000000
#06219:3Y0000000000007V
#06301:00
#06301:00
#06301:00
#06301:00
#06301:00
#06301:00
#06301:00
#06301:00
#06301:00
#06301:00
#06301:00
#06301:00
#06301:00
#06301:0000000000007X7G0000007X0000007G
#06306:030405060708090A0B0C0D0E0F0G0H0I030405060708090A0B0C0D0E0F0G0H0I
#06311:0000000000000000007G000000480000
#06312:430000007G7F00007F007F0046004600
#06313:00400000000000000000000000470000
#06314:7F0000003Z000000550056000055000000004000000000004500000045000000
#06315:007G003Y000000003Z003Z00007F0000
#06318:000000007F000000530054000053000000000000000000007G0000007X000000
#06319:0000007X000000000000000000000000
#06401:00
#06401:00
#06401:00
#06401:00
#06401:00
#06401:00
#06401:00
#06401:00
#06401:00
#06401:00
#06401:00
#06401:00
#06401:00
#06401:0000000000000000000000000000007I
#06406:030405060708090A0B0C0D0E0F0G0H0I030405060708090A0B0C0D0E0F0G0H0I
#06411:7H00007Y00000057
#06412:00007H00007H004G4G007H0000480000
#06413:00007I00000000007I0000004F00000000007I00000000004600000000580000
#06414:4C00007Y004E007I7H00480000007Y59
#06415:000000004E0000004D000000000000000000460000007Y0000007H000000005A
#06418:004D000000000000000000007I000000
#06419:00000048000000000000004700000000
#06501:00
#06501:00
#06501:00
#06501:00
#06501:00
#06501:00
#06501:00
#06501:00
#06501:00
#06501:00
#06501:00
#06501:00
#06501:00
#06501:000000810000007O0000008200000000
#06501:00
#06501:00
#06501:00
#06501:00
#06501:00
#06501:00
#06501:00
#06501:00
#06501:00
#06501:00
#06501:00
#06501:00
#06501:00
#06501:00
#06501:00
#06501:00
#06501:0G
#06506:030405060708090A0B0C0D0E0F0G0H0I030405060708090A0B0C0D0E0F0G0H0I
#06511:004E4E00004D4D007P0000007Q000000
#06512:00464600450000000048480043000000
#06513:4H000000004I4I004200000000464A46
#06514:4200000043000000004H4H003Z000000
#06515:007O7N00007N81004000000000424942
#06518:3Z0000004J000000007Q7P004L000000
#06519:7N0000007O0000004K000000007P827Q
#06606:030405060708090A0B0C0D0E0F0G0H0I030405060708090A0B0C0D0E0F0G0H0I
#06611:00004600000000000000000000470000
#06612:0047004700000000007C000040004500
#06613:00007B004500007C0000003Z007B007C
#06614:4500007V004200007B007B007C000000
#06615:007C00007C0043000040007V00007V00
#06618:7B000000007B00400000410000000042
#06619:0000007V3Z000000
#06706:030405060708090A0B0C0D0E0F0G0H0I030405060708090A0B0C0D0E0F0G0H0I
#06711:000000003Z0000000000004Q00000000
#06712:007M000000410000000000004R000000
#06713:00007L007M003Y007L000080004S0000
#06714:00420080007L004L007M00007M004T00
#06715:7L004300000080004N007L00007L007M
#06718:000000400000007M004O000000008000
#06719:430000000000000000004P000000004U
#06801:00
#06801:00
#06801:00
#06801:00
#06801:00
#06801:00
#06801:00
#06801:00
#06801:00
#06801:00
#06801:00
#06801:00
#06801:00
#06801:00007D007E00007E0000000000000000
#06806:030405060708090A0B0C0D0E0F0G0H0I030405060708090A0B0C0D0E0F0G0H0I
#06812:4300000000000000007E000000000041
#06813:003Z004B003Z4B007D007D0000007W00
#06814:7D000000000000000041007W007D007E
#06815:007E007W007D7W003Y003Y007E003Y00
#06818:003X003Y003X3Y000000004L004L0000
#06819:0000004N
#06906:030405060708090A0B0C0D0E0F0G0H0I030405060708090A0B0C0D0E0F0G0H0I
#06911:3Y3Y3Y00
#06912:004L004L004L004L004L00000000007U
#06913:007R0083004N7U84
#06914:0000000000000000007U004O007T0000
#06915:7R007S007T7T4P00
#06916:00000000000B0000
#06918:007S0083007R007S00000084004Q004S
#06919:004N004N0000004T
#07001:00
#07001:00
#07001:00
#07001:00
#07001:04040404
#07001:00
#07001:000L000L
#07001:00
#07001:00
#07001:0001000100010001
#07001:00
#07001:00
#07001:00
#07001:00
#07001:00
#07001:00
#07001:1S001U001S001S1T001S1T001S001U00
#07001:00
#07001:2B2C2D2E2F2C2G2C
#07001:8F8K8F008F8K8F008F8K8F008F8K0000
#07001:000000000000008E
#07001:00
#07001:00
#07001:00
#07001:00
#07001:00
#07001:00
#07001:00
#07001:00
#07001:00
#07001:00
#07001:0S
#07006:030405060708090A0B0C0D0E0F0G0H0I030405060708090A0B0C0D0E0F0G0H0I
#07011:45004000000300004500020002007V00
#07012:00000003000000030003000300030000
#07013:0200020002007V00020043003Z00007C
#07014:003Z003Z007B007C0042004000000200
#07015:7B007B007C0040007B00000000410003
#07016:0C
#07018:0003007V003Z003Z00007B007C003Y00
#07019:007C000041000200007C007V007B004L
#07101:00
#07101:00
#07101:00
#07101:00
#07101:04000404
#07101:00
#07101:000L000L
#07101:00
#07101:00
#07101:0001000100000001
#07101:00000000000000030000000000000000
#07101:00
#07101:00
#07101:000000007G007X7G7F007F7X00000000
#07101:00
#07101:00
#07101:1P001R001P001P1Q001P1Q001P001R00
#07101:00
#07101:2B2C2D2E2F2C2G2C
#07101:8F8K8F008F8K000000008K008F8K0000
#07101:000000000000008E
#07106:030405060708090A0B0C0D0E0F0G0H0I030405060708090A0B0C0D0E0F0G0H0I
#07111:0003007X007F00004V0000004700007G
#07112:02007F0002000042004G000000450000
#07113:007G0040000040008F004E0002004200
#07114:7F0000003Z000000000041000000008L00007G00000048000000030000004000
#07115:004100003Y00028G020001007G000200
#07118:3Y0000000000030000000300008L0000000003000000030000007F0000000300
#07119:0002048G0002007X
#07201:00
#07201:00
#07201:00
#07201:00
#07201:04040004
#07201:00
#07201:000L000L
#07201:00
#07201:00
#07201:0001000100010001
#07201:00
#07201:00
#07201:00
#07201:000000007I7H007I0000000000000000
#07201:00
#07201:00
#07201:1M001O001M001M1N00001N001M001O00
#07201:00
#07201:2B2C2D2E2F2C2G2C
#07201:8F8K8F008F8K8F008F8K8F008F8K0000
#07201:000000000000008E
#07206:030405060708090A0B0C0D0E0F0G0H0I030405060708090A0B0C0D0E0F0G0H0I
#07211:0000020000030042001M0000007H0003
#07212:5G005H00005G00000200000002000000020000003Y000000020000007Y000000
#07213:020300030000003Z0003004L00030000
#07214:00007H00002L00007H0002004P000200
#07215:5E005F00005E00003Z0000007Y00000000007I000000030000005B0000007I00
#07218:0000000000007Y0000002R0000000300000000007H0000007I00005C00000000
#07219:7H7I00003Y0000000400007Y00005D00
#07301:00
#07301:00
#07301:0000000200000000
#07301:00
#07301:04040400
#07301:00
#07301:000L0000
#07301:00
#07301:00
#07301:0001000100010001
#07301:02030200000000030000000000000000
#07301:00
#07301:00
#07301:000000007O7N817O7P7Q7P007Q7P827Q
#07301:00
#07301:00
#07301:1V001X001V001V1W001P1Q001P001R00
#07301:00
#07301:2B2C2D2E2F2C2G2C
#07301:8F8K8F008F8K000000008K008F8K0000
#07301:000000000000008E
#07306:030405060708090A0B0C0D0E0F0G0H0I030405060708090A0B0C0D0E0F0G0H0I
#07311:004E4E00020000000200000004000000
#07312:00464600004D4D004K0000000L000049
#07313:4H00000000000000450000000000008L0000480048000000000000003Z000000
#07314:42000003004I4I8G4200000300030003
#07315:00007O007N00000043000000008L000000004H004H0000000200000002000000
#07318:3Z00008100038G0040000082004K0000
#07319:7N0000004J0000008F0302004L000000
#07401:00
#07401:00
#07401:00
#07401:00
#07401:00040404
#07401:00
#07401:000L000L
#07401:00
#07401:00
#07401:0001000100010001
#07401:0000000000020000
#07401:00
#07401:00
#07401:7B7C7B7V7C007V7C007C7B007C007V00
#07401:00
#07401:00
#07401:00
#07401:00
#07401:2B2C2D2E2F2C2G2C
#07401:8F8K8F008F8K8F008F8K8F008F8K0000
#07401:000000000000008E
#07406:030405060708090A0B0C0D0E0F0G0H0I030405060708090A0B0C0D0E0F0G0H0I
#07411:1S0002001S001S00001S0000007B007C
#07412:00030000007B001T000300001S001U00
#07413:04000003000043000200000300470000
#07414:000046000200004000001T0040004500
#07415:02000047000300030040003Z00030042
#07418:00470000450002007B00410002000200
#07419:45001U00004200003Z00007V00000003
#07501:00
#07501:00
#07501:00
#07501:00
#07501:04040404
#07501:00
#07501:000L000L
#07501:00
#07501:00
#07501:0001000100010001
#07501:00000000000002030000000000030200
#07501:00
#07501:00
#07501:7L007L807M7L807M7L7M7L00007L8000
#07501:00
#07501:00
#07501:00
#07501:00
#07501:2B2C2D2E2F2C2G2C
#07501:8F8K8F008F8K000000008K008F8K0000
#07501:000000000000008E
#07506:030405060708090A0B0C0D0E0F0G0H0I030405060708090A0B0C0D0E0F0G0H0I
#07511:0042000000003Y008F0002004R000000
#07512:1Y000000200000001Y0000000000008L00001Y00000000001Y00000020000000
#07513:0003000300008G8G00000003004S0003
#07514:020000004300000002000000008L00004N0000001Z000000020000004T000000
#07515:007M00400003004L004O00800000007M
#07518:43003Z1Y024P7M00
#07519:000002000041001Z0003004Q0000004U
#07601:00
#07601:00
#07601:00
#07601:00
#07601:04040404
#07601:00
#07601:0000000L
#07601:00
#07601:00
#07601:0000000100010001
#07601:02000000020000000003020002030200
#07601:00
#07601:00
#07601:00007D00007D7W7E7D7E7D7W7E7D7W7E
#07601:00
#07601:00
#07601:00
#07601:00
#07601:2B2C2D2E2F2C2G2C
#07601:8F8K8F008F8K8F008F8K8F008F8K0000
#07601:000000000000008E
#07606:030405060708090A0B0C0D0E0F0G0H0I030405060708090A0B0C0D0E0F0G0H0I
#07611:21000100210000030021000021000000
#07612:7D230L2143224N23
#07613:000300030000002200400003004O0003
#07614:43027E004B3Z3Y4P
#07615:003Z004B003Z4B0000410041004L004Q
#07618:007E007W0003020002003Y0000004N00
#07619:003X003Y003X3Y000000004L0000004O
#07701:0000004R00000000
#07701:00000404
#07701:00
#07701:00
#07701:00
#07701:00
#07701:00
#07701:00
#07701:00
#07701:00000100007R00000000010000000100
#07701:02000000020002030003000002000200
#07701:00
#07701:00
#07701:7R7S7R837S00837S7T007T007U008400
#07701:00
#07701:00
#07701:00
#07701:00
#07701:2B2C2D2E2F2C2G2C
#07701:8F8K8F008F8K000000008K008F8K0000
#07701:000000000000008E
#07706:030405060708090A0B0C0D0E0F0G0H0I030405060708090A0B0C0D0E0F0G0H0I
#07711:240002000400004P007U0084007T0000
#07712:00030000240024004X00020027000700
#07713:0000260000030025002700000003004K
#07714:040000000L0001000200000300002900
#07715:004P0003004X008G000028000L00007U
#07716:0J000N0K00000I00
#07718:4R0000004X0000004P000000008L008L00004R0000004X0000004Y0000000000
#07719:0000004R00008G008F004P004S004X03
#07801:0000002G
#07801:00
#07801:8F8F000000000000
#07801:00
#07801:000000000000008E
#07801:00
#07801:00
#07801:00
#07801:00
#07801:00
#07801:0202020202020202
#07801:00
#07801:00
#07801:00007B007C007V007B7C7B007C007V00
#07801:00
#07801:00
#07801:00
#07801:00
#07801:00
#07801:00008F8F00008F00
#07801:00
#07801:00
#07801:453Z4000413Z4000454243403Z413Y00
#07806:030405060708090A0B0C0D0E0F0G0H0I030405060708090A0B0C0D0E0F0G0H0I
#07811:0400003Z007B000300002C0000030000
#07812:2B002C0004002E0004001T000L000003
#07813:008K0003008K001T0003000300002C00
#07814:1S001U002D001S008F000100007B007C
#07815:0003007V0003003Z008K000004001U00
#07816:0C
#07818:7B0001001S00007C001S007V008K004L
#07819:007C00000L0001002F008F001S000100
#07901:00
#07901:00000004
#07901:0000000100000000
#07901:0004
#07901:00
#07901:00
#07901:00
#07901:00
#07901:00
#07901:00
#07901:02000200020002030000020002000200
#07901:00
#07901:00
#07901:7F007F007G007X7G7F007F007G007X00
#07901:00
#07901:008F0000
#07901:00
#07901:00
#07901:00
#07901:8F8F0000008K0000
#07901:00
#07901:00
#07901:3Y413Z003Y4140424V4G4E0047454240
#07906:030405060708090A0B0C0D0E0F0G0H0I030405060708090A0B0C0D0E0F0G0H0I
#07911:0400000004002E008F000048007F0000
#07912:0000030000000300000003000000008L00000300000000002G0000008E000000
#07913:2B001R001P00008G2F001Q001P001R00
#07914:00007G0000007X0000008K00008L000000001P00000003000000030000007G00
#07915:1P2C2D8G022C8F01
#07918:008K0040007F001Q007G007X008K0003
#07919:00010L1P00010L2C
#08001:00040000
#08001:0001000000000000
#08001:000L0000
#08001:00
#08001:00
#08001:00
#08001:00
#08001:00
#08001:00
#08001:00
#08001:02000200020302030000020002030200
#08001:00
#08001:00
#08001:7H7I7H007I7H7Y7I7H007H007I7H7Y00
#08001:00
#08001:00
#08001:00
#08001:00
#08001:00
#08001:8F8K8F008F8K8F008F8K8F008F8K0000
#08001:00
#08001:00
#08001:00000000003Y4P00
#08006:030405060708090A0B0C0D0E0F0G0H0I030405060708090A0B0C0D0E0F0G0H0I
#08011:04002D00041N045D
#08012:2B0000001O0000000000000000001N0000001M00000003000000005C00007I00
#08013:5E005F00005E00001M0000001M000000020000002C0000001M0000008E000000
#08014:00002C0300002E000003007Y005B0003
#08015:5G005H00005G00003Y002R0000003Z0000000000010000002G0000001O000000
#08018:0000007Y000001002F00004L00000100
#08019:1M0300003Z2L0042007I00000L002C00
#08101:00
#08101:00
#08101:00
#08101:00
#08101:04040404
#08101:00
#08101:000L000L
#08101:00
#08101:00
#08101:0001000100010001
#08101:02030203020302030203020302030203
#08101:00
#08101:00
#08101:7N7O7N817O7N817O7P7Q7P827Q7P827Q
#08101:00
#08101:00
#08101:1V001X001V001V1W001P1Q001P001R00
#08101:00
#08101:2B2C2D2E2F2C2G2C
#08101:8F008K008F0000008F008K008G8L8G8L8F0000008K0000008F008K0000000000
#08101:000000000000008E
#08106:030405060708090A0B0C0D0E0F0G0H0I030405060708090A0B0C0D0E0F0G0H0I
#08111:4C460000
#08112:004G0000004500000000004000000045
#08113:4E4E4242003Z0042
#08114:0048004800400040003X003X00440040
#08115:0046003Z4L4L3W3Z
#08118:000000450000003X004O0000003Y0000
#08119:00004P4L
#08201:00
#08201:0000002G
#08201:00
#08201:00
#08201:00
#08201:00
#08201:00
#08201:00
#08201:00
#08201:00
#08201:02000003020002000200000000000200
#08201:00
#08201:00
#08201:007C7B007C7B7V007B7C7B7V7C7B7V7C
#08201:00
#08201:00
#08201:1S001U001S001S00001S1T001S001U00
#08201:00
#08201:00
#08201:8F8K8F008F8K8F008F8K8F008F8K0000
#08206:030405060708090A0B0C0D0E0F0G0H0I030405060708090A0B0C0D0E0F0G0H0I
#08211:040002000041007C0003000004000000
#08212:0040007V00002E000400020000030003
#08213:3Z003Z0004000003000001004P008E00
#08214:000300410003001T004L0003004Q004Q
#08215:2B003Y3Y4N4N0L2C
#08218:7B002C000L00004L00002C0002004S00
#08219:000001002D0001002F00004O00000100
#08301:0000000000002E00007M000000000000
#08301:00000004
#08301:00
#08301:00
#08301:000000000000002C
#08301:00
#08301:00
#08301:00
#08301:00
#08301:00
#08301:00000000020302030200020002000200
#08301:00
#08301:00
#08301:7L7M7L80007L807M7L007L807M7L8000
#08301:00
#08301:00
#08301:1Y0020001Y001Y1Z00001Z001Y002000
#08301:00
#08301:00
#08301:8F8K8F008F000000000000008F000000
#08306:030405060708090A0B0C0D0E0F0G0H0I030405060708090A0B0C0D0E0F0G0H0I
#08311:04010400048K008E
#08312:00004P00008K003Y0003000300030000
#08313:2B002C007M004O002S002C002G00007M
#08314:00004Q000000030000004P000000008L000000004P0000004P00000001000000
#08315:020002004Q00018G2F00004W008K004O
#08318:0000030000004O000L000000008L000000001Y00000000000L0000004P000000
#08319:4R0000002D008G008F000100004Q0003
#08401:00
#08401:0004
#08401:00
#08401:00000000000000000000000000000000000000000000000000000000000000000000000000000000000000000000000000040000000000000000000000000000
#08401:00
#08401:00
#08401:00
#08401:000H000H00000000000H000H000H000H
#08401:000000000F000F0F
#08401:0001000100010001
#08401:02000000020302000203020302000000
#08401:00
#08401:00
#08401:7D7E7D7W7E7D7W7E7D7E7D7W7E7D7W7E
#08401:00
#08401:00
#08401:21002300210021220021220021002300
#08401:00
#08401:00
#08401:8F8K8F008F8K8F008F8K8F008F8K0000
#08401:000000000000008E
#08406:030405060708090A0B0C0D0E0F0G0H0I030405060708090A0B0C0D0E0F0G0H0I
#08411:04000400432C2G02
#08412:2B000200000H000H00000F0000030003
#08413:0003000300002E00004000004N002C00
#08414:432C2D0F4B3Z3Y4P
#08415:003Z004B003Z4B0000410041004O004Q
#08418:0F000F000F00000300003Y0000004N00
#08419:003X003Y003X3Y002F00004L004L004O
#08501:00
#08501:00
#08501:00
#08501:00
#08501:00
#08501:00
#08501:00
#08501:00
#08501:00
#08501:0001000100010001
#08501:00000003000002030200020002030200
#08501:00
#08501:00
#08501:7R7S7R007S7R837S7T7U0084007T847U
#08501:00
#08501:00
#08501:24002600240024250027280027002900
#08501:00
#08501:2B2C2D2E2F2C2G00
#08501:8F8K8F008F8K000000008K008F8K0000
#08501:000000000000008E
#08506:030405060708090A0B0C0D0E0F0G0H0I030405060708090A0B0C0D0E0F0G0H0I
#08511:0702074R077T072C
#08512:0003000F0003000F0003000F008M000F
#08513:020000000H000000020000000H00008L000000000H0000007U0000000F000000
#08514:000F0083000F004P000F0000000H004K
#08515:00004P004X0000004P004X00008L00004X0000004P004X000H0000004X000000
#08516:0J000J0K00000I00
#08518:0H0000000H00008G0H000003004Y0003
#08519:4R00004R00008G008F4R00004S000000
#08601:00
#08601:00
#08601:00
#08601:00
#08601:00
#08601:00
#08601:00
#08601:00
#08601:00
#08601:00
#08601:00
#08601:00
#08601:00
#08601:7B7C0000000000000000000000000000
#08606:030405060708090A0B0C0D0E0F0G0H0I030405060708090A0B0C0D0E0F0G0H0I
#08611:4G00000400000400
#08612:0048000000007B0000000000454M0045
#08613:0400460000000Z000000004000000000
#08614:000000470000007C000000000Z7C0000
#08615:0Z004540003Z7B00
#08616:0J00000J00000K00
#08618:000000000043003Z004100003Z3W003Z
#08619:160000163Y001600
#08701:00
#08701:00
#08701:00
#08701:00
#08701:00
#08701:00
#08701:00
#08701:00
#08701:00
#08701:00
#08701:00
#08701:00
#08701:00
#08701:7B
#08706:030405060708090A0B0C0D0E0F0G0H0I030405060708090A0B0C0D0E0F0G0H0I
#08711:4G00000400000400
#08712:0048000000007B0000000000454M0045
#08713:0400460000000Z000000004000000000
#08714:0D0000470000007C000000000Z7C0000
#08715:0Z004540003Z7B00
#08716:0J00000J00000K00
#08718:007C00000043003Z004100003Z3W003Z
#08719:160000163Y001600
#08801:00
#08801:00
#08801:00
#08801:00
#08801:00
#08801:00
#08801:00
#08801:00
#08801:00
#08801:00
#08801:00
#08801:00000007
#08801:00
#08801:7B00000000000000000000007B7C0000
#08806:030405060708090A0B0C0D0E0F0G0H0I030405060708090A0B0C0D0E0F0G0H0I
#08811:0400000400000Z00
#08812:007C00410000004000000000454M0045
#08813:0Z00000000003Z000000004700000000
#08814:8N003Y000041007C000045003Z4B003Z
#08815:1600000000000Z000040000000000000
#08816:0J00000000000J00005I00000K000000
#08818:004L00003Y007B003Z0000003Y3X003Y
#08819:4N00001600001600
#08906:030405060708090A0B0C0D0E0F0G0H0I030405060708090A0B0C0D0E0F0G0H0I
#08911:08
#08913:2I
#08915:2M
#08916:0C
#08919:2P
