*---------------------- HEADER FIELD
#PLAYER 1
#GENRE RENAISSANCE
#TITLE Joker[OVERHEAT]
#ARTIST D.J.Nero/obj_jakko
#BPM 184
#PLAYLEVEL 17
#RANK 3
#TOTAL 518
#STAGEFILE title.jpg
#WAV01 close.wav
#WAV02 close.wav
#WAV03 opHH.wav
#WAV04 kickA.wav
#WAV05 kickB.wav
#WAV06 kickB.wav
#WAV07 kick32.wav
#WAV08 FXkick.wav
#WAV09 snare.wav
#WAV0A snare.wav
#WAV0B reverse.wav
#WAV0C SE1.wav
#WAV0D bell.wav
#WAV0E ride.wav
#WAV0F snare-Fill.wav
#WAV0G SE3.wav
#WAV0H snare-Fill.wav
#WAV0I clashA.wav
#WAV0J clashB.wav
#WAV0K clashC.wav
#WAV0L clap.wav
#WAV0M clap-deep.wav
#WAV0N clashB.wav
#WAV0O bgm1.wav
#WAV0P bgm1.wav
#WAV0Q bgm2.wav
#WAV0R bgm2.wav
#WAV0S bgm3.wav
#WAV0T str01.wav
#WAV0U str01.wav
#WAV0V str02.wav
#WAV0W str03.wav
#WAV0X str03.wav
#WAV0Y str04.wav
#WAV0Z str05.wav
#WAV10 str-01.wav
#WAV11 str-01.wav
#WAV12 str-02.wav
#WAV13 str-03.wav
#WAV14 str-03.wav
#WAV15 str-04.wav
#WAV16 str-05.wav
#WAV17 harp1.wav
#WAV18 harp2.wav
#WAV19 harp3.wav
#WAV1A harp4.wav
#WAV1B harp5.wav
#WAV1C harp6.wav
#WAV1D harp16-01.wav
#WAV1E harp16-02.wav
#WAV1F harp16-03.wav
#WAV1G harp16-04.wav
#WAV1H harp16-05.wav
#WAV1I harp16-06.wav
#WAV1J core1.wav
#WAV1K core1.wav
#WAV1L core1b.wav
#WAV1M core2.wav
#WAV1N core2.wav
#WAV1O core2b.wav
#WAV1P core3.wav
#WAV1Q core3.wav
#WAV1R core3b.wav
#WAV1S core4.wav
#WAV1T core4.wav
#WAV1U core4b.wav
#WAV1V core5.wav
#WAV1W core5.wav
#WAV1X core5b.wav
#WAV1Y core6.wav
#WAV1Z core6.wav
#WAV20 core6b.wav
#WAV21 core7.wav
#WAV22 core7.wav
#WAV23 core7b.wav
#WAV24 core8.wav
#WAV25 core8.wav
#WAV26 core8b.wav
#WAV27 core9.wav
#WAV28 core9.wav
#WAV29 core9b.wav
#WAV2A arp-bgm.wav
#WAV2B arp1.wav
#WAV2C arp2.wav
#WAV2D arp3.wav
#WAV2E arp4.wav
#WAV2F arp5.wav
#WAV2G arp6.wav
#WAV2H p-8-1.wav
#WAV2I p-8-2.wav
#WAV2J p-8-3.wav
#WAV2K p-8-4.wav
#WAV2L p-8-5.wav
#WAV2M p-8-6.wav
#WAV2N p-8-7.wav
#WAV2O p-8-8.wav
#WAV2P p-8-9.wav
#WAV2Q p-8-10.wav
#WAV2R p-8-11.wav
#WAV2S p-8-12.wav
#WAV2T p-8-13.wav
#WAV2U pA-1.wav
#WAV2V pA-2.wav
#WAV2W pA-2b.wav
#WAV2X pA-3.wav
#WAV2Y pA-4.wav
#WAV2Z pA-4b.wav
#WAV30 pA-5.wav
#WAV31 pA-6.wav
#WAV32 pA-7.wav
#WAV33 pA-8.wav
#WAV34 pA-9.wav
#WAV35 pA-10.wav
#WAV36 pA-11.wav
#WAV37 pA-12.wav
#WAV38 pA-12b.wav
#WAV39 pA-13.wav
#WAV3A pA-13b.wav
#WAV3B pA-14.wav
#WAV3C pA-14b.wav
#WAV3D pA-15.wav
#WAV3E pA-15b.wav
#WAV3F p-16-1.wav
#WAV3G p-16-2.wav
#WAV3H p-16-3.wav
#WAV3I p-16-4.wav
#WAV3J p-16-5.wav
#WAV3K p-16-6.wav
#WAV3L p-16-7.wav
#WAV3M p-16-8.wav
#WAV3N p-16-9.wav
#WAV3O p-16-10.wav
#WAV3P p-16-11.wav
#WAV3Q p-16-12.wav
#WAV3R p-16-13.wav
#WAV3S p-16-14.wav
#WAV3T p-16-15.wav
#WAV3U p-16-16.wav
#WAV3V p-16-17.wav
#WAV3W ps-16-2.wav
#WAV3X ps-16-1.wav
#WAV3Y ps-16-1.wav
#WAV3Z ps-16-2.wav
#WAV40 ps-16-3.wav
#WAV41 ps-16-4.wav
#WAV42 ps-16-5.wav
#WAV43 ps-16-6.wav
#WAV44 ps-16-3.wav
#WAV45 ps-16-7.wav
#WAV46 ps-16-8.wav
#WAV47 ps-16-9.wav
#WAV48 ps-16-10.wav
#WAV49 ps-16-5.wav
#WAV4A ps-16-8.wav
#WAV4B ps-16-2.wav
#WAV4C ps-16-11.wav
#WAV4D ps-16-12.wav
#WAV4E ps-16-13.wav
#WAV4F ps-16-14.wav
#WAV4G ps-16-15.wav
#WAV4H ps-16-16.wav
#WAV4I ps-16-17.wav
#WAV4J ps-16-18.wav
#WAV4K ps-16-19.wav
#WAV4L ps-16-20.wav
#WAV4M ps-16-7.wav
#WAV4N ps-16-21.wav
#WAV4O ps-16-22.wav
#WAV4P ps-16-23.wav
#WAV4Q ps-16-24.wav
#WAV4R ps-16-25.wav
#WAV4S ps-16-26.wav
#WAV4T ps-16-27.wav
#WAV4U ps-16-28.wav
#WAV4V ps-16-29.wav
#WAV4W ps-16-30.wav
#WAV4X ps-16-23.wav
#WAV4Y ps-16-31.wav
#WAV4Z ps-32-1.wav
#WAV50 ps-32-1.wav
#WAV51 ps-32-1b.wav
#WAV52 ps-32-1b.wav
#WAV53 ps-32-2.wav
#WAV54 ps-32-2.wav
#WAV55 ps-32-2b.wav
#WAV56 ps-32-2b.wav
#WAV57 ps-32-3.wav
#WAV58 ps-32-4.wav
#WAV59 ps-32-5.wav
#WAV5A ps-32-6.wav
#WAV5B ps-32-7.wav
#WAV5C ps-32-8.wav
#WAV5D ps-32-9.wav
#WAV5E ps-32-10.wav
#WAV5F ps-32-10.wav
#WAV5G ps-32-10b.wav
#WAV5H ps-32-10b.wav
#WAV5I SE2.wav
#WAV5J chero 1.wav
#WAV5K chero 2.wav
#WAV5L chero 3.wav
#WAV5M chero 4.wav
#WAV5N chero 9.wav
#WAV5O chero 10.wav
#WAV5P chero 11.wav
#WAV5Q chero 12.wav
#WAV5R chero 13.wav
#WAV5S chero 14.wav
#WAV5T chero 15.wav
#WAV5U chero 16.wav
#WAV5V chero 17.wav
#WAV5W chero 18.wav
#WAV5X chero 19.wav
#WAV5Y chero 20.wav
#WAV5Z chero 21.wav
#WAV60 chero 22.wav
#WAV61 solo 1.wav
#WAV62 solo 2.wav
#WAV63 solo 3.wav
#WAV64 solo 4.wav
#WAV65 solo 5.wav
#WAV66 solo 6.wav
#WAV67 solo 7.wav
#WAV68 solo 8.wav
#WAV69 solo 9.wav
#WAV6A solo 10.wav
#WAV6B solo 11.wav
#WAV6C solo 12.wav
#WAV6D solo 13.wav
#WAV6E solo 14.wav
#WAV6F solo 15.wav
#WAV6G solo 16.wav
#WAV6H solo 17.wav
#WAV6I solo 18.wav
#WAV6J solo 19.wav
#WAV6K solo 20.wav
#WAV6L solo 21.wav
#WAV6M solo 22.wav
#WAV6N solo 23.wav
#WAV6O solo 24.wav
#WAV6P solo 25.wav
#WAV6Q solo 26.wav
#WAV6R solo 27.wav
#WAV6S solo 28.wav
#WAV6T solo 29.wav
#WAV6U solo 30.wav
#WAV6V solo 31.wav
#WAV6W solo 32.wav
#WAV6X solo 33.wav
#WAV6Y solo 34.wav
#WAV6Z solo 35.wav
#WAV70 solo 36.wav
#WAV71 solo 37.wav
#WAV72 solo 38.wav
#WAV73 solo 39.wav
#WAV74 solo 40.wav
#WAV75 solo 41.wav
#WAV76 solo 42.wav
#WAV77 solo 43.wav
#WAV78 solo 44.wav
#WAV79 solo 45.wav
#WAV7A solo 46.wav
#WAV7B bass1.wav
#WAV7C bass2.wav
#WAV7D bass3.wav
#WAV7E bass4.wav
#WAV7F bass5.wav
#WAV7G bass6.wav
#WAV7H bass7.wav
#WAV7I bass8.wav
#WAV7J bass9.wav
#WAV7K bass10.wav
#WAV7L bass11.wav
#WAV7M bass12.wav
#WAV7N bass13.wav
#WAV7O bass14.wav
#WAV7P bass15.wav
#WAV7Q bass16.wav
#WAV7R bass17.wav
#WAV7S bass18.wav
#WAV7T bass19.wav
#WAV7U bass20.wav
#WAV7V bass1.wav
#WAV7W bass3.wav
#WAV7X bass5.wav
#WAV7Y bass7.wav
#WAV7Z bass9.wav
#WAV80 bass11.wav
#WAV81 bass13.wav
#WAV82 bass15.wav
#WAV83 bass17.wav
#WAV84 bass19.wav
#WAV85 chero1.wav
#WAV86 chero2.wav
#WAV87 chero3.wav
#WAV88 chero4.wav
#WAV89 vio1.wav
#WAV8A vio2.wav
#WAV8B vio3.wav
#WAV8C vio4.wav
#WAV8D tim.wav
#WAV8E tanbarin.wav
#WAV8F suzu.wav
#WAV8G suzu32.wav
#WAV8H syuooo.wav
#WAV8I SE5.wav
#WAV8J horn.wav
#WAV8K suzu.wav
#WAV8L suzu32.wav
#WAV8M cym B.wav
#WAV8N cym C.wav
#WAV8O SE4.wav
#BMP01 joker.mpg
#BMP03 miss 01.bmp
#BMP04 miss 02.bmp
#BMP05 miss 03.bmp
#BMP06 miss 04.bmp
#BMP07 miss 05.bmp
#BMP08 miss 06.bmp
#BMP09 miss 07.bmp
#BMP0A miss 08.bmp
#BMP0B miss 09.bmp
#BMP0C miss 10.bmp
#BMP0D miss 11.bmp
#BMP0E miss 12.bmp
#BMP0F miss 13.bmp
#BMP0G miss 14.bmp
#BMP0H miss 15.bmp
#BMP0I miss 16.bmp
#DIFFICULTY 4
#BACKBMP logo.jpg *---------------------- MAIN DATA FIELD
#00104:01
#00106:030405060708090A0B0C0D0E0F0G0H0I030405060708090A0B0C0D0E0F0G0H0I
#00116:000B000000000000
#00201:00
#00201:00
#00201:00
#00201:00
#00201:00
#00201:00
#00201:00
#00201:00
#00201:00
#00201:00
#00201:00
#00201:00
#00201:00
#00201:7B7C7B7V7C7B7V7C7B7C7B7V7C7B7V7C
#00206:030405060708090A0B0C0D0E0F0G0H0I030405060708090A0B0C0D0E0F0G0H0I
#00211:0400000400040000
#00212:0T0U000000000000
#00213:0000000V00000000
#00215:1011000000000000
#00218:0000001200000000
#00219:00000L00000L0000
#00301:00
#00301:00
#00301:00
#00301:00
#00301:00
#00301:00
#00301:00
#00301:00
#00301:00
#00301:00
#00301:00
#00301:00
#00301:00
#00301:7B7C7B7V7C7B7V7C7B7C7B7V7C7B7V7C
#00306:030405060708090A0B0C0D0E0F0G0H0I030405060708090A0B0C0D0E0F0G0H0I
#00311:0400000400040000
#00313:0W0X000000000000
#00314:0000000Y00000000
#00318:1314000000000000
#00319:00000L15000L0000
#00401:00
#00401:00
#00401:00
#00401:00
#00401:00
#00401:00
#00401:00
#00401:00
#00401:00
#00401:0T
#00401:00
#00401:00
#00401:00
#00401:00
#00401:00
#00401:00
#00401:00
#00401:00
#00401:00
#00401:00
#00401:1011001200000000
#00406:030405060708090A0B0C0D0E0F0G0H0I030405060708090A0B0C0D0E0F0G0H0I
#00411:00000F00000H000H000H000H0000000H
#00412:0F000F0F000F0F0F
#00413:000H000H00000V000F00007V000H0000
#00414:00007B00007B007C00007B000000007C
#00415:7B00007V00007V0000000000007B0000
#00416:0K00000J000J0000
#00418:007C00007C0000007B00040000007V00
#00419:04000U0000000400007C00007C000000
#00501:00
#00501:00
#00501:00
#00501:00
#00501:00
#00501:00
#00501:00
#00501:00
#00501:00
#00501:00
#00501:00
#00501:00
#00501:00
#00501:00
#00501:00
#00501:00
#00501:00
#00501:0W
#00501:00
#00501:00
#00501:1314001500000000
#00506:030405060708090A0B0C0D0E0F0G0H0I030405060708090A0B0C0D0E0F0G0H0I
#00511:00000F00000H000H000H000H00000F00
#00512:0F0000000F000F0000000F000F00000H
#00513:000H000H00000Y000F000000000H0000
#00514:007B0004007B007V
#00515:7B00007V007B00007B00007V007B0000
#00516:0K00000J000J0000
#00518:007C000000007V00007C000000000700
#00519:04000X007C00007C000004007C00007C
#00601:00
#00601:007C007V007B007C007C007V007B007C
#00601:00
#00601:00
#00601:00
#00601:00
#00601:00
#00601:00
#00601:00
#00601:00
#00601:00020002000200020002000200020002
#00601:00
#00601:00
#00601:00
#00601:00
#00601:00
#00601:00
#00601:00
#00601:00
#00601:00
#00601:00
#00601:00
#00601:00
#00601:00
#00601:00
#00601:00
#00601:00
#00601:00
#00601:00
#00601:00
#00601:00
#00601:0O
#00606:030405060708090A0B0C0D0E0F0G0H0I030405060708090A0B0C0D0E0F0G0H0I
#00611:04000400047B0400
#00612:0003000300030003
#00613:2H0L7B0L
#00614:002I7C2I002J002I
#00615:0100017V01000100
#00616:0C
#00618:7B7B2J002L002K7V
#00619:0001000100017C01
#00701:00
#00701:007C007V007B007C007C007V007B007C
#00701:00
#00701:00
#00701:00
#00701:00
#00701:00
#00701:00
#00701:00
#00701:00
#00701:00020002000200020002000200020002
#00706:030405060708090A0B0C0D0E0F0G0H0I030405060708090A0B0C0D0E0F0G0H0I
#00711:04000400047B0400
#00712:0003000300030003
#00713:2H7B2K007B000L00
#00714:0000012L002I002J
#00715:012J7C0001000100
#00718:7B00007V2M002L7V
#00719:00010L0100017C01
#00801:0000007W007D007E007E007W007D007E
#00801:007E0000000000000000000000000000
#00801:00
#00801:00
#00801:00
#00801:00
#00801:00
#00801:00
#00801:00
#00801:00
#00801:00020002000200020002000200020002
#00806:030405060708090A0B0C0D0E0F0G0H0I030405060708090A0B0C0D0E0F0G0H0I
#00811:0400047W04000400
#00812:0003000300037E03
#00813:2K7D0L007D2L0L00
#00814:0000012I0000007W
#00815:012L0000017D0100
#00818:7D002M002N002M2N
#00819:00017E0100010001
#00901:007E007W007D007E007E007W007D007E
#00901:00
#00901:00
#00901:00
#00901:00
#00901:00
#00901:00
#00901:00
#00901:00
#00901:00
#00901:00020002000200020002000200020002
#00906:030405060708090A0B0C0D0E0F0G0H0I030405060708090A0B0C0D0E0F0G0H0I
#00911:0400040004000403
#00912:000300030003002O
#00913:2I002L007D7D2J00
#00914:007D007W01000100
#00915:0100012J002K007W
#00918:002M0L002L000L00
#00919:7D017E0100017E01
#01001:007G007X007F007G007G007X007F007G
#01001:00
#01001:00
#01001:00
#01001:00
#01001:00
#01001:00
#01001:00
#01001:00
#01001:00
#01001:00020002000200020002000200020002
#01006:030405060708090A0B0C0D0E0F0G0H0I030405060708090A0B0C0D0E0F0G0H0I
#01011:0400047X04000400
#01012:0003000300030003
#01013:2H7G7F7G
#01014:7F2I002I002J002I
#01015:007F0100017F0100
#01016:000L000L
#01018:01002J002L002K7X
#01019:0001000100010001
#01101:007G007X007F007G007G007X007F007G
#01101:00
#01101:00
#01101:00
#01101:00
#01101:00
#01101:00
#01101:00
#01101:00
#01101:00
#01101:00020002000200020002000200020002
#01106:030405060708090A0B0C0D0E0F0G0H0I030405060708090A0B0C0D0E0F0G0H0I
#01111:0400047X0400047X
#01112:0003000300030003
#01113:2H002K007F7F7G00
#01114:002J002L0000012J
#01115:01000100012I0000
#01116:000L000L
#01118:7F7F00002M002L00
#01119:00017G0100010001
#01201:007C007V007B007C007C007V007B007C
#01201:00
#01201:00
#01201:00
#01201:00
#01201:00
#01201:00
#01201:00
#01201:00
#01201:00
#01201:00020002000200020002000200020002
#01206:030405060708090A0B0C0D0E0F0G0H0I030405060708090A0B0C0D0E0F0G0H0I
#01211:04040404
#01212:000300037B030003
#01213:7B007C00002L007V
#01214:002L002I01002M00
#01215:017B017V007B002N
#01216:000L000L
#01218:2K2M2N7C
#01219:0001000100010101
#01301:007C007V007B007C0000007V007B007C
#01301:0000000000000000007C000000000000
#01301:000000000000000000000000008M0000
#01301:0001
#01301:04
#01301:0001000100030003
#01301:01007C2J00000000
#01301:007B010004000400
#01301:0000000000010101
#01301:00
#01301:00020002000200020002000200020002
#01306:030405060708090A0B0C0D0E0F0G0H0I030405060708090A0B0C0D0E0F0G0H0I
#01311:0000007V0000002O
#01312:0004007C
#01313:00000003007B007V
#01314:2I2L7B2J
#01315:00030000002K0000
#01316:000L000L
#01318:7B2L
#01319:002M000000000000
#01401:00
#01401:007C007V007B007C007C007V007B007C
#01401:00
#01401:00
#01401:00
#01401:00
#01401:00
#01401:00
#01401:00
#01401:00
#01401:00020002000200020002000200020002
#01406:030405060708090A0B0C0D0E0F0G0H0I030405060708090A0B0C0D0E0F0G0H0I
#01411:04040404
#01412:2H000L007B7B0L00
#01413:007B017V002J002I
#01414:002I002I00037C7V
#01415:01007C0301000100
#01418:7B032J002L002K03
#01419:0001000100010001
#01501:00
#01501:007C007V007B007C007C007V007B007C
#01501:00
#01501:00
#01501:00
#01501:00
#01501:00
#01501:00
#01501:00
#01501:00
#01501:00020002000200020002000200020002
#01506:030405060708090A0B0C0D0E0F0G0H0I030405060708090A0B0C0D0E0F0G0H0I
#01511:04040404
#01512:2H7B0L00007B0L7V
#01513:002J007V002I0003
#01514:00032K007B007C2J
#01515:0100012L01000100
#01518:7B007C0300032L00
#01519:000100012M010001
#01601:00
#01601:007E007W007D007E007E007W007D007E
#01601:00
#01601:00
#01601:00
#01601:00
#01601:00
#01601:00
#01601:00
#01601:00
#01601:00020002000200020002000200020002
#01606:030405060708090A0B0C0D0E0F0G0H0I030405060708090A0B0C0D0E0F0G0H0I
#01611:04040404
#01612:007D0L00012L0L00
#01613:2K2L007W007D007W
#01614:7D007E2I7D002M2N
#01615:01012N01
#01618:00032M0300037E03
#01619:0001000100010001
#01701:00
#01701:007E007W007D007E007E0000007D007E
#01701:00000000000000000000007W00000000
#01701:00
#01701:00
#01701:00
#01701:00
#01701:00
#01701:00
#01701:00
#01701:00020002000200020002000200020002
#01706:030405060708090A0B0C0D0E0F0G0H0I030405060708090A0B0C0D0E0F0G0H0I
#01711:04040404
#01712:7D0L7D0L
#01713:2I7D002J007D7E2O
#01714:002M2L7W00002J7W
#01715:01000100012K0100
#01718:00037E032L030003
#01719:0001000100010001
#01801:00
#01801:00
#01801:007G007X007F007G007G007X007F007G
#01801:00
#01801:00
#01801:00
#01801:00
#01801:00
#01801:00
#01801:00
#01801:00020002000200020002000200020002
#01806:030405060708090A0B0C0D0E0F0G0H0I030405060708090A0B0C0D0E0F0G0H0I
#01811:04040404
#01812:7F007G7X007F7G00
#01813:2H7F002I2L2J002I
#01814:002I00007F00007X
#01815:01010101
#01816:000L000L
#01818:00032J0300032K03
#01819:0001000100010001
#01901:00
#01901:00
#01901:007G007X007F007G007G007X007F007G
#01901:00
#01901:00
#01901:00
#01901:00
#01901:00
#01901:00
#01901:00
#01901:00020002000200020002000200020002
#01906:030405060708090A0B0C0D0E0F0G0H0I030405060708090A0B0C0D0E0F0G0H0I
#01911:04040404
#01912:2H007G007F007G7X
#01913:002J007X012I002J
#01914:7F7F2K00007F0000
#01915:0100012L00000100
#01916:000L000L
#01918:000300032M032L03
#01919:0001000100010001
#02001:00
#02001:00
#02001:007C007V007B007C007C007V007B007C
#02001:00
#02001:00
#02001:00
#02001:00
#02001:00
#02001:00
#02001:00
#02001:00020002000200020002000200020002
#02006:030405060708090A0B0C0D0E0F0G0H0I030405060708090A0B0C0D0E0F0G0H0I
#02011:04040404
#02012:007B7C007B007C7V
#02013:2K2L007V012L0000
#02014:7B00002I007B2M00
#02015:010001000000012N
#02016:000L000L
#02018:00032M0300030003
#02019:000100012N010001
#02101:00
#02101:00000004000400000000000000000000
#02101:0003000300030003
#02101:00
#02101:00000N0K00000000
#02101:00000001
#02101:00
#02101:00000000000000000000000000060000
#02101:00
#02101:00
#02101:00020002000200020002000200020002
#02101:00
#02101:00
#02101:7B7C7B007C000000007C7B7V7C7B7V7C
#02101:00
#02101:00
#02101:00
#02101:0005007V00000000
#02101:000L7B00
#02101:0100007V000000050000000000000000
#02101:0001
#02101:00
#02101:00
#02101:000000000000007C0000000000000000
#02101:00000000007B00000000000000000000
#02101:0000000000010L01
#02106:030405060708090A0B0C0D0E0F0G0H0I030405060708090A0B0C0D0E0F0G0H0I
#02111:0400002J00000007
#02112:00010005
#02113:2I0000010004002O
#02114:002L042J
#02115:00010000002K0000
#02116:0J00000I
#02118:002L
#02119:002M000000000000
#02201:00
#02201:00
#02201:000L0000
#02201:00
#02201:00
#02201:008F000000000000
#02201:8F
#02201:00
#02201:00
#02201:0000000000030000
#02201:01020002010201020102010201020102
#02201:00
#02201:00
#02201:7B7C7B7V7C7B7V007B7C7B7V7C7B7V7C
#02201:00
#02201:008K00008F8K00008F008F008F8K0000
#02201:00
#02201:00
#02201:00
#02201:00
#02201:00
#02201:00
#02201:00
#02201:00
#02201:00
#02201:00
#02201:00
#02201:00
#02201:00
#02201:00
#02201:00
#02201:0P
#02206:030405060708090A0B0C0D0E0F0G0H0I030405060708090A0B0C0D0E0F0G0H0I
#02211:0000030000001J1K0000000000008E00
#02212:1J1J180L
#02213:00001L000000037C000000001J001L00
#02214:0000000018000000008K190000000000
#02215:1700000004000418
#02216:0C
#02218:0000010000008F00001J1K0000000300
#02219:0404001A
#02301:00
#02301:00
#02301:00
#02301:00
#02301:00
#02301:00
#02301:8F8F0L0000000000
#02301:00
#02301:00
#02301:0000000000030000
#02301:01020102010201000100000201020002
#02301:00
#02301:00
#02301:7B7C7B7V7C7B7V7C7B7C7B7V7C7B7V7C
#02301:00
#02301:00008K00000000008F008K008G8L8G8L8F0000008K0000008F008K0000000000
#02306:030405060708090A0B0C0D0E0F0G0H0I030405060708090A0B0C0D0E0F0G0H0I
#02311:1J0000001J0003000002010000000100
#02312:000300001B001J00
#02313:0000000019000000001J1K0000008E00
#02314:1900000000001J1K0000000017001L00
#02315:001L000004000L00
#02318:00001A00000018020000000000000300
#02319:04040004
#02401:00
#02401:00
#02401:00
#02401:00
#02401:00
#02401:00
#02401:000L0000
#02401:00
#02401:00
#02401:0000000000030000
#02401:01020102010200000100010201020102
#02401:00
#02401:00
#02401:7D7E7D7W7E7D7W7E7D7E7D7W7E7D7W7E
#02401:00
#02401:8F8K00008F8K8F008F8K8F008F8K0000
#02406:030405060708090A0B0C0D0E0F0G0H0I030405060708090A0B0C0D0E0F0G0H0I
#02411:040004000000041O
#02412:1M00000000001M1N0000000000000300
#02413:008F180018001M00
#02414:00000000000001020000000000000000
#02415:00001O0000000000001M1N0000001800
#02418:171M040L
#02419:0000030000000300000219001A008E00
#02501:00
#02501:00
#02501:00
#02501:00
#02501:00
#02501:00
#02501:000L0000
#02501:00
#02501:00
#02501:0000000000030000
#02501:01020102010201000100010201020002
#02501:00
#02501:00
#02501:7D7E7D7W7E7D7W7E7D7E7D7W7E7D7W7E
#02501:00
#02501:8F008K008F0000008F008K008G8L8G8L8F0000008K0000008F008K0000000000
#02501:000000000000008E
#02506:030405060708090A0B0C0D0E0F0G0H0I030405060708090A0B0C0D0E0F0G0H0I
#02511:0000040300000400
#02512:00001O0000000000001M1N0000000300
#02513:1M00000004001M1O
#02514:04000000190000000002180000000000
#02515:00001A00000018020000000019001B00
#02518:1C1M1B0L
#02519:0000030000001M1N0000000000000100
#02601:00
#02601:00
#02601:00
#02601:0004
#02601:00
#02601:00000000000000000000000000020000
#02601:00
#02601:00
#02601:00
#02601:0000000000030000
#02601:01020002010200000000010200000102
#02601:00
#02601:00
#02601:7F7G7F7X7G7F7X7G7F7G7F7X7G7F7X7G
#02601:00
#02601:8F8K8F008F8K8F008F8K8F008F8K0000
#02606:030405060708090A0B0C0D0E0F0G0H0I030405060708090A0B0C0D0E0F0G0H0I
#02611:00000100000003000002190000001800
#02612:1P18181P
#02613:00001R0000001P1Q0000000004008E00
#02614:0000000000000000001P1Q0000000000
#02615:00001P000100011R
#02616:000L000L
#02618:17000300000001020000000000000300
#02619:0404001A
#02701:00
#02701:00000000000000000000001E00000000
#02701:00
#02701:00
#02701:00
#02701:00
#02701:00
#02701:00
#02701:00
#02701:0000000300030000
#02701:01020102010200000100010200020002
#02701:00
#02701:00
#02701:7F7G7F7X7G7F7X7G7F7G7F7X7G7F7X7G
#02701:00
#02701:8F008K008F0000008F008K008G8L8G8L8F0000008K0000008F008K0000000000
#02701:000000000000008E
#02706:030405060708090A0B0C0D0E0F0G0H0I030405060708090A0B0C0D0E0F0G0H0I
#02711:00001A0000001P1Q0000000000001R00
#02712:1P1P1D04
#02713:000003000000000000021D0000000100
#02714:1900000000000102000000001P001G00
#02715:001R000004000100
#02716:000L000L
#02718:0000000004000000001P1Q0000000300
#02719:0400191800001F00
#02801:00
#02801:00
#02801:00
#02801:00
#02801:00
#02801:00
#02801:00
#02801:00
#02801:00
#02801:0000000000030000
#02801:01020102010200000100010200020102
#02801:00
#02801:00
#02801:7B7C7B7V7C7B7V7C7B7C7B7V7C7B7V7C
#02801:00
#02801:8F8K00008F8K8F008F8K8F008F8K0000
#02806:030405060708090A0B0C0D0E0F0G0H0I030405060708090A0B0C0D0E0F0G0H0I
#02811:0400040000000018
#02812:17000300000003000002190004000000
#02813:000018001800011U
#02814:00008F00000001020000000000000000
#02815:000000001S000000001S1T001S000300
#02816:000L000L
#02818:001U00000400008E
#02819:1S00000000001S1T000000001A000000
#02901:00
#02901:001U000000000000
#02901:000000001S001S1T001S1T001S001U00
#02901:1S
#02901:04040404
#02901:00
#02901:000000000000000000000000008M0000
#02901:00
#02901:00
#02901:0003000300030003
#02901:01020102010201020102010201020102
#02901:00
#02901:00
#02901:7B7C7B7V7C7B7V7C7B7C7B7V7C7B7V7C
#02901:00
#02901:8F008K008F0000008F008K008G8L8G8L8F0000008K0000008F008K0000000000
#02901:000000000000008E
#02906:030405060708090A0B0C0D0E0F0G0H0I030405060708090A0B0C0D0E0F0G0H0I
#02911:000000000000001B
#02912:0000000000180000
#02913:00001B19
#02914:0000001E00000000
#02915:001F0000
#02916:000L000L
#02918:0000001I000000000000000000000000
#02919:1H1H000000000000
#03001:00
#03001:00
#03001:00
#03001:00
#03001:00
#03001:00
#03001:000L0000
#03001:00
#03001:00
#03001:0000000000030000
#03001:01020002010200000100010201020002
#03001:00
#03001:00
#03001:7B7C7B7V7C7B7V7C7B7C7B7V7C7B7V7C
#03001:00
#03001:8F8K8F008F8K8F008F8K8F008F8K0000
#03001:000000000000008E
#03006:030405060708090A0B0C0D0E0F0G0H0I030405060708090A0B0C0D0E0F0G0H0I
#03011:0400040004000401
#03012:00001L0000001J1K000000001J000000
#03013:1J00000018000102000000000L000000
#03014:1718
#03015:00000100000000000002190000001L00
#03018:000000001J000000001J1K0000001800
#03019:0003000300001A03
#03101:00
#03101:00
#03101:00
#03101:00
#03101:00
#03101:00
#03101:000L0000
#03101:00
#03101:00
#03101:0000000000030000
#03101:01020102010201000100000201020002
#03101:00
#03101:00
#03101:7B7C7B7V7C7B7V7C7B7C7B7V7C7B7V7C
#03101:00
#03101:8F008K008F0000008F008K008G8L8G8L8F0000008K0000008F008K0000000000
#03106:030405060708090A0B0C0D0E0F0G0H0I030405060708090A0B0C0D0E0F0G0H0I
#03111:04040404
#03112:00001L00000003000002010000008E00
#03113:1J00000000000000001J1K0000000300
#03114:00001J001B001701
#03115:0000030000001802000000001J000000
#03118:1900000019001J1K000000000L000000
#03119:001A00000000001L
#03201:00
#03201:00
#03201:00
#03201:00
#03201:00
#03201:00
#03201:000L0000
#03201:00
#03201:00
#03201:0000000000030000
#03201:01020002010200000100010201020102
#03201:00
#03201:00
#03201:7D7E7D7W7E7D7W7E7D7E7D7W7E7D7W7E
#03201:00
#03201:8F8K8F008F8K8F008F8K8F008F8K0000
#03206:030405060708090A0B0C0D0E0F0G0H0I030405060708090A0B0C0D0E0F0G0H0I
#03211:0400000004001M1N0000000004000000
#03212:0000030000000102000000001M000000
#03213:0000180018000L8E
#03214:001O000300000000
#03215:1M00000004001A18
#03218:170000001M00000000021N0000001O00
#03219:0000010000000000001M190000000300
#03301:00
#03301:00
#03301:00
#03301:00
#03301:00
#03301:00
#03301:000L0000
#03301:00
#03301:00
#03301:0000000300030000
#03301:01020102010200000100010201020102
#03301:00
#03301:00
#03301:7D7E7D7W7E7D7W7E7D7E7D7W7E7D7W7E
#03301:00
#03301:8F008K008F0000008F008K008G8L8G8L8F0000008K0000008F008K0000000000
#03306:030405060708090A0B0C0D0E0F0G0H0I030405060708090A0B0C0D0E0F0G0H0I
#03311:04000000040000000002180004001B00
#03312:00001O0000000000001M1N0000000300
#03313:00001M000400001O
#03314:1M00001800000000
#03315:001A00001B001M00
#03318:1C000000190001020000000019000000
#03319:0000030000001M1N000000000L008E00
#03401:00
#03401:00
#03401:0001
#03401:00
#03401:00
#03401:00
#03401:00
#03401:00
#03401:00
#03401:0000000300030000
#03401:01020002010200000000010200020002
#03401:00
#03401:00
#03401:7F7G7F7X7G7F7X7G7F7G7F7X7G7F007G
#03401:00
#03401:8F8K8F008F8K8F008F8K8F008F8K0000
#03401:000000000000008E
#03406:030405060708090A0B0C0D0E0F0G0H0I030405060708090A0B0C0D0E0F0G0H0I
#03411:04040404
#03412:0000030000000000001P1Q0000001800
#03413:1700000000001P1Q000000001P000300
#03414:00001P0000000001
#03415:1P000000000001020000000001007X00
#03416:000L000L
#03418:00001R00180000000002190000001R00
#03419:0001000018001A00
#03501:00
#03501:001D
#03501:00
#03501:00000000000000000000001E00000000
#03501:00
#03501:00
#03501:00
#03501:00
#03501:00
#03501:0000000300030000
#03501:01020102010201000000010200020002
#03501:00
#03501:00
#03501:7F7G7F7X7G7F7X7G7F7G7F7X007F7X7G
#03501:00
#03501:8F008K008F0000008F008K008G8L8G8L8F0000008K0000008F008K0000000000
#03501:000000000000008E
#03506:030405060708090A0B0C0D0E0F0G0H0I030405060708090A0B0C0D0E0F0G0H0I
#03511:0400040004000403
#03512:0000030000001P1Q0000000001000000
#03513:000000001P000000001P1D0000001G00
#03514:001R000000001P00
#03515:1P0000000000000000021Q0000000100
#03516:000L000L
#03518:0000000019001802000000007G000000
#03519:191A000001001F1R
#03601:00
#03601:0000000300000000
#03601:00
#03601:00
#03601:00
#03601:00
#03601:00
#03601:00
#03601:0001
#03601:0000000000030000
#03601:01020002010200000000010200020002
#03601:00
#03601:00
#03601:7B7C7B7V7C7B7V7C7B7C7B7V007B7V7C
#03601:00
#03601:8F8K8F008F8K8F008F8K8F008F8K0000
#03601:000000000000008E
#03606:030405060708090A0B0C0D0E0F0G0H0I030405060708090A0B0C0D0E0F0G0H0I
#03611:04000000040001020000000004000100
#03612:17000100000000000002190000001800
#03613:00181801
#03614:0003000000007C00
#03615:1S00041S
#03616:000L000L
#03618:000000001S000000001S1T0000000300
#03619:00001U0000001S1T000000001A001U00
#03701:00
#03701:0000000300000000
#03701:0000000000000003
#03701:0001
#03701:00000N0K00000000
#03701:00
#03701:000L0000
#03701:00
#03701:00
#03701:0000000000030000
#03701:01020102010201000000010201020002
#03701:00
#03701:00
#03701:7B7C7B7V7C7B7V7C7B7C7B7V7C7B7V7C
#03701:00
#03701:8F008K008F0000008F008K008G8L8G8L8F0000008K0000008F008K0000000000
#03701:000000000000008E
#03701:00
#03701:00
#03701:00
#03701:0000000000000000001S000000000000
#03701:0000040000000007
#03701:000003000000001T0000000004000000
#03701:0000000L
#03701:0000000000000001
#03701:001S041S
#03701:00000000000000020000000000000000
#03701:00001U0000001S0000021T0000001U00
#03706:030405060708090A0B0C0D0E0F0G0H0I030405060708090A0B0C0D0E0F0G0H0I
#03711:04
#03712:000000001B00001B
#03713:1S00001E00180000
#03714:001F0000
#03715:0000001I000000000000000019000000
#03716:0J00000I
#03718:1H1H000000000000
#03801:7B005J7V00000000
#03801:00
#03801:00
#03801:00
#03801:04040004
#03801:00
#03801:000L000L
#03801:00
#03801:00
#03801:0000000300030003
#03801:00000102000000020000010000000102
#03801:00
#03801:00
#03801:00
#03801:00
#03801:00
#03801:00
#03801:00
#03801:00
#03801:00
#03801:00
#03801:00
#03801:00
#03801:00
#03801:00
#03801:00
#03801:00
#03801:00
#03801:00
#03801:00
#03801:00
#03801:0Q
#03806:030405060708090A0B0C0D0E0F0G0H0I030405060708090A0B0C0D0E0F0G0H0I
#03811:61007B00007B00007B007B00007B0000
#03812:0002007V0000007C0000007V00007V00
#03813:5J0000007C005K00000200007C000000
#03814:00005K00000200000400000200000000
#03815:01000101005L005M
#03816:0C
#03818:007C0000000000000100000001000000
#03819:2U0003002V002W00007C00000002007C
#03901:7B
#03901:00
#03901:00
#03901:00
#03901:04040004
#03901:00
#03901:000L000L
#03901:00
#03901:00
#03901:0003000300030003
#03901:01000102010001020100010200000102
#03906:030405060708090A0B0C0D0E0F0G0H0I030405060708090A0B0C0D0E0F0G0H0I
#03911:5J0000005J0000007B007B00007B0000
#03912:00005K00007B00000002007V00007V00
#03913:007C007V00005K002M0000007C00007C
#03914:2M0000007C007V0000005L0000020000
#03915:000200000002007C007C000000005M00
#03918:62002P0000002P0000002P0000000064
#03919:007B2Q0004000163
#04001:00
#04001:00
#04001:00
#04001:00
#04001:04040400
#04001:00
#04001:000L000L
#04001:00
#04001:00
#04001:0003000300030003
#04001:01
#04001:00
#04001:00
#04001:7F007F7X7G007X7G00007F7X7G7F7X7G
#04006:030405060708090A0B0C0D0E0F0G0H0I030405060708090A0B0C0D0E0F0G0H0I
#04011:5N5N7F68
#04012:00005O0000005O006600670000690000
#04013:007G0000007F0000007G000001006A00
#04014:2X00000001000100000000020002006B
#04015:650000020000000200005P0000000100
#04018:000200002Y002Z000002000004000002
#04019:00000100000200000100010000005Q00
#04101:00
#04101:00
#04101:00
#04101:00
#04101:04000404
#04101:00
#04101:000L000L
#04101:00
#04101:00
#04101:0003000300030000
#04101:01
#04101:00
#04101:00
#04101:7F007F7X7G7F7X007F007F7X00007X7G
#04106:030405060708090A0B0C0D0E0F0G0H0I030405060708090A0B0C0D0E0F0G0H0I
#04111:5N0000005N00000001002L0000020000
#04112:00005O0001005O00007G000001000002
#04113:00020000000200006D00000200000100
#04114:00002R000400000200005P0000000300
#04115:2P00000200002P002R0000007G000000
#04118:007G00002Q00007G0002000000005Q00
#04119:6C0001000000010000000100007F0000
#04201:00007H7Y00007Y7I00007H7Y7I007Y7I
#04201:00
#04201:00
#04201:00
#04201:04040404
#04201:00
#04201:000L000L
#04201:00
#04201:00
#04201:0003000300030003
#04201:00
#04201:00
#04201:00
#04201:7H
#04206:030405060708090A0B0C0D0E0F0G0H0I030405060708090A0B0C0D0E0F0G0H0I
#04211:01000100000200000000010000020000
#04212:00020000010000020000000200000002
#04213:5R000002000001000002000000005V00
#04214:007I00005R0000000100000032000000
#04215:6E000031005U0001
#04218:00005S00007H00007H00000001000000
#04219:300000007I005T00007I0000007H0000
#04301:7H007H7Y7I007Y7I7H007H7Y00000000
#04301:00
#04301:0000000100000000
#04301:00
#04301:04040404
#04301:00
#04301:000L000L
#04301:00
#04301:00
#04301:0003000300030003
#04301:01
#04306:030405060708090A0B0C0D0E0F0G0H0I030405060708090A0B0C0D0E0F0G0H0I
#04311:5R000000010000000100000200000100
#04312:000200005R00000200002M0000020002
#04313:00005S00000200002R00000001000000
#04314:6F00000200002P000002000000005V00
#04315:007I00002Q00000000005U00007H0000
#04318:00002T00007H00006G0001000000007I
#04319:2S00010000005T00007I00007I007Y00
#04401:00
#04401:00
#04401:5O
#04401:00
#04401:04040400
#04401:00
#04401:000L000L
#04401:00
#04401:00
#04401:0003000300030003
#04401:00
#04401:00
#04401:00
#04401:7F007F7X7G007X7G7F007F7X7G7F7X7G
#04406:030405060708090A0B0C0D0E0F0G0H0I030405060708090A0B0C0D0E0F0G0H0I
#04411:01000002007F00020000010000020000
#04412:0000010000002Q000002000200000100
#04413:330000002T0000002T00000001000002
#04414:000200000002000000002S0000005V00
#04415:6H005S0101003F00
#04418:00005U000000000000005U00003G0000
#04419:007G000001005T00007G000004003H00
#04501:00
#04501:0000005Z0000005Y
#04501:005X5Y0000600000
#04501:346J
#04501:00
#04501:00
#04501:000000000L0000000000000000000002
#04501:00
#04501:00
#04501:0003000300030003
#04501:00
#04501:04040404
#04501:00
#04501:7J00000L
#04501:00
#04501:00
#04501:00
#04501:00
#04501:5W
#04501:0035
#04501:00
#04501:00
#04501:00
#04501:00
#04501:00
#04501:0101010101010101
#04501:00
#04501:00
#04501:00020002000200020002000200020000
#04506:030405060708090A0B0C0D0E0F0G0H0I030405060708090A0B0C0D0E0F0G0H0I
#04511:007J00007L000000
#04512:00000000007J000000007L0000000000
#04513:0000007Z0000000000000000007L0000
#04514:6I00000000007Z000000008000000000
#04515:007K000000000000007M000000008000
#04516:000000000000000000000000008M0000
#04518:007K007M
#04519:000000000000007K000000000000007M
#04601:00
#04601:00
#04601:00
#04601:00
#04601:04040404
#04601:00
#04601:0000000L
#04601:00
#04601:0003000000000000
#04601:0000000300030003
#04601:00000100010201000100010000000100
#04601:00
#04601:00
#04601:7B007B7V7C7B7V7C7B7C7B7V7C7B7V7C
#04606:030405060708090A0B0C0D0E0F0G0H0I030405060708090A0B0C0D0E0F0G0H0I
#04611:5J0000005J000002000200003Q000000
#04612:0100000200005K0000006O0000003S00
#04613:007C00003I0000006N000002003R0002
#04614:36005K00003J00003M005L0000000000
#04615:000200006K003K00003N000001005M00
#04618:6K0000000L00003L00003O0000020000
#04619:00006L0000006M000000003P0000003T
#04701:000000007C007V7C7B00000000000000
#04701:0000000000010000
#04701:00
#04701:5J
#04701:04040404
#04701:00
#04701:000L000L
#04701:00
#04701:00
#04701:0003000300030003
#04701:0001010000000000
#04701:00
#04701:00
#04701:7B7C7B000000000000007B7V7C007V7C
#04706:030405060708090A0B0C0D0E0F0G0H0I030405060708090A0B0C0D0E0F0G0H0I
#04711:6K0000006K00000000006O0000020000
#04712:00020002000200006N00000001000000
#04713:00006L0000006M000002000200002M00
#04714:010000005J00000200005L00007B0000
#04715:00005K0000005K002P0000002R000002
#04718:37000000007B000001002Q0000005M00
#04719:0038007V00000100007C000000000100
#04801:00
#04801:00
#04801:00
#04801:00
#04801:04040000
#04801:00
#04801:000L000L
#04801:00
#04801:00
#04801:0003000300030000
#04801:00000100010001020100010200000000
#04801:00
#04801:00
#04801:7F007F7X7G7F7X7G7F7G7F7X7G7F7X7G
#04806:030405060708090A0B0C0D0E0F0G0H0I030405060708090A0B0C0D0E0F0G0H0I
#04811:5N005N006T000403
#04812:01005O003U005O000002000000020000
#04813:007G0000003I000000005P0001000100
#04814:3900000200003J003L006U0000005Q00
#04815:00006Q000002003K003M00003A003A00
#04818:6P0000006R00000000003N006V000002
#04819:0002000000006S000400003O00006W00
#04901:00
#04901:00
#04901:00
#04901:00
#04901:04040404
#04901:00
#04901:000L000L
#04901:00
#04901:00
#04901:0003000300030003
#04901:01000102010001020000010200000102
#04901:00
#04901:00
#04901:7F7G7F7X7G7F7X7G7F7G7F7X7G7F7X7G
#04901:00
#04901:00
#04901:00
#04901:00
#04901:00
#04901:00
#04901:00
#04901:00
#04901:00
#04901:00
#04901:00
#04901:00
#04901:00
#04901:00
#04901:00
#04901:00
#04901:008O
#04906:030405060708090A0B0C0D0E0F0G0H0I030405060708090A0B0C0D0E0F0G0H0I
#04911:5N0000005N0000000002000000020000
#04912:6X005O0000005O00010000007000003J
#04913:000200006Y00003N00005P0000003L00
#04914:0000003P00003P000000003L003N0000
#04915:00003R00003R00006Z003N003P000000
#04918:003T00003T000000003P000000005Q00
#04919:3V000000000200003R00000001000000
#05001:00
#05001:00
#05001:00
#05001:00
#05001:0404
#05001:00
#05001:000L000L
#05001:00
#05001:00
#05001:0003000300030003
#05001:0001010100000000
#05001:00
#05001:00
#05001:7H007H7Y7I007Y7I00007H7Y7I007Y7I
#05006:030405060708090A0B0C0D0E0F0G0H0I030405060708090A0B0C0D0E0F0G0H0I
#05011:710000007100000200000100007H0000
#05012:00007200000072000002000200005V00
#05013:5R5R0101
#05014:007I00000400310000005U0000007400
#05015:30005S00000200007H00000032000000
#05018:0100000200005T000000730000020002
#05019:00020000007H0000007I000004000100
#05101:00
#05101:00
#05101:00
#05101:00
#05101:04040404
#05101:00
#05101:000L000L
#05101:0000000000010000
#05101:00
#05101:0003000300030003
#05101:0101010100000000
#05101:00
#05101:00
#05101:7H007H7Y7I007Y7I7H007H7Y7I007Y7I
#05106:030405060708090A0B0C0D0E0F0G0H0I030405060708090A0B0C0D0E0F0G0H0I
#05111:7100000071000002007I000001000000
#05112:000200000000720000002M0000007500
#05113:5R0072005R002P002R00000074000002
#05114:00005S00007H00000000730000020000
#05115:007I00002Q0000000100000200005V00
#05118:00002T000002000000020000007H0000
#05119:2S00000200005T0000005U0000000100
#05201:00
#05201:00
#05201:00
#05201:00
#05201:04040404
#05201:00
#05201:00
#05201:00000000000H000000000000000H000H
#05201:0F0F0F0F0F0F0F0F
#05201:0003000300030003
#05201:00
#05201:00
#05201:00
#05201:7F7G7F7X7G7F7X7G7F7G7F7X7G7F7X7G
#05201:00
#05201:00
#05201:00
#05201:00
#05201:00
#05201:00
#05201:7677
#05206:030405060708090A0B0C0D0E0F0G0H0I030405060708090A0B0C0D0E0F0G0H0I
#05211:0100000200002Q000100010000020000
#05212:000200002T0000020002000001005V00
#05213:00000100000200000000000200000002
#05214:5O005S002T2S0000
#05215:005U000100003F01
#05218:330000000100000H00005U00003G0000
#05219:000H000H00005T00000H000H00003H00
#05301:00
#05301:00
#05301:000H0000000000000002000000000000
#05301:04000401
#05301:0000000000000001
#05301:00
#05301:00
#05301:00000000000H000H0000000H00000000
#05301:000F0F0F0000000F
#05301:0003000000000003
#05301:0001010100010000
#05301:00
#05301:00
#05301:7J7K007Z000000007L7M7L807M000000
#05301:00
#05301:00
#05301:00
#05301:00
#05301:00
#05301:00
#05301:7879
#05301:00
#05301:5W5X5Y5Z0060005Y
#05301:00
#05301:00
#05301:008J
#05301:00
#05301:00
#05301:00
#05301:00
#05301:0000008I
#05306:030405060708090A0B0C0D0E0F0G0H0I030405060708090A0B0C0D0E0F0G0H0I
#05311:010004000F000407
#05312:0002000H007J00000100030000020002
#05313:00007J0000007Z00000H000F00000000
#05314:0F0000020000007K00000000000H000H
#05315:000000007K0000003D00000200008000
#05316:0J0000000N000K00005I00000I000000
#05318:3B00000000020002000000000F00007M
#05319:003C003B00000300003E003D007L0000
#05401:00
#05401:00
#05401:00
#05401:00
#05401:00
#05401:00
#05401:00
#05401:00
#05401:00
#05401:00
#05401:00
#05401:00
#05401:00
#05401:00
#05401:00
#05401:00
#05401:00
#05401:00
#05401:00
#05401:00
#05401:7A
#05401:00
#05401:00
#05401:00
#05401:00
#05401:89898989
#05401:00
#05401:00
#05401:00
#05401:00
#05401:00
#05401:0R
#05403:5C
#05406:030405060708090A0B0C0D0E0F0G0H0I030405060708090A0B0C0D0E0F0G0H0I
#05411:08
#05415:000D
#05416:0C
#05501:00
#05501:00
#05501:00
#05501:00
#05501:00
#05501:00
#05501:00
#05501:00
#05501:00
#05501:00
#05501:00
#05501:00
#05501:00
#05501:00
#05501:00
#05501:00
#05501:00
#05501:00
#05501:00
#05501:00
#05501:00
#05501:00
#05501:00
#05501:00
#05501:00
#05501:8A8A8A8A
#05506:030405060708090A0B0C0D0E0F0G0H0I030405060708090A0B0C0D0E0F0G0H0I
#05601:00
#05601:00
#05601:00
#05601:00
#05601:00
#05601:00
#05601:00
#05601:00
#05601:00
#05601:00
#05601:00
#05601:00
#05601:00
#05601:00
#05601:00
#05601:00
#05601:00
#05601:00
#05601:00
#05601:00
#05601:00
#05601:00
#05601:00
#05601:00
#05601:00
#05601:8B8B8B8B
#05606:030405060708090A0B0C0D0E0F0G0H0I030405060708090A0B0C0D0E0F0G0H0I
#05615:000D
#05701:00
#05701:00
#05701:00
#05701:00
#05701:00
#05701:00
#05701:00
#05701:00
#05701:00
#05701:00
#05701:00
#05701:00
#05701:00
#05701:00
#05701:00
#05701:00
#05701:00
#05701:00
#05701:00
#05701:00
#05701:00
#05701:00
#05701:00
#05701:00
#05701:00
#05701:8C8C8C8C
#05701:00
#05701:00
#05701:00
#05701:00
#05701:008D
#05701:8H
#05706:030405060708090A0B0C0D0E0F0G0H0I030405060708090A0B0C0D0E0F0G0H0I
#05716:0000000000000000000B000000000000
#05806:030405060708090A0B0C0D0E0F0G0H0I030405060708090A0B0C0D0E0F0G0H0I
#05811:04000004040000040004000404000000
#05813:89898989
#05814:000M000M
#05815:85858585
#05816:0C
#05818:0009000900090009
#05819:0E0E0E0E0E0E0E0E
#05906:030405060708090A0B0C0D0E0F0G0H0I030405060708090A0B0C0D0E0F0G0H0I
#05911:04000004040000040004000404000000
#05912:8A0000008A0000008A0000008A00000F
#05913:000M000M
#05914:86000000000000008600000000000000860000000000000086000000000H0000
#05918:000900090009000F
#05919:0E0E0E0E0E0E0E0E
#06001:00
#06001:00
#06001:00
#06001:00
#06001:00
#06001:00
#06001:00
#06001:00
#06001:00
#06001:00
#06001:00
#06001:000E0E0E0E0E0E0E
#06006:030405060708090A0B0C0D0E0F0G0H0I030405060708090A0B0C0D0E0F0G0H0I
#06011:04000004040000040004000404000400
#06012:00000000000000000M0000000000000000000000000000000M00000600000000
#06013:8B0000008B0000008B0000008B05000A
#06014:0000000A0000000A0000000A00000000
#06015:000A0000000A0000000A0000000A0000
#06016:0I
#06018:8709870987098709
#06019:09090909
#06101:00
#06101:00
#06101:008C008C
#06101:00888888
#06101:00040004
#06101:88
#06101:00
#06101:00
#06101:00
#06101:00
#06101:00
#06101:0E0E0E0E0E0E0E0E
#06101:00
#06101:00
#06101:04000004000000040004000400000000
#06101:00
#06101:8C8C
#06106:030405060708090A0B0C0D0E0F0G0H0I030405060708090A0B0C0D0E0F0G0H0I
#06111:0000000H0000000H0000000H0000000H0000000H0000000H0000000H0000000H
#06113:000F000F000F000F000F000F000F000F
#06115:000H0000000H0000000H0000000H0000000H0000000H0000000H0000000H0000
#06116:000M000M
#06119:0F0F0F0F0F0F0F0F
#06201:00
#06201:00
#06201:00
#06201:00
#06201:00
#06201:00
#06201:00
#06201:00
#06201:00
#06201:00
#06201:00
#06201:00
#06201:00
#06201:000000007C7B7V7C0000000000000000
#06201:00
#06201:00
#06201:00
#06201:00
#06201:00
#06201:00
#06201:00
#06201:00
#06201:00
#06201:00
#06201:00
#06201:00
#06201:00
#06201:00
#06201:00
#06201:00
#06201:00
#06201:2A
#06203:B8
#06206:030405060708090A0B0C0D0E0F0G0H0I030405060708090A0B0C0D0E0F0G0H0I
#06211:00007B00000000000000007V00000042
#06212:007C007V000000007B007B007C007V00
#06213:7B00000000005152007C0000007B007C
#06214:0800000000004040
#06215:00004000000000000000003Z003Z0000
#06216:0C
#06218:003Z003Z000000004100410000000000
#06219:3Y00000000004Z50003Y000000000000
#06301:00
#06301:00
#06301:00
#06301:00
#06301:00
#06301:00
#06301:00
#06301:00
#06301:00
#06301:00
#06301:00000000000000000000007X00000000
#06301:00
#06301:00
#06301:000000007G7F7X7G000000000000007G
#06306:030405060708090A0B0C0D0E0F0G0H0I030405060708090A0B0C0D0E0F0G0H0I
#06311:00000000000000000040000000480000
#06312:4300000000004646
#06313:00400000000000003Z003Z0000470000
#06314:7F0000003Z000000550056000055000000000000000000004500000045000000
#06315:007G007X00000000007G0000007F0000
#06318:000000007F000000530054000053000000000000000000007G0000007X000000
#06319:0000003Y000000007F007F0000000000
#06401:00
#06401:00
#06401:00
#06401:00
#06401:00
#06401:00
#06401:00
#06401:00
#06401:00
#06401:00
#06401:00
#06401:00
#06401:00
#06401:000000000000000000000000007H7Y7I
#06406:030405060708090A0B0C0D0E0F0G0H0I030405060708090A0B0C0D0E0F0G0H0I
#06411:7H00004F007H0057
#06412:00004E0000007Y00007I00007I000000
#06413:00007I000000000000004E0000004G004G00000000007Y000000480000580000
#06414:4C000048007H00000000480000000059
#06415:000000007H0000004D000000000000000000460000000000460000000000005A
#06418:004D00007I00007I7H00004700000000
#06419:0000007Y000000000000000000000000
#06501:00
#06501:00
#06501:00
#06501:00
#06501:4200403Z
#06501:00430000
#06501:00
#06501:00
#06501:00
#06501:00
#06501:00
#06501:00
#06501:00
#06501:7N7O7N817O7N817O7P7Q7P827Q7P827Q
#06501:00
#06501:00
#06501:00
#06501:00
#06501:00
#06501:00
#06501:00
#06501:00
#06501:00
#06501:00
#06501:00
#06501:00
#06501:00
#06501:00
#06501:00
#06501:00
#06501:0G
#06506:030405060708090A0B0C0D0E0F0G0H0I030405060708090A0B0C0D0E0F0G0H0I
#06511:004E4E00000000000000000000000000
#06512:4H000000004D4D000000000000000046
#06513:00464600450000000048480000000000
#06514:00000000004I4I004200000000464A00
#06515:0000000000000000004H4H0043000042
#06518:3Z0000004J0000000000000000424900
#06519:00004K4L
#06606:030405060708090A0B0C0D0E0F0G0H0I030405060708090A0B0C0D0E0F0G0H0I
#06611:00004600007B00000000000000470000
#06612:0047004700007V000000000040004500
#06613:450000004500007C007C00007C000042
#06614:00000000004200007B00003Z007B0000
#06615:00007B00000043000040007V00007V00
#06618:007C007V0000004000007B000000007C
#06619:7B007C003Z410000
#06706:030405060708090A0B0C0D0E0F0G0H0I030405060708090A0B0C0D0E0F0G0H0I
#06711:004200003Z0000007L00004Q00000000
#06712:0000430000410000007M00004R000000
#06713:0000004000003Y0000007L00004S0000
#06714:7L0000007M00004L0000008000004T00
#06715:007M0000007L00004N0000007M00004U
#06718:00007L0000008000004O0000007L007M
#06719:430000800000007M00004P0000008000
#06801:00
#06801:00
#06801:00
#06801:00
#06801:00
#06801:00
#06801:00
#06801:007D7E0000000000
#06801:00
#06801:00
#06801:00
#06801:00
#06801:00
#06801:000000000000007E0000000000000000
#06806:030405060708090A0B0C0D0E0F0G0H0I030405060708090A0B0C0D0E0F0G0H0I
#06811:7D00000000000000007E000000000000
#06812:003Z004B003Z4B007D007D0000007W00
#06813:43000000000000000000007W007D007E
#06814:007E007W007D7W00004100007E000041
#06815:000000003Y3Y003Y
#06818:003X003Y003X3Y000000004L004L0000
#06819:0000004N
#06906:030405060708090A0B0C0D0E0F0G0H0I030405060708090A0B0C0D0E0F0G0H0I
#06911:7R0000007S0000003Y00008400000000
#06912:007S0083007R007S004L00007U000000
#06913:00007R000000830000004N00007T0000
#06914:00000000000000000000004O00008400
#06915:3Y0000003Y0000007T0000004P00004S
#06916:00000000000B0000
#06918:004L004L004L004L007U0000004Q007U
#06919:004N004N007T004T
#07001:00
#07001:8F008F008F008F00008K8F008F000000
#07001:00
#07001:00
#07001:00
#07001:00
#07001:000L000L
#07001:00
#07001:00
#07001:0000000000030000
#07001:01020102010201020102010201020102
#07001:00
#07001:00
#07001:7B7C7B7V7C7B7V7C7B7C7B7V7C7B7V7C
#07001:00
#07001:00
#07001:00
#07001:00
#07001:2B2C2D2E2F2C2G2C
#07001:00
#07001:000000000000008E
#07001:00
#07001:00
#07001:00
#07001:00
#07001:00
#07001:00
#07001:00
#07001:00
#07001:00
#07001:00
#07001:0S
#07006:030405060708090A0B0C0D0E0F0G0H0I030405060708090A0B0C0D0E0F0G0H0I
#07011:0440040004000400
#07012:008K0000008K000045000000008K0000
#07013:000003001S004000004200003Z001U00
#07014:4500003Z000003000000430000000300
#07015:003Z0000003Z003Z0000004000410000
#07016:0C
#07018:001U001S8F1T003Y
#07019:1S0000004100001T001S00001S00004L
#07101:00
#07101:8F0000008F0000008F0000008G8L8G8L000000008K0000008F00000000000000
#07101:00
#07101:00
#07101:00
#07101:00
#07101:000L000L
#07101:00
#07101:00
#07101:0000000300000003
#07101:01020102010201020102010201020102
#07101:00
#07101:00
#07101:7F7G7F7X7G7F7X7G7F7G7F7X7G7F7X7G
#07101:00
#07101:00
#07101:00
#07101:00
#07101:2B2C2D2E2F2C2G2C
#07101:00
#07101:000000000000008E
#07106:030405060708090A0B0C0D0E0F0G0H0I030405060708090A0B0C0D0E0F0G0H0I
#07111:040004004V03001R
#07112:00001R00008K0042004G000047000000
#07113:1P0000400000400000001Q0000450000
#07114:00003Z00004100008F004E0000000000
#07115:004100003Y00001Q000000001P004200
#07118:3Y00030000001P00001P0048008K0000
#07119:008K00001P0000000400000004000040
#07201:8F8K8F008F8K8F0000008F008F000000
#07201:00
#07201:00
#07201:1M
#07201:04
#07201:00
#07201:000L000L
#07201:00
#07201:00
#07201:0003000300000003
#07201:01020102010201020102010201020102
#07201:00
#07201:00
#07201:7H7I7H7Y7I7H7Y7I7H7I7H7Y7I7H7Y7I
#07201:00
#07201:00
#07201:001O1M0000000000
#07201:00
#07201:2B2C2D2E2F2C2G2C
#07201:00
#07201:000000000000008E
#07206:030405060708090A0B0C0D0E0F0G0H0I030405060708090A0B0C0D0E0F0G0H0I
#07211:00040404
#07212:5G005H00005G00000000000000004200000000003Y0000001M0000001O000000
#07213:00000000002L00008F00004L008K0000
#07214:000000003Z001M00008K00004P000000
#07215:5E005F00005E00000000000000003Z00000000001N00000000005B0000000000
#07218:000000000000000000002R000000000000001M00000000000000005C00000000
#07219:000000003Y00001N0000030000005D00
#07301:00
#07301:00
#07301:00
#07301:00
#07301:04040404
#07301:00
#07301:000L000L
#07301:00
#07301:00
#07301:0003000300030000
#07301:01020102010201020102010201020100
#07301:00
#07301:00
#07301:7N7O7N817O7N817O7P7Q7P827Q7P827Q
#07301:00
#07301:00
#07301:1V001X001V001V1W001P1Q001P001R00
#07301:00
#07301:2B2C2D2E2F2C2G2C
#07301:8F008K008F0000008F008K008G8L8G8L8F0000008K0000000000000000000000
#07301:000000000000008E
#07306:030405060708090A0B0C0D0E0F0G0H0I030405060708090A0B0C0D0E0F0G0H0I
#07311:004E4E00000000000000000000000000
#07312:00464600004D4D000000000000000049
#07313:4H000000450000000048480000000300
#07314:42000000004I4I0042000000008K0002
#07315:0000000000000000004H4H008F003Z00
#07318:3Z0000004J00000040000000004K0000
#07319:00434K4L
#07401:00
#07401:00000000008F0000
#07401:00
#07401:00
#07401:04040404
#07401:00
#07401:000L000L
#07401:00
#07401:00
#07401:0003000300030003
#07401:01020102010201020102010201020102
#07401:00
#07401:00
#07401:7B7C7B7V7C7B7V7C7B7C7B7V7C7B7V7C
#07401:00
#07401:00
#07401:00
#07401:00
#07401:2B2C2D2E2F2C2G2C
#07401:00
#07401:000000000000008E
#07406:030405060708090A0B0C0D0E0F0G0H0I030405060708090A0B0C0D0E0F0G0H0I
#07411:1S0000001S001S00001S00001S000000
#07412:008K0000008K001T00001T0000001U00
#07413:8F001U00000043008F00000000470000
#07414:000046008F000040008K000040004500
#07415:0000004700008F000040003Z00000042
#07418:004700004500000000004100008K0000
#07419:45008F00004200003Z0000008F000000
#07501:00
#07501:00
#07501:00
#07501:00
#07501:04040004
#07501:00
#07501:000L000L
#07501:00
#07501:00
#07501:0003000300030000
#07501:01020102010201020002010201020102
#07501:00
#07501:00
#07501:7L7M7L807M7L807M7L7M7L807M7L807M
#07501:00
#07501:00
#07501:00
#07501:00
#07501:2B2C2D2E2F2C2G2C
#07501:0000000000000000000000008G8L8G8L8F000000000000000000000000000000
#07501:000000000000008E
#07506:030405060708090A0B0C0D0E0F0G0H0I030405060708090A0B0C0D0E0F0G0H0I
#07511:0042000000003Y0001008K004R000000
#07512:1Y0000001Y001Y00001Y00001Y000300
#07513:00002000008K001Z00001Z0000002000
#07514:8F0043008F0000004N000000004S0000
#07515:000000400000004L004O00008F004T00
#07518:43008F003Z00000000004P00008K0000
#07519:008K0000004100000400004Q0000004U
#07601:00000000000000220000000000000000
#07601:00210000
#07601:00238F8F00000000
#07601:00
#07601:048F040004000400
#07601:00
#07601:000L000L
#07601:00
#07601:00
#07601:0003000300030003
#07601:01020100010201020102010201020102
#07601:00
#07601:00
#07601:7D7E7D7W7E7D7W7E7D7E7D7W7E7D7W7E
#07601:00
#07601:00
#07601:00
#07601:00
#07601:2B2C2D2E2F2C2G2C
#07601:0000000000000000008K8F008F8K0000
#07601:000000000000008E
#07606:030405060708090A0B0C0D0E0F0G0H0I030405060708090A0B0C0D0E0F0G0H0I
#07611:21000000000000000021000021000000
#07612:008K0002008K21004300220000002300
#07613:43000000000000000040004L004O0000
#07614:003Z004B003Z4B0000003Z003Y004P00
#07615:8F0000000000000000410041004L004Q
#07618:003X003Y003X3Y008F003Y0000004N00
#07619:00000000000000004B0000004N00004O
#07701:00
#07701:00
#07701:00
#07701:008F0000
#07701:00
#07701:00
#07701:00
#07701:00
#07701:00
#07701:0003000300030003
#07701:01020102010201020102010201020102
#07701:00
#07701:00
#07701:7R7S7R837S7R837S7T7U7T847U7T847U
#07701:00
#07701:00
#07701:00
#07701:00
#07701:2B2C2D2E2F2C2G2C
#07701:8F00000000000000000000008G8L8G8L8F000000000000008F00000000000000
#07701:000000000000008E
#07706:030405060708090A0B0C0D0E0F0G0H0I030405060708090A0B0C0D0E0F0G0H0I
#07711:0400040004000407
#07712:240026002400240000008K00008K0000
#07713:008K0000008K0025002700002700004K
#07714:004X0L0000280L29
#07715:004P0000004X00004X00004X00004X00
#07716:0J000N0K00000I00
#07718:4R008F004P00004P00004P00004Y0000
#07719:0000004R00004R00004R00004S000000
#07801:00
#07801:00000L0000000L2C
#07801:04040404
#07801:00
#07801:0000002E002C0000
#07801:0003000300030003
#07801:00
#07801:00
#07801:00
#07801:00
#07801:01020102010201020102010201020102
#07801:00
#07801:00
#07801:7B7C7B7V7C7B7V7C7B7C7B7V7C7B7V7C
#07801:00
#07801:00
#07801:00
#07801:00
#07801:00
#07801:8F8K8F008F8K8F008F8K8F008F8K0000
#07801:00
#07801:00
#07801:453Z403Z413Z403Z454243403Z413Y4L
#07806:030405060708090A0B0C0D0E0F0G0H0I030405060708090A0B0C0D0E0F0G0H0I
#07811:00002D000000008E
#07812:2B
#07813:002C00002F002G00
#07814:001S0000
#07815:000000000000001U
#07816:0C
#07818:00001U0000001S1T001S1T0000000000
#07819:1S00001S
#07901:0000002E002C002C
#07901:000L000L
#07901:04040404
#07901:00
#07901:0003000300030003
#07901:00
#07901:00
#07901:00
#07901:00
#07901:00
#07901:01020102010201020102010201020102
#07901:00
#07901:00
#07901:7F7G7F7X7G7F7X7G7F7G7F7X7G7F7X7G
#07901:00
#07901:00
#07901:00
#07901:00
#07901:00
#07901:8F008K008F0000008F008K008G8L8G8L8F0000008K0000008F008K0000000000
#07901:00
#07901:00
#07901:3Y413Z403Y4140424V4G4E4847454240
#07906:030405060708090A0B0C0D0E0F0G0H0I030405060708090A0B0C0D0E0F0G0H0I
#07911:001P002G
#07912:2B
#07913:001R00000000001R
#07914:0000000000001P1Q001P1Q0000000000
#07915:002D001P
#07918:002C000000000000
#07919:1P0000002F00008E
#08001:0000002E002C0000
#08001:00000L0000000L8E
#08001:04040404
#08001:00
#08001:0003000300030003
#08001:00
#08001:00
#08001:00
#08001:00
#08001:00
#08001:01020102010201020102010201020102
#08001:00
#08001:00
#08001:7H7I7H7Y7I7H7Y7I7H7I7H7Y7I7H7Y7I
#08001:00
#08001:00
#08001:00
#08001:00
#08001:00
#08001:8F8K8F008F8K8F008F8K8F008F8K0000
#08001:00
#08001:00
#08001:000000000000000000003Y4L4P000000
#08001:5E005F00005E00003Y002R0000003Z00000000000000000000005B5C5D000000
#08001:5G005H00005G00003Z002L000000420000000000000000000000000000000000
#08006:030405060708090A0B0C0D0E0F0G0H0I030405060708090A0B0C0D0E0F0G0H0I
#08011:1M0000000000001O
#08012:00001O0000001M1N001M1N0000000000
#08013:001M001M
#08014:2B
#08015:00002F2G
#08018:002D0000
#08019:002C00000000002C
#08101:00
#08101:00
#08101:00
#08101:00
#08101:00
#08101:00
#08101:000L000L
#08101:00
#08101:00
#08101:0003000300030003
#08101:01020102010201020102010201020102
#08101:00
#08101:00
#08101:7N7O7N817O7N817O7P7Q7P827Q7P827Q
#08101:00
#08101:00
#08101:1V001X001V001V1W001P1Q001P001R00
#08101:00
#08101:2B2C2D2E2F2C2G2C
#08101:8F008K008F0000008F008K008G8L8G8L8F0000008K0000008F008K0000000000
#08101:000000000000008E
#08106:030405060708090A0B0C0D0E0F0G0H0I030405060708090A0B0C0D0E0F0G0H0I
#08111:4C460404
#08112:004G0000004500000000004000000045
#08113:4E4E4242003Z0042
#08114:0048004800400040003X003X00440040
#08115:0046003Z4L4L3W3Z
#08118:000000450000003X004O0000003Y0000
#08119:04044P4L
#08201:00
#08201:00
#08201:000000000000002C
#08201:00
#08201:00
#08201:00
#08201:00
#08201:00
#08201:00
#08201:00
#08201:01020102010201020102010201020102
#08201:00
#08201:00
#08201:7B7C7B7V7C7B7V7C7B7C7B7V7C7B7V7C
#08201:00
#08201:00
#08201:1S001U001S001S1T00001T001S001U00
#08201:00
#08201:00
#08201:8F008F008F008F008F8K8F008F000000
#08206:030405060708090A0B0C0D0E0F0G0H0I030405060708090A0B0C0D0E0F0G0H0I
#08211:0400042E0400044S
#08212:0040000000410000001S00002G00004Q
#08213:3Z003Z000L00000000000300004Q0000
#08214:0000004100003Y00004L00004P008E00
#08215:00002C003Y00004L00004N00008K0000
#08218:008K00002D0003004N002C000L000000
#08219:2B000300008K00002F00004O00000300
#08301:00
#08301:00
#08301:00
#08301:000000000000008E
#08301:00
#08301:00
#08301:00
#08301:00
#08301:00
#08301:00
#08301:01020102010201020100010201000102
#08301:00
#08301:00
#08301:7L7M7L807M7L807M7L7M7L807M7L807M
#08301:00
#08301:00
#08301:1Y0020001Y001Y1Z00001Z001Y002000
#08301:00
#08301:00
#08301:8F0000008F0000008F0000008G8L8G8L8F0000008K0000008F008K0000000000
#08306:030405060708090A0B0C0D0E0F0G0H0I030405060708090A0B0C0D0E0F0G0H0I
#08311:0400040304000400
#08312:008K004O00004O00001Y00002G002C00
#08313:2B000300008K00002S002C0000020000
#08314:00004P004Q00003Y00004P004P00004O
#08315:00002C00004P00002F00004W00000300
#08318:004Q00000L002E0000020000004Q0000
#08319:4R002D0000030L4P
#08401:00
#08401:0000002E00000000
#08401:00
#08401:00
#08401:00
#08401:00
#08401:00
#08401:0000000H00000000000H000H000H000H
#08401:0F00000F0F0F0F0F
#08401:0003000300030003
#08401:01020102010201020102010201020102
#08401:00
#08401:00
#08401:7D7E7D7W7E7D7W7E7D7E7D7W7E7D7W7E
#08401:00
#08401:00
#08401:21002300210021220021220021002300
#08401:00
#08401:00
#08401:8F8K8F008F8K8F008F8K8F008F8K0000
#08401:000000000000008E
#08406:030405060708090A0B0C0D0E0F0G0H0I030405060708090A0B0C0D0E0F0G0H0I
#08411:040F04000400042C
#08412:000H0000000H000043002C003Y00004O
#08413:430000002D004B0000400041004O0000
#08414:00002C00003Z00004B00004L00004P00
#08415:003Z004B0000000H00003Z00004L004Q
#08418:2B0000000F003Y00004100004N000000
#08419:003X003Y003X00002F003Y002G004N00
#08501:00
#08501:00
#08501:00
#08501:00
#08501:00
#08501:00
#08501:00
#08501:00
#08501:00
#08501:0003000300030000
#08501:00020102000201020002010201020102
#08501:00
#08501:00
#08501:7R7S7R837S7R837S7T7U7T847U7T847U
#08501:00
#08501:00
#08501:24002600240024250027280027002900
#08501:00
#08501:2B2C2D2E2F2C2G2C
#08501:8F008K008F0000008F008K008G8L8G8L8F0000008K0000008F008K0000000000
#08501:000000000000008E
#08506:030405060708090A0B0C0D0E0F0G0H0I030405060708090A0B0C0D0E0F0G0H0I
#08511:070000000700000F004R000007000F00
#08512:0000000F00000H0007000H00008M000F
#08513:01000H000100004P0000000F00000300
#08514:000F0000000F00004X004P000H000000
#08515:004P00004P000000000F0000000H0000
#08516:0J000J0K00000I00
#08518:0H004X000H004R000H00004X004Y004K
#08519:4R00004R004X0000010000004S004X00
#08601:00
#08601:00
#08601:00
#08601:00
#08601:00
#08601:00
#08601:00
#08601:00
#08601:00
#08601:00
#08601:000000000000000000000000007C0000
#08601:00
#08601:00
#08601:007C000000007B7C000000007B000000
#08606:030405060708090A0B0C0D0E0F0G0H0I030405060708090A0B0C0D0E0F0G0H0I
#08611:4G00000400000400
#08612:00480000000000000041000045000000
#08613:0400460000000Z0000000040004M0045
#08614:7B000047000000003Y0000000Z00ZZ00
#08615:0Z0000004500400000003Z00003W003Z
#08616:0J00000J00000K00
#08618:000000000043003Z000000003Z000000
#08619:1600001600001600
#08701:00
#08701:00
#08701:00
#08701:00
#08701:000000000000000000000000007C0000
#08701:00
#08701:00
#08701:00
#08701:00
#08701:00
#08701:00
#08701:00
#08701:00
#08701:7B7C000000007B7C000000007B000000
#08706:030405060708090A0B0C0D0E0F0G0H0I030405060708090A0B0C0D0E0F0G0H0I
#08711:4G00000400000400
#08712:0400004700000Z000000000045000000
#08713:000000000000000000000040004M0045
#08714:0D00454000000ZZZ
#08715:004800000000003Z00003Z00003W003Z
#08716:0J00000J00000K00
#08718:0Z000000004300003Y0000003Z000000
#08719:16004600000016000041000016000000
#08801:00
#08801:00
#08801:0000003Y
#08801:00
#08801:00000007
#08801:00
#08801:0000000000000000005I000000000000
#08801:00
#08801:00
#08801:00
#08801:00
#08801:00
#08801:00
#08801:7B7C000000007B7C000000007B7C0000
#08806:030405060708090A0B0C0D0E0F0G0H0I030405060708090A0B0C0D0E0F0G0H0I
#08811:0400000400000Z00
#08812:0Z0000000041000000000047004M0045
#08813:003Y003Z00454500
#08814:8N0000003Y00000000400000004B003Z
#08815:004L000000000Z003Z0000003Z000000
#08816:0J00000J00000K00
#08818:160000410000004000000000003X003Y
#08819:4N00001600001600
#08906:030405060708090A0B0C0D0E0F0G0H0I030405060708090A0B0C0D0E0F0G0H0I
#08911:08
#08913:2I
#08915:2M
#08916:0C
#08919:2P
