*---------------------- HEADER FIELD
#PLAYER 3
#GENRE ルネッサンス -ACEv2-
#TITLE Joker
#ARTIST D.J.Nero
#BPM 184
#PLAYLEVEL 44
#RANK 3
#SUBARTIST あ
#STAGEFILE title.jpg
#BACKBMP logo.jpg
#DIFFICULTY 5
#TOTAL 440
#LNTYPE 1
#WAV01 opHH.ogg
#WAV02 close.ogg
#WAV03 close.ogg
#WAV04 kickA.ogg
#WAV05 kickB.ogg
#WAV06 kickB.ogg
#WAV07 kick32.ogg
#WAV08 FXkick.ogg
#WAV09 snare.ogg
#WAV0A snare.ogg
#WAV0B reverse.ogg
#WAV0C SE1.ogg
#WAV0D bell.ogg
#WAV0E ride.ogg
#WAV0F snare-Fill.ogg
#WAV0G snare-Fill.ogg
#WAV0H clashA.ogg
#WAV0I clashB.ogg
#WAV0J clashC.ogg
#WAV0K clap.ogg
#WAV0L clap-deep.ogg
#WAV0M clashB.ogg
#WAV0N bgm1.ogg
#WAV0O bgm1.ogg
#WAV0P bgm2.ogg
#WAV0Q bgm2.ogg
#WAV0R bgm3.ogg
#WAV0S str01.ogg
#WAV0T str01.ogg
#WAV0U str02.ogg
#WAV0V str03.ogg
#WAV0W str03.ogg
#WAV0X str04.ogg
#WAV0Y str05.ogg
#WAV0Z str-01.ogg
#WAV10 str-01.ogg
#WAV11 str-02.ogg
#WAV12 str-03.ogg
#WAV13 str-03.ogg
#WAV14 str-04.ogg
#WAV15 str-05.ogg
#WAV16 harp1.ogg
#WAV17 harp2.ogg
#WAV18 harp3.ogg
#WAV19 harp4.ogg
#WAV1A harp5.ogg
#WAV1B harp6.ogg
#WAV1C harp16-01.ogg
#WAV1D harp16-02.ogg
#WAV1E harp16-03.ogg
#WAV1F harp16-04.ogg
#WAV1G harp16-05.ogg
#WAV1H harp16-06.ogg
#WAV1I core1.ogg
#WAV1J core1.ogg
#WAV1K core1b.ogg
#WAV1L core2.ogg
#WAV1M core2.ogg
#WAV1N core2b.ogg
#WAV1O core3.ogg
#WAV1P core3.ogg
#WAV1Q core3b.ogg
#WAV1R core4.ogg
#WAV1S core4.ogg
#WAV1T core4b.ogg
#WAV1U core5.ogg
#WAV1V core5.ogg
#WAV1W core5b.ogg
#WAV1X core6.ogg
#WAV1Y core6.ogg
#WAV1Z core6b.ogg
#WAV20 core7.ogg
#WAV21 core7.ogg
#WAV22 core7b.ogg
#WAV23 core8.ogg
#WAV24 core8.ogg
#WAV25 core8b.ogg
#WAV26 core9.ogg
#WAV27 core9.ogg
#WAV28 core9b.ogg
#WAV29 arp-bgm.ogg
#WAV2A arp1.ogg
#WAV2B arp2.ogg
#WAV2C arp3.ogg
#WAV2D arp4.ogg
#WAV2E arp5.ogg
#WAV2F arp6.ogg
#WAV2G p-8-1.ogg
#WAV2H p-8-2.ogg
#WAV2I p-8-3.ogg
#WAV2J p-8-4.ogg
#WAV2K p-8-5.ogg
#WAV2L p-8-6.ogg
#WAV2M p-8-7.ogg
#WAV2N p-8-8.ogg
#WAV2O p-8-9.ogg
#WAV2P p-8-10.ogg
#WAV2Q p-8-11.ogg
#WAV2R p-8-12.ogg
#WAV2S p-8-13.ogg
#WAV2T pA-1.ogg
#WAV2U pA-2.ogg
#WAV2V pA-2b.ogg
#WAV2W pA-3.ogg
#WAV2X pA-4.ogg
#WAV2Y pA-4b.ogg
#WAV2Z pA-5.ogg
#WAV30 pA-6.ogg
#WAV31 pA-7.ogg
#WAV32 pA-8.ogg
#WAV33 pA-9.ogg
#WAV34 pA-10.ogg
#WAV35 pA-11.ogg
#WAV36 pA-12.ogg
#WAV37 SE3.ogg
#WAV38 pA-12b.ogg
#WAV39 pA-13.ogg
#WAV3A pA-13b.ogg
#WAV3B pA-14.ogg
#WAV3C pA-14b.ogg
#WAV3D pA-15.ogg
#WAV3E pA-15b.ogg
#WAV3F p-16-1.ogg
#WAV3G p-16-2.ogg
#WAV3H p-16-3.ogg
#WAV3I p-16-4.ogg
#WAV3J p-16-5.ogg
#WAV3K p-16-6.ogg
#WAV3L p-16-7.ogg
#WAV3M p-16-8.ogg
#WAV3N p-16-9.ogg
#WAV3O p-16-10.ogg
#WAV3P p-16-11.ogg
#WAV3Q p-16-12.ogg
#WAV3R p-16-13.ogg
#WAV3S p-16-14.ogg
#WAV3T p-16-15.ogg
#WAV3U p-16-16.ogg
#WAV3V p-16-17.ogg
#WAV3W ps-16-2.ogg
#WAV3X ps-16-1.ogg
#WAV3Y ps-16-1.ogg
#WAV3Z ps-16-2.ogg
#WAV40 ps-16-3.ogg
#WAV41 ps-16-4.ogg
#WAV42 ps-16-5.ogg
#WAV43 ps-16-6.ogg
#WAV44 ps-16-3.ogg
#WAV45 ps-16-7.ogg
#WAV46 ps-16-8.ogg
#WAV47 ps-16-9.ogg
#WAV48 ps-16-10.ogg
#WAV49 ps-16-5.ogg
#WAV4A ps-16-8.ogg
#WAV4B ps-16-2.ogg
#WAV4C ps-16-11.ogg
#WAV4D ps-16-12.ogg
#WAV4E ps-16-13.ogg
#WAV4F ps-16-14.ogg
#WAV4G ps-16-15.ogg
#WAV4H ps-16-16.ogg
#WAV4I ps-16-17.ogg
#WAV4J ps-16-18.ogg
#WAV4K ps-16-19.ogg
#WAV4L ps-16-20.ogg
#WAV4M ps-16-7.ogg
#WAV4N ps-16-21.ogg
#WAV4O ps-16-22.ogg
#WAV4P ps-16-23.ogg
#WAV4Q ps-16-24.ogg
#WAV4R ps-16-25.ogg
#WAV4S ps-16-26.ogg
#WAV4T ps-16-27.ogg
#WAV4U ps-16-28.ogg
#WAV4V ps-16-29.ogg
#WAV4W ps-16-30.ogg
#WAV4X ps-16-23.ogg
#WAV4Y ps-16-31.ogg
#WAV4Z ps-32-1.ogg
#WAV50 ps-32-1.ogg
#WAV51 ps-32-1b.ogg
#WAV52 ps-32-1b.ogg
#WAV53 ps-32-2.ogg
#WAV54 ps-32-2.ogg
#WAV55 ps-32-2b.ogg
#WAV56 ps-32-2b.ogg
#WAV57 ps-32-3.ogg
#WAV58 ps-32-4.ogg
#WAV59 ps-32-5.ogg
#WAV5A ps-32-6.ogg
#WAV5B ps-32-7.ogg
#WAV5C ps-32-8.ogg
#WAV5D ps-32-9.ogg
#WAV5E ps-32-10.ogg
#WAV5F ps-32-10.ogg
#WAV5G ps-32-10b.ogg
#WAV5H ps-32-10b.ogg
#WAV5I SE2.ogg
#WAV5J chero 1.ogg
#WAV5K chero 2.ogg
#WAV5L chero 3.ogg
#WAV5M chero 4.ogg
#WAV5N chero 9.ogg
#WAV5O chero 10.ogg
#WAV5P chero 11.ogg
#WAV5Q chero 12.ogg
#WAV5R chero 13.ogg
#WAV5S chero 14.ogg
#WAV5T chero 15.ogg
#WAV5U chero 16.ogg
#WAV5V chero 17.ogg
#WAV5W chero 18.ogg
#WAV5X chero 19.ogg
#WAV5Y chero 20.ogg
#WAV5Z chero 21.ogg
#WAV60 chero 22.ogg
#WAV61 solo 1.ogg
#WAV62 solo 2.ogg
#WAV63 solo 3.ogg
#WAV64 solo 4.ogg
#WAV65 solo 5.ogg
#WAV66 solo 6.ogg
#WAV67 solo 7.ogg
#WAV68 solo 8.ogg
#WAV69 solo 9.ogg
#WAV6A solo 10.ogg
#WAV6B solo 11.ogg
#WAV6C solo 12.ogg
#WAV6D solo 13.ogg
#WAV6E solo 14.ogg
#WAV6F solo 15.ogg
#WAV6G solo 16.ogg
#WAV6H solo 17.ogg
#WAV6I solo 18.ogg
#WAV6J solo 19.ogg
#WAV6K solo 20.ogg
#WAV6L solo 21.ogg
#WAV6M solo 22.ogg
#WAV6N solo 23.ogg
#WAV6O solo 24.ogg
#WAV6P solo 25.ogg
#WAV6Q solo 26.ogg
#WAV6R solo 27.ogg
#WAV6S solo 28.ogg
#WAV6T solo 29.ogg
#WAV6U solo 30.ogg
#WAV6V solo 31.ogg
#WAV6W solo 32.ogg
#WAV6X solo 33.ogg
#WAV6Y solo 34.ogg
#WAV6Z solo 35.ogg
#WAV70 solo 36.ogg
#WAV71 solo 37.ogg
#WAV72 solo 38.ogg
#WAV73 solo 39.ogg
#WAV74 solo 40.ogg
#WAV75 solo 41.ogg
#WAV76 solo 42.ogg
#WAV77 solo 43.ogg
#WAV78 solo 44.ogg
#WAV79 solo 45.ogg
#WAV7A solo 46.ogg
#WAV7B bass1.ogg
#WAV7C bass2.ogg
#WAV7D bass3.ogg
#WAV7E bass4.ogg
#WAV7F bass5.ogg
#WAV7G bass6.ogg
#WAV7H bass7.ogg
#WAV7I bass8.ogg
#WAV7J bass9.ogg
#WAV7K bass10.ogg
#WAV7L bass11.ogg
#WAV7M bass12.ogg
#WAV7N bass13.ogg
#WAV7O bass14.ogg
#WAV7P bass15.ogg
#WAV7Q bass16.ogg
#WAV7R bass17.ogg
#WAV7S bass18.ogg
#WAV7T bass19.ogg
#WAV7U bass20.ogg
#WAV7V bass1.ogg
#WAV7W bass3.ogg
#WAV7X bass5.ogg
#WAV7Y bass7.ogg
#WAV7Z bass9.ogg
#WAV80 bass11.ogg
#WAV81 bass13.ogg
#WAV82 bass15.ogg
#WAV83 bass17.ogg
#WAV84 bass19.ogg
#WAV85 chero1.ogg
#WAV86 chero2.ogg
#WAV87 chero3.ogg
#WAV88 chero4.ogg
#WAV89 vio1.ogg
#WAV8A vio2.ogg
#WAV8B vio3.ogg
#WAV8C vio4.ogg
#WAV8D tim.ogg
#WAV8E tanbarin.ogg
#WAV8F suzu.ogg
#WAV8G suzu32.ogg
#WAV8H syuooo.ogg
#WAV8I SE5.ogg
#WAV8J horn.ogg
#WAV8K suzu.ogg
#WAV8L suzu32.ogg
#WAV8M cym B.ogg
#WAV8N cym C.ogg
#WAV8O SE4.ogg *---------------------- EXPANSION FIELD
#BMP01 joker.mpg
#BMP03 miss 01.bmp
#BMP04 miss 02.bmp
#BMP05 miss 03.bmp
#BMP06 miss 04.bmp
#BMP07 miss 05.bmp
#BMP08 miss 06.bmp
#BMP09 miss 07.bmp
#BMP0A miss 08.bmp
#BMP0B miss 09.bmp
#BMP0C miss 10.bmp
#BMP0D miss 11.bmp
#BMP0E miss 12.bmp
#BMP0F miss 13.bmp
#BMP0G miss 14.bmp
#BMP0H miss 15.bmp
#BMP0I miss 16.bmp *---------------------- MAIN DATA FIELD
#00101:00
#00101:000B000000000000
#00104:01
#00106:030405060708090A0B0C0D0E0F0G0H0I030405060708090A0B0C0D0E0F0G0H0I
#00201:00
#00201:00
#00201:00
#00201:00
#00201:00
#00201:00
#00201:00
#00201:00
#00201:00
#00201:00
#00201:00
#00201:00
#00201:00
#00201:7B7C7B7V7C7B7V7C7B7C7B7V7C7B7V7C
#00206:030405060708090A0B0C0D0E0F0G0H0I030405060708090A0B0C0D0E0F0G0H0I
#00211:0400000400040000
#00213:00000K00000K0000
#00214:0Z10000000000000
#00215:0000001100000000
#00222:0S0T000000000000
#00223:0000000U00000000
#00301:00
#00301:00
#00301:00
#00301:00
#00301:00
#00301:00
#00301:00
#00301:00
#00301:00
#00301:00
#00301:00
#00301:00
#00301:00
#00301:7B7C7B7V7C7B7V7C7B7C7B7V7C7B7V7C
#00306:030405060708090A0B0C0D0E0F0G0H0I030405060708090A0B0C0D0E0F0G0H0I
#00311:0400000400040000
#00313:00000K00000K0000
#00322:1213000000000000
#00323:0000001400000000
#00324:0V0W000000000000
#00325:0000000X00000000
#00401:00
#00401:00
#00401:00
#00401:00
#00401:00
#00401:00
#00401:00
#00401:000G000G000G000G000G000G000G000G
#00401:0F0F0F0F0F0F0F0F
#00401:00
#00401:00
#00401:00
#00401:00
#00401:7B7C7B7V7C7B7V7C7B7C7B7V7C7B7V7C
#00406:030405060708090A0B0C0D0E0F0G0H0I030405060708090A0B0C0D0E0F0G0H0I
#00411:0400000400040000
#00413:0J00000I000I0000
#00414:0Z10000000000000
#00415:0000001100000000
#00422:0S0T000000000000
#00423:0000000U00000000
#00501:00
#00501:00
#00501:00
#00501:00
#00501:00
#00501:00
#00501:00
#00501:000G000G000G000G000G000G000G000G
#00501:0F0F0F0F0F0F0F0F
#00501:00
#00501:00
#00501:00
#00501:00
#00501:7B7C7B7V7C7B7V7C7B7C7B7V7C7B7V7C
#00506:030405060708090A0B0C0D0E0F0G0H0I030405060708090A0B0C0D0E0F0G0H0I
#00511:0400000400040000
#00513:0J00000I000I0000
#00515:0000000000000005
#00522:1200000013000000000000000000000000000000000000000000000000060000
#00523:00000000000014000000000000000005
#00524:0V0000000W000000000000000000000000000000000000000000000000000006
#00525:0000000X00000000
#00601:000K000K
#00601:00
#00601:00
#00601:00
#00601:00
#00601:00
#00601:00
#00601:00
#00601:00
#00601:00
#00601:00030003000300030003000300030003
#00601:00
#00601:00
#00601:7B7C7B7V7C7B7V7C7B7C7B7V7C7B7V7C
#00601:00
#00601:00
#00601:00
#00601:00
#00601:00
#00601:00
#00601:00
#00601:00
#00601:00
#00601:00
#00601:00
#00601:00
#00601:00
#00601:00
#00601:00
#00601:00
#00601:00
#00601:0N
#00606:030405060708090A0B0C0D0E0F0G0H0I030405060708090A0B0C0D0E0F0G0H0I
#00611:2G00000000000001
#00612:0000000000010000
#00613:0400000100000400
#00614:000100000400002H
#00615:00000400022I0002
#00622:0002002H00022J00
#00623:022H000200000200
#00624:002I2K00
#00625:0C020000
#00701:000K000K
#00701:00
#00701:00
#00701:00
#00701:00
#00701:00
#00701:00
#00701:00
#00701:00
#00701:00
#00701:00030003000300030003000300030003
#00701:00
#00701:00
#00701:7B7C7B7V7C7B7V7C7B7C7B7V7C7B7V7C
#00706:030405060708090A0B0C0D0E0F0G0H0I030405060708090A0B0C0D0E0F0G0H0I
#00712:0400000000000002
#00713:0001000000020001
#00714:0000040000010200
#00715:2G00000102000400
#00722:022I00000400002I
#00723:00022J00002H0000
#00724:0000022K00002K00
#00725:000000022L000000
#00801:000K000K
#00801:00
#00801:00
#00801:00
#00801:00
#00801:00
#00801:00
#00801:00
#00801:00
#00801:00
#00801:00030003000300030003000300030003
#00801:00
#00801:00
#00801:7D7E7D7W7E7D7W7E7D7E7D7W7E7D7W7E
#00806:030405060708090A0B0C0D0E0F0G0H0I030405060708090A0B0C0D0E0F0G0H0I
#00811:0400000200000000
#00812:0200002H00000000
#00813:0001000000020000
#00814:2J00020000010200
#00815:0000040002000402
#00822:002K000004000001
#00823:00020001002K0000
#00824:002L002L
#00825:000000002M00002M
#00901:000K000K
#00901:00
#00901:00
#00901:00
#00901:00
#00901:00
#00901:00
#00901:00
#00901:00
#00901:00
#00901:00030003000300030003000300030003
#00901:00
#00901:00
#00901:7D7E7D7W7E7D7W7E7D7E7D7W7E7D7W7E
#00906:030405060708090A0B0C0D0E0F0G0H0I030405060708090A0B0C0D0E0F0G0H0I
#00912:2H0000010000002N
#00913:0000040200002I00
#00914:00000200002J0000
#00915:0001002I00000001
#00922:02002K002K000402
#00923:0400000000010200
#00924:002L000002020000
#00925:0002000004000000
#01001:000K000K
#01001:00
#01001:00
#01001:00
#01001:00
#01001:00
#01001:00
#01001:00
#01001:00
#01001:00
#01001:00030003000300030003000300030003
#01001:00
#01001:00
#01001:7F7G7F7X7G7F7X7G7F7G7F7X7G7F7X7G
#01006:030405060708090A0B0C0D0E0F0G0H0I030405060708090A0B0C0D0E0F0G0H0I
#01011:2G00000002000001
#01012:0000040000010000
#01013:000200010000002H
#01014:00010000002I0000
#01015:0000002H00020200
#01022:002H000200002J00
#01023:020002002K000002
#01024:002I0004
#01025:0404
#01101:000K000K
#01101:00
#01101:00
#01101:00
#01101:00
#01101:00
#01101:00
#01101:00
#01101:00
#01101:00
#01101:00030003000300030003000300030003
#01101:00
#01101:00
#01101:7F7G7F7X7G7F7X7G7F7G7F7X7G7F7X7G
#01106:030405060708090A0B0C0D0E0F0G0H0I030405060708090A0B0C0D0E0F0G0H0I
#01112:00000200002H0000
#01113:040000020000002I
#01114:0001000002000400
#01115:2G00040000020000
#01122:002I000100010002
#01123:00002J0004000201
#01124:0200002K00002K00
#01125:000200002L000000
#01201:000K000K
#01201:00
#01201:00
#01201:00
#01201:00
#01201:00
#01201:00
#01201:00
#01201:00
#01201:00
#01201:00030003000300030003000300030003
#01201:00
#01201:00
#01201:7B7C7B7V7C7B7V7C7B7C7B7V7C7B7V7C
#01206:030405060708090A0B0C0D0E0F0G0H0I030405060708090A0B0C0D0E0F0G0H0I
#01212:0402
#01213:0001000004020000
#01214:0000040000010200
#01215:2J00002H00000402
#01222:02020002002K0001
#01223:002K000100002L00
#01224:002L0000
#01225:000002002M00002M
#01301:000K000K
#01301:000000000000000000000000008M0000
#01301:00
#01301:00
#01301:00
#01301:00
#01301:00
#01301:00
#01301:00
#01301:00
#01301:00030003000300030003000300030003
#01301:00
#01301:00
#01301:7B7C7B7V7C7B7V7C7B7C7B7V7C7B7V7C
#01306:030405060708090A0B0C0D0E0F0G0H0I030405060708090A0B0C0D0E0F0G0H0I
#01311:2H
#01312:0000002I0000002N
#01313:0200000200002I00
#01314:00002K01002J0001
#01315:00022K04
#01322:002L040000010002
#01323:0002000004000200
#01324:0401000000020000
#01325:0002
#01401:000K000K
#01401:00
#01401:00
#01401:00
#01401:00
#01401:00
#01401:00
#01401:00
#01401:00
#01401:00
#01401:00030003000300030003000300030003
#01401:00
#01401:00
#01401:007C007V007B007C007C007V007B007C
#01406:030405060708090A0B0C0D0E0F0G0H0I030405060708090A0B0C0D0E0F0G0H0I
#01411:2G0000007B000001
#01412:0000000000010000
#01413:7B2H00020200022H
#01414:007B0001002I0000
#01415:00027C0000007C00
#01422:0400022H0002047V
#01423:0001007V047B0002
#01424:022I002J
#01425:00042K00
#01501:000K000K
#01501:00
#01501:00
#01501:00
#01501:00
#01501:00
#01501:00
#01501:00
#01501:00
#01501:00
#01501:00030003000300030003000300030003
#01501:00
#01501:00
#01501:007C007V007B007C007C007V007B007C
#01506:030405060708090A0B0C0D0E0F0G0H0I030405060708090A0B0C0D0E0F0G0H0I
#01512:0000007V0000002I
#01513:00000400002H007V
#01514:2G01000100020000
#01515:04007C0002007C01
#01522:022I000004010400
#01523:00022J007B000002
#01524:7B00022K007B2K00
#01525:007B00022L000200
#01601:000K000K
#01601:00
#01601:00
#01601:00
#01601:00
#01601:00
#01601:00
#01601:00
#01601:00
#01601:00
#01601:00030003000300030003000300030003
#01601:00
#01601:00
#01601:007E007W007D007E007E007W007D007E
#01606:030405060708090A0B0C0D0E0F0G0H0I030405060708090A0B0C0D0E0F0G0H0I
#01611:0202
#01612:0002000200000002
#01613:2J01000004000400
#01614:7D00022H002K027W
#01615:007D7E0000027E00
#01622:0400007W00010000
#01623:002K00017D7D0001
#01624:002L002L
#01625:000004002M00002M
#01701:000K000K
#01701:00
#01701:00
#01701:00
#01701:00
#01701:00
#01701:00
#01701:00
#01701:00
#01701:00
#01701:00030003000300030003000300030003
#01701:00
#01701:00
#01701:007E007W007D007E007E007W007D007E
#01706:030405060708090A0B0C0D0E0F0G0H0I030405060708090A0B0C0D0E0F0G0H0I
#01711:7D00002I00000400
#01712:2H0004000000002N
#01713:000202027D002I00
#01714:007D0000002J0001
#01715:04007E0002007E02
#01722:02002K7W007D0200
#01723:002L00002K01007W
#01724:0000000100020000
#01725:0001000004000000
#01801:000K000K
#01801:00
#01801:00
#01801:00
#01801:00
#01801:00
#01801:00
#01801:00
#01801:00
#01801:00
#01801:00030003000300030003000300030003
#01801:00
#01801:00
#01801:007G007X007F007G007G007X007F007G
#01806:030405060708090A0B0C0D0E0F0G0H0I030405060708090A0B0C0D0E0F0G0H0I
#01811:0000000000000001
#01812:0002000000010000
#01813:7F2H00007F00022H
#01814:2G000001002I007X
#01815:007G027G
#01822:047F022H007F0402
#01823:0001000204020000
#01824:02002I7X00002J00
#01825:00042K00
#01901:000K000K
#01901:00
#01901:00
#01901:00
#01901:00
#01901:00
#01901:00
#01901:00
#01901:00
#01901:00
#01901:00030003000300030003000300030003
#01901:00
#01901:00
#01901:007G007X007F007G007G007X007F007G
#01906:030405060708090A0B0C0D0E0F0G0H0I030405060708090A0B0C0D0E0F0G0H0I
#01911:000000007F020000
#01912:2G0000020200002I
#01913:0201007X002H0200
#01914:047F040000000001
#01915:7F007G0000007G7X
#01922:002I000100010002
#01923:00002J00047F0000
#01924:0002002K00002K00
#01925:00022L04
#02001:000K000K
#02001:00
#02001:00
#02001:00
#02001:00
#02001:00
#02001:00
#02001:00
#02001:00
#02001:00
#02001:00030003000300030003000300030003
#02001:00
#02001:00
#02001:007C007V007B007C007C007V007B007C
#02006:030405060708090A0B0C0D0E0F0G0H0I030405060708090A0B0C0D0E0F0G0H0I
#02011:0400000200000001
#02012:007B000000010000
#02013:7B01002H7B00047V
#02014:00000400002K0000
#02015:00007C00027B7C00
#02022:2J00000100020000
#02023:002K027V04002L00
#02024:02002L0000000202
#02025:000200002M00002M
#02101:00
#02101:00
#02101:00
#02101:00
#02101:00000002
#02101:00
#02101:00
#02101:00
#02101:00
#02101:00
#02101:00030003000300030003000300030003
#02101:00
#02101:7B7B7C7V00000000
#02101:007C007V007B007C7B7C7B7V7C7B7V7C
#02106:030405060708090A0B0C0D0E0F0G0H0I030405060708090A0B0C0D0E0F0G0H0I
#02111:0000000J00000500
#02112:04000004000400000400040000000700
#02113:00000500000001000000020000060000
#02114:0I000M0002000H2N
#02115:0000010000000005000000000K000000
#02122:2H000K2I00002I02
#02123:02002K00002J0000
#02124:002L00022K000001
#02125:0002020000010000
#02201:0C
#02201:00
#02201:00
#02201:00
#02201:00
#02201:00
#02201:000K000K
#02201:00
#02201:04040404
#02201:0001000100010001
#02201:02030203020302030203020302030203
#02201:00
#02201:00
#02201:7B7C7B7V7C7B7V7C7B7C7B7V7C7B7V7C
#02201:00
#02201:00
#02201:00
#02201:00
#02201:00
#02201:00
#02201:00
#02201:00
#02201:00
#02201:00
#02201:00
#02201:00
#02201:00
#02201:00
#02201:00
#02201:00
#02201:00
#02201:0O
#02206:030405060708090A0B0C0D0E0F0G0H0I030405060708090A0B0C0D0E0F0G0H0I
#02211:1I0000001I001I00001I00001I000000
#02212:16
#02213:00001K000000001J00001J0000001K00
#02214:0000000000000017
#02215:000000001700000017000000008K0000
#02222:0000000000008F8E
#02223:8F008F008F180000
#02224:008K0000008K0000008K000019000000
#02225:008F008F008F0000
#02301:00
#02301:00
#02301:00
#02301:00
#02301:00
#02301:00
#02301:000K000K
#02301:00
#02301:04040404
#02301:0001000100010001
#02301:02030203020302030203020302030203
#02301:00
#02301:00
#02301:7B7C7B7V7C7B7V7C7B7C7B7V7C7B7V7C
#02306:030405060708090A0B0C0D0E0F0G0H0I030405060708090A0B0C0D0E0F0G0H0I
#02311:1I0000001I001I00001I000000000000
#02312:00001A1I
#02313:00001K000000001J00001J0000001K00
#02314:00000016
#02315:8F000000008K00008F008K0000000000
#02322:00008K00000000008F0000000000008L00000000000000008F00000000000000
#02323:18008F000000178G00000000008K0000
#02324:000000000000000018000000008L000000000000000000000000000000000000
#02325:0019008G0000008E
#02401:00
#02401:00
#02401:00
#02401:00
#02401:00
#02401:00
#02401:000K000K
#02401:00
#02401:04040404
#02401:0001000100010001
#02401:02030203020302030203020302030203
#02401:00
#02401:00
#02401:7D7E7D7W7E7D7W7E7D7E7D7W7E7D7W7E
#02406:030405060708090A0B0C0D0E0F0G0H0I030405060708090A0B0C0D0E0F0G0H0I
#02411:168F
#02412:1L0000001L001L00001L00001L000000
#02413:0000008F00008F00
#02414:00001N000000001M00001M0000001N00
#02415:0000170017000017
#02422:00008F00008K000000001800008K0000
#02423:008K00008F000000008K000019000000
#02424:8F000000008F008E
#02501:00
#02501:00
#02501:00
#02501:00
#02501:00
#02501:00
#02501:000K000K
#02501:00
#02501:04040404
#02501:0001000100010001
#02501:02030203020302030203020302030203
#02501:00
#02501:00
#02501:7D7E7D7W7E7D7W7E7D7E7D7W7E7D7W7E
#02506:030405060708090A0B0C0D0E0F0G0H0I030405060708090A0B0C0D0E0F0G0H0I
#02511:0000001700000000
#02512:1L0000001L001L00001L00001L000000
#02513:008K0000008K00001A0000008F000000
#02514:00001N000000001M00001M0000001N00
#02515:00008F008F00001A
#02522:000000008F000000000000000000008L00000000170000000000000000000000
#02523:8F0000001800008G0000000018000000
#02524:000000001900000000000000008L0000000000008K00000000008K0000000000
#02525:1B00008G0000008E
#02601:00
#02601:00
#02601:00
#02601:00
#02601:00
#02601:00
#02601:000K000K
#02601:00
#02601:04040404
#02601:0001000100010001
#02601:02030203020302030203020302030203
#02601:00
#02601:00
#02601:7F7G7F7X7G7F7X7G7F7G7F7X7G7F7X7G
#02606:030405060708090A0B0C0D0E0F0G0H0I030405060708090A0B0C0D0E0F0G0H0I
#02611:8F8F0000
#02612:008K0000000000008F00000000008E00
#02613:1O0000001O001O00001O00001O000000
#02614:000000000000000000008F00008K0000
#02615:00001Q000000001P00001P0000001Q00
#02622:16000000008K0000008K000000001700
#02623:0017178F
#02624:008F000000180000
#02625:0000008F00001900
#02701:00
#02701:00
#02701:00
#02701:00
#02701:00
#02701:00
#02701:000K000K
#02701:00
#02701:04040404
#02701:0001000100010001
#02701:02030203020302030203020302030203
#02701:00
#02701:00
#02701:7F7G7F7X7G7F7X7G7F7G7F7X7G7F7X7G
#02706:030405060708090A0B0C0D0E0F0G0H0I030405060708090A0B0C0D0E0F0G0H0I
#02711:8F00001700000000
#02712:008K00000000000000008K0000001F00
#02713:1O0000001O001O00001O00001O000000
#02714:00000000008K00001C000000008K0000
#02715:00001Q000000001P00001P0000001Q00
#02722:00008F8G001C8F00
#02723:000000008F00000000000000008L00008F00000000001D00000000008E000000
#02724:180000001800008G000000001E000000
#02725:0000000019000000000000000000008L00000000000000000000000000000000
#02801:00
#02801:00
#02801:00
#02801:00
#02801:00
#02801:00
#02801:000K000K
#02801:00
#02801:04040404
#02801:0001000100010001
#02801:02030203020302030203020302030203
#02801:00
#02801:00
#02801:7B7C7B7V7C7B7V7C7B7C7B7V7C7B7V7C
#02806:030405060708090A0B0C0D0E0F0G0H0I030405060708090A0B0C0D0E0F0G0H0I
#02811:1600000000000017
#02812:000000001700000017000000008K0000
#02813:008K00000000000000008F0000008E00
#02814:1R0000001R001R00001R00001R000000
#02815:00001T00008K0000000000008F000000
#02822:8F0000000000001S00001S0000001T00
#02823:00008F0000180000
#02824:00008F0000008F00008K000019000000
#02825:008F
#02901:00
#02901:00
#02901:00
#02901:00
#02901:00
#02901:00
#02901:000K000K
#02901:00
#02901:04040404
#02901:0001000100010001
#02901:02030203020302030203020302030203
#02901:00
#02901:00
#02901:7B7C7B7V7C7B7V7C7B7C7B7V7C7B7V7C
#02906:030405060708090A0B0C0D0E0F0G0H0I030405060708090A0B0C0D0E0F0G0H0I
#02911:0000000000000000000000000000008L00000000170000000000000000000000
#02912:8F00001D8F008F00
#02913:00000000008K008G00008K0000001A00
#02914:1R0000001R001R00001R00001R000000
#02915:008K00008F0000001A000000008K0000
#02922:00001T000000001S00001S0000001T00
#02923:000000008F0000001E000000008L000000000000000000001800000000000000
#02924:0000001H00008G000000000000008E00
#02925:1G001G000000000000000000008M0000
#03001:00
#03001:00
#03001:00
#03001:00
#03001:00
#03001:00
#03001:000K000K
#03001:00
#03001:00
#03001:0001000100010001
#03001:02030203020302030203020302030203
#03001:00
#03001:00
#03001:7B7C7B7V7C7B7V7C7B7C7B7V7C7B7V7C
#03006:030405060708090A0B0C0D0E0F0G0H0I030405060708090A0B0C0D0E0F0G0H0I
#03011:16000000008F0000
#03012:0000170017000017
#03013:8F00000000181900
#03014:008K00008F0000008F000000008K0000
#03015:04008F00008K0000008K00008F000000
#03022:0000008F00000400
#03023:1I0000001I001I00001I00001I000000
#03024:000004000400008E
#03025:00001K000000001J00001J0000001K00
#03101:00
#03101:00
#03101:00
#03101:00
#03101:00
#03101:00
#03101:000K000K
#03101:00
#03101:00
#03101:0001000100010001
#03101:02030203020302030203020302030203
#03101:00
#03101:00
#03101:7B7C7B7V7C7B7V7C7B7C7B7V7C7B7V7C
#03106:030405060708090A0B0C0D0E0F0G0H0I030405060708090A0B0C0D0E0F0G0H0I
#03111:001A
#03112:000000008F000000000000001700008L0000000000000000160000008E000000
#03113:180000001800008G0000000000000000
#03114:040000001900000000000000008L000000000000000000008F00000000000000
#03115:8F0000008F008G0000008K00008K0000
#03122:008K0000008K00008F00000000000000
#03123:1I0000001I001I00001I00001I000000
#03124:00040404
#03125:00001K000000001J00001J0000001K00
#03201:00
#03201:00
#03201:00
#03201:00
#03201:00
#03201:00
#03201:000K000K
#03201:00
#03201:00
#03201:0001000100010001
#03201:02030203020302030203020302030203
#03201:00
#03201:00
#03201:7D7E7D7W7E7D7W7E7D7E7D7W7E7D7W7E
#03206:030405060708090A0B0C0D0E0F0G0H0I030405060708090A0B0C0D0E0F0G0H0I
#03211:160000000000008E
#03212:0000170017000017
#03213:8F00000000008F0000001800008K0000
#03214:008K00008F0000008F0000008F000000
#03215:00008F00008K000000008F0019000000
#03222:1L0000001L001L00001L00001L000000
#03223:0400000004000000008K000000000000
#03224:00001N000000001M00001M0000001N00
#03225:00000404
#03301:00
#03301:00
#03301:00
#03301:00
#03301:00
#03301:00
#03301:000K000K
#03301:00
#03301:00
#03301:0001000100010001
#03301:02030203020302030203020302030203
#03301:00
#03301:00
#03301:7D7E7D7W7E7D7W7E7D7E7D7W7E7D7W7E
#03306:030405060708090A0B0C0D0E0F0G0H0I030405060708090A0B0C0D0E0F0G0H0I
#03311:0000001700000000
#03312:00008F001A00001A
#03313:0019048G00170000
#03314:1B0000000000000018000000008L008L00000000000000001800000000000000
#03315:008K00000000008G00008K0004000000
#03322:1L0000001L001L00001L00001L008E00
#03323:04008F00008K00008F000000008K0000
#03324:00001N000000001M00001M0000001N00
#03325:8F00048F
#03401:00
#03401:00
#03401:00
#03401:00
#03401:00
#03401:00
#03401:000K000K
#03401:00
#03401:00
#03401:0001000100010001
#03401:02030203020302030203020302030203
#03401:00
#03401:00
#03401:7F7G7F7X7G7F7X7G7F7G7F7X7G7F7X7G
#03406:030405060708090A0B0C0D0E0F0G0H0I030405060708090A0B0C0D0E0F0G0H0I
#03411:0000170000000017
#03412:0017
#03413:160004000018008E
#03414:048F8F8F
#03415:1O0000001O001O00001O00001O000000
#03422:008K0000008K0000008K000004000000
#03423:00001Q000000001P00001P0000001Q00
#03424:8F00000000008F0004008F00008K0000
#03425:008F000000001900
#03501:00
#03501:00
#03501:00
#03501:00
#03501:00
#03501:00
#03501:000K000K
#03501:00
#03501:00
#03501:0001000100010001
#03501:02030203020302030203020302030203
#03501:00
#03501:00
#03501:7F7G7F7X7G7F7X7G7F7G7F7X7G7F7X7G
#03506:030405060708090A0B0C0D0E0F0G0H0I030405060708090A0B0C0D0E0F0G0H0I
#03511:0000001700008F8E
#03512:1800188G001C001F
#03513:00000000000000008F000000008L00001C00000000001D0000008K0000000000
#03514:04001900008K008G001O00001E000000
#03515:1O001O1O04001O00
#03522:8F00000000000000040000000000008L00000000000000000400000000000000
#03523:00001Q000000001P00001P0000001Q00
#03524:008F00008F000000
#03525:008K00000000000000008K0000000000
#03601:00
#03601:00
#03601:00
#03601:00
#03601:00
#03601:00
#03601:000K000K
#03601:00
#03601:00
#03601:0001000100010001
#03601:02030203020302030203020302030203
#03601:00
#03601:00
#03601:7B7C7B7V7C7B7V7C7B7C7B7V7C7B7V7C
#03606:030405060708090A0B0C0D0E0F0G0H0I030405060708090A0B0C0D0E0F0G0H0I
#03611:0000000000000000008K000000008E00
#03612:00171704
#03613:1600040000180017
#03614:1R0000001R001R00001R00001R000000
#03615:04000000008K00008F000000008K0000
#03622:00001T000000001S00001S0000001T00
#03623:008F008F04001900
#03624:008K00008F00000000008F0000000000
#03625:8F00008F
#03701:00
#03701:00
#03701:00
#03701:00
#03701:00
#03701:00
#03701:000K000K
#03701:00000M0J00000H1A
#03701:00
#03701:0001000100010001
#03701:02030203020302030203020302030203
#03701:00
#03701:00
#03701:7B7C7B7V7C7B7V7C7B7C7B7V7C7B7V7C
#03706:030405060708090A0B0C0D0E0F0G0H0I030405060708090A0B0C0D0E0F0G0H0I
#03711:0000001R0000008E
#03712:8F04048F
#03713:008K000000001D008F000000008K0000
#03714:1R1R1A1R
#03715:00008F008F00001S001R000000001T00
#03722:000000001T00000000008K000000008L000000001S0000000000000007000000
#03723:0I0000001E00008G00008K0004000000
#03724:0400000000001H0000000000008L000000000000000000001800000000000000
#03725:1G1G008G00170000
#03801:00
#03801:00
#03801:00
#03801:00
#03801:04040404
#03801:00
#03801:000K000K
#03801:00
#03801:00
#03801:0001000100010001
#03801:00030203000300030203020302030203
#03801:00
#03801:00
#03801:7B7C7B7V7C7B7V7C7B7C7B7V7C7B7V7C
#03801:00
#03801:00
#03801:00
#03801:00
#03801:00
#03801:00
#03801:00
#03801:00
#03801:5J5K5J5K005L005M
#03801:00
#03801:00
#03801:00
#03801:00
#03801:00
#03801:00
#03801:00
#03801:00
#03801:0P
#03806:030405060708090A0B0C0D0E0F0G0H0I030405060708090A0B0C0D0E0F0G0H0I
#03813:02
#03814:0000020200000000
#03815:61
#03823:2T
#03824:00002U2V00000000
#03825:0C
#03901:00
#03901:00
#03901:00
#03901:00
#03901:04040404
#03901:00
#03901:000K000K
#03901:00
#03901:00
#03901:0001000100010001
#03901:02030203020302030203020302030203
#03901:00
#03901:00
#03901:7B7C7B7V7C7B7V7C7B7C7B7V7C7B7V7C
#03901:00
#03901:00
#03901:00
#03901:00
#03901:00
#03901:00
#03901:00
#03901:00
#03901:5J5K5J5K005L005M
#03906:030405060708090A0B0C0D0E0F0G0H0I030405060708090A0B0C0D0E0F0G0H0I
#03912:2L2L
#03915:002O002O002O0000
#03922:00000000000000000000000000000064
#03923:0000000000000063
#03924:002P0000
#03925:62
#04001:00
#04001:00
#04001:00
#04001:00
#04001:04040404
#04001:00
#04001:000K000K
#04001:00
#04001:00
#04001:0001000100010001
#04001:00030203000300030203020302030203
#04001:00
#04001:00
#04001:007G7F7X7G7F7X7G7F7G7F7X7G7F7X7G
#04001:00
#04001:00
#04001:00
#04001:00
#04001:00
#04001:00
#04001:00
#04001:00
#04001:5N5O5N5O005P005Q
#04006:030405060708090A0B0C0D0E0F0G0H0I030405060708090A0B0C0D0E0F0G0H0I
#04011:02000068
#04012:7F000000000000000000670000690000
#04013:000002020000006A
#04014:2W00000000000000660000000000006B
#04015:65
#04022:00002X2Y00000000
#04101:00
#04101:00
#04101:00
#04101:00
#04101:04040404
#04101:00
#04101:000K000K
#04101:00
#04101:00
#04101:0001000100010001
#04101:02030203020302030203020302030203
#04101:00
#04101:00
#04101:7F7G7F7X7G7F7X7G7F7G7F7X7G7F7X7G
#04101:00
#04101:00
#04101:00
#04101:00
#04101:00
#04101:00
#04101:00
#04101:00
#04101:5N5O5N5O005P005Q
#04106:030405060708090A0B0C0D0E0F0G0H0I030405060708090A0B0C0D0E0F0G0H0I
#04112:00000000002K0000
#04115:6C6D
#04122:002Q000000000000
#04123:002Q
#04124:2O00002O00000000
#04125:002P0000
#04201:00
#04201:00
#04201:00
#04201:00
#04201:04040404
#04201:00
#04201:000K000K
#04201:00
#04201:00
#04201:0001000100010001
#04201:00030203020302030203020302030203
#04201:00
#04201:00
#04201:7H7I7H7Y7I7H7Y7I7H7I7H7Y7I7H7Y7I
#04201:00
#04201:00
#04201:00
#04201:00
#04201:00
#04201:00
#04201:00
#04201:00
#04201:5R5S5R5T005U005V
#04206:030405060708090A0B0C0D0E0F0G0H0I030405060708090A0B0C0D0E0F0G0H0I
#04213:6E
#04214:2Z
#04222:02
#04223:0000003000000000
#04224:00000031
#04301:00
#04301:00
#04301:00
#04301:00
#04301:04040404
#04301:00
#04301:000K000K
#04301:00
#04301:00
#04301:0001000100010001
#04301:02030203020302030203020302030203
#04301:00
#04301:00
#04301:7H7I7H7Y7I7H7Y7I7H7I7H7Y7I7H7Y7I
#04301:00
#04301:00
#04301:00
#04301:00
#04301:00
#04301:00
#04301:00
#04301:00
#04301:5R5S5R5T005U005V
#04306:030405060708090A0B0C0D0E0F0G0H0I030405060708090A0B0C0D0E0F0G0H0I
#04311:6F
#04313:00000000002L0000
#04314:002Q
#04315:0000002O00000000
#04323:002P0000
#04324:002S00006G000000
#04325:2R
#04401:00
#04401:00
#04401:00
#04401:00
#04401:04040404
#04401:00
#04401:000K000K
#04401:00
#04401:00
#04401:0001000100010001
#04401:02030203020302030203020302030203
#04401:00
#04401:00
#04401:7F7G7F7X7G7F7X7G7F7G7F7X7G7F7X7G
#04401:00
#04401:00
#04401:00
#04401:00
#04401:00
#04401:00
#04401:00
#04401:00
#04401:5O5U5S5T005U005V
#04406:030405060708090A0B0C0D0E0F0G0H0I030405060708090A0B0C0D0E0F0G0H0I
#04412:0000002P00000000
#04413:002S2S00
#04414:32000000002R0000
#04422:6H
#04423:0000003F
#04424:000000000000000000000000003G0000
#04425:000000000000003H
#04501:00
#04501:000000000000000000000000008M0000
#04501:00
#04501:00
#04501:00040004
#04501:00
#04501:000K000K
#04501:00
#04501:00
#04501:0001000100010001
#04501:00030203020302030003020302030203
#04501:00
#04501:00
#04501:007K7J7Z7K7J7Z7K007M7L807M7L807M
#04501:00
#04501:00
#04501:00
#04501:00
#04501:00
#04501:00
#04501:00
#04501:00
#04501:5W5X5Y5Z0060005Y
#04506:030405060708090A0B0C0D0E0F0G0H0I030405060708090A0B0C0D0E0F0G0H0I
#04511:04
#04512:33
#04513:0204
#04514:0002
#04515:6I
#04522:7J6J
#04523:0034
#04524:007L
#04601:00
#04601:00
#04601:00
#04601:00
#04601:00040404
#04601:00
#04601:000K000K
#04601:00
#04601:00
#04601:0001000100010001
#04601:00030203020302030203020302030203
#04601:00
#04601:00
#04601:007C7B7V7C7B7V7C7B7C7B7V7C7B7V7C
#04601:00
#04601:00
#04601:00
#04601:00
#04601:00
#04601:00
#04601:00
#04601:00
#04601:005K5J5K005L005M
#04606:030405060708090A0B0C0D0E0F0G0H0I030405060708090A0B0C0D0E0F0G0H0I
#04611:043I0000
#04612:5J000000003J00003M00000000000000
#04613:0200000000003K00003N00003Q000000
#04614:000000000000003L00003O00003R0000
#04615:00006L0000006M000000003P00003S00
#04622:000000000000000000006O000000003T
#04623:356K0000
#04624:6K6N
#04625:7B
#04701:00
#04701:00
#04701:00
#04701:00
#04701:04040404
#04701:00
#04701:000K000K
#04701:00
#04701:00
#04701:0001000100010001
#04701:00000203020302030203020302030203
#04701:00
#04701:00
#04701:7B7C7B7V7C7B7V7C7B7C7B7V7C7B7V7C
#04701:00
#04701:00
#04701:00
#04701:00
#04701:00
#04701:00
#04701:00
#04701:00
#04701:5J5K5J5K005L005M
#04706:030405060708090A0B0C0D0E0F0G0H0I030405060708090A0B0C0D0E0F0G0H0I
#04713:006L0000006O002L
#04714:6K6K6N00
#04715:0000006M00002Q00
#04723:36380000000000002O00000000000000
#04725:020300000000000000002P0000000000
#04801:00
#04801:00
#04801:00
#04801:00
#04801:04040404
#04801:00
#04801:000K000K
#04801:00
#04801:00
#04801:0001000100010001
#04801:00030203020302030203020300030003
#04801:00
#04801:00
#04801:007G7F7X7G7F7X7G7F7G7F7X007F007G
#04801:00
#04801:00
#04801:00
#04801:00
#04801:00
#04801:00
#04801:00
#04801:00
#04801:5N5O5N5O005P005Q
#04806:030405060708090A0B0C0D0E0F0G0H0I030405060708090A0B0C0D0E0F0G0H0I
#04811:00003U0000007G7X
#04812:7F000000003I00000000000000000000
#04813:0000003J00000202
#04814:390000000000003K0000000000000000
#04815:006Q00003L000000
#04822:6P0000006R000000003M000000000000
#04823:0000006S003N6V6W
#04824:02000000000000006T00003O00000000
#04825:00000000006U3A3A
#04901:00
#04901:00
#04901:00
#04901:00
#04901:04040404
#04901:00
#04901:000K000K
#04901:00
#04901:00
#04901:0001000100010001
#04901:02030203020302030003020300030203
#04901:00
#04901:00
#04901:7F7G7F7X7G7F7X7G7F7G7F7X7G7F7X7G
#04901:00
#04901:00
#04901:00
#04901:00
#04901:00
#04901:00
#04901:00
#04901:00
#04901:5N5O5N5O005P005Q
#04901:00
#04901:00
#04901:00
#04901:00
#04901:00
#04901:00
#04901:00
#04901:008O
#04906:030405060708090A0B0C0D0E0F0G0H0I030405060708090A0B0C0D0E0F0G0H0I
#04912:0000000000000000000000000200003J
#04913:00000000000000000000003L00003L00
#04914:6X0000000000000002003N00003N0000
#04915:000000006Y00003N003P00003P000000
#04922:0000003P00003P003R00000000000000
#04923:00003R00003R00000000000070000000
#04924:003T00003T0000006Z00000000000000
#04925:3V
#05001:00
#05001:00
#05001:00
#05001:00
#05001:04040404
#05001:00
#05001:000K000K
#05001:00
#05001:00
#05001:0001000000010001
#05001:00030203020300030203020300030203
#05001:00
#05001:00
#05001:007I7H7Y7I7H7Y7I7H7I7H7Y007H7Y7I
#05001:00
#05001:00
#05001:00
#05001:00
#05001:00
#05001:00
#05001:00
#05001:00
#05001:5R5S5R5T005U005V
#05006:030405060708090A0B0C0D0E0F0G0H0I030405060708090A0B0C0D0E0F0G0H0I
#05011:7H
#05013:0000003000000000
#05014:2Z00007I
#05015:7100000200000074
#05022:02710002
#05023:0000000100000000
#05024:0072000000003100
#05025:0000007200730000
#05101:00
#05101:00
#05101:00
#05101:00
#05101:04040404
#05101:00
#05101:000K000K
#05101:00
#05101:00
#05101:0001000100010001
#05101:02030203020302030203020302030203
#05101:00
#05101:00
#05101:7H7I7H7Y7I7H7Y7I7H7I7H7Y7I7H7Y7I
#05101:00
#05101:00
#05101:00
#05101:00
#05101:00
#05101:00
#05101:00
#05101:00
#05101:5R5S5R5T005U005V
#05106:030405060708090A0B0C0D0E0F0G0H0I030405060708090A0B0C0D0E0F0G0H0I
#05111:0000007200000000
#05112:00710000
#05113:00720000002L0000
#05114:712Q
#05115:0000002O00000000
#05123:00002P0000000075
#05124:002S000000007400
#05125:2R00000000730000
#05201:00
#05201:00
#05201:00
#05201:00
#05201:04040404
#05201:00
#05201:00
#05201:00
#05201:00
#05201:0001000100010001
#05201:00030203020302030203020302030203
#05201:00
#05201:00
#05201:007G7F7X7G7F7X7G7F7G7F7X7G7F7X7G
#05201:00
#05201:00
#05201:00
#05201:00
#05201:00
#05201:00
#05201:7677
#05201:00
#05201:5O5U5S5T005U005V
#05206:030405060708090A0B0C0D0E0F0G0H0I030405060708090A0B0C0D0E0F0G0H0I
#05211:7F00002P00000000
#05212:002S2S00
#05213:02000000002R0000
#05214:0F0F0F0F0F0F0F0F
#05215:32
#05222:000G000G000G000G000G000G000G000G
#05223:0000003F
#05224:000000000000000000000000003G0000
#05225:000000000000003H
#05301:00
#05301:00
#05301:00
#05301:00
#05301:04040404
#05301:0000000000000007
#05301:00
#05301:00
#05301:00
#05301:0001000100010001
#05301:00000200020302030000020002030203
#05301:00
#05301:00
#05301:00007J007K7J7Z7K00007L007M7L807M
#05301:00
#05301:00
#05301:00
#05301:00
#05301:00
#05301:00
#05301:7879
#05301:00
#05301:5W5X5Y5Z0060005Y
#05301:00
#05301:00
#05301:008J
#05301:00
#05301:00
#05301:00
#05301:0000000000000000005I000000000000
#05301:0000008I
#05306:030405060708090A0B0C0D0E0F0G0H0I030405060708090A0B0C0D0E0F0G0H0I
#05311:02030003000000000000000000000000
#05312:3B3C003B00000J00000000000H000000
#05313:7J7K007Z000000000000000000000000
#05314:0F0F0F0F0F0F0F0F
#05315:0I
#05322:000G000G000G000G000G000G000G000G
#05323:00000000000000000203000300000000
#05324:000000000M0000003D3E003D00000000
#05325:00000000000000007L7M008000000000
#05401:00
#05401:00
#05401:00
#05401:00
#05401:00
#05401:00
#05401:00
#05401:00
#05401:00
#05401:00
#05401:00
#05401:00
#05401:00
#05401:00
#05401:00
#05401:00
#05401:00
#05401:00
#05401:00
#05401:00
#05401:7A
#05401:00
#05401:00
#05401:00
#05401:00
#05401:89898989
#05401:00
#05401:00
#05401:00
#05401:00
#05401:00
#05401:0Q
#05403:5C
#05406:030405060708090A0B0C0D0E0F0G0H0I030405060708090A0B0C0D0E0F0G0H0I
#05412:08
#05415:000D
#05424:0C
#05501:00
#05501:00
#05501:00
#05501:00
#05501:00
#05501:00
#05501:00
#05501:00
#05501:00
#05501:00
#05501:00
#05501:00
#05501:00
#05501:00
#05501:00
#05501:00
#05501:00
#05501:00
#05501:00
#05501:00
#05501:00
#05501:00
#05501:00
#05501:00
#05501:00
#05501:8A8A8A8A
#05506:030405060708090A0B0C0D0E0F0G0H0I030405060708090A0B0C0D0E0F0G0H0I
#05601:00
#05601:00
#05601:00
#05601:00
#05601:00
#05601:00
#05601:00
#05601:00
#05601:00
#05601:00
#05601:00
#05601:00
#05601:00
#05601:00
#05601:00
#05601:00
#05601:00
#05601:00
#05601:00
#05601:00
#05601:00
#05601:00
#05601:00
#05601:00
#05601:00
#05601:8B8B8B8B
#05606:030405060708090A0B0C0D0E0F0G0H0I030405060708090A0B0C0D0E0F0G0H0I
#05615:000D
#05701:00
#05701:00
#05701:00
#05701:00
#05701:00
#05701:00
#05701:00
#05701:00
#05701:00
#05701:00
#05701:00
#05701:00
#05701:00
#05701:00
#05701:00
#05701:00
#05701:00
#05701:00
#05701:00
#05701:00
#05701:00
#05701:00
#05701:00
#05701:00
#05701:008D
#05701:8C8C8C8C
#05706:030405060708090A0B0C0D0E0F0G0H0I030405060708090A0B0C0D0E0F0G0H0I
#05712:0000000000000000000B000000000000
#05724:8H
#05801:0C
#05806:030405060708090A0B0C0D0E0F0G0H0I030405060708090A0B0C0D0E0F0G0H0I
#05813:0009000900090009
#05814:000L000L
#05815:04000004040000040004000404000000
#05822:000E000E000E000E
#05823:89898989
#05824:0E0E0E0E
#05825:85858585
#05906:030405060708090A0B0C0D0E0F0G0H0I030405060708090A0B0C0D0E0F0G0H0I
#05912:000000000000000F
#05913:00000000090000000000000009000000000000000900000000000000000G0000
#05914:000000000L000000000000000L00000F
#05915:04000004040000040004000404000000
#05922:8A8A8A8A
#05923:000E000E000E000E
#05924:86868686
#05925:0E0E0E0E
#06001:00
#06001:00
#06001:00
#06001:00
#06001:00
#06001:00
#06001:00
#06001:00
#06001:00
#06001:00
#06001:00
#06001:000E000E
#06006:030405060708090A0B0C0D0E0F0G0H0I030405060708090A0B0C0D0E0F0G0H0I
#06012:0000000E0000000E
#06013:8B8B8B8B
#06014:090A0000090A0000090A0000090A0000
#06015:0400000000000400040000000000040000000400000004000400060504000000
#06022:0000090A0000090A0000090A0000090A
#06023:87878787
#06024:000E0L00000E0L00
#06025:0H0E
#06101:00
#06101:00
#06101:000L000L
#06101:00
#06101:00
#06101:00
#06101:00
#06101:00
#06101:00
#06101:00
#06101:00
#06101:000E000E
#06106:030405060708090A0B0C0D0E0F0G0H0I030405060708090A0B0C0D0E0F0G0H0I
#06111:00880088
#06112:008C0E8C
#06113:0E000000000G000G00000000000G000G00000000000G000G00000000000G000G
#06114:000G000G00000000000G000G00000000000G000G00000000000G000G00000000
#06115:04000004040000040004000404000000
#06122:00000F0F00000F0F00000F0F00000F0F
#06123:0F0F00000F0F00000F0F00000F0F0000
#06124:880E000E880E000E
#06125:8C8C
#06201:00
#06201:00
#06201:00
#06201:00
#06201:00
#06201:00
#06201:00
#06201:00
#06201:00
#06201:00
#06201:00
#06201:00
#06201:00
#06201:7B7C7B7V7C7B7V7C7B7C7B7V7C7B7V7C
#06201:00
#06201:00
#06201:00
#06201:00
#06201:00
#06201:00
#06201:00
#06201:00
#06201:00
#06201:00
#06201:00
#06201:00
#06201:00
#06201:00
#06201:00
#06201:00
#06201:00
#06201:29
#06203:B8
#06206:030405060708090A0B0C0D0E0F0G0H0I030405060708090A0B0C0D0E0F0G0H0I
#06211:0C
#06212:00000000000000000000000000000042
#06214:00000000000051520000000040004000
#06215:00004000000000000000003Z003Z0000
#06222:003Z003Z000000004100410000000000
#06223:3Y00000000000000003Y000000000000
#06224:0000000000004Z500000000000000000
#06225:08
#06301:00
#06301:00
#06301:00
#06301:00
#06301:00
#06301:00
#06301:00
#06301:00
#06301:00
#06301:00
#06301:00
#06301:00
#06301:00
#06301:7F7G7F7X7G7F7X7G7F7G7F7X7G007X7G
#06306:030405060708090A0B0C0D0E0F0G0H0I030405060708090A0B0C0D0E0F0G0H0I
#06312:0000000000000000550056000055000000000000000000000000480000000000
#06313:4300000000004646
#06314:00400000000000000040000000480000
#06315:00003Z00000000000000000000470000
#06322:0000000000000000530054000053000000000000000000004500000045000000
#06323:0000003Y000000003Z003Z00007F0000
#06401:00
#06401:00
#06401:00
#06401:00
#06401:00
#06401:00
#06401:00
#06401:00
#06401:00
#06401:00
#06401:00
#06401:00
#06401:00
#06401:7H7I7H7Y7I7H7Y7I7H7I7H7Y7I7H7Y7I
#06406:030405060708090A0B0C0D0E0F0G0H0I030405060708090A0B0C0D0E0F0G0H0I
#06411:4C00004F00000000
#06412:004E000000000057
#06413:000000000000004G4G00000000000000
#06414:000000000000000000004E000000000000000000000000000000000000580000
#06415:004D00004D0000000000480000480000
#06422:00000048000000000046000000000059
#06423:00000046
#06424:000000000000000000000000000000000000000000000000000000000000005A
#06425:00000000000000000000004700000000
#06501:00
#06501:00
#06501:00
#06501:00
#06501:00
#06501:00
#06501:00
#06501:00
#06501:00
#06501:00
#06501:00
#06501:00
#06501:00
#06501:7N7O7N817O7N817O7P7Q7P827Q00007Q
#06501:00
#06501:00
#06501:00
#06501:00
#06501:00
#06501:00
#06501:00
#06501:00
#06501:00
#06501:00
#06501:00
#06501:00
#06501:00
#06501:00
#06501:00
#06501:00
#06501:37
#06506:030405060708090A0B0C0D0E0F0G0H0I030405060708090A0B0C0D0E0F0G0H0I
#06511:42
#06512:004E0000450000000000000000000000
#06513:3Z000000004D00004200000043000000
#06514:00004E004300000000480000007P0046
#06515:0046460000000000400000003Z004A00
#06522:4H00000000004D000000000000460000
#06523:00000000004I4I00000048004L000000
#06524:000000004J000000004H4H0000008200
#06525:00000000000000004K00000000424942
#06601:00
#06601:00
#06601:00
#06601:00
#06601:00
#06601:00
#06601:00
#06601:00
#06601:00
#06601:00
#06601:00
#06601:00
#06601:00
#06601:007C7B7V7C7B7V7C7B7C7B7V7C7B7V7C
#06606:030405060708090A0B0C0D0E0F0G0H0I030405060708090A0B0C0D0E0F0G0H0I
#06611:00004600000000000000000000470000
#06612:00470000000000000000000000004500
#06613:45000047000000000000000000000000
#06614:00000000450000000000000000000042
#06615:00000000004200000000000000000000
#06622:0000004300000000
#06623:7B000000000000400040000040000000
#06624:00000000000000003Z00003Z00000000
#06625:0000000000410000
#06701:00
#06701:00
#06701:00
#06701:00
#06701:00
#06701:00
#06701:00
#06701:00
#06701:00
#06701:00
#06701:00
#06701:00
#06701:00
#06701:00007L800000807M00007L800000807M
#06706:030405060708090A0B0C0D0E0F0G0H0I030405060708090A0B0C0D0E0F0G0H0I
#06711:7L
#06712:004200007M0000000000000000000000
#06713:00004300004100007L00000000000000
#06714:0000000000003Y00004O00007M000000
#06715:430000400000000000004P00004S0000
#06722:007M00003Z00004L0000000000004T00
#06723:00000000007L00004N00004Q00000000
#06724:0000000000000000007M00004R00004U
#06725:000000000000000000000000007L0000
#06801:00
#06801:00
#06801:00
#06801:00
#06801:00
#06801:00
#06801:00
#06801:00
#06801:00
#06801:00
#06801:00
#06801:00
#06801:00
#06801:00007D007E00007E7D7E7D7W7E7D7W7E
#06806:030405060708090A0B0C0D0E0F0G0H0I030405060708090A0B0C0D0E0F0G0H0I
#06811:7D
#06813:003Z004B003Z4B000000000000000000
#06815:007E007W007D7W000041000000000041
#06822:000000003Y3Y003Y
#06823:003X003Y003X3Y000000004L004L0000
#06824:0000004N
#06825:43
#06901:00
#06901:00
#06901:00
#06901:00
#06901:00
#06901:00
#06901:00
#06901:00
#06901:00
#06901:00
#06901:00
#06901:00
#06901:00
#06901:7R7S7R837S7R837S007U7T847U7T847U
#06906:030405060708090A0B0C0D0E0F0G0H0I030405060708090A0B0C0D0E0F0G0H0I
#06911:00000000000B0000
#06913:003Y
#06914:0000000000000000004L000000000000
#06915:00000000004N0000
#06922:3Y0000003Y0000007T00004O00000000
#06923:004L004L004L004L000000004P000000
#06924:00004N0000004N0000000000004Q004S
#06925:000000000000004T
#07001:00
#07001:008K0000008K0000008K0000008K0000
#07001:00
#07001:00
#07001:04040404
#07001:00
#07001:000K000K
#07001:00
#07001:00
#07001:0001000100010001
#07001:00030203000302030003020302030203
#07001:00
#07001:00
#07001:007C7B7V7C7B7V7C7B7C7B7V7C7B7V7C
#07001:00
#07001:00
#07001:1R001T001R001R1S001R1S001R001T00
#07001:00
#07001:2A2B2C2D2E2B2F2B
#07001:00
#07001:00
#07001:00
#07001:00
#07001:00
#07001:00
#07001:00
#07001:00
#07001:00
#07001:00
#07001:00
#07001:00
#07001:0R
#07006:030405060708090A0B0C0D0E0F0G0H0I030405060708090A0B0C0D0E0F0G0H0I
#07011:0C45
#07012:7B0000008F0000000042000000000000
#07013:458F008F0043008E
#07014:02000000020000000000004000000000
#07015:0040004000003Z00
#07022:8F000000000000000200000000410000
#07023:003Z003Z003Z003Z00008F0000003Y00
#07024:00000000000000008F0000000000004L
#07025:0041008F
#07101:00
#07101:00008K000000000000008K00008L8G8L000000000000000000008K0000000000
#07101:00
#07101:00
#07101:04040404
#07101:00
#07101:000K000K
#07101:00
#07101:00
#07101:0001000100010001
#07101:02030203000302030003020302030203
#07101:00
#07101:00
#07101:7F7G7F7X7G7F7X7G7F7G7F7X7G7F7X7G
#07101:00
#07101:00
#07101:1O001Q001O001O1P001O1P001O001Q00
#07101:00
#07101:2A2B2C2D2E2B2F2B
#07106:030405060708090A0B0C0D0E0F0G0H0I030405060708090A0B0C0D0E0F0G0H0I
#07111:004V
#07112:000000008F000042004G000000000000
#07113:000000400000400000004E0000000000
#07114:00003Z00000000008F00004800008E00
#07115:8F000000004100000000000047000000
#07122:004100003Y0000000200000000450000
#07123:3Y8F0000008K0042
#07124:0000000002000000000000008F000040
#07125:0000008G00000000
#07201:00
#07201:008K8F00008K0000008K0000008K0000
#07201:00
#07201:00
#07201:04040404
#07201:00
#07201:000K000K
#07201:00
#07201:00
#07201:0001000100010001
#07201:00030203020302030003020302030203
#07201:00
#07201:00
#07201:7H7I7H7Y7I7H7Y7I7H7I7H7Y7I7H7Y7I
#07201:00
#07201:00
#07201:1L001N001L001L1M001L1M001L001N00
#07201:00
#07201:2A2B2C2D2E2B2F2B
#07206:030405060708090A0B0C0D0E0F0G0H0I030405060708090A0B0C0D0E0F0G0H0I
#07211:00000000008F0000
#07212:0000008F
#07213:0200008F003Y0000
#07214:000000008F0000000200004L00008E00
#07215:5G005H00005G0000000000000000420000000000000000004P00000000000000
#07222:00000000002K00008F000000005B0000
#07223:5E005F00005E00003Z00000000003Z0000000000000000000000005C00000000
#07224:00000000002Q00000000000000000000
#07225:8F003Y000000005D
#07301:00
#07301:000000008F000000000000008G8L8G8L000000008K0000000000000000000000
#07301:00
#07301:00
#07301:04040404
#07301:00
#07301:000K000K
#07301:00
#07301:00
#07301:0000000000000001
#07301:02030203020302030200020300030203
#07301:00
#07301:00
#07301:7N7O7N817O7N817O7P7Q7P827Q7P827Q
#07301:00
#07301:00
#07301:1U001W001U001U1V001O1P001O001Q00
#07301:00
#07301:2A2B2C2D2E2B2F2B
#07306:030405060708090A0B0C0D0E0F0G0H0I030405060708090A0B0C0D0E0F0G0H0I
#07311:4H01000100000000
#07312:008K0000450000000000010000000000
#07313:42000000008K00004200000000008E00
#07314:004E4E00430000000003000002000000
#07315:00464600004I4I0040000000008K0000
#07322:8F000000004D4D00004H4H008F000049
#07323:3Z0000008F0000000048480000003W00
#07324:000000004J0000004K000000004K0000
#07325:00008F4L
#07401:00
#07401:00
#07401:00
#07401:00
#07401:04040404
#07401:00
#07401:000K000K
#07401:00
#07401:00
#07401:0001000100010001
#07401:02030203020302030203020302030200
#07401:00
#07401:00
#07401:7B7C7B7V7C7B7V7C7B7C7B7V7C7B7V7C
#07401:00
#07401:00
#07401:1R001T001R001R1S001R1S001R001T00
#07401:00
#07401:2A2B2C2D2E2B2F2B
#07406:030405060708090A0B0C0D0E0F0G0H0I030405060708090A0B0C0D0E0F0G0H0I
#07411:00004600000000000000000000470000
#07412:00470047000000000000000000004500
#07413:45000000450000000000000040000042
#07414:0000000000420000008K0000008K0000
#07415:8F0000000000430000008F008F000003
#07422:008K00008F0000400040003Z00008E00
#07423:00008F00008K00003Z00410000000000
#07424:0000008F00000000
#07425:008F
#07501:000000000000000000000000008L008L00000000000000000000000000000000
#07501:00
#07501:00
#07501:00
#07501:04040404
#07501:00
#07501:000K000K
#07501:00
#07501:00
#07501:0001000100010001
#07501:02030200020302030200020002030200
#07501:00
#07501:00
#07501:7L7M7L807M7L807M7L7M7L807M7L807M
#07501:00
#07501:00
#07501:1X001Z001X001X1Y001X1Y001X001Z00
#07501:00
#07501:2A2B2C2D2E2B2F2B
#07506:030405060708090A0B0C0D0E0F0G0H0I030405060708090A0B0C0D0E0F0G0H0I
#07512:0042000000000000000000008F000000
#07513:000043000041000000000003008K0000
#07514:4300004000003Y00004O000000008E00
#07515:000000003Z00004L00004P00004S0003
#07522:8F000003000000004N00004Q00004T00
#07523:008K00008F00008G000000004R00004U
#07524:00008F00008K00008F008K0000000000
#07525:0000000000008G000003000000000000
#07601:00
#07601:008K8F008F8K8F008F8K8F008F8K0000
#07601:000000000000008E
#07601:00
#07601:04040404
#07601:00
#07601:000K000K
#07601:00
#07601:00
#07601:0001000100010001
#07601:00030203020302030203020302030203
#07601:00
#07601:00
#07601:7D7E7D7W7E7D7W7E7D7E7D7W7E7D7W7E
#07601:00
#07601:00
#07601:20002200200020002120002120002200
#07601:00
#07601:2A2B2C2D2E2B2F2B
#07606:030405060708090A0B0C0D0E0F0G0H0I030405060708090A0B0C0D0E0F0G0H0I
#07611:0243
#07612:0000000000000000004000003Y000000
#07613:450000000000000000003Z00004L0000
#07614:003Z004B003Z4B004B00004100004N00
#07615:0000000000000000004100004N00004O
#07622:8F0000000000000000003Y00004O0000
#07623:00000000000000000000004L00004P00
#07624:4300000000000000000000000000004Q
#07625:003X003Y003X3Y000000000000000000
#07701:00
#07701:8F008K00000000008F008K00008L8G8L8F000000000000008F008K0000000000
#07701:00
#07701:00
#07701:04040404
#07701:0000000000000007
#07701:000K000K
#07701:00
#07701:00
#07701:0001000100010001
#07701:00037R03000302030003000300030203
#07701:00
#07701:00
#07701:7R7S00837S7R837S007U7T847U7T847U
#07701:00
#07701:00
#07701:23002500230023240026270026002800
#07706:030405060708090A0B0C0D0E0F0G0H0I030405060708090A0B0C0D0E0F0G0H0I
#07711:0I000000002B0000
#07712:0200000J00000H00
#07713:2A000M002E02022B
#07714:002B022D7T002F00
#07715:000000002C000000020000000000004K
#07722:000200000000004X
#07723:004P4X004P4X004P4X004P4X004Y0000
#07724:008F008G008K008E
#07725:4R00004R00004R00004R00004S000000
#07801:00
#07801:00
#07801:00
#07801:00
#07801:04040404
#07801:00
#07801:000K000K
#07801:0C
#07801:00
#07801:0001000100010001
#07801:02030203020302030203020302030203
#07801:00
#07801:00
#07801:7B7C7B7V7C7B7V7C7B7C7B7V7C7B7V7C
#07801:00
#07801:00
#07801:1R001T001R001R1S001R1S001R001T00
#07806:030405060708090A0B0C0D0E0F0G0H0I030405060708090A0B0C0D0E0F0G0H0I
#07811:2A00008F002B0000
#07812:008K0000008K00002E00000000002B00
#07813:002B002D008F2F8E
#07814:452C458F
#07815:00008F008F00000000420000008K0000
#07822:8F40004000433Z00
#07823:003Z003Z003Z003Z0000004000410000
#07824:000041008F00003Y
#07825:0000000000000000008K00000000004L
#07901:00
#07901:000000000000000000000000008L8G8L00000000000000008F00000000000000
#07901:00
#07901:00
#07901:04040404
#07901:00
#07901:000K000K
#07901:00
#07901:00
#07901:0001000100010001
#07901:02030203020302030200020002030200
#07901:00
#07901:00
#07901:7F7G7F7X7G7F7X7G7F7G7F7X7G7F7X7G
#07901:00
#07901:00
#07901:1O001Q001O001O1P001O1P001O001Q00
#07906:030405060708090A0B0C0D0E0F0G0H0I030405060708090A0B0C0D0E0F0G0H0I
#07911:3Y00008G4V000000
#07912:8F00000000000042004G00002F000000
#07913:000000400000400000004E00008K0000
#07914:00003Z00004100008F00004800002B00
#07915:004100003Y002D000003000047000003
#07922:2A0000008F0000002E008K0000450000
#07923:00002B00008K00000000000300004200
#07924:008K00002C00000000002B0000000040
#07925:008F00000000008E
#08001:00
#08001:8F8K8F008F00000000000000008K0000
#08001:00
#08001:00
#08001:04040404
#08001:00
#08001:000K000K
#08001:00
#08001:00
#08001:0001000100010001
#08001:02030203020302000203020302030203
#08001:00
#08001:00
#08001:7H7I7H7Y7I7H7Y7I7H7I7H7Y7I7H7Y7I
#08001:00
#08001:00
#08001:1L001N001L001L1M001L1M001L001N00
#08006:030405060708090A0B0C0D0E0F0G0H0I030405060708090A0B0C0D0E0F0G0H0I
#08011:2A000000002B0000
#08012:00002B0000000000008K00002F000000
#08013:000000000000000300008F0000002B00
#08014:5E005F00005E000000008K008F0000002E0000003Y0000008F00000000000000
#08015:000000002C00003Z0000004L00008E00
#08022:5G005H00005G000000002K00000000008F000000000000004P00000000000000
#08023:000000003Y00004200000000005B0000
#08024:000000000000000000002Q002D00000000000000000000000000005C00000000
#08025:00003Z000000005D
#08101:00
#08101:8F008K008F0000008F008K008G8L8G8L8F0000008K0000008F008K0000000000
#08101:000000000000008E
#08101:00
#08101:04040404
#08101:00
#08101:000K000K
#08101:00
#08101:00
#08101:0001000100010001
#08101:00
#08101:00
#08101:00
#08101:7N7O7N817O7N817O7P7Q7P827Q7P827Q
#08101:00
#08101:00
#08101:1U001W001U001U1V001O1P001O001Q00
#08101:00
#08101:2A2B2C2D2E2B2F2B
#08106:030405060708090A0B0C0D0E0F0G0H0I030405060708090A0B0C0D0E0F0G0H0I
#08111:4C00000000000002
#08112:004G0000000000000000000300030045
#08113:4E4E460000020242
#08114:00480048004500030003004000440040
#08115:02464242023Z3W3Z
#08122:0003004500400040003X003X003Y0003
#08123:0002023Z4L4L4L00
#08124:000000030003003X004O000000000000
#08125:000000024P000000
#08201:00
#08201:00
#08201:00
#08201:00
#08201:04040404
#08201:00
#08201:000K000K
#08201:00
#08201:00
#08201:0001000100010001
#08201:00000200000002030003020002000200
#08201:00
#08201:00
#08201:7B7C7B7V7C7B7V7C007C7B7V7C7B7V7C
#08201:00
#08201:00
#08201:1R001T001R001R1S001R1S001R001T00
#08201:00
#08201:2A2B2C2D2E2B2F2B
#08206:030405060708090A0B0C0D0E0F0G0H0I030405060708090A0B0C0D0E0F0G0H0I
#08211:00000000008K00000000000000000000
#08212:008K000000008F008F0000008F000000
#08213:8F00000000030000008K0000008K0000
#08214:00400000020000000200000300000003
#08215:3Z003Z000041000000008F0000008E00
#08222:00008F003Y003Y00004L000000030000
#08223:02000041000000004N004N004P00004Q
#08224:000300008F00004L00000000004Q0000
#08225:00000003000000007B00004O00004S00
#08301:00
#08301:000000000000000000000000008L008L00000000000000000000000000000000
#08301:00
#08301:00
#08301:04040404
#08301:00
#08301:000K000K
#08301:00
#08301:00
#08301:0001000100010001
#08301:00000200000002000000020000000003
#08301:00
#08301:00
#08301:7L7M7L807M7L807M7L7M7L807M7L807M
#08301:00
#08301:00
#08301:1X001Z001X001X1Y001X1Y001X001Z00
#08301:00
#08301:2A2B2C2D2E2B2F2B
#08306:030405060708090A0B0C0D0E0F0G0H0I030405060708090A0B0C0D0E0F0G0H0I
#08311:020000008F0000000003000000000000
#08312:00008F00008K00000200000002000000
#08313:8F00000300008G008F008K00008K0000
#08314:008K00000000008G000000008F008E00
#08315:0003004O00004O00000000030000004O
#08322:00004P00004P000000004P004P004P00
#08323:004Q00004Q0000030000004W00000200
#08324:4R000000000300002R000000004Q0000
#08325:000000000200003Y0000000000030000
#08401:00
#08401:008F8F0000000000
#08401:00
#08401:00
#08401:04040404
#08401:00
#08401:000G000G000G000G000G000G000G000G
#08401:00
#08401:0F0F0F0F0F0F0F0F
#08401:0001000100010001
#08401:02030200020302030203020002030200
#08401:00
#08401:00
#08401:00007D007E00007E7D7E7D7W7E7D7W7E
#08401:00
#08401:00
#08401:20002200200020210020210020002200
#08401:00
#08401:2A2B2C2D2E2B2F2B
#08406:030405060708090A0B0C0D0E0F0G0H0I030405060708090A0B0C0D0E0F0G0H0I
#08411:008K0003008K8F004B0000008F000000
#08412:430000000000000000410000008K0000
#08413:007E007W007D7W0000003Y004N008E00
#08414:8F000000000000004300004L004O0003
#08415:00000000000000000040000000004P00
#08422:7D000000000000008F003Z003Y00004Q
#08423:003X003Y003X3Y00008K0041004L0000
#08424:45000000008F004N
#08425:003Z004B003Z4B00000000030000004O
#08501:00
#08501:8F008K008F0000008F008K008G8L8G8L8F0000008K0000008F008K0000000000
#08501:00
#08501:00
#08501:00
#08501:00
#08501:00
#08501:00
#08501:00
#08501:0000000000000001
#08501:02030203020302030203020302030203
#08501:00
#08501:00
#08501:7R7S7R837S7R837S7T7U7T847U7T847U
#08501:00
#08501:00
#08501:23002500230023240026270026002800
#08501:00
#08501:2A2B2C2D2E2B2F2B
#08506:030405060708090A0B0C0D0E0F0G0H0I030405060708090A0B0C0D0E0F0G0H0I
#08511:07070707
#08512:0G000G000G000G8E
#08513:000F000F000F000F000F000F000F000F
#08514:000G000G000G000G
#08515:000001000000010000000100008M0000
#08522:0000000000000000000000000000004K
#08523:0I000I0J00000H4X
#08524:004P4X004P4X004P4X004P4X004Y0000
#08525:4R00004R00004R00004R00004S000000
#08601:00
#08601:0I00000I00000000
#08601:00
#08601:00
#08601:00
#08601:00
#08601:00
#08601:00
#08601:00
#08601:00
#08601:00
#08601:00
#08601:00
#08601:7B7C000000007B7C000000007B7C0000
#08606:030405060708090A0B0C0D0E0F0G0H0I030405060708090A0B0C0D0E0F0G0H0I
#08611:4G00000Y00000000
#08612:0048000000000000000000000J000000
#08613:150046000000150000000000454M0045
#08614:0000004700000000000000400Y000000
#08615:00004500003Z0000
#08622:00000000004300000041000015000000
#08623:0Y000000000040003Y0000003Z3W003Z
#08624:000000000000003Z0000000004000000
#08625:0400000400000000
#08701:0D
#08701:0I00000I00000000
#08701:00
#08701:00
#08701:00
#08701:00
#08701:00
#08701:00
#08701:00
#08701:00
#08701:00
#08701:00
#08701:00
#08701:7B7C000000007B7C000000007B7C0000
#08706:030405060708090A0B0C0D0E0F0G0H0I030405060708090A0B0C0D0E0F0G0H0I
#08711:4G00000Y00000J00
#08712:004800000000000000000040454M0045
#08713:0Y460015003Z0Y00
#08714:00480047000000000041004000000000
#08715:004645003Y3Z0000
#08722:000000470043003Z0041000000000000
#08723:150045403Y001500
#08724:000000000043003Z000000003Z3W003Z
#08725:0400000400000400
#08801:8N
#08801:0I00000I00000000
#08801:0000000000000000005I000000000000
#08801:00
#08801:00000007
#08801:00
#08801:00
#08801:00
#08801:00
#08801:00
#08801:00
#08801:00
#08801:00
#08801:7B00007B00000000
#08801:00
#08801:00
#08801:00
#08801:00
#08801:00
#08801:00
#08801:00
#08801:00
#08801:0000000000000000000000003Z00003Z
#08806:030405060708090A0B0C0D0E0F0G0H0I030405060708090A0B0C0D0E0F0G0H0I
#08811:0000000000410000000000477B000000
#08812:040000003Y003Z0000004500454M0045
#08813:0000004100410000004000470J000000
#08814:0Y003Y003Y0004003Z004500007C0000
#08815:007C0041004100400040004700000000
#08822:4N003Y003Y000Y003Z004500004B0000
#08823:007C004100000040004000000Y000000
#08824:15003Y00000015003Z0000003Y3X003Y
#08825:004L00000000007C0000000015000000
#08901:00
#08901:0C
#08906:030405060708090A0B0C0D0E0F0G0H0I030405060708090A0B0C0D0E0F0G0H0I
#08911:08
#08913:2H
#08923:2L
#08925:2O
