*---------------------- HEADER FIELD
#PLAYER 1
#GENRE RENAISSANCE
#TITLE Joker[ONE MORE EXTRA]
#ARTIST D.J.Nero/obj:yyyyyy
#BPM 184
#PLAYLEVEL 8
#RANK 3
#TOTAL 430
#STAGEFILE title.jpg
#WAV01 opHH.wav
#WAV02 close.wav
#WAV03 close.wav
#WAV04 kickA.wav
#WAV05 kickB.wav
#WAV06 kickB.wav
#WAV07 kick32.wav
#WAV08 FXkick.wav
#WAV09 snare.wav
#WAV0A snare.wav
#WAV0B reverse.wav
#WAV0C SE1.wav
#WAV0D bell.wav
#WAV0E ride.wav
#WAV0F snare-Fill.wav
#WAV0G SE3.wav
#WAV0H snare-Fill.wav
#WAV0I clashA.wav
#WAV0J clashB.wav
#WAV0K clashC.wav
#WAV0L clap.wav
#WAV0M clap-deep.wav
#WAV0N clashB.wav
#WAV0O bgm1.wav
#WAV0P bgm1.wav
#WAV0Q bgm2.wav
#WAV0R bgm2.wav
#WAV0S bgm3.wav
#WAV0T str01.wav
#WAV0U str01.wav
#WAV0V str02.wav
#WAV0W str03.wav
#WAV0X str03.wav
#WAV0Y str04.wav
#WAV0Z str05.wav
#WAV10 str-01.wav
#WAV11 str-01.wav
#WAV12 str-02.wav
#WAV13 str-03.wav
#WAV14 str-03.wav
#WAV15 str-04.wav
#WAV16 str-05.wav
#WAV17 harp1.wav
#WAV18 harp2.wav
#WAV19 harp3.wav
#WAV1A harp4.wav
#WAV1B harp5.wav
#WAV1C harp6.wav
#WAV1D harp16-01.wav
#WAV1E harp16-02.wav
#WAV1F harp16-03.wav
#WAV1G harp16-04.wav
#WAV1H harp16-05.wav
#WAV1I harp16-06.wav
#WAV1J core1.wav
#WAV1K core1.wav
#WAV1L core1b.wav
#WAV1M core2.wav
#WAV1N core2.wav
#WAV1O core2b.wav
#WAV1P core3.wav
#WAV1Q core3.wav
#WAV1R core3b.wav
#WAV1S core4.wav
#WAV1T core4.wav
#WAV1U core4b.wav
#WAV1V core5.wav
#WAV1W core5.wav
#WAV1X core5b.wav
#WAV1Y core6.wav
#WAV1Z core6.wav
#WAV20 core6b.wav
#WAV21 core7.wav
#WAV22 core7.wav
#WAV23 core7b.wav
#WAV24 core8.wav
#WAV25 core8.wav
#WAV26 core8b.wav
#WAV27 core9.wav
#WAV28 core9.wav
#WAV29 core9b.wav
#WAV2A arp-bgm.wav
#WAV2B arp1.wav
#WAV2C arp2.wav
#WAV2D arp3.wav
#WAV2E arp4.wav
#WAV2F arp5.wav
#WAV2G arp6.wav
#WAV2H p-8-1.wav
#WAV2I p-8-2.wav
#WAV2J p-8-3.wav
#WAV2K p-8-4.wav
#WAV2L p-8-5.wav
#WAV2M p-8-6.wav
#WAV2N p-8-7.wav
#WAV2O p-8-8.wav
#WAV2P p-8-9.wav
#WAV2Q p-8-10.wav
#WAV2R p-8-11.wav
#WAV2S p-8-12.wav
#WAV2T p-8-13.wav
#WAV2U pA-1.wav
#WAV2V pA-2.wav
#WAV2W pA-2b.wav
#WAV2X pA-3.wav
#WAV2Y pA-4.wav
#WAV2Z pA-4b.wav
#WAV30 pA-5.wav
#WAV31 pA-6.wav
#WAV32 pA-7.wav
#WAV33 pA-8.wav
#WAV34 pA-9.wav
#WAV35 pA-10.wav
#WAV36 pA-11.wav
#WAV37 pA-12.wav
#WAV38 pA-12b.wav
#WAV39 pA-13.wav
#WAV3A pA-13b.wav
#WAV3B pA-14.wav
#WAV3C pA-14b.wav
#WAV3D pA-15.wav
#WAV3E pA-15b.wav
#WAV3F p-16-1.wav
#WAV3G p-16-2.wav
#WAV3H p-16-3.wav
#WAV3I p-16-4.wav
#WAV3J p-16-5.wav
#WAV3K p-16-6.wav
#WAV3L p-16-7.wav
#WAV3M p-16-8.wav
#WAV3N p-16-9.wav
#WAV3O p-16-10.wav
#WAV3P p-16-11.wav
#WAV3Q p-16-12.wav
#WAV3R p-16-13.wav
#WAV3S p-16-14.wav
#WAV3T p-16-15.wav
#WAV3U p-16-16.wav
#WAV3V p-16-17.wav
#WAV3W ps-16-2.wav
#WAV3X ps-16-1.wav
#WAV3Y ps-16-1.wav
#WAV3Z ps-16-2.wav
#WAV40 ps-16-3.wav
#WAV41 ps-16-4.wav
#WAV42 ps-16-5.wav
#WAV43 ps-16-6.wav
#WAV44 ps-16-3.wav
#WAV45 ps-16-7.wav
#WAV46 ps-16-8.wav
#WAV47 ps-16-9.wav
#WAV48 ps-16-10.wav
#WAV49 ps-16-5.wav
#WAV4A ps-16-8.wav
#WAV4B ps-16-2.wav
#WAV4C ps-16-11.wav
#WAV4D ps-16-12.wav
#WAV4E ps-16-13.wav
#WAV4F ps-16-14.wav
#WAV4G ps-16-15.wav
#WAV4H ps-16-16.wav
#WAV4I ps-16-17.wav
#WAV4J ps-16-18.wav
#WAV4K ps-16-19.wav
#WAV4L ps-16-20.wav
#WAV4M ps-16-7.wav
#WAV4N ps-16-21.wav
#WAV4O ps-16-22.wav
#WAV4P ps-16-23.wav
#WAV4Q ps-16-24.wav
#WAV4R ps-16-25.wav
#WAV4S ps-16-26.wav
#WAV4T ps-16-27.wav
#WAV4U ps-16-28.wav
#WAV4V ps-16-29.wav
#WAV4W ps-16-30.wav
#WAV4X ps-16-23.wav
#WAV4Y ps-16-31.wav
#WAV4Z ps-32-1.wav
#WAV50 ps-32-1.wav
#WAV51 ps-32-1b.wav
#WAV52 ps-32-1b.wav
#WAV53 ps-32-2.wav
#WAV54 ps-32-2.wav
#WAV55 ps-32-2b.wav
#WAV56 ps-32-2b.wav
#WAV57 ps-32-3.wav
#WAV58 ps-32-4.wav
#WAV59 ps-32-5.wav
#WAV5A ps-32-6.wav
#WAV5B ps-32-7.wav
#WAV5C ps-32-8.wav
#WAV5D ps-32-9.wav
#WAV5E ps-32-10.wav
#WAV5F ps-32-10.wav
#WAV5G ps-32-10b.wav
#WAV5H ps-32-10b.wav
#WAV5I SE2.wav
#WAV5J chero 1.wav
#WAV5K chero 2.wav
#WAV5L chero 3.wav
#WAV5M chero 4.wav
#WAV5N chero 9.wav
#WAV5O chero 10.wav
#WAV5P chero 11.wav
#WAV5Q chero 12.wav
#WAV5R chero 13.wav
#WAV5S chero 14.wav
#WAV5T chero 15.wav
#WAV5U chero 16.wav
#WAV5V chero 17.wav
#WAV5W chero 18.wav
#WAV5X chero 19.wav
#WAV5Y chero 20.wav
#WAV5Z chero 21.wav
#WAV60 chero 22.wav
#WAV61 solo 1.wav
#WAV62 solo 2.wav
#WAV63 solo 3.wav
#WAV64 solo 4.wav
#WAV65 solo 5.wav
#WAV66 solo 6.wav
#WAV67 solo 7.wav
#WAV68 solo 8.wav
#WAV69 solo 9.wav
#WAV6A solo 10.wav
#WAV6B solo 11.wav
#WAV6C solo 12.wav
#WAV6D solo 13.wav
#WAV6E solo 14.wav
#WAV6F solo 15.wav
#WAV6G solo 16.wav
#WAV6H solo 17.wav
#WAV6I solo 18.wav
#WAV6J solo 19.wav
#WAV6K solo 20.wav
#WAV6L solo 21.wav
#WAV6M solo 22.wav
#WAV6N solo 23.wav
#WAV6O solo 24.wav
#WAV6P solo 25.wav
#WAV6Q solo 26.wav
#WAV6R solo 27.wav
#WAV6S solo 28.wav
#WAV6T solo 29.wav
#WAV6U solo 30.wav
#WAV6V solo 31.wav
#WAV6W solo 32.wav
#WAV6X solo 33.wav
#WAV6Y solo 34.wav
#WAV6Z solo 35.wav
#WAV70 solo 36.wav
#WAV71 solo 37.wav
#WAV72 solo 38.wav
#WAV73 solo 39.wav
#WAV74 solo 40.wav
#WAV75 solo 41.wav
#WAV76 solo 42.wav
#WAV77 solo 43.wav
#WAV78 solo 44.wav
#WAV79 solo 45.wav
#WAV7A solo 46.wav
#WAV7B bass1.wav
#WAV7C bass2.wav
#WAV7D bass3.wav
#WAV7E bass4.wav
#WAV7F bass5.wav
#WAV7G bass6.wav
#WAV7H bass7.wav
#WAV7I bass8.wav
#WAV7J bass9.wav
#WAV7K bass10.wav
#WAV7L bass11.wav
#WAV7M bass12.wav
#WAV7N bass13.wav
#WAV7O bass14.wav
#WAV7P bass15.wav
#WAV7Q bass16.wav
#WAV7R bass17.wav
#WAV7S bass18.wav
#WAV7T bass19.wav
#WAV7U bass20.wav
#WAV7V bass1.wav
#WAV7W bass3.wav
#WAV7X bass5.wav
#WAV7Y bass7.wav
#WAV7Z bass9.wav
#WAV80 bass11.wav
#WAV81 bass13.wav
#WAV82 bass15.wav
#WAV83 bass17.wav
#WAV84 bass19.wav
#WAV85 chero1.wav
#WAV86 chero2.wav
#WAV87 chero3.wav
#WAV88 chero4.wav
#WAV89 vio1.wav
#WAV8A vio2.wav
#WAV8B vio3.wav
#WAV8C vio4.wav
#WAV8D tim.wav
#WAV8E tanbarin.wav
#WAV8F suzu.wav
#WAV8G suzu32.wav
#WAV8H syuooo.wav
#WAV8I SE5.wav
#WAV8J horn.wav
#WAV8K suzu.wav
#WAV8L suzu32.wav
#WAV8M cym B.wav
#WAV8N cym C.wav
#WAV8O SE4.wav
#BMP01 joker.mpg
#BMP03 miss 01.bmp
#BMP04 miss 02.bmp
#BMP05 miss 03.bmp
#BMP06 miss 04.bmp
#BMP07 miss 05.bmp
#BMP08 miss 06.bmp
#BMP09 miss 07.bmp
#BMP0A miss 08.bmp
#BMP0B miss 09.bmp
#BMP0C miss 10.bmp
#BMP0D miss 11.bmp
#BMP0E miss 12.bmp
#BMP0F miss 13.bmp
#BMP0G miss 14.bmp
#BMP0H miss 15.bmp
#BMP0I miss 16.bmp
#DIFFICULTY 5
#BACKBMP logo.jpg
#PLAYLEVEL 13 *---------------------- MAIN DATA FIELD
#00104:01
#00106:030405060708090A0B0C0D0E0F0G0H0I030405060708090A0B0C0D0E0F0G0H0I
#00116:000B000000000000
#00201:00
#00201:00
#00201:00
#00201:00
#00201:00
#00201:00
#00201:00
#00201:00
#00201:00
#00201:00
#00201:00
#00201:00
#00201:00
#00201:7B7C7B7V7C7B7V7C7B7C7B7V7C7B7V7C
#00206:030405060708090A0B0C0D0E0F0G0H0I030405060708090A0B0C0D0E0F0G0H0I
#00211:0400000400040000
#00212:0T0U000000000000
#00213:0000000V00000000
#00214:1011000000000000
#00215:0000001200000000
#00219:00000L00000L0000
#00301:00
#00301:00
#00301:00
#00301:00
#00301:00
#00301:00
#00301:00
#00301:00
#00301:00
#00301:00
#00301:00
#00301:00
#00301:00
#00301:7B7C7B7V7C7B7V7C7B7C7B7V7C7B7V7C
#00306:030405060708090A0B0C0D0E0F0G0H0I030405060708090A0B0C0D0E0F0G0H0I
#00311:0400000400040000
#00313:0W0X000000000000
#00314:0000000Y00000000
#00315:1314000000000000
#00318:0000001500000000
#00319:00000L00000L0000
#00401:00
#00401:00
#00401:00
#00401:00
#00401:00
#00401:00
#00401:00
#00401:00
#00401:00
#00401:00
#00401:00
#00401:00
#00401:00
#00401:7B7C7B7V7C7B7V7C7B7C7B7V7C7B7V7C
#00406:030405060708090A0B0C0D0E0F0G0H0I030405060708090A0B0C0D0E0F0G0H0I
#00411:0400000400040000
#00412:0T0U000000000000
#00413:0000000V00000000
#00414:1011000000000000
#00415:0000001200000000
#00416:0K00000J000J0000
#00418:0F0F0F0F0F0F0F0F
#00419:000H000H000H000H000H000H000H000H
#00501:00
#00501:00
#00501:00
#00501:00
#00501:00
#00501:00
#00501:00
#00501:00
#00501:00
#00501:00
#00501:00
#00501:00
#00501:00
#00501:7B7C7B7V7C7B7V7C7B7C7B7V7C7B7V7C
#00506:030405060708090A0B0C0D0E0F0G0H0I030405060708090A0B0C0D0E0F0G0H0I
#00511:0400000400040007
#00512:0W0X000000000000
#00513:0000000Y00000000
#00514:1314000000000000
#00515:0000001500000000
#00516:0K00000J000J0000
#00518:0F0F0F0F0F0F0F0F
#00519:000H000H000H000H000H000H000H000H
#00601:000L000L
#00601:00
#00601:00
#00601:00
#00601:00
#00601:00
#00601:00
#00601:00
#00601:00
#00601:0001000100010001
#00601:02030203020302030203020302030203
#00601:00
#00601:00
#00601:7B7C7B7V7C7B7V7C7B7C7B7V7C7B7V7C
#00601:00
#00601:00
#00601:00
#00601:00
#00601:00
#00601:00
#00601:00
#00601:00
#00601:00
#00601:00
#00601:00
#00601:00
#00601:00
#00601:00
#00601:00
#00601:00
#00601:00
#00601:0O
#00606:030405060708090A0B0C0D0E0F0G0H0I030405060708090A0B0C0D0E0F0G0H0I
#00611:04040404
#00612:2H
#00613:002I002I0000002I
#00614:00002J00002J0000
#00615:0000002K
#00616:0C
#00618:002L
#00701:000L000L
#00701:00
#00701:00
#00701:00
#00701:00
#00701:00
#00701:00
#00701:00
#00701:00
#00701:0001000100010001
#00701:02030203020302030203020302030203
#00701:00
#00701:00
#00701:7B7C7B7V7C7B7V7C7B7C7B7V7C7B7V7C
#00706:030405060708090A0B0C0D0E0F0G0H0I030405060708090A0B0C0D0E0F0G0H0I
#00711:04040404
#00712:2H
#00713:002J0000002I002J
#00714:002K0000
#00715:0000002L00002L00
#00718:002M
#00801:000L000L
#00801:00
#00801:00
#00801:00
#00801:00
#00801:00
#00801:00
#00801:00
#00801:00
#00801:0001000100010001
#00801:02030203020302030203020302030203
#00801:00
#00801:00
#00801:7D7E7D7W7E7D7W7E7D7E7D7W7E7D7W7E
#00806:030405060708090A0B0C0D0E0F0G0H0I030405060708090A0B0C0D0E0F0G0H0I
#00811:04040404
#00813:0000002I00000000
#00814:2K
#00815:002L0000002L0000
#00818:002M002M
#00819:000000002N00002N
#00901:000L000L
#00901:00
#00901:00
#00901:00
#00901:00
#00901:00
#00901:00
#00901:00
#00901:00
#00901:0001000100010001
#00901:02030203020302030203020302030203
#00901:00
#00901:00
#00901:7D7E7D7W7E7D7W7E7D7E7D7W7E7D7W7E
#00906:030405060708090A0B0C0D0E0F0G0H0I030405060708090A0B0C0D0E0F0G0H0I
#00911:04040404
#00912:2I
#00913:0000002J00002J00
#00914:00000000002K0000
#00915:00002L002L00002O
#00918:002M000000000000
#01001:000L000L
#01001:00
#01001:00
#01001:0001000100010001
#01001:00
#01001:00
#01001:00
#01001:00
#01001:00
#01001:00
#01001:02030203020302030203020302030203
#01001:00
#01001:00
#01001:7F7G7F7X7G7F7X7G7F7G7F7X7G7F7X7G
#01006:030405060708090A0B0C0D0E0F0G0H0I030405060708090A0B0C0D0E0F0G0H0I
#01011:04040404
#01012:2H
#01013:002I002I0000002I
#01014:00002J00002J0000
#01015:0000002K
#01018:002L
#01101:000L000L
#01101:00
#01101:00
#01101:0001000100010001
#01101:00
#01101:00
#01101:00
#01101:00
#01101:00
#01101:00
#01101:02030203020302030203020302030203
#01101:00
#01101:00
#01101:7F7G7F7X7G7F7X7G7F7G7F7X7G7F7X7G
#01106:030405060708090A0B0C0D0E0F0G0H0I030405060708090A0B0C0D0E0F0G0H0I
#01111:04040404
#01112:2H
#01113:002J0000002I002J
#01114:002K0000
#01115:0000002L00002L00
#01118:002M
#01201:000L000L
#01201:00
#01201:00
#01201:0001000100010001
#01201:00
#01201:00
#01201:00
#01201:00
#01201:00
#01201:00
#01201:02030203020302030203020302030203
#01201:00
#01201:00
#01201:7B7C7B7V7C7B7V7C7B7C7B7V7C7B7V7C
#01206:030405060708090A0B0C0D0E0F0G0H0I030405060708090A0B0C0D0E0F0G0H0I
#01211:04040404
#01213:0000002I00000000
#01214:2K
#01215:002L0000002L0000
#01218:002M002M
#01219:000000002N00002N
#01301:000L000L
#01301:00
#01301:00
#01301:0001000100010001
#01301:00
#01301:00
#01301:00
#01301:00
#01301:00
#01301:00
#01301:02030203020302030203020302030203
#01301:00
#01301:00
#01301:7B7C7B7V7C7B7V7C7B7C7B7V7C7B7V7C
#01306:030405060708090A0B0C0D0E0F0G0H0I030405060708090A0B0C0D0E0F0G0H0I
#01311:04040404
#01312:2I
#01313:00000000002K002O
#01314:0000002J00002J00
#01315:002L2L00
#01316:000000000000000000000000008M0000
#01318:002M000000000000
#01401:00
#01401:00
#01401:00
#01401:00
#01401:00
#01401:00
#01401:000L000L
#01401:00
#01401:00
#01401:00
#01401:02030203020302030203020302030203
#01401:00
#01401:00
#01401:7B7C7B7V7C7B7V7C7B7C7B7V7C7B7V7C
#01406:030405060708090A0B0C0D0E0F0G0H0I030405060708090A0B0C0D0E0F0G0H0I
#01411:04040404
#01412:2H
#01413:002I002I0000002I
#01414:00002J00002J0000
#01415:0000002K
#01418:002L
#01419:0001000100010001
#01501:00
#01501:00
#01501:00
#01501:00
#01501:00
#01501:00
#01501:000L000L
#01501:00
#01501:00
#01501:00
#01501:02030203020302030203020302030203
#01501:00
#01501:00
#01501:7B7C7B7V7C7B7V7C7B7C7B7V7C7B7V7C
#01506:030405060708090A0B0C0D0E0F0G0H0I030405060708090A0B0C0D0E0F0G0H0I
#01511:04040404
#01512:2H0000000000002J
#01513:002J000000000000
#01514:00002K00002I0000
#01515:0000002L00002L00
#01518:002M
#01519:0001000100010001
#01601:00
#01601:00
#01601:00
#01601:00
#01601:00
#01601:00
#01601:000L000L
#01601:00
#01601:00
#01601:00
#01601:02030203020302030203020302030203
#01601:00
#01601:00
#01601:7D7E7D7W7E7D7W7E7D7E7D7W7E7D7W7E
#01606:030405060708090A0B0C0D0E0F0G0H0I030405060708090A0B0C0D0E0F0G0H0I
#01611:04040404
#01612:0000002I00000000
#01613:2K
#01614:002L0000002L0000
#01615:002M002M
#01618:000000002N00002N
#01619:0001000100010001
#01701:00
#01701:00
#01701:00
#01701:00
#01701:00
#01701:00
#01701:000L000L
#01701:00
#01701:00
#01701:00
#01701:02030203020302030203020302030203
#01701:00
#01701:00
#01701:7D7E7D7W7E7D7W7E7D7E7D7W7E7D7W7E
#01706:030405060708090A0B0C0D0E0F0G0H0I030405060708090A0B0C0D0E0F0G0H0I
#01711:04040404
#01712:2I
#01713:0000002J0000002O
#01714:002L002J
#01715:002M0000002K0000
#01718:002L
#01719:0001000100010001
#01801:00
#01801:00
#01801:00
#01801:00
#01801:00
#01801:00
#01801:000L000L
#01801:00
#01801:00
#01801:00
#01801:02030203020302030203020302030203
#01801:00
#01801:00
#01801:7F7G7F7X7G7F7X7G7F7G7F7X7G7F7X7G
#01806:030405060708090A0B0C0D0E0F0G0H0I030405060708090A0B0C0D0E0F0G0H0I
#01811:04040404
#01812:2H
#01813:002I002I0000002I
#01814:00002J00002J0000
#01815:0000002K
#01818:002L
#01819:0001000100010001
#01901:00
#01901:00
#01901:00
#01901:00
#01901:00
#01901:00
#01901:000L000L
#01901:00
#01901:00
#01901:00
#01901:02030203020302030203020302030203
#01901:00
#01901:00
#01901:7F7G7F7X7G7F7X7G7F7G7F7X7G7F7X7G
#01906:030405060708090A0B0C0D0E0F0G0H0I030405060708090A0B0C0D0E0F0G0H0I
#01911:04040404
#01912:2H0000000000002J
#01913:002J0000002I0000
#01914:002K002L
#01915:0000002L00000000
#01918:002M
#01919:0001000100010001
#02001:00
#02001:00
#02001:00
#02001:00
#02001:00
#02001:00
#02001:000L000L
#02001:00
#02001:00
#02001:00
#02001:02030203020302030203020302030203
#02001:00
#02001:00
#02001:7B7C7B7V7C7B7V7C7B7C7B7V7C7B7V7C
#02006:030405060708090A0B0C0D0E0F0G0H0I030405060708090A0B0C0D0E0F0G0H0I
#02011:04040404
#02013:2K00002I00000000
#02014:002L0000002L0000
#02015:002M002M
#02018:000000002N00002N
#02019:0001000100010001
#02101:00
#02101:00
#02101:00
#02101:00
#02101:00
#02101:00
#02101:000L000L
#02101:00
#02101:00
#02101:00
#02101:02030203020302030203020302030203
#02101:00
#02101:00
#02101:7B7C7B7V7C7B7V7C7B7C7B7V7C7B7V7C
#02106:030405060708090A0B0C0D0E0F0G0H0I030405060708090A0B0C0D0E0F0G0H0I
#02111:04000504000400050400040005060700
#02112:2I
#02113:000000000000002O
#02114:0000002J00002J00
#02115:00002L00002K0000
#02116:0J000N0K00000I00
#02118:002M00002L000000
#02119:0001000100010001
#02201:00
#02201:00
#02201:00
#02201:00
#02201:00
#02201:00
#02201:000L000L
#02201:00
#02201:00
#02201:0001000100010001
#02201:02030203020302030203020302030203
#02201:00
#02201:00
#02201:7B7C7B7V7C7B7V7C7B7C7B7V7C7B7V7C
#02201:00
#02201:00
#02201:00
#02201:8F8K8F008F8K8F008F8K8F008F8K0000
#02201:000000000000008E
#02201:00
#02201:00
#02201:00
#02201:00
#02201:00
#02201:00
#02201:00
#02201:00
#02201:00
#02201:00
#02201:00
#02201:00
#02201:0P
#02206:030405060708090A0B0C0D0E0F0G0H0I030405060708090A0B0C0D0E0F0G0H0I
#02211:04040404
#02212:17
#02214:1J001L001J001J1K001J1K001J001L00
#02215:0000180018000018
#02216:0C
#02218:0000000000190000
#02219:0000001A
#02301:00
#02301:00
#02301:00
#02301:00
#02301:00
#02301:00
#02301:000L000L
#02301:00
#02301:00
#02301:0001000100010001
#02301:02030203020302030203020302030203
#02301:00
#02301:00
#02301:7B7C7B7V7C7B7V7C7B7C7B7V7C7B7V7C
#02301:00
#02301:00
#02301:00
#02301:8F008K008F0000008F008K008G8L8G8L8F0000008K0000008F008K0000000000
#02301:000000000000008E
#02306:030405060708090A0B0C0D0E0F0G0H0I030405060708090A0B0C0D0E0F0G0H0I
#02311:04040404
#02312:00000017
#02313:001B
#02314:1J001L001J001J1K001J1K001J001L00
#02315:0000001800000000
#02318:19190000
#02319:001A000000000000
#02401:00
#02401:00
#02401:00
#02401:00
#02401:00
#02401:00
#02401:000L000L
#02401:00
#02401:00
#02401:0001000100010001
#02401:02030203020302030203020302030203
#02401:00
#02401:00
#02401:7D7E7D7W7E7D7W7E7D7E7D7W7E7D7W7E
#02401:00
#02401:00
#02401:00
#02401:8F8K8F008F8K8F008F8K8F008F8K0000
#02401:000000000000008E
#02406:030405060708090A0B0C0D0E0F0G0H0I030405060708090A0B0C0D0E0F0G0H0I
#02411:04040404
#02412:17
#02413:0000180018000018
#02414:0000000000190000
#02415:1M001O001M001M1N001M1N001M001O00
#02418:0000001A
#02501:00
#02501:00
#02501:00
#02501:00
#02501:00
#02501:00
#02501:000L000L
#02501:00
#02501:00
#02501:0001000100010001
#02501:02030203020302030203020302030203
#02501:00
#02501:00
#02501:7D7E7D7W7E7D7W7E7D7E7D7W7E7D7W7E
#02501:00
#02501:00
#02501:00
#02501:8F008K008F0000008F008K008G8L8G8L8F0000008K0000008F008K0000000000
#02501:000000000000008E
#02506:030405060708090A0B0C0D0E0F0G0H0I030405060708090A0B0C0D0E0F0G0H0I
#02511:04040404
#02512:001B
#02513:000000180018001B
#02514:00190019
#02515:1M001O001M001M1N001M1N001M001O00
#02518:001A000000000000
#02519:1C
#02601:00
#02601:00
#02601:00
#02601:00
#02601:00
#02601:00
#02601:000L000L
#02601:00
#02601:00
#02601:0001000100010001
#02601:02030203020302030203020302030203
#02601:00
#02601:00
#02601:7F7G7F7X7G7F7X7G7F7G7F7X7G7F7X7G
#02601:00
#02601:00
#02601:00
#02601:8F8K8F008F8K8F008F8K8F008F8K0000
#02601:000000000000008E
#02606:030405060708090A0B0C0D0E0F0G0H0I030405060708090A0B0C0D0E0F0G0H0I
#02611:04040404
#02612:17
#02614:0000180018000018
#02615:0000000000190000
#02618:1P001R001P001P1Q001P1Q001P001R00
#02619:0000001A
#02701:00
#02701:00
#02701:00
#02701:00
#02701:00
#02701:00
#02701:000L000L
#02701:00
#02701:00
#02701:0001000100010001
#02701:02030203020302030203020302030203
#02701:00
#02701:00
#02701:7F7G7F7X7G7F7X7G7F7G7F7X7G7F7X7G
#02701:00
#02701:00
#02701:00
#02701:8F008K008F0000008F008K008G8L8G8L8F0000008K0000008F008K0000000000
#02701:000000000000008E
#02706:030405060708090A0B0C0D0E0F0G0H0I030405060708090A0B0C0D0E0F0G0H0I
#02711:04040404
#02713:000000001D1D001G
#02714:00000000000018000000001E00000000
#02715:1919001F
#02718:1P001R001P001P1Q001P1Q001P001R00
#02719:001A000000000000
#02801:00
#02801:00
#02801:00
#02801:00
#02801:00
#02801:00
#02801:000L000L
#02801:00
#02801:00
#02801:0001000100010001
#02801:02030203020302030203020302030203
#02801:00
#02801:00
#02801:7B7C7B7V7C7B7V7C7B7C7B7V7C7B7V7C
#02801:00
#02801:00
#02801:00
#02801:8F8K8F008F8K8F008F8K8F008F8K0000
#02801:000000000000008E
#02806:030405060708090A0B0C0D0E0F0G0H0I030405060708090A0B0C0D0E0F0G0H0I
#02811:04040404
#02812:17
#02813:0000180018000018
#02814:0000000000190000
#02815:0000001A
#02819:1S001U001S001S1T001S1T001S001U00
#02901:00
#02901:00
#02901:00
#02901:00
#02901:00
#02901:00
#02901:000L000L
#02901:00
#02901:00
#02901:0001000100010001
#02901:02030203020302030203020302030203
#02901:00
#02901:00
#02901:7B7C7B7V7C7B7V7C7B7C7B7V7C7B7V7C
#02901:00
#02901:00
#02901:00
#02901:8F008K008F0000008F008K008G8L8G8L8F0000008K0000008F008K0000000000
#02901:000000000000008E
#02906:030405060708090A0B0C0D0E0F0G0H0I030405060708090A0B0C0D0E0F0G0H0I
#02911:04040404
#02912:001B
#02913:0000001E0018001B
#02914:001F0019
#02915:0000001I000000000000000000000000
#02916:000000000000000000000000008M0000
#02918:1H1H000000000000
#02919:1S001U001S001S1T001S1T001S001U00
#03001:00
#03001:00
#03001:00
#03001:00
#03001:00
#03001:00
#03001:000L000L
#03001:00
#03001:00
#03001:0001000100010001
#03001:02030203020302030203020302030203
#03001:00
#03001:00
#03001:7B7C7B7V7C7B7V7C7B7C7B7V7C7B7V7C
#03001:00
#03001:00
#03001:00
#03001:8F8K8F008F8K8F008F8K8F008F8K0000
#03001:000000000000008E
#03006:030405060708090A0B0C0D0E0F0G0H0I030405060708090A0B0C0D0E0F0G0H0I
#03011:04040404
#03012:17
#03014:1J001L001J001J1K001J1K001J001L00
#03015:0000180018000018
#03018:0000000000190000
#03019:0000001A
#03101:00
#03101:00
#03101:00
#03101:00
#03101:00
#03101:00
#03101:000L000L
#03101:00
#03101:00
#03101:0001000100010001
#03101:02030203020302030203020302030203
#03101:00
#03101:00
#03101:7B7C7B7V7C7B7V7C7B7C7B7V7C7B7V7C
#03101:00
#03101:00
#03101:00
#03101:8F008K008F0000008F008K008G8L8G8L8F0000008K0000008F008K0000000000
#03101:000000000000008E
#03106:030405060708090A0B0C0D0E0F0G0H0I030405060708090A0B0C0D0E0F0G0H0I
#03111:04040404
#03112:00000017
#03113:001B
#03114:1J001L001J001J1K001J1K001J001L00
#03115:0000001800000000
#03118:19190000
#03119:001A000000000000
#03201:00
#03201:00
#03201:00
#03201:00
#03201:00
#03201:00
#03201:000L000L
#03201:00
#03201:00
#03201:0001000100010001
#03201:02030203020302030203020302030203
#03201:00
#03201:00
#03201:7D7E7D7W7E7D7W7E7D7E7D7W7E7D7W7E
#03201:00
#03201:00
#03201:00
#03201:8F8K8F008F8K8F008F8K8F008F8K0000
#03201:000000000000008E
#03206:030405060708090A0B0C0D0E0F0G0H0I030405060708090A0B0C0D0E0F0G0H0I
#03211:04040404
#03212:17
#03213:0000180018000018
#03214:0000000000190000
#03215:1M001O001M001M1N001M1N001M001O00
#03218:0000001A
#03301:00
#03301:00
#03301:00
#03301:00
#03301:00
#03301:00
#03301:000L000L
#03301:00
#03301:00
#03301:0001000100010001
#03301:02030203020302030203020302030203
#03301:00
#03301:00
#03301:7D7E7D7W7E7D7W7E7D7E7D7W7E7D7W7E
#03301:00
#03301:00
#03301:00
#03301:8F008K008F0000008F008K008G8L8G8L8F0000008K0000008F008K0000000000
#03301:000000000000008E
#03306:030405060708090A0B0C0D0E0F0G0H0I030405060708090A0B0C0D0E0F0G0H0I
#03311:04040404
#03312:001B
#03313:000000180018001B
#03314:00190019
#03315:1M001O001M001M1N001M1N001M001O00
#03318:001A000000000000
#03319:1C
#03401:00
#03401:00
#03401:00
#03401:00
#03401:00
#03401:00
#03401:000L000L
#03401:00
#03401:00
#03401:0001000100010001
#03401:02030203020302030203020302030203
#03401:00
#03401:00
#03401:7F7G7F7X7G7F7X7G7F7G7F7X7G7F7X7G
#03401:00
#03401:00
#03401:00
#03401:8F8K8F008F8K8F008F8K8F008F8K0000
#03401:000000000000008E
#03406:030405060708090A0B0C0D0E0F0G0H0I030405060708090A0B0C0D0E0F0G0H0I
#03411:04040404
#03412:17
#03414:0000180018000018
#03415:0000000000190000
#03418:1P001R001P001P1Q001P1Q001P001R00
#03419:0000001A
#03501:00
#03501:00
#03501:00
#03501:00
#03501:00
#03501:00
#03501:000L000L
#03501:00
#03501:00
#03501:0001000100010001
#03501:02030203020302030203020302030203
#03501:00
#03501:00
#03501:7F7G7F7X7G7F7X7G7F7G7F7X7G7F7X7G
#03501:00
#03501:00
#03501:00
#03501:8F008K008F0000008F008K008G8L8G8L8F0000008K0000008F008K0000000000
#03501:000000000000008E
#03506:030405060708090A0B0C0D0E0F0G0H0I030405060708090A0B0C0D0E0F0G0H0I
#03511:04040404
#03513:000000001D1D001G
#03514:00000000000018000000001E00000000
#03515:1919001F
#03518:1P001R001P001P1Q001P1Q001P001R00
#03519:001A000000000000
#03601:00
#03601:00
#03601:00
#03601:00
#03601:00
#03601:00
#03601:000L000L
#03601:00
#03601:00
#03601:0001000100010001
#03601:02030203020302030203020302030203
#03601:00
#03601:00
#03601:7B7C7B7V7C7B7V7C7B7C7B7V7C7B7V7C
#03601:00
#03601:00
#03601:00
#03601:8F8K8F008F8K8F008F8K8F008F8K0000
#03601:000000000000008E
#03606:030405060708090A0B0C0D0E0F0G0H0I030405060708090A0B0C0D0E0F0G0H0I
#03611:04040404
#03612:17
#03613:0000180018000018
#03614:0000000000190000
#03615:0000001A
#03619:1S001U001S001S1T001S1T001S001U00
#03701:00
#03701:00
#03701:00
#03701:00
#03701:00
#03701:00
#03701:000L000L
#03701:00
#03701:00
#03701:0001000100010001
#03701:02030203020302030203020302030203
#03701:00
#03701:00
#03701:7B7C7B7V7C7B7V7C7B7C7B7V7C7B7V7C
#03701:00
#03701:00
#03701:00
#03701:8F008K008F0000008F008K008G8L8G8L8F0000008K0000008F008K0000000000
#03701:000000000000008E
#03706:030405060708090A0B0C0D0E0F0G0H0I030405060708090A0B0C0D0E0F0G0H0I
#03711:0400040004000407
#03712:001B
#03713:0000001E0018001B
#03714:001F0019
#03715:0000001I000000000000000000000000
#03716:0J000N0K00000I00
#03718:1H1H000000000000
#03719:1S001U001S001S1T001S1T001S001U00
#03801:000L0000
#03801:00
#03801:00
#03801:00
#03801:00
#03801:00
#03801:0000000L
#03801:00
#03801:00
#03801:0001000100010001
#03801:02030203000300030203020302030203
#03801:00
#03801:00
#03801:7B7C7B7V7C7B7V7C7B7C7B7V7C7B7V7C
#03801:00
#03801:00
#03801:00
#03801:00
#03801:00
#03801:00
#03801:61
#03801:00
#03801:5J5K5J5K005L005M
#03801:00
#03801:00
#03801:00
#03801:00
#03801:00
#03801:00
#03801:00
#03801:00
#03801:0Q
#03806:030405060708090A0B0C0D0E0F0G0H0I030405060708090A0B0C0D0E0F0G0H0I
#03811:04040404
#03813:0000020200000000
#03814:2U
#03816:0C
#03818:00002V2W00000000
#03901:00
#03901:00
#03901:00
#03901:00
#03901:00
#03901:00
#03901:000L000L
#03901:00
#03901:00
#03901:0001000100010001
#03901:02030203020302030203020302030203
#03901:00
#03901:00
#03901:7B7C7B7V7C7B7V7C7B7C7B7V7C7B7V7C
#03901:00
#03901:00
#03901:00
#03901:00
#03901:00
#03901:00
#03901:62000000000000000000000000006364
#03901:00
#03901:5J5K5J5K005L005M
#03906:030405060708090A0B0C0D0E0F0G0H0I030405060708090A0B0C0D0E0F0G0H0I
#03911:04040404
#03913:2M2M
#03915:002P002P002P0000
#03919:002Q0000
#04001:00000L0100000000
#04001:00
#04001:00
#04001:00
#04001:00
#04001:00
#04001:0000000L
#04001:00
#04001:00
#04001:0001000000010001
#04001:02030203000300030203020302030203
#04001:00
#04001:00
#04001:7F7G7F7X7G7F7X7G7F7G7F7X7G7F7X7G
#04001:00
#04001:00
#04001:00
#04001:00
#04001:00
#04001:00
#04001:65000000000000006600670068696A6B
#04001:00
#04001:5N5O5N5O005P005Q
#04006:030405060708090A0B0C0D0E0F0G0H0I030405060708090A0B0C0D0E0F0G0H0I
#04011:04040404
#04012:0000020200000000
#04013:2X
#04015:00002Y2Z00000000
#04101:00
#04101:00
#04101:00
#04101:00
#04101:00
#04101:00
#04101:000L000L
#04101:00
#04101:00
#04101:0001000100010001
#04101:02030203020302030203020302030203
#04101:00
#04101:00
#04101:7F7G7F7X7G7F7X7G7F7G7F7X7G7F7X7G
#04101:00
#04101:00
#04101:00
#04101:00
#04101:00
#04101:00
#04101:6C6D
#04101:00
#04101:5N5O5N5O005P005Q
#04106:030405060708090A0B0C0D0E0F0G0H0I030405060708090A0B0C0D0E0F0G0H0I
#04111:04040404
#04114:00000000002L0000
#04115:002R00002R000000
#04118:2P00002P00000000
#04119:002Q0000
#04201:0000000100000L00
#04201:00
#04201:00
#04201:00
#04201:00
#04201:00
#04201:000L0000
#04201:00
#04201:00
#04201:0001000000010001
#04201:00030203020302030203020302030203
#04201:00
#04201:00
#04201:7H7I7H7Y7I7H7Y7I7H7I7H7Y7I7H7Y7I
#04201:00
#04201:00
#04201:00
#04201:00
#04201:00
#04201:00
#04201:6E
#04201:00
#04201:5R5S5R5T005U005V
#04206:030405060708090A0B0C0D0E0F0G0H0I030405060708090A0B0C0D0E0F0G0H0I
#04211:04040404
#04212:02
#04214:30
#04215:0000003100000000
#04218:00000032
#04301:00
#04301:00
#04301:00
#04301:00
#04301:00
#04301:00
#04301:000L000L
#04301:00
#04301:00
#04301:0001000100010001
#04301:02030203020302030203020302030203
#04301:00
#04301:00
#04301:7H7I7H7Y7I7H7Y7I7H7I7H7Y7I7H7Y7I
#04301:00
#04301:00
#04301:00
#04301:00
#04301:00
#04301:00
#04301:6F6G
#04301:00
#04301:5R5S5R5T005U005V
#04306:030405060708090A0B0C0D0E0F0G0H0I030405060708090A0B0C0D0E0F0G0H0I
#04311:04040404
#04312:00000000002M0000
#04313:002R
#04314:0000002P00000000
#04315:002Q0000
#04318:002T000000000000
#04319:2S
#04401:00
#04401:00
#04401:00
#04401:00
#04401:00
#04401:00
#04401:000L000L
#04401:00
#04401:00
#04401:0001000100010001
#04401:00030203020302030203020302030203
#04401:00
#04401:00
#04401:7F7G7F7X7G7F7X7G7F7G7F7X7G7F7X7G
#04401:00
#04401:00
#04401:00
#04401:00
#04401:00
#04401:00
#04401:6H
#04401:00
#04401:5O5U5S5T005U005V
#04406:030405060708090A0B0C0D0E0F0G0H0I030405060708090A0B0C0D0E0F0G0H0I
#04411:04040404
#04412:0200002Q00000000
#04413:002T2T00
#04414:33000000002S0000
#04415:0000003F
#04418:000000000000000000000000003G0000
#04419:000000000000003H
#04501:00
#04501:00
#04501:00
#04501:00
#04501:00
#04501:00
#04501:000L000L
#04501:00
#04501:00
#04501:0001000100010001
#04501:00030203020302030203020302030203
#04501:00
#04501:00
#04501:7J7K7J7Z7K7J7Z7K7L7M7L807M7L807M
#04501:00
#04501:00
#04501:00
#04501:00
#04501:00
#04501:00
#04501:6I6J
#04501:00
#04501:5W5X5Y5Z0060005Y
#04506:030405060708090A0B0C0D0E0F0G0H0I030405060708090A0B0C0D0E0F0G0H0I
#04511:04040404
#04512:02
#04514:34
#04515:0035
#04516:000000000000000000000000008M0000
#04601:00
#04601:00
#04601:00
#04601:00
#04601:00
#04601:00
#04601:000L000L
#04601:00
#04601:00
#04601:0001000100010001
#04601:02030203020302030203020302030203
#04601:00
#04601:00
#04601:7B7C7B7V7C7B7V7C7B7C7B7V7C7B7V7C
#04601:00
#04601:00
#04601:00
#04601:00
#04601:00
#04601:00
#04601:6K6L6K6M6N6O0000
#04601:00
#04601:5J5K5J5K005L005M
#04606:030405060708090A0B0C0D0E0F0G0H0I030405060708090A0B0C0D0E0F0G0H0I
#04611:04040404
#04612:003I0000
#04613:00000000003J003L0000000000000000
#04614:0000003K3M3O0000
#04615:0000000000000000003N003P003R0000
#04618:3600000000003Q3S
#04619:0000000000000000000000000000003T
#04701:00
#04701:00
#04701:00
#04701:00
#04701:00
#04701:00
#04701:000L000L
#04701:00
#04701:00
#04701:0001000100010001
#04701:00000203020302030203020302030203
#04701:00
#04701:00
#04701:7B7C7B7V7C7B7V7C7B7C7B7V7C7B7V7C
#04701:00
#04701:00
#04701:00
#04701:00
#04701:00
#04701:00
#04701:6K6L6K6M6N6O0000
#04701:00
#04701:5J5K5J5K005L005M
#04706:030405060708090A0B0C0D0E0F0G0H0I030405060708090A0B0C0D0E0F0G0H0I
#04711:04040404
#04713:02030000000000000000000000002M00
#04714:0000002R
#04715:37380000000000000000000000000000
#04718:002P
#04719:00000000002Q0000
#04801:0000000000000L01
#04801:00
#04801:00
#04801:00
#04801:00
#04801:00
#04801:000L0000
#04801:00
#04801:00
#04801:0001000100010000
#04801:00030203020302030203020302030203
#04801:00
#04801:00
#04801:7F7G7F7X7G7F7X7G7F7G7F7X7G7F7X7G
#04801:00
#04801:00
#04801:00
#04801:00
#04801:00
#04801:00
#04801:6P6Q6R6S6T6U6V6W
#04801:00
#04801:5N5O5N5O005P005Q
#04806:030405060708090A0B0C0D0E0F0G0H0I030405060708090A0B0C0D0E0F0G0H0I
#04811:04040404
#04812:39
#04813:003U0000
#04814:02000000003I00003L00000000000000
#04815:0000000000003J00003M00003A003A00
#04818:000000000000003K00003N0000000000
#04819:00000000000000000000003O00000000
#04901:00
#04901:00
#04901:00
#04901:00
#04901:00
#04901:00
#04901:000L000L
#04901:00
#04901:00
#04901:0001000100010001
#04901:02030203020302030203020302030203
#04901:00
#04901:00
#04901:7F7G7F7X7G7F7X7G7F7G7F7X7G7F7X7G
#04901:00
#04901:00
#04901:00
#04901:00
#04901:00
#04901:00
#04901:6X6Y6Z70
#04901:00
#04901:5N5O5N5O005P005Q
#04901:00
#04901:00
#04901:00
#04901:00
#04901:00
#04901:00
#04901:00
#04901:008O
#04906:030405060708090A0B0C0D0E0F0G0H0I030405060708090A0B0C0D0E0F0G0H0I
#04911:0400000004000000040000000400003J
#04912:00000000000000000000003L00003L00
#04913:000000000000003N00003N00003N0000
#04914:0000003P00003P00003P00003P000000
#04915:00003R00003R00003R00000000000000
#04918:003T00003T0000000000000000000000
#04919:3V
#05001:0000000100000L00
#05001:00
#05001:00
#05001:00
#05001:00
#05001:00
#05001:000L0000
#05001:00
#05001:00
#05001:0001000000010001
#05001:02030203020302030203020302030203
#05001:00
#05001:00
#05001:7H7I7H7Y7I7H7Y7I7H7I7H7Y7I7H7Y7I
#05001:00
#05001:00
#05001:00
#05001:00
#05001:00
#05001:00
#05001:7172717200730074
#05001:00
#05001:5R5S5R5T005U005V
#05006:030405060708090A0B0C0D0E0F0G0H0I030405060708090A0B0C0D0E0F0G0H0I
#05011:00040404
#05012:04
#05014:30
#05015:0000003100000000
#05018:00000032
#05101:00
#05101:00
#05101:00
#05101:00
#05101:00
#05101:00
#05101:000L000L
#05101:00
#05101:00
#05101:0001000100010001
#05101:02030203020302030203020302030203
#05101:00
#05101:00
#05101:7H7I7H7Y7I7H7Y7I7H7I7H7Y7I7H7Y7I
#05101:00
#05101:00
#05101:00
#05101:00
#05101:00
#05101:00
#05101:7172717200737475
#05101:00
#05101:5R5S5R5T005U005V
#05106:030405060708090A0B0C0D0E0F0G0H0I030405060708090A0B0C0D0E0F0G0H0I
#05111:04040404
#05112:00000000002M0000
#05113:002R
#05114:0000002P00000000
#05115:002Q0000
#05118:002T000000000000
#05119:2S
#05201:00
#05201:00
#05201:00
#05201:00
#05201:00
#05201:00
#05201:00
#05201:00
#05201:00
#05201:0001000100010001
#05201:00030203020302030203020302030203
#05201:00
#05201:00
#05201:7F7G7F7X7G7F7X7G7F7G7F7X7G7F7X7G
#05201:00
#05201:00
#05201:00
#05201:00
#05201:00
#05201:00
#05201:7677
#05201:00
#05201:5O5U5S5T005U005V
#05206:030405060708090A0B0C0D0E0F0G0H0I030405060708090A0B0C0D0E0F0G0H0I
#05211:04040404
#05212:000H000H000H000H000H000H000H000H
#05213:0F0F0F0F0F0F0F0F
#05214:3300002Q00000000
#05215:002T2T3F
#05218:020000000000000000002S00003G0000
#05219:000000000000003H
#05301:00
#05301:00
#05301:00
#05301:00
#05301:00
#05301:00
#05301:00
#05301:00
#05301:00
#05301:0001000100010001
#05301:00000200020302030000020002030203
#05301:00
#05301:00
#05301:7J7K7J7Z7K7J7Z7K7L7M7L807M7L807M
#05301:00
#05301:00
#05301:00
#05301:00
#05301:00
#05301:00
#05301:7879
#05301:00
#05301:5W5X5Y5Z0060005Y
#05301:00
#05301:00
#05301:008J
#05301:00
#05301:00
#05301:00
#05301:0000000000000000005I000000000000
#05301:0000008I
#05306:030405060708090A0B0C0D0E0F0G0H0I030405060708090A0B0C0D0E0F0G0H0I
#05311:0400040004000407
#05312:000H000H000H000H000H000H000H000H
#05313:0F0F0F0F0F0F0F0F
#05314:3B3C003B000000000000000000000000
#05315:00000000000000003D3E003D00000000
#05316:0J000N0K00000I00
#05318:02030003000000000000000000000000
#05319:00000000000000000203000300000000
#05401:00
#05401:00
#05401:00
#05401:00
#05401:00
#05401:00
#05401:00
#05401:00
#05401:00
#05401:00
#05401:00
#05401:00
#05401:00
#05401:00
#05401:00
#05401:00
#05401:00
#05401:00
#05401:00
#05401:00
#05401:7A
#05401:00
#05401:00
#05401:00
#05401:00
#05401:89898989
#05401:00
#05401:00
#05401:00
#05401:00
#05401:00
#05401:0R
#05403:5C
#05406:030405060708090A0B0C0D0E0F0G0H0I030405060708090A0B0C0D0E0F0G0H0I
#05411:08
#05415:000D
#05416:0C
#05501:00
#05501:00
#05501:00
#05501:00
#05501:00
#05501:00
#05501:00
#05501:00
#05501:00
#05501:00
#05501:00
#05501:00
#05501:00
#05501:00
#05501:00
#05501:00
#05501:00
#05501:00
#05501:00
#05501:00
#05501:00
#05501:00
#05501:00
#05501:00
#05501:00
#05501:8A8A8A8A
#05506:030405060708090A0B0C0D0E0F0G0H0I030405060708090A0B0C0D0E0F0G0H0I
#05601:00
#05601:00
#05601:00
#05601:00
#05601:00
#05601:00
#05601:00
#05601:00
#05601:00
#05601:00
#05601:00
#05601:00
#05601:00
#05601:00
#05601:00
#05601:00
#05601:00
#05601:00
#05601:00
#05601:00
#05601:00
#05601:00
#05601:00
#05601:00
#05601:00
#05601:8B8B8B8B
#05606:030405060708090A0B0C0D0E0F0G0H0I030405060708090A0B0C0D0E0F0G0H0I
#05615:000D
#05701:00
#05701:00
#05701:00
#05701:00
#05701:00
#05701:00
#05701:00
#05701:00
#05701:00
#05701:00
#05701:00
#05701:00
#05701:00
#05701:00
#05701:00
#05701:00
#05701:00
#05701:00
#05701:00
#05701:00
#05701:00
#05701:00
#05701:00
#05701:00
#05701:008D
#05701:8C8C8C8C
#05701:00
#05701:00
#05701:00
#05701:00
#05701:00
#05701:8H
#05706:030405060708090A0B0C0D0E0F0G0H0I030405060708090A0B0C0D0E0F0G0H0I
#05716:0000000000000000000B000000000000
#05806:030405060708090A0B0C0D0E0F0G0H0I030405060708090A0B0C0D0E0F0G0H0I
#05811:04000004040000040004000404000000
#05813:8900890089008909
#05814:0009000900090000
#05815:85858585
#05816:0C
#05818:000M000M
#05819:0E0E0E0E0E0E0E0E
#05906:030405060708090A0B0C0D0E0F0G0H0I030405060708090A0B0C0D0E0F0G0H0I
#05911:04000004040000040004000404000000
#05912:8A8A8A8A
#05913:00000000090000000000000009000000000000000900000000000000000H0000
#05914:86868686
#05915:00000000000000000000000000000F0F
#05918:000M000M
#05919:0E0E0E0E0E0E0E0E
#06001:00
#06001:00
#06001:00
#06001:00
#06001:00
#06001:00
#06001:00
#06001:00
#06001:00
#06001:00
#06001:00
#06001:00
#06001:00
#06001:00
#06001:8B8B8B8B
#06001:00
#06001:87878787
#06006:030405060708090A0B0C0D0E0F0G0H0I030405060708090A0B0C0D0E0F0G0H0I
#06011:04000004040000040004000404050400
#06012:0000000000000000000000000000000000000000000000000000000600000000
#06013:0909090909090909
#06015:000A000A000A000A000A000A000A000A
#06016:0I
#06018:000M000M
#06019:000E0E0E0E0E0E0E
#06101:00
#06101:00
#06101:00
#06101:00
#06101:00
#06101:00
#06101:00
#06101:00
#06101:00
#06101:00
#06101:00
#06101:00
#06101:00
#06101:00
#06101:8C8C8C8C
#06101:00
#06101:88888888
#06106:030405060708090A0B0C0D0E0F0G0H0I030405060708090A0B0C0D0E0F0G0H0I
#06111:04000004040000040004000404000000
#06113:0F0F0F0F0F0F0F0F0F0F0F0F0F0F0F0F
#06115:000H000H000H000H000H000H000H000H000H000H000H000H000H000H000H000H
#06118:000M000M
#06119:0E0E0E0E0E0E0E0E
#06201:00
#06201:00
#06201:00
#06201:00
#06201:00
#06201:00
#06201:00
#06201:00
#06201:00
#06201:00
#06201:00
#06201:00
#06201:00
#06201:7B7C7B7V7C7B7V7C7B7C7B7V7C7B7V7C
#06201:00
#06201:00
#06201:00
#06201:00
#06201:00
#06201:00
#06201:00
#06201:00
#06201:00
#06201:00
#06201:00
#06201:00
#06201:00
#06201:00
#06201:00
#06201:00
#06201:00
#06201:2A
#06203:B8
#06206:030405060708090A0B0C0D0E0F0G0H0I030405060708090A0B0C0D0E0F0G0H0I
#06211:08
#06212:00000000000000000000000000000042
#06213:0040000000004040
#06214:00000000000000000000003Z003Z0000
#06215:003Z003Z000051520000000000000000
#06216:0C
#06218:0000000041410000
#06219:3Y00000000004Z50003Y000000000000
#06301:00
#06301:00
#06301:00
#06301:00
#06301:00
#06301:00
#06301:00
#06301:00
#06301:00
#06301:00
#06301:00
#06301:00
#06301:00
#06301:7F7G7F7X7G7F7X7G7F7G7F7X7G7F7X7G
#06306:030405060708090A0B0C0D0E0F0G0H0I030405060708090A0B0C0D0E0F0G0H0I
#06311:43000000000000000000000000480000
#06312:0000000000004646
#06313:00400000000000000040000000000000
#06314:000000003Z00000055005600005500003Z0000003Z0000000000470000000000
#06315:0000000000004545
#06318:0000000000000000530054000053000000000000000000000000000000000000
#06319:0000003Y000000000000000000000000
#06401:00
#06401:00
#06401:00
#06401:00
#06401:00
#06401:00
#06401:00
#06401:00
#06401:00
#06401:00
#06401:00
#06401:00
#06401:00
#06401:7H7I7H7Y7I7H7Y7I7H7I7H7Y7I7H7Y7I
#06406:030405060708090A0B0C0D0E0F0G0H0I030405060708090A0B0C0D0E0F0G0H0I
#06411:4C00000000000057
#06412:0000004F00000000
#06413:000000004E00000000004E0000004G004G000000000000000000000000580000
#06414:004D00004D0000000000000000000000
#06415:00000048000000000000480000480059
#06418:00000000000000000046000046000000
#06419:000000000000000000000000000000000000000000004700000000000000005A
#06501:4H
#06501:00
#06501:00
#06501:00
#06501:00
#06501:00
#06501:00
#06501:00
#06501:00
#06501:00
#06501:00
#06501:00
#06501:00
#06501:7N7O7N817O7N817O7P7Q7P827Q7P827Q
#06501:00
#06501:00
#06501:00
#06501:00
#06501:00
#06501:00
#06501:00
#06501:00
#06501:00
#06501:00
#06501:00
#06501:00
#06501:00
#06501:00
#06501:00
#06501:00
#06501:0G
#06506:030405060708090A0B0C0D0E0F0G0H0I030405060708090A0B0C0D0E0F0G0H0I
#06511:004E4E00430000000000000000000000
#06512:42000000004D4D004000000000000000
#06513:0046460045000000004848003Z000000
#06514:3Z000000004I4I004200000000464A46
#06515:000000004J000000004H4H0043000000
#06518:00000000000000004K00000000424942
#06519:0000004L
#06601:00
#06601:00
#06601:00
#06601:00
#06601:00
#06601:00
#06601:00
#06601:00
#06601:00
#06601:00
#06601:00
#06601:00
#06601:00
#06601:7B7C7B7V7C7B7V7C7B7C7B7V7C7B7V7C
#06606:030405060708090A0B0C0D0E0F0G0H0I030405060708090A0B0C0D0E0F0G0H0I
#06611:00000000000000000000000000470000
#06612:0000450000000045
#06613:00004600004200000000000000000042
#06614:00470047000043000000000000000000
#06615:45000000000000400040000040000000
#06618:00000000000000003Z00003Z00000000
#06619:0000000000410000
#06701:00
#06701:00
#06701:00
#06701:00
#06701:00
#06701:00
#06701:00
#06701:00
#06701:00
#06701:00
#06701:00
#06701:00
#06701:00
#06701:7L7M7L807M7L807M7L7M7L807M7L807M
#06706:030405060708090A0B0C0D0E0F0G0H0I030405060708090A0B0C0D0E0F0G0H0I
#06712:0043003Y00000000
#06713:004200400000004L0000004Q00000000
#06714:433Z4N4R
#06715:0000000000410000004O0000004S0000
#06718:00000000004P004T
#06719:0000000000000000000000000000004U
#06801:00
#06801:00
#06801:00
#06801:00
#06801:00
#06801:00
#06801:00
#06801:00
#06801:00
#06801:00
#06801:00
#06801:00
#06801:00
#06801:7D7E7D7W7E7D7W7E7D7E7D7W7E7D7W7E
#06806:030405060708090A0B0C0D0E0F0G0H0I030405060708090A0B0C0D0E0F0G0H0I
#06811:00000000000000000041000000000041
#06812:430000003Y3Y003Y
#06813:003X003Y003X3Y000000004L004L0000
#06814:0000004N
#06815:003Z004B003Z4B000000000000000000
#06901:00
#06901:00
#06901:00
#06901:00
#06901:00
#06901:00
#06901:00
#06901:00
#06901:00
#06901:00
#06901:00
#06901:00
#06901:00
#06901:7R7S7R837S7R837S7T7U7T847U7T847U
#06906:030405060708090A0B0C0D0E0F0G0H0I030405060708090A0B0C0D0E0F0G0H0I
#06912:3Y3Y3Y00
#06913:004L004L004L004L004L000000000000
#06914:004N004N004N0000
#06915:00000000000000000000004O004Q0000
#06916:00000000000B0000
#06918:0000000000000000000000004P00004S
#06919:000000000000004T
#07001:0000000000010000
#07001:0001000100000000
#07001:00
#07001:00
#07001:00
#07001:00
#07001:000L000L
#07001:00
#07001:00
#07001:0000000000000001
#07001:02030203020302030203020302030203
#07001:00
#07001:00
#07001:7B7C7B7V7C7B7V7C7B7C7B7V7C7B7V7C
#07001:00
#07001:00
#07001:1S001U001S001S1T001S1T001S001U00
#07001:00
#07001:00
#07001:8F8K8F008F8K8F008F8K8F008F8K0000
#07001:000000000000008E
#07001:00
#07001:00
#07001:00
#07001:00
#07001:00
#07001:00
#07001:00
#07001:00
#07001:00
#07001:00
#07001:0S
#07006:030405060708090A0B0C0D0E0F0G0H0I030405060708090A0B0C0D0E0F0G0H0I
#07011:04040404
#07012:4540004045000000
#07013:003Z003Z003Z003Z004200002G000000
#07014:2B004100002C002C
#07015:00002C00000000002F00430000410000
#07016:0C
#07018:0000000000002E000000004000003Y00
#07019:000000002D000000000000003Z00004L
#07101:0001000100000000
#07101:00
#07101:00
#07101:00
#07101:00
#07101:00
#07101:000L000L
#07101:00
#07101:00
#07101:0000000000010001
#07101:02030203020302030203020302030203
#07101:00
#07101:00
#07101:7F7G7F7X7G7F7X7G7F7G7F7X7G7F7X7G
#07101:00
#07101:00
#07101:1P001R001P001P1Q001P1Q001P001R00
#07101:00
#07101:00
#07101:8F008K008F0000008F008K008G8L8G8L8F0000008K0000008F008K0000000000
#07101:000000000000008E
#07106:030405060708090A0B0C0D0E0F0G0H0I030405060708090A0B0C0D0E0F0G0H0I
#07111:04040404
#07112:0000000000000042000000002G000000
#07113:2B000040000040004V002C0000002C00
#07114:00003Z0000410000004G000047000000
#07115:004100003Y0000002F004E0000450000
#07118:3Y002C0000002E000000004800004200
#07119:000000002D0000000000000000000040
#07201:0001000100000000
#07201:00
#07201:00
#07201:00
#07201:00
#07201:00
#07201:000L000L
#07201:00
#07201:00
#07201:0000000000010001
#07201:02030203020302030203020302030203
#07201:00
#07201:00
#07201:7H7I7H7Y7I7H7Y7I7H7I7H7Y7I7H7Y7I
#07201:00
#07201:00
#07201:1M001O001M001M1N001M1N001M001O00
#07201:00
#07201:00
#07201:8F8K8F008F8K8F008F8K8F008F8K0000
#07201:000000000000008E
#07206:030405060708090A0B0C0D0E0F0G0H0I030405060708090A0B0C0D0E0F0G0H0I
#07211:04040404
#07212:5E005F00005E00000000000000003Z0000000000000000002G00000000000000
#07213:00000000002R000000002C0000002C00
#07214:5G005H00005G00003Y00000000004200000000003Y0000000000000000000000
#07215:2B000000002L00002F00004L005B0000
#07218:000000002C0000003Z0000002E00000000000000000000004P00005C00000000
#07219:00002D000000005D
#07301:4H
#07301:00
#07301:00
#07301:00
#07301:00
#07301:00
#07301:000L000L
#07301:00
#07301:00
#07301:0001000100010001
#07301:02030203020302030203020302030203
#07301:00
#07301:00
#07301:7N7O7N817O7N817O7P7Q7P827Q7P827Q
#07301:00
#07301:00
#07301:1V001X001V001V1W001P1Q001P001R00
#07301:00
#07301:2B2C2D2E2F2C2G2C
#07301:8F008K008F0000008F008K008G8L8G8L8F0000008K0000008F008K0000000000
#07301:000000000000008E
#07306:030405060708090A0B0C0D0E0F0G0H0I030405060708090A0B0C0D0E0F0G0H0I
#07311:04040404
#07312:00464600450000000000000000000000
#07313:42000000004I4I004200000000000049
#07314:004E4E0043000000004H4H0000003Z00
#07315:3Z000000004D4D0040000000004K0000
#07318:000000004J0000000048480000000000
#07319:00004K4L
#07401:00
#07401:00
#07401:00
#07401:00
#07401:00
#07401:00
#07401:000L000L
#07401:00
#07401:00
#07401:0001000100010001
#07401:02030203020302030203020302030203
#07401:00
#07401:00
#07401:7B7C7B7V7C7B7V7C7B7C7B7V7C7B7V7C
#07401:00
#07401:00
#07401:00
#07401:00
#07401:2B2C2D2E2F2C2G2C
#07401:8F8K8F008F8K8F008F8K8F008F8K0000
#07401:000000000000008E
#07406:030405060708090A0B0C0D0E0F0G0H0I030405060708090A0B0C0D0E0F0G0H0I
#07411:04040404
#07412:1S0000001S001S00001S00001S000000
#07413:00001U000000001T00001T0000001U00
#07414:00004600000000000000000000470000
#07415:00470047000043000000000040004500
#07418:45000000450000400040003Z00000042
#07419:00000000004200003Z00410000000000
#07501:00
#07501:00
#07501:00
#07501:00
#07501:00
#07501:00
#07501:000L000L
#07501:00
#07501:00
#07501:0001000100010001
#07501:02030203020302030203020302030203
#07501:00
#07501:00
#07501:7L7M7L807M7L807M7L7M7L807M7L807M
#07501:00
#07501:00
#07501:00
#07501:00
#07501:2B2C2D2E2F2C2G2C
#07501:8F008K008F0000008F008K008G8L8G8L8F0000008K0000008F008K0000000000
#07501:000000000000008E
#07506:030405060708090A0B0C0D0E0F0G0H0I030405060708090A0B0C0D0E0F0G0H0I
#07511:04040404
#07512:003Z4N4R
#07513:0000000000410000004O0000004S0000
#07514:1Y0000001Y001Y00001Y00001Y000000
#07515:000020000000001Z00001Z0000002000
#07518:0042004000003Y0000004P0000004T00
#07519:430043000000004L0000004Q0000004U
#07601:00000000000000000021000021000000
#07601:00
#07601:0000000000220023
#07601:00
#07601:00
#07601:00
#07601:000L000L
#07601:00
#07601:00
#07601:0001000100010001
#07601:02030203020302030203020302030203
#07601:00
#07601:00
#07601:7D7E7D7W7E7D7W7E7D7E7D7W7E7D7W7E
#07601:00
#07601:00
#07601:00
#07601:00
#07601:2B2C2D2E2F2C2G2C
#07601:8F8K8F008F8K8F008F8K8F008F8K0000
#07601:000000000000008E
#07606:030405060708090A0B0C0D0E0F0G0H0I030405060708090A0B0C0D0E0F0G0H0I
#07611:04040404
#07612:45004B4N
#07613:003Z004B003Z4B0000410000004O0000
#07614:43000000433Y3Y4P
#07615:003X003Y003X3Y000040004L004L004Q
#07618:21002121003Z004N
#07619:0000230000000022000000410000004O
#07701:00
#07701:00
#07701:00
#07701:00
#07701:00
#07701:00
#07701:000L000L
#07701:00
#07701:00
#07701:0001000100010001
#07701:02030203020302030203020302030203
#07701:00
#07701:00
#07701:7R7S7R837S7R837S7T7U7T847U7T847U
#07701:00
#07701:00
#07701:00
#07701:00
#07701:2B2C2D2E2F2C2G2C
#07701:8F008K008F0000008F008K008G8L8G8L8F0000008K0000008F008K0000000000
#07701:000000000000008E
#07706:030405060708090A0B0C0D0E0F0G0H0I030405060708090A0B0C0D0E0F0G0H0I
#07711:0400040004000407
#07712:004P4X004P4X004P4X004P4X0000004K
#07713:4R00004R00004R00004R000000004X00
#07714:240000002400240000000000004Y0000
#07715:00000000000000000027000027000000
#07716:0J000N0K00000I00
#07718:0000260000000025000000004S000000
#07719:0000000000280029
#07801:00
#07801:0001000100010001
#07801:000L000L
#07801:000000000000008E
#07801:00
#07801:00
#07801:00
#07801:00
#07801:00
#07801:00
#07801:02030203020302030203020302030203
#07801:00
#07801:00
#07801:7B7C7B7V7C7B7V7C7B7C7B7V7C7B7V7C
#07801:00
#07801:00
#07801:1S001U001S001S1T001S1T001S001U00
#07801:00
#07801:00
#07801:8F8K8F008F8K8F008F8K8F008F8K0000
#07806:030405060708090A0B0C0D0E0F0G0H0I030405060708090A0B0C0D0E0F0G0H0I
#07811:04040404
#07812:0000002G
#07813:45000040452C002C
#07814:003Z003Z003Z003Z004200003Z000000
#07815:2B004000410000002F00430000410000
#07816:0C
#07818:00002C0000002E000000004000003Y00
#07819:000000002D000000000000000000004L
#07901:00
#07901:0001000100010001
#07901:000L000L
#07901:000000000000008E
#07901:00
#07901:00
#07901:00
#07901:00
#07901:00
#07901:00
#07901:02030203020302030203020302030203
#07901:00
#07901:00
#07901:7F7G7F7X7G7F7X7G7F7G7F7X7G7F7X7G
#07901:00
#07901:00
#07901:1P001R001P001P1Q001P1Q001P001R00
#07901:00
#07901:002C000000000000
#07901:8F008K008F0000008F008K008G8L8G8L8F0000008K0000008F008K0000000000
#07906:030405060708090A0B0C0D0E0F0G0H0I030405060708090A0B0C0D0E0F0G0H0I
#07911:04040404
#07912:2B004V2G
#07913:0000004000000042004G000000002C00
#07914:003Z0040004E4700
#07915:00410000004100002F00004800450000
#07918:3Y003Y2E002C0042
#07919:000000002D0000000000000000000040
#08001:00
#08001:0001000100010001
#08001:000L000L
#08001:000000000000008E
#08001:00
#08001:00
#08001:00
#08001:00
#08001:00
#08001:00
#08001:02030203020302030203020302030203
#08001:00
#08001:00
#08001:7H7I7H7Y7I7H7Y7I7H7I7H7Y7I7H7Y7I
#08001:00
#08001:00
#08001:1M001O001M001M1N001M1N001M001O00
#08001:00
#08001:2B2C2D2E2F000000
#08001:8F8K8F008F8K8F008F8K8F008F8K0000
#08006:030405060708090A0B0C0D0E0F0G0H0I030405060708090A0B0C0D0E0F0G0H0I
#08011:04040404
#08012:0000002G
#08013:000000000000003Z00002C0000002C00
#08014:5G005H00005G000000002R0000000000000000003Y0000000000000000000000
#08015:000000003Y0000420000004L005B0000
#08018:5E005F00005E000000002L000000000000000000000000004P00005C00000000
#08019:00003Z000000005D
#08101:4E
#08101:00
#08101:00
#08101:00
#08101:00
#08101:00
#08101:000L000L
#08101:00
#08101:00
#08101:0001000100010001
#08101:02030203020302030203020302030203
#08101:00
#08101:00
#08101:7N7O7N817O7N817O7P7Q7P827Q7P827Q
#08101:00
#08101:00
#08101:1V001X001V001V1W001P1Q001P001R00
#08101:00
#08101:2B2C2D2E2F2C2G2C
#08101:8F008K008F0000008F008K008G8L8G8L8F0000008K0000008F008K0000000000
#08101:000000000000008E
#08106:030405060708090A0B0C0D0E0F0G0H0I030405060708090A0B0C0D0E0F0G0H0I
#08111:04040404
#08112:00480000004500000000004000000040
#08113:4C460042003Z003Z
#08114:004G004500400040003X003X003Y0045
#08115:004E463Z4L4L4L42
#08118:000000480000003X004O000000440000
#08119:00424P3W
#08201:000L000L
#08201:00
#08201:00
#08201:00
#08201:00
#08201:00
#08201:00
#08201:00
#08201:00
#08201:0001000100010001
#08201:02030203020302030203020302030203
#08201:00
#08201:00
#08201:7B7C7B7V7C7B7V7C7B7C7B7V7C7B7V7C
#08201:00
#08201:00
#08201:1S001U001S001S1T001S1T001S001U00
#08201:00
#08201:00
#08201:8F8K8F008F8K8F008F8K8F008F8K0000
#08201:000000000000008E
#08206:030405060708090A0B0C0D0E0F0G0H0I030405060708090A0B0C0D0E0F0G0H0I
#08211:04040404
#08212:004000000000000000002C0000002C00
#08213:3Z003Z00004100002F0000002G000000
#08214:0000004100002E000000004O00000000
#08215:2B003Y3Y00004P00
#08218:00002C000000004L004L0000004Q004Q
#08219:00002D004N4N004S
#08301:000L000L
#08301:00
#08301:00
#08301:00
#08301:00
#08301:00
#08301:00
#08301:00
#08301:00
#08301:0001000100010001
#08301:02030203020302030203020302030203
#08301:00
#08301:00
#08301:7L7M7L807M7L807M7L7M7L807M7L807M
#08301:00
#08301:00
#08301:1Y0020001Y001Y1Z001Y1Z001Y002000
#08301:00
#08301:00
#08301:8F008K008F0000008F008K008G8L8G8L8F0000008K0000008F008K0000000000
#08301:000000000000008E
#08306:030405060708090A0B0C0D0E0F0G0H0I030405060708090A0B0C0D0E0F0G0H0I
#08311:04040404
#08312:2B00002G
#08313:00002C000000003Y00002C0000002C00
#08314:0000004O00004O002S0000000000004O
#08315:00004P00004P00002F004P004P004P00
#08318:004Q00004Q002E000000004W00000000
#08319:4R0000002D00000000000000004Q0000
#08401:04040404
#08401:00
#08401:00
#08401:00
#08401:00
#08401:00
#08401:00
#08401:00
#08401:00
#08401:0001000100010001
#08401:02030203020302030203020302030203
#08401:00
#08401:00
#08401:7D7E7D7W7E7D7W7E7D7E7D7W7E7D7W7E
#08401:00
#08401:00
#08401:21002300210021220021220021002300
#08401:00
#08401:2B2C2D2E2F2C2G2C
#08401:8F8K8F008F8K8F008F8K8F008F8K0000
#08401:000000000000008E
#08406:030405060708090A0B0C0D0E0F0G0H0I030405060708090A0B0C0D0E0F0G0H0I
#08411:000H000H000H000H000H000H000H000H
#08412:0F0F0F0F0F0F0F0F
#08413:43004B4N
#08414:003Z004B003Z4B0000410041004O004O
#08415:45000000433Y3Y4P
#08418:003X003Y003X3Y000040004L004L004Q
#08419:00000000003Z004N
#08501:000000000000000000000000008M0000
#08501:00
#08501:00
#08501:00
#08501:00
#08501:00
#08501:00
#08501:00
#08501:00
#08501:0001000100010001
#08501:02030203020302030203020302030203
#08501:00
#08501:00
#08501:7R7S7R837S7R837S7T7U7T847U7T847U
#08501:00
#08501:00
#08501:24002600240024250027280027002900
#08501:00
#08501:2B2C2D2E2F2C2G2C
#08501:8F008K008F0000008F008K008G8L8G8L8F0000008K0000008F008K0000000000
#08501:000000000000008E
#08506:030405060708090A0B0C0D0E0F0G0H0I030405060708090A0B0C0D0E0F0G0H0I
#08511:000H000H000H000H000H000H000H000H
#08512:0F0F0F0F0F0F0F0F
#08513:0000000000000000000000000000004K
#08514:004P4X004P4X004P4X004P4X00004X00
#08515:4R00004R00004R00004R0000004Y0000
#08516:0J000J0K00000I00
#08518:0000004S
#08519:07070707
#08606:030405060708090A0B0C0D0E0F0G0H0I030405060708090A0B0C0D0E0F0G0H0I
#08611:0000000400000400
#08612:4G00000045000Z000000004000000000
#08613:004800000043000000003Z00454M0045
#08614:0Z004600000040000041000016000000
#08615:040000470000003Z000000003Z3W003Z
#08616:0J00000J00000K00
#08618:160000163Y000Z00
#08619:7B7C000000007B7C000000007B7C0000
#08701:00
#08701:0D
#08706:030405060708090A0B0C0D0E0F0G0H0I030405060708090A0B0C0D0E0F0G0H0I
#08711:0400000400000400
#08712:4G00000045000Z000000004000000000
#08713:004800000043000000003Z00454M0045
#08714:0Z00460000004000004100000Z000000
#08715:000000470000003Z000000003Z3W003Z
#08716:0J00000J00000K00
#08718:160000163Y001600
#08719:7B7C000000007B7C000000007B7C0000
#08801:0J00000000000000005I000007000000
#08806:030405060708090A0B0C0D0E0F0G0H0I030405060708090A0B0C0D0E0F0G0H0I
#08811:04000000000004000000004700000000
#08812:0Z00000000000040000045003Y3X003Y
#08813:0000004100003Z000040000016000000
#08814:16003Y00004100003Z0000003Z4B003Z
#08815:004L00003Y000Z00000000000Z000000
#08816:8N00000J00000K00
#08818:4N0000000000160000000000454M0045
#08819:7B7C000000007B7C000000007B7C0000
#08906:030405060708090A0B0C0D0E0F0G0H0I030405060708090A0B0C0D0E0F0G0H0I
#08911:08
#08913:2I
#08915:2M
#08916:0C
#08919:2P
