*---------------------- HEADER FIELD
#PLAYER 1
#GENRE RENAISSANCE
#TITLE Joker[A-Time]
#ARTIST D.J.Nero obj:tair
#BPM 184
#PLAYLEVEL 12
#RANK 3
#STAGEFILE title.jpg
#BACKBMP logo.jpg
#DIFFICULTY 5
#TOTAL 575
#LNTYPE 1
#WAV01 opHH.wav
#WAV02 close.wav
#WAV03 close.wav
#WAV04 kickA.wav
#WAV05 kickB.wav
#WAV06 kickB.wav
#WAV07 kick32.wav
#WAV08 FXkick.wav
#WAV09 snare.wav
#WAV0A snare.wav
#WAV0B reverse.wav
#WAV0C SE1.wav
#WAV0D bell.wav
#WAV0E ride.wav
#WAV0F snare-Fill.wav
#WAV0G snare-Fill.wav
#WAV0H clashA.wav
#WAV0I clashB.wav
#WAV0J clashC.wav
#WAV0K clap.wav
#WAV0L clap-deep.wav
#WAV0M clashB.wav
#WAV0N bgm1.wav
#WAV0O bgm1.wav
#WAV0P bgm2.wav
#WAV0Q bgm2.wav
#WAV0R bgm3.wav
#WAV0S str01.wav
#WAV0T str01.wav
#WAV0U str02.wav
#WAV0V str03.wav
#WAV0W str03.wav
#WAV0X str04.wav
#WAV0Y str05.wav
#WAV0Z str-01.wav
#WAV10 str-01.wav
#WAV11 str-02.wav
#WAV12 str-03.wav
#WAV13 str-03.wav
#WAV14 str-04.wav
#WAV15 str-05.wav
#WAV16 harp1.wav
#WAV17 harp2.wav
#WAV18 harp3.wav
#WAV19 harp4.wav
#WAV1A harp5.wav
#WAV1B harp6.wav
#WAV1C harp16-01.wav
#WAV1D harp16-02.wav
#WAV1E harp16-03.wav
#WAV1F harp16-04.wav
#WAV1G harp16-05.wav
#WAV1H harp16-06.wav
#WAV1I core1.wav
#WAV1J core1.wav
#WAV1K core1b.wav
#WAV1L core2.wav
#WAV1M core2.wav
#WAV1N core2b.wav
#WAV1O core3.wav
#WAV1P core3.wav
#WAV1Q core3b.wav
#WAV1R core4.wav
#WAV1S core4.wav
#WAV1T core4b.wav
#WAV1U core5.wav
#WAV1V core5.wav
#WAV1W core5b.wav
#WAV1X core6.wav
#WAV1Y core6.wav
#WAV1Z core6b.wav
#WAV20 core7.wav
#WAV21 core7.wav
#WAV22 core7b.wav
#WAV23 core8.wav
#WAV24 core8.wav
#WAV25 core8b.wav
#WAV26 core9.wav
#WAV27 core9.wav
#WAV28 core9b.wav
#WAV29 arp-bgm.wav
#WAV2A arp1.wav
#WAV2B arp2.wav
#WAV2C arp3.wav
#WAV2D arp4.wav
#WAV2E arp5.wav
#WAV2F arp6.wav
#WAV2G p-8-1.wav
#WAV2H p-8-2.wav
#WAV2I p-8-3.wav
#WAV2J p-8-4.wav
#WAV2K p-8-5.wav
#WAV2L p-8-6.wav
#WAV2M p-8-7.wav
#WAV2N p-8-8.wav
#WAV2O p-8-9.wav
#WAV2P p-8-10.wav
#WAV2Q p-8-11.wav
#WAV2R p-8-12.wav
#WAV2S p-8-13.wav
#WAV2T pA-1.wav
#WAV2U pA-2.wav
#WAV2V pA-2b.wav
#WAV2W pA-3.wav
#WAV2X pA-4.wav
#WAV2Y pA-4b.wav
#WAV2Z pA-5.wav
#WAV30 pA-6.wav
#WAV31 pA-7.wav
#WAV32 pA-8.wav
#WAV33 pA-9.wav
#WAV34 pA-10.wav
#WAV35 pA-11.wav
#WAV36 pA-12.wav
#WAV37 SE3.wav
#WAV38 pA-12b.wav
#WAV39 pA-13.wav
#WAV3A pA-13b.wav
#WAV3B pA-14.wav
#WAV3C pA-14b.wav
#WAV3D pA-15.wav
#WAV3E pA-15b.wav
#WAV3F p-16-1.wav
#WAV3G p-16-2.wav
#WAV3H p-16-3.wav
#WAV3I p-16-4.wav
#WAV3J p-16-5.wav
#WAV3K p-16-6.wav
#WAV3L p-16-7.wav
#WAV3M p-16-8.wav
#WAV3N p-16-9.wav
#WAV3O p-16-10.wav
#WAV3P p-16-11.wav
#WAV3Q p-16-12.wav
#WAV3R p-16-13.wav
#WAV3S p-16-14.wav
#WAV3T p-16-15.wav
#WAV3U p-16-16.wav
#WAV3V p-16-17.wav
#WAV3W ps-16-2.wav
#WAV3X ps-16-1.wav
#WAV3Y ps-16-1.wav
#WAV3Z ps-16-2.wav
#WAV40 ps-16-3.wav
#WAV41 ps-16-4.wav
#WAV42 ps-16-5.wav
#WAV43 ps-16-6.wav
#WAV44 ps-16-3.wav
#WAV45 ps-16-7.wav
#WAV46 ps-16-8.wav
#WAV47 ps-16-9.wav
#WAV48 ps-16-10.wav
#WAV49 ps-16-5.wav
#WAV4A ps-16-8.wav
#WAV4B ps-16-2.wav
#WAV4C ps-16-11.wav
#WAV4D ps-16-12.wav
#WAV4E ps-16-13.wav
#WAV4F ps-16-14.wav
#WAV4G ps-16-15.wav
#WAV4H ps-16-16.wav
#WAV4I ps-16-17.wav
#WAV4J ps-16-18.wav
#WAV4K ps-16-19.wav
#WAV4L ps-16-20.wav
#WAV4M ps-16-7.wav
#WAV4N ps-16-21.wav
#WAV4O ps-16-22.wav
#WAV4P ps-16-23.wav
#WAV4Q ps-16-24.wav
#WAV4R ps-16-25.wav
#WAV4S ps-16-26.wav
#WAV4T ps-16-27.wav
#WAV4U ps-16-28.wav
#WAV4V ps-16-29.wav
#WAV4W ps-16-30.wav
#WAV4X ps-16-23.wav
#WAV4Y ps-16-31.wav
#WAV4Z ps-32-1.wav
#WAV50 ps-32-1.wav
#WAV51 ps-32-1b.wav
#WAV52 ps-32-1b.wav
#WAV53 ps-32-2.wav
#WAV54 ps-32-2.wav
#WAV55 ps-32-2b.wav
#WAV56 ps-32-2b.wav
#WAV57 ps-32-3.wav
#WAV58 ps-32-4.wav
#WAV59 ps-32-5.wav
#WAV5A ps-32-6.wav
#WAV5B ps-32-7.wav
#WAV5C ps-32-8.wav
#WAV5D ps-32-9.wav
#WAV5E ps-32-10.wav
#WAV5F ps-32-10.wav
#WAV5G ps-32-10b.wav
#WAV5H ps-32-10b.wav
#WAV5I SE2.wav
#WAV5J chero 1.wav
#WAV5K chero 2.wav
#WAV5L chero 3.wav
#WAV5M chero 4.wav
#WAV5N chero 9.wav
#WAV5O chero 10.wav
#WAV5P chero 11.wav
#WAV5Q chero 12.wav
#WAV5R chero 13.wav
#WAV5S chero 14.wav
#WAV5T chero 15.wav
#WAV5U chero 16.wav
#WAV5V chero 17.wav
#WAV5W chero 18.wav
#WAV5X chero 19.wav
#WAV5Y chero 20.wav
#WAV5Z chero 21.wav
#WAV60 chero 22.wav
#WAV61 solo 1.wav
#WAV62 solo 2.wav
#WAV63 solo 3.wav
#WAV64 solo 4.wav
#WAV65 solo 5.wav
#WAV66 solo 6.wav
#WAV67 solo 7.wav
#WAV68 solo 8.wav
#WAV69 solo 9.wav
#WAV6A solo 10.wav
#WAV6B solo 11.wav
#WAV6C solo 12.wav
#WAV6D solo 13.wav
#WAV6E solo 14.wav
#WAV6F solo 15.wav
#WAV6G solo 16.wav
#WAV6H solo 17.wav
#WAV6I solo 18.wav
#WAV6J solo 19.wav
#WAV6K solo 20.wav
#WAV6L solo 21.wav
#WAV6M solo 22.wav
#WAV6N solo 23.wav
#WAV6O solo 24.wav
#WAV6P solo 25.wav
#WAV6Q solo 26.wav
#WAV6R solo 27.wav
#WAV6S solo 28.wav
#WAV6T solo 29.wav
#WAV6U solo 30.wav
#WAV6V solo 31.wav
#WAV6W solo 32.wav
#WAV6X solo 33.wav
#WAV6Y solo 34.wav
#WAV6Z solo 35.wav
#WAV70 solo 36.wav
#WAV71 solo 37.wav
#WAV72 solo 38.wav
#WAV73 solo 39.wav
#WAV74 solo 40.wav
#WAV75 solo 41.wav
#WAV76 solo 42.wav
#WAV77 solo 43.wav
#WAV78 solo 44.wav
#WAV79 solo 45.wav
#WAV7A solo 46.wav
#WAV7B bass1.wav
#WAV7C bass2.wav
#WAV7D bass3.wav
#WAV7E bass4.wav
#WAV7F bass5.wav
#WAV7G bass6.wav
#WAV7H bass7.wav
#WAV7I bass8.wav
#WAV7J bass9.wav
#WAV7K bass10.wav
#WAV7L bass11.wav
#WAV7M bass12.wav
#WAV7N bass13.wav
#WAV7O bass14.wav
#WAV7P bass15.wav
#WAV7Q bass16.wav
#WAV7R bass17.wav
#WAV7S bass18.wav
#WAV7T bass19.wav
#WAV7U bass20.wav
#WAV7V bass1.wav
#WAV7W bass3.wav
#WAV7X bass5.wav
#WAV7Y bass7.wav
#WAV7Z bass9.wav
#WAV80 bass11.wav
#WAV81 bass13.wav
#WAV82 bass15.wav
#WAV83 bass17.wav
#WAV84 bass19.wav
#WAV85 chero1.wav
#WAV86 chero2.wav
#WAV87 chero3.wav
#WAV88 chero4.wav
#WAV89 vio1.wav
#WAV8A vio2.wav
#WAV8B vio3.wav
#WAV8C vio4.wav
#WAV8D tim.wav
#WAV8E tanbarin.wav
#WAV8F suzu.wav
#WAV8G suzu32.wav
#WAV8H syuooo.wav
#WAV8I SE5.wav
#WAV8J horn.wav
#WAV8K suzu.wav
#WAV8L suzu32.wav
#WAV8M cym B.wav
#WAV8N cym C.wav
#WAV8O SE4.wav *---------------------- EXPANSION FIELD
#BMP01 joker.mpg
#BMP03 miss 01.bmp
#BMP04 miss 02.bmp
#BMP05 miss 03.bmp
#BMP06 miss 04.bmp
#BMP07 miss 05.bmp
#BMP08 miss 06.bmp
#BMP09 miss 07.bmp
#BMP0A miss 08.bmp
#BMP0B miss 09.bmp
#BMP0C miss 10.bmp
#BMP0D miss 11.bmp
#BMP0E miss 12.bmp
#BMP0F miss 13.bmp
#BMP0G miss 14.bmp
#BMP0H miss 15.bmp
#BMP0I miss 16.bmp *---------------------- MAIN DATA FIELD
#00104:01
#00106:030405060708090A0B0C0D0E0F0G0H0I030405060708090A0B0C0D0E0F0G0H0I
#00116:000B000000000000
#00201:00
#00201:00
#00201:00
#00201:00
#00201:00
#00201:00
#00201:00
#00201:00
#00201:00
#00201:00
#00201:7B7C7B7V7C7B7V7C7B7C7B7V7C7B7V7C
#00206:030405060708090A0B0C0D0E0F0G0H0I030405060708090A0B0C0D0E0F0G0H0I
#00211:0400000400040000
#00212:0S0T000000000000
#00213:0000000U00000000
#00215:0Z10000000000000
#00216:00000K00000K0000
#00218:0000001100000000
#00301:00
#00301:00
#00301:00
#00301:00
#00301:00
#00301:00
#00301:00
#00301:00
#00301:00
#00301:00
#00301:7B7C7B7V7C7B7V7C7B7C7B7V7C7B7V7C
#00306:030405060708090A0B0C0D0E0F0G0H0I030405060708090A0B0C0D0E0F0G0H0I
#00311:0400000400040000
#00313:0V0W000000000000
#00314:0000000X00000000
#00316:00000K00000K0000
#00318:1213000000000000
#00319:0000001400000000
#00401:00
#00401:00
#00401:00
#00401:00
#00401:00
#00401:00
#00401:00
#00401:00
#00401:00
#00401:00
#00401:7B7C7B7V7C7B7V7C7B7C7B7V7C7B7V7C
#00406:030405060708090A0B0C0D0E0F0G0H0I030405060708090A0B0C0D0E0F0G0H0I
#00411:0400000400040000
#00412:0S0T000000000000
#00413:0Z10000U00000000
#00414:0000001100000000
#00415:000G000G000G000G000G000G000G000G
#00416:0J00000I000I0000
#00419:0F0F0F0F0F0F0F0F
#00501:00
#00501:00
#00501:00
#00501:00
#00501:00
#00501:00
#00501:00
#00501:00
#00501:00
#00501:00
#00501:7B7C7B7V7C7B7V7C7B7C7B7V7C7B7V7C
#00506:030405060708090A0B0C0D0E0F0G0H0I030405060708090A0B0C0D0E0F0G0H0I
#00511:0400000400040000
#00513:0V0W000000000007
#00514:1213000X00000000
#00515:000G000G000G000G000G000G000G000G
#00516:0J00000I000I0000
#00518:0000001400000000
#00519:0F0F0F0F0F0F0F0F
#00601:00
#00601:00
#00601:00
#00601:00
#00601:00
#00601:00
#00601:0001000100010001
#00601:00
#00601:00
#00601:00
#00601:7B7C7B7V7C7B7V7C7B7C7B7V7C7B7V7C
#00601:00
#00601:00
#00601:00
#00601:00
#00601:00
#00601:00
#00601:00
#00601:00
#00601:00
#00601:00
#00601:00
#00601:00
#00601:00
#00601:00
#00601:00
#00601:00
#00601:00
#00601:00
#00601:00
#00601:00
#00601:0N
#00606:030405060708090A0B0C0D0E0F0G0H0I030405060708090A0B0C0D0E0F0G0H0I
#00611:04040404
#00612:00000003000000030000000300002H00
#00613:000300000K000000000300000K000003
#00614:2G0000000003000002002I0000030000
#00615:0002002H00002J00
#00616:0C
#00618:002H02002K000202
#00619:02002I0200020000
#00701:00
#00701:00
#00701:00
#00701:00
#00701:00
#00701:00
#00701:0001000100010001
#00701:00
#00701:00
#00701:00
#00701:7B7C7B7V7C7B7V7C7B7C7B7V7C7B7V7C
#00706:030405060708090A0B0C0D0E0F0G0H0I030405060708090A0B0C0D0E0F0G0H0I
#00711:04040404
#00712:00000003000000000200000002002I00
#00713:000300000K000200000002000K000003
#00714:2G000200002H0002
#00715:000002002J0000030000000300000000
#00718:00002I0000002K00000300002K000000
#00719:02000000000300002L00000000030000
#00801:00
#00801:00
#00801:00
#00801:00
#00801:00
#00801:00
#00801:0001000100010001
#00801:00
#00801:00
#00801:00
#00801:7D7E7D7W7E7D7W7E7D7E7D7W7E7D7W7E
#00806:030405060708090A0B0C0D0E0F0G0H0I030405060708090A0B0C0D0E0F0G0H0I
#00811:04040404
#00812:00000200020000000000000300000200
#00813:000000000K002H00020000000K000003
#00814:2J000003000002000003000000030000
#00815:002K0000002K0200
#00818:020000002L000003000000002L000000
#00819:00030000000300002M00020000002M00
#00901:00
#00901:00
#00901:00
#00901:00
#00901:00
#00901:00
#00901:0001000100010001
#00901:00
#00901:00
#00901:00
#00901:7D7E7D7W7E7D7W7E7D7E7D7W7E7D7W7E
#00906:030405060708090A0B0C0D0E0F0G0H0I030405060708090A0B0C0D0E0F0G0H0I
#00911:04040404
#00912:00000003000000000000020000002N00
#00913:000002000K000000000300000K000003
#00914:2H00000000002I000200000300000000
#00915:0003000002000003000000002I000200
#00918:020000002K00020000002J0000030000
#00919:00002L00000300002K00000002000000
#01001:00
#01001:00
#01001:00
#01001:00
#01001:00
#01001:00
#01001:0001000100010001
#01001:00
#01001:00
#01001:00
#01001:7F7G7F7X7G7F7X7G7F7G7F7X7G7F7X7G
#01006:030405060708090A0B0C0D0E0F0G0H0I030405060708090A0B0C0D0E0F0G0H0I
#01011:04040404
#01012:02000000000000030000000300002H00
#01013:000300000K000200020000000K000000
#01014:2G0002000003000000002I0002000000
#01015:0000000300002H00000300002J000003
#01018:00002H00020000002K00000000030000
#01019:00002I0000020002
#01101:00
#01101:00
#01101:00
#01101:0000000000000001
#01101:0000000100000000
#01101:00
#01101:0001000000010000
#01101:00
#01101:00
#01101:00
#01101:7F7G7F7X7G7F7X7G7F7G7F7X7G7F7X7G
#01106:030405060708090A0B0C0D0E0F0G0H0I030405060708090A0B0C0D0E0F0G0H0I
#01111:04040404
#01112:00030000000300000000020000002I00
#01113:020000000K000003000000000K000000
#01114:2G000000020000000003000300030000
#01115:00022J02002H0002
#01118:00002I0000002K00020000002K000003
#01119:00000003000000002L00000002000000
#01201:00
#01201:00
#01201:00
#01201:0001000000000000
#01201:00
#01201:00
#01201:0000000100010001
#01201:00
#01201:00
#01201:00
#01201:7B7C7B7V7C7B7V7C7B7C7B7V7C7B7V7C
#01206:030405060708090A0B0C0D0E0F0G0H0I030405060708090A0B0C0D0E0F0G0H0I
#01211:04040404
#01212:00030000000300000000000000000000
#01213:000002000K000200000300000K000000
#01214:2J0000030000000002002K0000000200
#01215:00002K0000002H000000000002000003
#01218:000000002L0000030000000300030000
#01219:020002002M022L2M
#01301:00
#01301:0000000000010000
#01301:00
#01301:00
#01301:00
#01301:00
#01301:0001000000000000
#01301:00
#01301:00
#01301:00
#01301:7B7C7B7V7C7B7V7C7B7C7B7V7C7B7V7C
#01306:030405060708090A0B0C0D0E0F0G0H0I030405060708090A0B0C0D0E0F0G0H0I
#01311:04040404
#01312:0202002I00020K2N
#01313:000300000K0000000003000300000000
#01314:2H002K01022J0201
#01315:00000003000000030000000000030003
#01316:000000000000000000000000008M0000
#01318:002L02022K002I02
#01319:00000000000300000000000000000000
#01401:00030003000302030203000302030003
#01401:7B7C7B7V007B007C007C7B7V7C7B7V7C
#01401:00
#01401:00
#01401:00020000
#01401:00
#01401:007C0000
#01406:030405060708090A0B0C0D0E0F0G0H0I030405060708090A0B0C0D0E0F0G0H0I
#01411:2G2I7B00
#01412:000000000000002H
#01413:002H002H002I0K00
#01414:0401040104010401
#01415:0002007V00022J00
#01418:0000000000000002
#01419:020K2K00
#01501:00030003020300030003000302030003
#01501:7B7C7B7V7C7B7V7C7B7C7B7V7C7B7V7C
#01506:030405060708090A0B0C0D0E0F0G0H0I030405060708090A0B0C0D0E0F0G0H0I
#01511:2G002J00022H0000
#01512:0000000200000K00
#01513:002I00000000002I
#01514:0401040104010401
#01515:0002000000000002
#01518:0000002K00002K00
#01519:02000K002L020000
#01601:00030003020300030003000302030003
#01601:7D7E7D7W7E7D7W7E7D7E7D7W7E7D7W7E
#01606:030405060708090A0B0C0D0E0F0G0H0I030405060708090A0B0C0D0E0F0G0H0I
#01611:0000000002000002
#01612:2J0K000K
#01613:0002002H00020000
#01614:0401040104010401
#01615:002K0002002K0000
#01618:022L002L
#01619:000000002M00002M
#01701:00030003020300030003000302030003
#01701:7D7E7D7W7E7D7W7E7D7E7D7W7E7D7W7E
#01706:030405060708090A0B0C0D0E0F0G0H0I030405060708090A0B0C0D0E0F0G0H0I
#01711:0002002I002J0000
#01712:00000K000200002N
#01713:2H00002I
#01714:0401040104010401
#01715:0200000K
#01718:00002K002K000002
#01719:002L000200020000
#01801:00030003000300030003000300030003
#01801:007G027X7G7F7X7G7F7G7F7X007F7X7G
#01806:030405060708090A0B0C0D0E0F0G0H0I030405060708090A0B0C0D0E0F0G0H0I
#01811:2G000000002I0000
#01812:0200000200020200
#01813:7F7F002H00000K2H
#01814:0401040104010401
#01815:002H2I0000002J02
#01818:0002027G
#01819:000K2K00
#01901:00030003000300030003000300030003
#01901:7F7G7F7X7G7F7X7G7F7G7F7X007F7X7G
#01906:030405060708090A0B0C0D0E0F0G0H0I030405060708090A0B0C0D0E0F0G0H0I
#01911:0002000000000202
#01912:2G2I0K00002H002I
#01913:0200000000020K00
#01914:0401040104010401
#01915:002J0200
#01918:0000022K00002K00
#01919:000000022L007G00
#02001:00030003000300030003000300030003
#02001:7B7C7B7V7C7B7V7C7B7C7B7V7C7B7V7C
#02006:030405060708090A0B0C0D0E0F0G0H0I030405060708090A0B0C0D0E0F0G0H0I
#02011:0000000200000000
#02012:02000000002K0K00
#02013:2J000K2H00020002
#02014:0401040104010400
#02015:002K000000002L00
#02016:0000000000000001
#02018:00022L0002000200
#02019:000002002M00002M
#02101:00030003000000000000000000000000
#02101:7B7C007V0K0000050000000000000000
#02101:00
#02101:0000000K
#02101:00
#02101:00
#02101:0000000000010001
#02101:00000000020302030203020302030203
#02101:00
#02101:00
#02101:000000007C7B7V7C7B7C7B7V7C7B7V7C
#02106:030405060708090A0B0C0D0E0F0G0H0I030405060708090A0B0C0D0E0F0G0H0I
#02111:0005000000002I00
#02112:007B0000002J002N
#02113:022K
#02114:04000104000401000400040005060700
#02115:2H00002I00000000
#02116:0I000M0J00000H00
#02118:00022K0000000000
#02119:002L000000000000
#02201:00
#02201:00
#02201:00
#02201:00
#02201:00
#02201:00
#02201:0001000100010001
#02201:02030203020302030203020302030203
#02201:00
#02201:00
#02201:7B7C7B7V7C7B7V7C7B7C7B7V7C7B7V7C
#02201:00
#02201:00
#02201:00
#02201:00
#02201:00
#02201:1I001K001I001I1J001I1J001I001K00
#02201:00
#02201:8F8K8F008F8K8F008F8K8F008F8K0000
#02201:000000000000008E
#02201:00
#02201:00
#02201:00
#02201:00
#02201:00
#02201:00
#02201:00
#02201:00
#02201:00
#02201:00
#02201:00
#02201:0O
#02206:030405060708090A0B0C0D0E0F0G0H0I030405060708090A0B0C0D0E0F0G0H0I
#02211:04040404
#02213:1600000K
#02214:0000000000000017
#02215:00171700
#02216:0C
#02218:0000000000180000
#02219:000K0019
#02301:00
#02301:00
#02301:00
#02301:00
#02301:00
#02301:00
#02301:0001000100010001
#02301:02030203020302030203020302030203
#02301:00
#02301:00
#02301:7B7C7B7V7C7B7V7C7B7C7B7V7C7B7V7C
#02301:00
#02301:00
#02301:00
#02301:00
#02301:00
#02301:1I001K001I001I1J001I1J001I001K00
#02301:00
#02301:8F008K008F0000008F008K008G8L8G8L8F0000008K0000008F008K0000000000
#02301:000000000000008E
#02306:030405060708090A0B0C0D0E0F0G0H0I030405060708090A0B0C0D0E0F0G0H0I
#02311:04040404
#02312:0000001700000000
#02313:00000016
#02314:00180000
#02315:181A
#02318:0019000000000000
#02319:000K000K
#02401:00
#02401:00
#02401:00
#02401:00
#02401:00
#02401:00
#02401:0001000100010001
#02401:02030203020302030203020302030203
#02401:00
#02401:00
#02401:7D7E7D7W7E7D7W7E7D7E7D7W7E7D7W7E
#02401:00
#02401:00
#02401:00
#02401:00
#02401:00
#02401:1L001N001L001L1M001L1M001L001N00
#02401:00
#02401:8F8K8F008F8K8F008F8K8F008F8K0000
#02401:000000000000008E
#02406:030405060708090A0B0C0D0E0F0G0H0I030405060708090A0B0C0D0E0F0G0H0I
#02411:04040404
#02412:000K0000
#02413:1600000K
#02414:0000000000000017
#02415:00171700
#02418:0000000000180000
#02419:00000019
#02501:00
#02501:00
#02501:00
#02501:00
#02501:00
#02501:00
#02501:0001000100010001
#02501:02030203020302030203020302030203
#02501:00
#02501:00
#02501:7D7E7D7W7E7D7W7E7D7E7D7W7E7D7W7E
#02501:00
#02501:00
#02501:00
#02501:00
#02501:00
#02501:1L001N001L001L1M001L1M001L001N00
#02501:00
#02501:8F008K008F0000008F008K008G8L8G8L8F0000008K0000008F008K0000000000
#02501:000000000000008E
#02506:030405060708090A0B0C0D0E0F0G0H0I030405060708090A0B0C0D0E0F0G0H0I
#02511:04040404
#02512:000K000K
#02513:001A
#02514:000000170000001A
#02515:0000180000170000
#02518:0019000000001800
#02519:1B
#02601:00
#02601:00
#02601:00
#02601:00
#02601:00
#02601:00
#02601:0001000100010001
#02601:02030203020302030203020302030203
#02601:00
#02601:00
#02601:7F7G7F7X7G7F7X7G7F7G7F7X7G7F7X7G
#02601:00
#02601:00
#02601:00
#02601:00
#02601:00
#02601:1O001Q001O001O1P001O1P001O001Q00
#02601:00
#02601:8F8K8F008F8K8F008F8K8F008F8K0000
#02601:000000000000008E
#02606:030405060708090A0B0C0D0E0F0G0H0I030405060708090A0B0C0D0E0F0G0H0I
#02611:04040404
#02613:1600000K
#02615:0000170017000017
#02618:0000000000180000
#02619:000K0019
#02701:00
#02701:00
#02701:00
#02701:00
#02701:00
#02701:00
#02701:0001000100010001
#02701:02030203020302030203020302030203
#02701:00
#02701:00
#02701:7F7G7F7X7G7F7X7G7F7G7F7X7G7F7X7G
#02701:00
#02701:00
#02701:00
#02701:00
#02701:00
#02701:1O001Q001O001O1P001O1P001O001Q00
#02701:00
#02701:8F008K008F0000008F008K008G8L8G8L8F0000008K0000008F008K0000000000
#02701:000000000000008E
#02706:030405060708090A0B0C0D0E0F0G0H0I030405060708090A0B0C0D0E0F0G0H0I
#02711:04040404
#02712:000000000000001F
#02713:000000001C1C0000
#02714:00000000000017000000001D00000000
#02715:0018001E
#02718:18
#02719:00190K0000000K00
#02801:00
#02801:00
#02801:00
#02801:00
#02801:00
#02801:00
#02801:0001000100010001
#02801:02030203020302030203020302030203
#02801:00
#02801:00
#02801:7B7C7B7V7C7B7V7C7B7C7B7V7C7B7V7C
#02801:00
#02801:00
#02801:00
#02801:00
#02801:00
#02801:1R001T001R001R1S001R1S001R001T00
#02801:00
#02801:8F8K8F008F8K8F008F8K8F008F8K0000
#02801:000000000000008E
#02806:030405060708090A0B0C0D0E0F0G0H0I030405060708090A0B0C0D0E0F0G0H0I
#02811:04040404
#02813:160K000K
#02815:0000170017000017
#02818:0000000000180000
#02819:00000019
#02901:00
#02901:00
#02901:00
#02901:00
#02901:00
#02901:00
#02901:0001000100010001
#02901:02030203020302030203020302030203
#02901:00
#02901:00
#02901:7B7C7B7V7C7B7V7C7B7C7B7V7C7B7V7C
#02901:00
#02901:00
#02901:00
#02901:00
#02901:00
#02901:1R001T001R001R1S001R1S001R001T00
#02901:00
#02901:8F008K008F0000008F008K008G8L8G8L8F0000008K0000008F008K0000000000
#02901:000000000000008E
#02906:030405060708090A0B0C0D0E0F0G0H0I030405060708090A0B0C0D0E0F0G0H0I
#02911:04040404
#02912:000K000K
#02913:001A
#02914:0000001D0017001A
#02915:001E0018
#02916:000000000000000000000000008M0000
#02918:0000001H000000000000000000000000
#02919:1G1G000000000000
#03001:04040404
#03001:00
#03001:00
#03001:00
#03001:00
#03001:00
#03001:0001000100010001
#03001:02030203020302030203020302030203
#03001:00
#03001:00
#03001:7B7C7B7V7C7B7V7C7B7C7B7V7C7B7V7C
#03001:00
#03001:00
#03001:00
#03001:00
#03001:00
#03001:00
#03001:00
#03001:8F8K8F008F8K8F008F8K8F008F8K0000
#03001:000000000000008E
#03006:030405060708090A0B0C0D0E0F0G0H0I030405060708090A0B0C0D0E0F0G0H0I
#03011:000K000K
#03014:16
#03015:0000000017000017
#03016:1I001K001I001I1J001I1J001I001K00
#03018:0000170000180000
#03019:00000019
#03101:04040004
#03101:0004
#03101:00
#03101:00
#03101:00
#03101:00
#03101:0001000100010001
#03101:02030203020302030203020302030203
#03101:00
#03101:00
#03101:7B7C7B7V7C7B7V7C7B7C7B7V7C7B7V7C
#03101:00
#03101:00
#03101:00
#03101:00
#03101:00
#03101:00
#03101:00
#03101:8F008K008F0000008F008K008G8L8G8L8F0000008K0000008F008K0000000000
#03101:000000000000008E
#03106:030405060708090A0B0C0D0E0F0G0H0I030405060708090A0B0C0D0E0F0G0H0I
#03111:000K000K
#03114:18000016
#03115:0000001700000000
#03116:1I001K001I001I1J001I1J001I001K00
#03118:00181A00
#03119:0019000000000000
#03201:04040404
#03201:00
#03201:00
#03201:00
#03201:00
#03201:00
#03201:0001000100010001
#03201:02030203020302030203020302030203
#03201:00
#03201:00
#03201:7D7E7D7W7E7D7W7E7D7E7D7W7E7D7W7E
#03201:00
#03201:00
#03201:00
#03201:00
#03201:00
#03201:00
#03201:00
#03201:8F8K8F008F8K8F008F8K8F008F8K0000
#03201:000000000000008E
#03206:030405060708090A0B0C0D0E0F0G0H0I030405060708090A0B0C0D0E0F0G0H0I
#03211:000K000K
#03214:16
#03215:00171700
#03216:1L001N001L001L1M001L1M001L001N00
#03218:0000000000180017
#03219:00000019
#03301:04040404
#03301:00
#03301:00
#03301:00
#03301:00
#03301:00
#03301:0001000100010001
#03301:02030203020302030203020302030203
#03301:00
#03301:00
#03301:7D7E7D7W7E7D7W7E7D7E7D7W7E7D7W7E
#03301:00
#03301:00
#03301:00
#03301:00
#03301:00
#03301:00
#03301:00
#03301:8F008K008F0000008F008K008G8L8G8L8F0000008K0000008F008K0000000000
#03301:000000000000008E
#03306:030405060708090A0B0C0D0E0F0G0H0I030405060708090A0B0C0D0E0F0G0H0I
#03311:000K000K
#03315:000000171A000000
#03316:1L001N001L001L1M001L1M001L001N00
#03318:000018000017001A
#03319:1B19000000001800
#03401:04040404
#03401:00
#03401:00
#03401:00
#03401:00
#03401:00
#03401:0001000100010001
#03401:02030203020302030203020302030203
#03401:00
#03401:00
#03401:7F7G7F7X7G7F7X7G7F7G7F7X7G7F7X7G
#03401:00
#03401:00
#03401:00
#03401:00
#03401:00
#03401:00
#03401:00
#03401:8F8K8F008F8K8F008F8K8F008F8K0000
#03401:000000000000008E
#03406:030405060708090A0B0C0D0E0F0G0H0I030405060708090A0B0C0D0E0F0G0H0I
#03411:000K000K
#03412:16
#03414:0000170017000017
#03415:0000000000180000
#03416:1O001Q001O001O1P001O1P001O001Q00
#03419:00000019
#03501:04040404
#03501:00
#03501:00
#03501:00
#03501:00
#03501:00
#03501:0001000100010001
#03501:02030203020302030203020302030203
#03501:00
#03501:00
#03501:7F7G7F7X7G7F7X7G7F7G7F7X7G7F7X7G
#03501:00
#03501:00
#03501:00
#03501:00
#03501:00
#03501:00
#03501:00
#03501:8F008K008F0000008F008K008G8L8G8L8F0000008K0000008F008K0000000000
#03501:000000000000008E
#03506:030405060708090A0B0C0D0E0F0G0H0I030405060708090A0B0C0D0E0F0G0H0I
#03511:000K000K
#03512:000000001C1C0000
#03513:00000000000000000000001D00001F00
#03514:0000001700000000
#03516:1O001Q001O001O1P001O1P001O001Q00
#03518:1818001E
#03519:0019000000000000
#03601:04040404
#03601:00
#03601:00
#03601:00
#03601:00
#03601:00
#03601:0001000100010001
#03601:02030203020302030203020302030203
#03601:00
#03601:00
#03601:7B7C7B7V7C7B7V7C7B7C7B7V7C7B7V7C
#03601:00
#03601:00
#03601:00
#03601:00
#03601:00
#03601:00
#03601:00
#03601:8F8K8F008F8K8F008F8K8F008F8K0000
#03601:000000000000008E
#03606:030405060708090A0B0C0D0E0F0G0H0I030405060708090A0B0C0D0E0F0G0H0I
#03611:000K000K
#03612:00171700
#03613:1600000000180017
#03616:1R001T001R001R1S001R1S001R001T00
#03619:00000019
#03701:04
#03701:00
#03701:00
#03701:000K000K
#03701:00
#03701:00
#03701:0001000100010001
#03701:02030203020302030203020302030203
#03701:00
#03701:00
#03701:7B7C7B7V7C7B7V7C7B7C7B7V7C7B7V7C
#03701:00
#03701:00
#03701:00
#03701:00
#03701:00
#03701:1R001T001R001R1S001R1S001R001T00
#03701:00
#03701:8F008K008F0000008F008K008G8L8G8L8F0000008K0000008F008K0000000000
#03701:000000000000008E
#03706:030405060708090A0B0C0D0E0F0G0H0I030405060708090A0B0C0D0E0F0G0H0I
#03711:00040404
#03712:0000000000000007
#03713:001A
#03714:0000001D0000001A
#03715:00001E0000170000
#03716:0I00001H0M000J00000000000H000000
#03719:1G1G000000001800
#03801:00
#03801:00
#03801:00
#03801:0000000K
#03801:00
#03801:00
#03801:0001000000010001
#03801:00030003000300030003000300030003
#03801:00
#03801:00
#03801:007C7B7V007B007C7B7C7B7V7C7B7V7C
#03801:00
#03801:00
#03801:00
#03801:00
#03801:00
#03801:00
#03801:00
#03801:00
#03801:00
#03801:61
#03801:00
#03801:5J5K5J5K005L005M
#03801:00
#03801:00
#03801:00
#03801:00
#03801:00
#03801:00
#03801:00
#03801:00
#03801:0P
#03806:030405060708090A0B0C0D0E0F0G0H0I030405060708090A0B0C0D0E0F0G0H0I
#03811:04040404
#03813:02002U0100000000
#03814:00000K2V00000000
#03815:2T
#03816:0C
#03818:00007C7V00000000
#03819:7B02020202020202
#03901:0001000000000000
#03901:00
#03901:00
#03901:000K000K
#03901:00
#03901:00
#03901:0000000100010001
#03901:00030003000300030003000300030003
#03901:00
#03901:00
#03901:7B7C7B7V7C7B7V7C7B7C7B7V7C7B7V7C
#03901:00
#03901:00
#03901:00
#03901:00
#03901:00
#03901:00
#03901:00
#03901:00
#03901:00
#03901:62000000000000000000000000006364
#03901:00
#03901:5J5K5J5K005L005M
#03906:030405060708090A0B0C0D0E0F0G0H0I030405060708090A0B0C0D0E0F0G0H0I
#03911:04040404
#03913:2L2L
#03915:002O002O002O0000
#03918:002P0000
#03919:0202020202020202
#04001:00
#04001:00
#04001:00
#04001:0000000K
#04001:00
#04001:00
#04001:0001000000010001
#04001:00030003000300030003000300030003
#04001:00
#04001:000000000000007G0000000000000000
#04001:7F7G7F7X007F00007F7G7F7X7G7F7X7G
#04001:00
#04001:00
#04001:00
#04001:00
#04001:00
#04001:00
#04001:00
#04001:00
#04001:00
#04001:65000000000000006600670068696A6B
#04001:00
#04001:5N5O5N5O005P005Q
#04006:030405060708090A0B0C0D0E0F0G0H0I030405060708090A0B0C0D0E0F0G0H0I
#04011:04040404
#04012:00007G7X00000000
#04013:00000K0100000000
#04014:2W
#04018:00002X2Y00000000
#04019:0202020202020202
#04101:00
#04101:00
#04101:00
#04101:000K000K
#04101:00
#04101:00
#04101:0001000100010001
#04101:00030003000300030003000300030003
#04101:00
#04101:00
#04101:7F7G7F7X7G7F7X7G7F7G7F7X7G7F7X7G
#04101:00
#04101:00
#04101:00
#04101:00
#04101:00
#04101:00
#04101:00
#04101:00
#04101:00
#04101:6C6D
#04101:00
#04101:5N5O5N5O005P005Q
#04106:030405060708090A0B0C0D0E0F0G0H0I030405060708090A0B0C0D0E0F0G0H0I
#04111:04040404
#04112:00000000002K0000
#04113:002Q000000000000
#04114:2O2Q
#04115:0000002O00000000
#04118:002P0000
#04119:0202020202020202
#04201:00
#04201:00
#04201:00
#04201:000K0000
#04201:00
#04201:00
#04201:0001000000010001
#04201:00030003000300030003000300030003
#04201:00
#04201:00
#04201:007I7H7Y7I7H007I7H7I7H7Y007H7Y7I
#04201:00
#04201:00
#04201:00
#04201:00
#04201:00
#04201:00
#04201:00
#04201:00
#04201:00
#04201:6E
#04201:00
#04201:5R5S5R5T005U005V
#04206:030405060708090A0B0C0D0E0F0G0H0I030405060708090A0B0C0D0E0F0G0H0I
#04211:04040404
#04213:2Z00000100000000
#04214:7H00007Y00000K00
#04215:0000003000007I00
#04218:00000031
#04219:0202020202020202
#04301:00
#04301:00
#04301:00
#04301:000K000K
#04301:00
#04301:00
#04301:0001000100010001
#04301:00030003000300030003000300030003
#04301:00
#04301:00
#04301:007I007Y007H007I007I007Y7I7H7Y7I
#04301:00
#04301:00
#04301:00
#04301:00
#04301:00
#04301:00
#04301:00
#04301:00
#04301:00
#04301:6F6G
#04301:00
#04301:5R5S5R5T005U005V
#04306:030405060708090A0B0C0D0E0F0G0H0I030405060708090A0B0C0D0E0F0G0H0I
#04311:04040404
#04312:00000000007H0000
#04313:00007I007H2L0000
#04314:007H2P7Y2Q000000
#04315:7H2S002O00000000
#04318:2R
#04319:0202020202020202
#04401:00
#04401:00
#04401:00
#04401:000K0000
#04401:00
#04401:00
#04401:0001000100010000
#04401:00030003000300030003000300000003
#04401:00
#04401:00
#04401:7F7G7F7X7G7F7X7G7F7G7F7X7G7F7X7G
#04401:00
#04401:00
#04401:00
#04401:00
#04401:00
#04401:00
#04401:00
#04401:00
#04401:00
#04401:6H
#04401:00
#04401:5O5U5S5T005U005V
#04406:030405060708090A0B0C0D0E0F0G0H0I030405060708090A0B0C0D0E0F0G0H0I
#04411:04040404
#04412:0000002P00003F00
#04413:000000002S0000002S000000003G0000
#04414:32000000002R0K3H
#04415:00000000000000000000000000030000
#04418:0000000000000001
#04419:0202020202020202
#04501:00
#04501:00
#04501:00
#04501:000K000K
#04501:00
#04501:00
#04501:0001000100010001
#04501:00030003000300030003000300030003
#04501:00
#04501:00
#04501:7J7K7J7Z7K7J7Z7K7L7M7L807M7L807M
#04501:00
#04501:00
#04501:00
#04501:00
#04501:00
#04501:00
#04501:00
#04501:00
#04501:00
#04501:6I6J
#04501:00
#04501:5W5X5Y5Z0060005Y
#04506:030405060708090A0B0C0D0E0F0G0H0I030405060708090A0B0C0D0E0F0G0H0I
#04511:04040404
#04515:33
#04516:000000000000000000000000008M0000
#04518:0034
#04519:0202020202020202
#04601:00
#04601:00
#04601:00
#04601:000K000K
#04601:00
#04601:00
#04601:0001000100010001
#04601:00030203020302030203020302030203
#04601:00
#04601:00
#04601:7B7C7B7V7C7B7V7C7B7C7B7V7C7B7V7C
#04601:00
#04601:00
#04601:00
#04601:00
#04601:00
#04601:00
#04601:00
#04601:00
#04601:00
#04601:6K6L6K6M6N6O0000
#04601:00
#04601:5J5K5J5K005L005M
#04606:030405060708090A0B0C0D0E0F0G0H0I030405060708090A0B0C0D0E0F0G0H0I
#04611:04000000040000000400003P04000000
#04612:000000003I3J0000000000003Q000000
#04613:0000000000003K0000000000003R0000
#04614:000000000000003L0000000000003S00
#04615:00000000000000003M0000000000003T
#04618:3500000000000000003N000000000000
#04619:02000000003O0000
#04701:00
#04701:00
#04701:00
#04701:000K000K
#04701:00
#04701:00
#04701:0001000100010001
#04701:00000203020302030003000300030003
#04701:00
#04701:00
#04701:7B7C7B7V7C7B7V7C7B7C7B7V7C7B7V7C
#04701:00
#04701:00
#04701:00
#04701:00
#04701:00
#04701:00
#04701:00
#04701:00
#04701:00
#04701:6K6L6K6M6N6O0000
#04701:00
#04701:5J5K5J5K005L005M
#04706:030405060708090A0B0C0D0E0F0G0H0I030405060708090A0B0C0D0E0F0G0H0I
#04711:04040404
#04713:02030000000000000000000000002L00
#04714:0000000000002Q02
#04715:00002O02
#04718:363800000000000002002P0000000000
#04719:0000000000020000
#04801:00
#04801:00
#04801:00
#04801:000K0000
#04801:00
#04801:00
#04801:0001000100010000
#04801:00030203000000000000000300030003
#04801:00
#04801:00
#04801:7F7G7F7X7G7F7X7G7F7G7F7X7G7F7X7G
#04801:00
#04801:00
#04801:00
#04801:00
#04801:00
#04801:00
#04801:00
#04801:00
#04801:00
#04801:6P6Q6R6S6T6U6V6W
#04801:00
#04801:5N5O5N5O005P005Q
#04806:030405060708090A0B0C0D0E0F0G0H0I030405060708090A0B0C0D0E0F0G0H0I
#04811:0404040K
#04812:00003U3J00000401
#04813:390002023L000000
#04814:00000000003I000002003N0002000200
#04815:000000000003003K0000020000000000
#04818:0000000000000003003M00003A003A00
#04819:02000000000000000003003O00000000
#04901:00
#04901:00
#04901:00
#04901:000K000K
#04901:00
#04901:00
#04901:0001000100010001
#04901:00
#04901:00
#04901:00
#04901:7F7G7F7X7G7F7X7G7F7G7F7X7G7F7X7G
#04901:00
#04901:00
#04901:00
#04901:00
#04901:00
#04901:00
#04901:00
#04901:00
#04901:00
#04901:6X6Y6Z70
#04901:00
#04901:5N5O5N5O005P005Q
#04901:00
#04901:00
#04901:00
#04901:00
#04901:00
#04901:00
#04901:00
#04901:008O
#04906:030405060708090A0B0C0D0E0F0G0H0I030405060708090A0B0C0D0E0F0G0H0I
#04911:0400000004000000040000000400003J
#04912:00000003000002000000003L00000000
#04913:000002000003003N00003N0000003L00
#04914:0003000002003P00003P0003003N0003
#04915:02003R00003R00003R0002003P000200
#04918:003T00003T0000030003000000030000
#04919:3V00003P000000000200000002000000
#05001:00
#05001:00
#05001:00
#05001:000K0000
#05001:00
#05001:00
#05001:0001000000010001
#05001:00030203020300030203020300030203
#05001:00
#05001:00
#05001:7H7I7H7Y7I7H007I7H7I7H7Y007H7Y7I
#05001:00
#05001:00
#05001:00
#05001:00
#05001:00
#05001:00
#05001:00
#05001:00
#05001:00
#05001:7172717200730074
#05001:00
#05001:5R5S5R5T005U005V
#05006:030405060708090A0B0C0D0E0F0G0H0I030405060708090A0B0C0D0E0F0G0H0I
#05011:00040404
#05012:0400007I
#05013:0000003000000000
#05014:2Z00000K
#05015:0000000100000000
#05018:0200007Y00003100
#05019:0000000200000200
#05101:000300000K000000000000000K000000
#05101:00
#05101:00
#05101:00
#05101:00
#05101:00
#05101:00
#05101:00000203000302030003020302030203
#05101:00
#05101:00
#05101:7H7I7H7Y7I7H7Y7I7H7I7H7Y7I7H7Y7I
#05101:00
#05101:00
#05101:00
#05101:00
#05101:00
#05101:00
#05101:00
#05101:00
#05101:00
#05101:7172717200737475
#05101:00
#05101:5R5S5R5T005U005V
#05106:030405060708090A0B0C0D0E0F0G0H0I030405060708090A0B0C0D0E0F0G0H0I
#05111:0400040000010400
#05112:00000000022L0000
#05113:000000012Q000000
#05114:0000022O00000000
#05115:00012P0000000000
#05118:022S000000000000
#05119:2R00000004000001
#05201:00
#05201:00
#05201:00
#05201:00
#05201:00
#05201:00
#05201:0001000100010001
#05201:00030203020302030203020302030203
#05201:00
#05201:00
#05201:7F7G7F7X7G7F7X7G7F7G7F7X7G7F7X7G
#05201:00
#05201:00
#05201:00
#05201:00
#05201:00
#05201:00
#05201:00
#05201:00
#05201:00
#05201:7677
#05201:00
#05201:5O5U5S5T005U005V
#05206:030405060708090A0B0C0D0E0F0G0H0I030405060708090A0B0C0D0E0F0G0H0I
#05211:04040404
#05212:0000002P00003F00
#05213:020000002S0000002S000000003G0000
#05214:320000000000000000002R000000000G
#05215:000G000G000G000G000G000G000G0000
#05218:000000000000003H
#05219:0F0F0F0F0F0F0F0F
#05301:00
#05301:00
#05301:00000000000000000000000G00000000
#05301:000F0000
#05301:00
#05301:00
#05301:0000000100000001
#05301:00000000020302030000000002030203
#05301:00
#05301:00
#05301:7J7K7J7Z7K7J7Z7K7L7M00807M7L807M
#05301:00
#05301:00
#05301:00
#05301:00
#05301:00
#05301:00
#05301:00
#05301:00
#05301:00
#05301:7879
#05301:00
#05301:5W5X5Y5Z0060005Y
#05301:00
#05301:00
#05301:008J
#05301:00
#05301:00
#05301:00
#05301:0000000000000000005I000000000000
#05301:0000008I
#05306:030405060708090A0B0C0D0E0F0G0H0I030405060708090A0B0C0D0E0F0G0H0I
#05311:02030003000000000400000004000700
#05312:00000F00000000000203000300000000
#05313:0F0G000G000G000G00007L0000000000
#05314:00000100000000000F0G000F000G000G
#05315:3B3C003B000000000000010000000000
#05316:0I000M0J00000H00
#05318:00000200000000003D3E003D00000000
#05319:0400040F00020F0F
#05401:00
#05401:00
#05401:00
#05401:00
#05401:00
#05401:00
#05401:00
#05401:00
#05401:00
#05401:00
#05401:00
#05401:00
#05401:00
#05401:00
#05401:00
#05401:00
#05401:00
#05401:00
#05401:00
#05401:00
#05401:7A
#05401:00
#05401:00
#05401:00
#05401:00
#05401:89898989
#05401:00
#05401:00
#05401:00
#05401:00
#05401:00
#05401:0Q
#05403:5C
#05406:030405060708090A0B0C0D0E0F0G0H0I030405060708090A0B0C0D0E0F0G0H0I
#05411:08
#05416:0C0D
#05501:00
#05501:00
#05501:00
#05501:00
#05501:00
#05501:00
#05501:00
#05501:00
#05501:00
#05501:00
#05501:00
#05501:00
#05501:00
#05501:00
#05501:00
#05501:00
#05501:00
#05501:00
#05501:00
#05501:00
#05501:00
#05501:00
#05501:00
#05501:00
#05501:00
#05501:8A8A8A8A
#05506:030405060708090A0B0C0D0E0F0G0H0I030405060708090A0B0C0D0E0F0G0H0I
#05601:00
#05601:00
#05601:00
#05601:00
#05601:00
#05601:00
#05601:00
#05601:00
#05601:00
#05601:00
#05601:00
#05601:00
#05601:00
#05601:00
#05601:00
#05601:00
#05601:00
#05601:00
#05601:00
#05601:00
#05601:00
#05601:00
#05601:00
#05601:00
#05601:00
#05601:8B8B8B8B
#05606:030405060708090A0B0C0D0E0F0G0H0I030405060708090A0B0C0D0E0F0G0H0I
#05616:000D
#05701:00
#05701:00
#05701:00
#05701:00
#05701:00
#05701:00
#05701:00
#05701:00
#05701:00
#05701:00
#05701:00
#05701:00
#05701:00
#05701:00
#05701:00
#05701:00
#05701:00
#05701:00
#05701:00
#05701:00
#05701:00
#05701:00
#05701:00
#05701:00
#05701:008D
#05701:8C8C8C8C
#05701:00
#05701:00
#05701:00
#05701:00
#05701:00
#05701:8H
#05706:030405060708090A0B0C0D0E0F0G0H0I030405060708090A0B0C0D0E0F0G0H0I
#05716:0000000000000000000B000000000000
#05806:030405060708090A0B0C0D0E0F0G0H0I030405060708090A0B0C0D0E0F0G0H0I
#05811:04000004040000040004000404000000
#05812:0009000900090009
#05813:000L000L
#05814:89
#05815:85898989
#05816:0C
#05818:00858585
#05819:0E0E0E0E0E0E0E0E
#05906:030405060708090A0B0C0D0E0F0G0H0I030405060708090A0B0C0D0E0F0G0H0I
#05911:04000004040000040004000404000000
#05912:000009000L000900000009000L00000F
#05913:8A8A8A8A
#05914:86000000000000008600000000000000860000000000000086000000000G0000
#05918:000000000000000F
#05919:0E0E0E0E0E0E0E0E
#06001:00
#06001:00
#06001:00
#06001:00
#06001:000A000A000A000A000A000A000A000A
#06001:00090909
#06006:030405060708090A0B0C0D0E0F0G0H0I030405060708090A0B0C0D0E0F0G0H0I
#06011:04000004040000040004000404060400
#06012:0009000900090009
#06013:000L000L
#06014:8B00000000000000000000000000000000000000000000000000000500000000
#06015:878B8B8B
#06016:0H
#06018:00878787
#06019:090E0E0E0E0E0E0E
#06101:000G000G000G000G000G000G000G000G000G000G000G000G000G000G000G000G
#06101:000F0F0F0F0F0F0F0F0F0F0F0F0F0F0F
#06101:00
#06101:0F
#06106:030405060708090A0B0C0D0E0F0G0H0I030405060708090A0B0C0D0E0F0G0H0I
#06111:04000004040000040004000404000000
#06112:000L000L
#06115:8C8C8C8C
#06118:88888888
#06119:0E0E0E0E0E0E0E0E
#06201:00
#06201:00
#06201:00
#06201:00
#06201:00
#06201:00
#06201:00
#06201:00
#06201:00
#06201:00
#06201:7B7C7B7V7C7B7V7C7B7C7B7V7C7B7V7C
#06201:00
#06201:00
#06201:00
#06201:00
#06201:00
#06201:00
#06201:00
#06201:00
#06201:00
#06201:00
#06201:00
#06201:00
#06201:00
#06201:00
#06201:00
#06201:00
#06201:00
#06201:00
#06201:00
#06201:00
#06201:29
#06203:B8
#06206:030405060708090A0B0C0D0E0F0G0H0I030405060708090A0B0C0D0E0F0G0H0I
#06211:08000000000000000000000000000042
#06212:0000000000004040
#06213:00000000000000000000003Z003Z0000
#06214:0040000041410000
#06215:003Z003Z000051520000000000000000
#06216:0C
#06218:3Y00000000004Z50003Y000000000000
#06301:00
#06301:00
#06301:00
#06301:00
#06301:00
#06301:00
#06301:00
#06301:00
#06301:00
#06301:00
#06301:7F7G7F7X7G7F7X7G7F7G7F7X7G7F7X7G
#06306:030405060708090A0B0C0D0E0F0G0H0I030405060708090A0B0C0D0E0F0G0H0I
#06312:4300000000000000550056000055000000000000000000000000480000000000
#06313:0000400000000000530054000053000000000000000000004600000046000000
#06314:00003Z00000000000040000000470000
#06315:0000000000004545
#06318:0000003Y000000003Z003Z0000000000
#06401:00
#06401:00
#06401:00
#06401:00
#06401:00
#06401:00
#06401:00
#06401:00
#06401:00
#06401:00
#06401:7H7I7H7Y7I7H7Y7I7H7I7H7Y7I7H7Y7I
#06406:030405060708090A0B0C0D0E0F0G0H0I030405060708090A0B0C0D0E0F0G0H0I
#06411:4C00004F00000057
#06412:00004E000000004G4G00000000000000
#06413:000000000000000000004E000000000000000000000000000000000000580000
#06414:004D00004D0000000000480000480000
#06415:00000048000000000046000000000059
#06418:00000046
#06419:000000000000000000000000000000000000000000004700000000000000005A
#06501:00
#06501:00
#06501:00
#06501:00
#06501:00
#06501:00
#06501:00
#06501:00
#06501:00
#06501:00
#06501:7N7O7N817O7N817O7P7Q7P827Q7P827Q
#06501:00
#06501:00
#06501:00
#06501:00
#06501:00
#06501:00
#06501:00
#06501:00
#06501:00
#06501:00
#06501:00
#06501:00
#06501:00
#06501:00
#06501:00
#06501:0046004I004H0049
#06501:004E0000004D00000048000000460000
#06501:00
#06501:00
#06501:37
#06506:030405060708090A0B0C0D0E0F0G0H0I030405060708090A0B0C0D0E0F0G0H0I
#06511:4H
#06512:4200450000480000
#06513:0000004D42004300
#06514:3Z000000430000004000000000000046
#06515:00004E00004I0000004H00003Z004A00
#06518:000000004J0000004K00000000420042
#06519:0046000000000000000000004L000000
#06601:00
#06601:00
#06601:00
#06601:00
#06601:00
#06601:00
#06601:00
#06601:00
#06601:00
#06601:00
#06601:7B7C7B7V7C7B7V7C7B7C7B7V7C7B7V7C
#06606:030405060708090A0B0C0D0E0F0G0H0I030405060708090A0B0C0D0E0F0G0H0I
#06611:00000000450000000000000000470000
#06612:00004600004200000000000000004500
#06613:00000000000043000040000000000042
#06614:00470000000000400000000040000000
#06615:00000047000000000000003Z00000000
#06618:003Z
#06619:4500000000410000
#06701:00
#06701:00
#06701:00
#06701:00
#06701:00
#06701:00
#06701:00
#06701:00
#06701:00
#06701:00
#06701:7L7M7L807M7L807M7L7M7L807M7L807M
#06706:030405060708090A0B0C0D0E0F0G0H0I030405060708090A0B0C0D0E0F0G0H0I
#06711:003Z4N00
#06712:004200000000000000004P0000000000
#06713:0000000000410000004O00004R000000
#06714:43004300000000000000004Q00004T00
#06715:0000000000003Y0000000000004S0000
#06718:0000004000000000000000000000004U
#06719:000000000000004L0000000000000000
#06801:00
#06801:00
#06801:00
#06801:00
#06801:00
#06801:00
#06801:00
#06801:00
#06801:00
#06801:00
#06801:7D7E7D7W7E7D7W7E7D7E7D7W7E7D7W7E
#06806:030405060708090A0B0C0D0E0F0G0H0I030405060708090A0B0C0D0E0F0G0H0I
#06811:00000000000000000041000000000000
#06812:43000000000000000000000000000041
#06813:003Z004B003Z4B0000003Y0000000000
#06814:000000003Y00003Y
#06815:00000000000000000000004L00000000
#06818:003X003Y003X3Y0000000000004L0000
#06819:0000004N
#06901:00
#06901:00
#06901:00
#06901:00
#06901:00
#06901:00
#06901:00
#06901:00
#06901:00
#06901:00
#06901:7R7S7R837S7R837S7T7U7T847U7T847U
#06906:030405060708090A0B0C0D0E0F0G0H0I030405060708090A0B0C0D0E0F0G0H0I
#06911:003Y
#06912:00000000004N0000
#06913:000000003Y000000004L00004P000000
#06914:3Y000000004L00000000004O00000000
#06915:0000004L0000000000000000004Q0000
#06916:00000000000B0000
#06918:004L00000000004L000000000000004S
#06919:004N004N0000004T
#07001:00
#07001:00
#07001:00
#07001:000K000K
#07001:00
#07001:00
#07001:0001000100010001
#07001:00
#07001:00
#07001:00
#07001:7B7C7B7V7C7B7V7C7B7C7B7V7C7B7V7C
#07001:00
#07001:00
#07001:00
#07001:00
#07001:00
#07001:1R001T001R001R1S001R1S001R001T00
#07001:00
#07001:2A2B2C2D2E2B2F2B
#07001:8F8K8F008F8K8F008F8K8F008F8K0000
#07001:000000000000008E
#07001:00
#07001:00
#07001:00
#07001:00
#07001:00
#07001:00
#07001:00
#07001:00
#07001:00
#07001:00
#07001:0R
#07006:030405060708090A0B0C0D0E0F0G0H0I030405060708090A0B0C0D0E0F0G0H0I
#07011:04040404
#07012:00030000000300004500430000030000
#07013:4500000300004000004200003Z000003
#07014:000040000200003Z0000004000000200
#07015:003Z0000003Z00030003000300410000
#07016:0C
#07018:0000003Z000000000000020000003Y00
#07019:0200020041000200020000000200004L
#07101:00
#07101:00
#07101:00
#07101:000K000K
#07101:00
#07101:00
#07101:0001000100010001
#07101:00
#07101:00
#07101:00
#07101:7F7G7F7X7G7F7X7G7F7G7F7X7G7F7X7G
#07101:00
#07101:00
#07101:00
#07101:00
#07101:00
#07101:1O001Q001O001O1P001O1P001O001Q00
#07101:00
#07101:2A2B2C2D2E2B2F2B
#07101:8F008K008F0000008F008K008G8L8G8L8F0000008K0000008F008K0000000000
#07101:000000000000008E
#07106:030405060708090A0B0C0D0E0F0G0H0I030405060708090A0B0C0D0E0F0G0H0I
#07111:04040404
#07112:02000200020002004V00020002000003
#07113:0000004000000042004G000047000040
#07114:003Z0040024E0002
#07115:00410003004100030000000300450000
#07118:3Y0000003Y0000000000004800004200
#07119:00030000000300000003000000030000
#07201:00
#07201:00
#07201:00
#07201:000K000K
#07201:00
#07201:00
#07201:0001000100010001
#07201:00
#07201:00
#07201:00
#07201:7H7I7H7Y7I7H7Y7I7H7I7H7Y7I7H7Y7I
#07201:00
#07201:00
#07201:00
#07201:00
#07201:00
#07201:1L001N001L001L1M001L1M001L001N00
#07201:00
#07201:2A2B2C2D2E2B2F2B
#07201:8F8K8F008F8K8F008F8K8F008F8K0000
#07201:000000000000008E
#07206:030405060708090A0B0C0D0E0F0G0H0I030405060708090A0B0C0D0E0F0G0H0I
#07211:0400040004020400
#07212:000000030003004200003Y00005B0000
#07213:00030000002K00000200004L00000200
#07214:00000000020000003Z0000000200000000000000000000000200005C00000000
#07215:020000000200003Z000000004P000000
#07218:5G005H00005G000000002Q00000003000000000000000300000000005D000000
#07219:5E005F00005E00003Y0000000000000000000300000000000000030000000300
#07301:00
#07301:00
#07301:00000000000000000003000000000000
#07301:000K000K
#07301:00
#07301:00
#07301:0001000100010001
#07301:00
#07301:00
#07301:00
#07301:7N7O7N817O7N817O7P7Q7P827Q7P827Q
#07301:00
#07301:00
#07301:00
#07301:00
#07301:00
#07301:1U001W001U001U1V001O1P001O001Q00
#07301:00
#07301:2A2B2C2D2E2B2F2B
#07301:8F008K008F0000008F008K008G8L8G8L8F0000008K0000008F008K0000000000
#07301:000000000000008E
#07301:00
#07301:00
#07301:00
#07301:00
#07301:00
#07301:0046004I004H0000
#07301:004E0000004D00000048000000000000
#07306:030405060708090A0B0C0D0E0F0G0H0I030405060708090A0B0C0D0E0F0G0H0I
#07311:04040404
#07312:42000200450000030000480000030049
#07313:0200024D4202003W
#07314:3Z00430240000202
#07315:4H004E00004I0000004H0000004K0000
#07318:000300004J0000004K0000004L000003
#07319:00460003000300000200000300000000
#07401:00
#07401:00
#07401:00
#07401:000K000K
#07401:00
#07401:00
#07401:0001000100010001
#07401:00
#07401:00
#07401:00
#07401:7B7C7B7V7C7B7V7C7B7C7B7V7C7B7V7C
#07401:00
#07401:00
#07401:00
#07401:00
#07401:00
#07401:1R001T001R001R1S001R1S001R001T00
#07401:00
#07401:2A2B2C2D2E2B2F2B
#07401:8F8K8F008F8K8F008F8K8F008F8K0000
#07401:000000000000008E
#07406:030405060708090A0B0C0D0E0F0G0H0I030405060708090A0B0C0D0E0F0G0H0I
#07411:04040404
#07412:00004600000300030000000300470000
#07413:00470047004200000003000040004500
#07414:45000000450043000040000000000042
#07415:00030003000002000200003Z00030003
#07418:00000200000000400000410002000000
#07419:020002003Z020002
#07501:00
#07501:00
#07501:00
#07501:000K000K
#07501:00
#07501:00
#07501:0001000100010001
#07501:00
#07501:00
#07501:00
#07501:7L7M7L807M7L807M7L7M7L807M7L807M
#07501:00
#07501:00
#07501:00
#07501:00
#07501:00
#07501:1X001Z001X001X1Y001X1Y001X001Z00
#07501:00
#07501:2A2B2C2D2E2B2F2B
#07501:8F008K008F0000008F008K008G8L8G8L8F0000008K0000008F008K0000000000
#07501:000000000000008E
#07506:030405060708090A0B0C0D0E0F0G0H0I030405060708090A0B0C0D0E0F0G0H0I
#07511:04040404
#07512:0042000300410003000000004R000200
#07513:0000430000003Y0000030003004S0000
#07514:000300000003004L004O000000030003
#07515:00000040000000004N00020000004T00
#07518:43020200024P0200
#07519:020000003Z0002000000004Q0000004U
#07601:00
#07601:00
#07601:00
#07601:000K000K
#07601:00
#07601:00
#07601:0001000100010001
#07601:00000000000000000203020302030203
#07601:00
#07601:00
#07601:7D7E7D7W7E7D7W7E7D7E7D7W7E7D7W7E
#07601:00
#07601:00
#07601:00
#07601:00
#07601:00
#07601:20002200200020002120002120002200
#07601:00
#07601:2A2B2C2D2E2B2F2B
#07601:8F8K8F008F8K8F008F8K8F008F8K0000
#07601:000000000000008E
#07606:030405060708090A0B0C0D0E0F0G0H0I030405060708090A0B0C0D0E0F0G0H0I
#07611:04040404
#07612:4502000243003Y00
#07613:020000000200000300400000004L0000
#07614:00030003000300004B003Z004N004N00
#07615:430000000000000000410041004O004O
#07618:003Z004B003X4B0000003Y0000004P00
#07619:003X003Y003Z3Y000000004L0000004Q
#07701:00
#07701:00
#07701:00
#07701:000K000K
#07701:00
#07701:00
#07701:0001000100010001
#07701:00
#07701:00
#07701:00
#07701:7R7S7R837S7R837S7T7U7T847U7T847U
#07701:00
#07701:00
#07701:00
#07701:00
#07701:00
#07701:23002500230023240026270026002800
#07701:00
#07701:2A2B2C2D2E2B2F2B
#07701:8F008K008F0000008F008K008G8L8G8L8F0000008K0000008F008K0000000000
#07701:000000000000008E
#07706:030405060708090A0B0C0D0E0F0G0H0I030405060708090A0B0C0D0E0F0G0H0I
#07711:0400040004000407
#07712:00004X00004X00004X00000002000000
#07713:0202020202024S4X
#07714:004P00004P00004P00004P0000000200
#07715:0000000300000003000000030000004K
#07716:0I000M0J00000H00
#07718:4R00004R00004R00004R004X004Y0003
#07719:00030000000300000003000000030000
#07801:040004000400048E
#07801:0001000100010K01
#07801:000K0000
#07801:00
#07801:00
#07801:00
#07801:00
#07801:02030203020302030203020302030203
#07801:00
#07801:00
#07801:7B7C7B7V7C7B7V7C7B7C7B7V7C7B7V7C
#07801:00
#07801:00
#07801:00
#07801:00
#07801:00
#07801:1R001T001R001R1S001R1S001R001T00
#07801:00
#07801:00
#07801:8F8K8F008F8K8F008F8K8F008F8K0000
#07801:00
#07801:00
#07801:453Z403Z413Z403Z454243403Z413Y4L
#07806:030405060708090A0B0C0D0E0F0G0H0I030405060708090A0B0C0D0E0F0G0H0I
#07813:2A00002F
#07814:002B0000002B002B
#07815:002E
#07816:0C
#07818:0000002D00000000
#07819:002C0000
#07901:0000040004010K01
#07901:04010K010000048E
#07901:00
#07901:00
#07901:00
#07901:00
#07901:00
#07901:02030203020302030203020302030203
#07901:00
#07901:00
#07901:7F7G7F7X7G7F7X7G7F7G7F7X7G7F7X7G
#07901:00
#07901:00
#07901:00
#07901:00
#07901:00
#07901:1O001Q001O001O1P001O1P001O001Q00
#07901:00
#07901:00
#07901:8F008K008F0000008F008K008G8L8G8L8F0000008K0000008F008K0000000000
#07901:00
#07901:00
#07901:3Y413Z403Y4140424V4G4E4847454240
#07906:030405060708090A0B0C0D0E0F0G0H0I030405060708090A0B0C0D0E0F0G0H0I
#07913:0000002F
#07914:00000000002B002B
#07915:2A2E
#07918:002B002D00000000
#07919:002C0000
#08001:040004000400048E
#08001:00010K0100010K01
#08001:00
#08001:00
#08001:00
#08001:00
#08001:00
#08001:02030203020302030203020302030203
#08001:00
#08001:00
#08001:7H7I7H7Y7I7H7Y7I7H7I7H7Y7I7H7Y7I
#08001:00
#08001:00
#08001:00
#08001:00
#08001:00
#08001:1L001N001L001L1M001L1M001L001N00
#08001:00
#08001:00
#08001:8F8K8F008F8K8F008F8K8F008F8K0000
#08001:00
#08001:00
#08001:000000000000000000003Y4L4P000000
#08001:5E005F00005E00003Y002Q0000003Z00000000000000000000005B5C5D000000
#08001:5G005H00005G00003Z002K000000420000000000000000000000000000000000
#08006:030405060708090A0B0C0D0E0F0G0H0I030405060708090A0B0C0D0E0F0G0H0I
#08011:0000002F
#08012:00000000002B002B
#08013:2A2E
#08014:002B002D00000000
#08015:002C0000
#08101:00
#08101:00
#08101:00
#08101:00
#08101:00
#08101:00
#08101:00
#08101:00
#08101:00
#08101:00
#08101:7N7O7N817O7N817O7P7Q7P827Q7P827Q
#08101:00
#08101:00
#08101:00
#08101:00
#08101:00
#08101:1U001W001U001U1V001O1P001O001Q00
#08101:00
#08101:2A2B2C2D2E2B2F2B
#08101:8F008K008F0000008F008K008G8L8G8L8F0000008K0000008F008K0000000000
#08101:000000000000008E
#08101:00
#08101:00
#08101:4E48464542403Z3X4P4O4L3X4L3Y3Z40
#08106:030405060708090A0B0C0D0E0F0G0H0I030405060708090A0B0C0D0E0F0G0H0I
#08111:4C040404
#08112:004G000046000000000002000K000003
#08113:02004E00004500000003004000000200
#08114:00030003000042000200000300030045
#08115:000002480003000300003Z0002004200
#08118:000000000K000240003X000000440000
#08119:040102014L013W01
#08201:00
#08201:00
#08201:00
#08201:00
#08201:00
#08201:00
#08201:00
#08201:00000200020000030003000002000200
#08201:00
#08201:00
#08201:7B7C7B7V7C7B7V7C7B7C7B7V7C7B7V7C
#08201:00
#08201:00
#08201:00
#08201:00
#08201:00
#08201:00
#08201:00
#08201:00
#08201:8F8K8F008F8K8F008F8K8F008F8K0000
#08201:000000000000008E
#08201:00
#08201:3Z403Z413Y413Y4L4N4L4N4O4P4Q4S4Q
#08206:030405060708090A0B0C0D0E0F0G0H0I030405060708090A0B0C0D0E0F0G0H0I
#08211:1R00040004020400
#08212:00001T000003001S00001S0000001T00
#08213:2A00000300002D00020000001R000003
#08214:000300001R001R00001R000300000000
#08215:002B2C00002B2F2B
#08218:04000K022E000K01
#08219:02000100000001000000010000030000
#08301:00
#08301:00
#08301:00
#08301:00
#08301:00
#08301:00
#08301:00
#08301:0202020202020202
#08301:00
#08301:00
#08301:7L7M7L807M7L807M7L7M7L807M7L807M
#08301:00
#08301:00
#08301:00
#08301:00
#08301:00
#08301:00
#08301:00
#08301:00
#08301:8F008K008F0000008F008K008G8L8G8L8F0000008K0000008F008K0000000000
#08301:000000000000008E
#08301:00
#08301:4R4Q4P4O4Q4P4O3Y2R004P4W4P4Q4P4O
#08306:030405060708090A0B0C0D0E0F0G0H0I030405060708090A0B0C0D0E0F0G0H0I
#08311:04040404
#08312:1X0000001X001X00001X00001X000000
#08313:00001Z000003001Y00001Y0000001Z00
#08314:2A00000300002D00000300002F000003
#08315:00002B002C00000300002B0000002B00
#08318:000300000K0000002E00000300030000
#08319:0001000100010K01
#08401:00
#08401:00
#08401:00000000000000000003000000000000
#08401:00
#08401:00
#08401:00
#08401:00
#08401:02000200020002000200020302000200
#08401:00
#08401:00
#08401:7D7E7D7W7E7D7W7E7D7E7D7W7E7D7W7E
#08401:00
#08401:00
#08401:00
#08401:00
#08401:00
#08401:00
#08401:00
#08401:2A2B2C2D2E2B2F2B
#08401:8F8K8F008F8K8F008F8K8F008F8K0000
#08401:000000000000008E
#08401:00
#08401:00
#08401:43000000000000004B413Y4L4N4O4P4Q
#08401:450000000000000043403Z413Y4L4N4O
#08401:003X003Y003X3Y000000000000000000
#08401:003Z004B003Z4B000000000000000000
#08406:030405060708090A0B0C0D0E0F0G0H0I030405060708090A0B0C0D0E0F0G0H0I
#08411:04040404
#08412:00002200000300210000210000002200
#08413:2001000100010001
#08414:00030000200020000020000020000003
#08415:000G000G000G000G000G000G000G000G
#08418:00000003000000030000000000030000
#08419:0F0F0F0F0F0F0F0F
#08501:00
#08501:000000000000000000000000008M0000
#08501:00
#08501:00
#08501:00
#08501:00
#08501:00
#08501:02030203020302030203020302030203
#08501:00
#08501:00
#08501:7R7S7R837S7R837S7T7U7T847U7T847U
#08501:00
#08501:00
#08501:00
#08501:00
#08501:00
#08501:00
#08501:00
#08501:2A2B2C2D2E2B2F2B
#08501:8F008K008F0000008F008K008G8L8G8L8F0000008K0000008F008K0000000000
#08501:000000000000008E
#08501:00
#08501:4R4P4X4R4P4X4R4P4X4R4P4X4S4Y4X4K
#08506:030405060708090A0B0C0D0E0F0G0H0I030405060708090A0B0C0D0E0F0G0H0I
#08511:0700070007010700
#08512:23000100230023000000000F0000000F
#08513:00002500000000240026000026000000
#08514:0000000F0000000F0000270000002800
#08515:000G000G000G000G
#08516:0I000I0J00000H00
#08518:000F0000000F0000000F0000000F0000
#08519:0G000G010G000G01
#08601:00
#08601:00
#08601:00
#08601:00
#08601:00
#08601:00
#08601:00
#08601:00
#08601:00
#08601:00
#08601:7B7C000000007B7C0000000000000000
#08606:030405060708090A0B0C0D0E0F0G0H0I030405060708090A0B0C0D0E0F0G0H0I
#08611:0400000400000400
#08612:0Y00000Y00000Y00
#08613:1500451500001500
#08614:4G000000000040000000004000000000
#08615:004800000043000000003Z003Z3W003Z
#08616:0I00000I00000J00
#08618:000046000000003Z00410000454M0045
#08619:00000047000000003Y0000007B7C0000
#08701:00
#08701:00
#08701:00
#08701:00
#08701:00
#08701:00
#08701:00
#08701:00
#08701:00
#08701:00
#08701:7B7C000000007B7C0000000000000000
#08706:030405060708090A0B0C0D0E0F0G0H0I030405060708090A0B0C0D0E0F0G0H0I
#08711:0400000400000400
#08712:0Y00450Y00000Y00
#08713:1500001500001500
#08714:4G00000000430000000000007B7C0000
#08715:00480000000040000041004000000000
#08716:0I00000I00000J00
#08718:000046000000003Z00003Z003Z3W0045
#08719:0D000047000000003Y000000454M003Z
#08801:00
#08801:00
#08801:00
#08801:00
#08801:00
#08801:00
#08801:00
#08801:00
#08801:00
#08801:00
#08801:7B7C000000007B7C0000000000000000
#08801:00
#08801:00
#08801:00
#08801:00
#08801:00
#08801:00
#08801:00
#08801:00
#08801:00
#08801:00
#08801:00
#08801:0000000000000000000000003Z4B003Z
#08806:030405060708090A0B0C0D0E0F0G0H0I030405060708090A0B0C0D0E0F0G0H0I
#08811:04000000000004000000004707000000
#08812:0Y00004100000Y00000000000Y000000
#08813:153Y001500451500
#08814:004L00000000004000400000454M0045
#08815:4N00003Z3Z000000
#08816:0I00000000000I00005I00000J000000
#08818:0000000000410000000000003Y3X003Y
#08819:8N0000003Y000000000000007B7C0000
#08906:030405060708090A0B0C0D0E0F0G0H0I030405060708090A0B0C0D0E0F0G0H0I
#08911:08
#08913:2H
#08915:2L
#08916:0C
#08919:2O
