*---------------------- HEADER FIELD
#PLAYER 1
#GENRE RENAISSANCE
#TITLE Joker[Fxck]
#ARTIST D.J.Nero
#BPM 184
#PLAYLEVEL 11
#RANK 3
#TOTAL 666
#STAGEFILE title.jpg
#WAV01 opHH.wav
#WAV02 close.wav
#WAV03 close.wav
#WAV04 kickA.wav
#WAV05 kickB.wav
#WAV06 kickB.wav
#WAV07 kick32.wav
#WAV08 FXkick.wav
#WAV09 snare.wav
#WAV0A snare.wav
#WAV0B reverse.wav
#WAV0C SE1.wav
#WAV0D bell.wav
#WAV0E ride.wav
#WAV0F snare-Fill.wav
#WAV0G snare-Fill.wav
#WAV0H clashA.wav
#WAV0I clashB.wav
#WAV0J clashC.wav
#WAV0K clap.wav
#WAV0L clap-deep.wav
#WAV0M clashB.wav
#WAV0N bgm1.wav
#WAV0O bgm1.wav
#WAV0P bgm2.wav
#WAV0Q bgm2.wav
#WAV0R bgm3.wav
#WAV0S str01.wav
#WAV0T str01.wav
#WAV0U str02.wav
#WAV0V str03.wav
#WAV0W str03.wav
#WAV0X str04.wav
#WAV0Y str05.wav
#WAV0Z str-01.wav
#WAV10 str-01.wav
#WAV11 str-02.wav
#WAV12 str-03.wav
#WAV13 str-03.wav
#WAV14 str-04.wav
#WAV15 str-05.wav
#WAV16 harp1.wav
#WAV17 harp2.wav
#WAV18 harp3.wav
#WAV19 harp4.wav
#WAV1A harp5.wav
#WAV1B harp6.wav
#WAV1C harp16-01.wav
#WAV1D harp16-02.wav
#WAV1E harp16-03.wav
#WAV1F harp16-04.wav
#WAV1G harp16-05.wav
#WAV1H harp16-06.wav
#WAV1I core1.wav
#WAV1J core1.wav
#WAV1K core1b.wav
#WAV1L core2.wav
#WAV1M core2.wav
#WAV1N core2b.wav
#WAV1O core3.wav
#WAV1P core3.wav
#WAV1Q core3b.wav
#WAV1R core4.wav
#WAV1S core4.wav
#WAV1T core4b.wav
#WAV1U core5.wav
#WAV1V core5.wav
#WAV1W core5b.wav
#WAV1X core6.wav
#WAV1Y core6.wav
#WAV1Z core6b.wav
#WAV20 core7.wav
#WAV21 core7.wav
#WAV22 core7b.wav
#WAV23 core8.wav
#WAV24 core8.wav
#WAV25 core8b.wav
#WAV26 core9.wav
#WAV27 core9.wav
#WAV28 core9b.wav
#WAV29 arp-bgm.wav
#WAV2A arp1.wav
#WAV2B arp2.wav
#WAV2C arp3.wav
#WAV2D arp4.wav
#WAV2E arp5.wav
#WAV2F arp6.wav
#WAV2G p-8-1.wav
#WAV2H p-8-2.wav
#WAV2I p-8-3.wav
#WAV2J p-8-4.wav
#WAV2K p-8-5.wav
#WAV2L p-8-6.wav
#WAV2M p-8-7.wav
#WAV2N p-8-8.wav
#WAV2O p-8-9.wav
#WAV2P p-8-10.wav
#WAV2Q p-8-11.wav
#WAV2R p-8-12.wav
#WAV2S p-8-13.wav
#WAV2T pA-1.wav
#WAV2U pA-2.wav
#WAV2V pA-2b.wav
#WAV2W pA-3.wav
#WAV2X pA-4.wav
#WAV2Y pA-4b.wav
#WAV2Z pA-5.wav
#WAV30 pA-6.wav
#WAV31 pA-7.wav
#WAV32 pA-8.wav
#WAV33 pA-9.wav
#WAV34 pA-10.wav
#WAV35 pA-11.wav
#WAV36 pA-12.wav
#WAV37 SE3.wav
#WAV38 pA-12b.wav
#WAV39 pA-13.wav
#WAV3A pA-13b.wav
#WAV3B pA-14.wav
#WAV3C pA-14b.wav
#WAV3D pA-15.wav
#WAV3E pA-15b.wav
#WAV3F p-16-1.wav
#WAV3G p-16-2.wav
#WAV3H p-16-3.wav
#WAV3I p-16-4.wav
#WAV3J p-16-5.wav
#WAV3K p-16-6.wav
#WAV3L p-16-7.wav
#WAV3M p-16-8.wav
#WAV3N p-16-9.wav
#WAV3O p-16-10.wav
#WAV3P p-16-11.wav
#WAV3Q p-16-12.wav
#WAV3R p-16-13.wav
#WAV3S p-16-14.wav
#WAV3T p-16-15.wav
#WAV3U p-16-16.wav
#WAV3V p-16-17.wav
#WAV3W ps-16-2.wav
#WAV3X ps-16-1.wav
#WAV3Y ps-16-1.wav
#WAV3Z ps-16-2.wav
#WAV40 ps-16-3.wav
#WAV41 ps-16-4.wav
#WAV42 ps-16-5.wav
#WAV43 ps-16-6.wav
#WAV44 ps-16-3.wav
#WAV45 ps-16-7.wav
#WAV46 ps-16-8.wav
#WAV47 ps-16-9.wav
#WAV48 ps-16-10.wav
#WAV49 ps-16-5.wav
#WAV4A ps-16-8.wav
#WAV4B ps-16-2.wav
#WAV4C ps-16-11.wav
#WAV4D ps-16-12.wav
#WAV4E ps-16-13.wav
#WAV4F ps-16-14.wav
#WAV4G ps-16-15.wav
#WAV4H ps-16-16.wav
#WAV4I ps-16-17.wav
#WAV4J ps-16-18.wav
#WAV4K ps-16-19.wav
#WAV4L ps-16-20.wav
#WAV4M ps-16-7.wav
#WAV4N ps-16-21.wav
#WAV4O ps-16-22.wav
#WAV4P ps-16-23.wav
#WAV4Q ps-16-24.wav
#WAV4R ps-16-25.wav
#WAV4S ps-16-26.wav
#WAV4T ps-16-27.wav
#WAV4U ps-16-28.wav
#WAV4V ps-16-29.wav
#WAV4W ps-16-30.wav
#WAV4X ps-16-23.wav
#WAV4Y ps-16-31.wav
#WAV4Z ps-32-1.wav
#WAV50 ps-32-1.wav
#WAV51 ps-32-1b.wav
#WAV52 ps-32-1b.wav
#WAV53 ps-32-2.wav
#WAV54 ps-32-2.wav
#WAV55 ps-32-2b.wav
#WAV56 ps-32-2b.wav
#WAV57 ps-32-3.wav
#WAV58 ps-32-4.wav
#WAV59 ps-32-5.wav
#WAV5A ps-32-6.wav
#WAV5B ps-32-7.wav
#WAV5C ps-32-8.wav
#WAV5D ps-32-9.wav
#WAV5E ps-32-10.wav
#WAV5F ps-32-10.wav
#WAV5G ps-32-10b.wav
#WAV5H ps-32-10b.wav
#WAV5I SE2.wav
#WAV5J chero 1.wav
#WAV5K chero 2.wav
#WAV5L chero 3.wav
#WAV5M chero 4.wav
#WAV5N chero 9.wav
#WAV5O chero 10.wav
#WAV5P chero 11.wav
#WAV5Q chero 12.wav
#WAV5R chero 13.wav
#WAV5S chero 14.wav
#WAV5T chero 15.wav
#WAV5U chero 16.wav
#WAV5V chero 17.wav
#WAV5W chero 18.wav
#WAV5X chero 19.wav
#WAV5Y chero 20.wav
#WAV5Z chero 21.wav
#WAV60 chero 22.wav
#WAV61 solo 1.wav
#WAV62 solo 2.wav
#WAV63 solo 3.wav
#WAV64 solo 4.wav
#WAV65 solo 5.wav
#WAV66 solo 6.wav
#WAV67 solo 7.wav
#WAV68 solo 8.wav
#WAV69 solo 9.wav
#WAV6A solo 10.wav
#WAV6B solo 11.wav
#WAV6C solo 12.wav
#WAV6D solo 13.wav
#WAV6E solo 14.wav
#WAV6F solo 15.wav
#WAV6G solo 16.wav
#WAV6H solo 17.wav
#WAV6I solo 18.wav
#WAV6J solo 19.wav
#WAV6K solo 20.wav
#WAV6L solo 21.wav
#WAV6M solo 22.wav
#WAV6N solo 23.wav
#WAV6O solo 24.wav
#WAV6P solo 25.wav
#WAV6Q solo 26.wav
#WAV6R solo 27.wav
#WAV6S solo 28.wav
#WAV6T solo 29.wav
#WAV6U solo 30.wav
#WAV6V solo 31.wav
#WAV6W solo 32.wav
#WAV6X solo 33.wav
#WAV6Y solo 34.wav
#WAV6Z solo 35.wav
#WAV70 solo 36.wav
#WAV71 solo 37.wav
#WAV72 solo 38.wav
#WAV73 solo 39.wav
#WAV74 solo 40.wav
#WAV75 solo 41.wav
#WAV76 solo 42.wav
#WAV77 solo 43.wav
#WAV78 solo 44.wav
#WAV79 solo 45.wav
#WAV7A solo 46.wav
#WAV7B bass1.wav
#WAV7C bass2.wav
#WAV7D bass3.wav
#WAV7E bass4.wav
#WAV7F bass5.wav
#WAV7G bass6.wav
#WAV7H bass7.wav
#WAV7I bass8.wav
#WAV7J bass9.wav
#WAV7K bass10.wav
#WAV7L bass11.wav
#WAV7M bass12.wav
#WAV7N bass13.wav
#WAV7O bass14.wav
#WAV7P bass15.wav
#WAV7Q bass16.wav
#WAV7R bass17.wav
#WAV7S bass18.wav
#WAV7T bass19.wav
#WAV7U bass20.wav
#WAV7V bass1.wav
#WAV7W bass3.wav
#WAV7X bass5.wav
#WAV7Y bass7.wav
#WAV7Z bass9.wav
#WAV80 bass11.wav
#WAV81 bass13.wav
#WAV82 bass15.wav
#WAV83 bass17.wav
#WAV84 bass19.wav
#WAV85 chero1.wav
#WAV86 chero2.wav
#WAV87 chero3.wav
#WAV88 chero4.wav
#WAV89 vio1.wav
#WAV8A vio2.wav
#WAV8B vio3.wav
#WAV8C vio4.wav
#WAV8D tim.wav
#WAV8E tanbarin.wav
#WAV8F suzu.wav
#WAV8G suzu32.wav
#WAV8H syuooo.wav
#WAV8I SE5.wav
#WAV8J horn.wav
#WAV8K suzu.wav
#WAV8L suzu32.wav
#WAV8M cym B.wav
#WAV8N cym C.wav
#WAV8O SE4.wav
#BMP01 joker.mpg
#BMP03 miss 01.bmp
#BMP04 miss 02.bmp
#BMP05 miss 03.bmp
#BMP06 miss 04.bmp
#BMP07 miss 05.bmp
#BMP08 miss 06.bmp
#BMP09 miss 07.bmp
#BMP0A miss 08.bmp
#BMP0B miss 09.bmp
#BMP0C miss 10.bmp
#BMP0D miss 11.bmp
#BMP0E miss 12.bmp
#BMP0F miss 13.bmp
#BMP0G miss 14.bmp
#BMP0H miss 15.bmp
#BMP0I miss 16.bmp
#DIFFICULTY 3
#BACKBMP logo.jpg
#LNOBJ 8P *---------------------- MAIN DATA FIELD
#00104:01
#00106:030405060708090A0B0C0D0E0F0G0H0I030405060708090A0B0C0D0E0F0G0H0I
#00116:000B000000000000
#00201:000K0000
#00201:007C0000
#00201:000000000000000000000000007B007C
#00201:007C007V00000000000000007C007V00
#00201:00000000000000000000007V00000000
#00201:00
#00201:00
#00201:00
#00201:0000000000000000007C000000000000
#00201:007B
#00201:00000000007B007C0000000000000000
#00206:030405060708090A0B0C0D0E0F0G0H0I030405060708090A0B0C0D0E0F0G0H0I
#00211:0400000400040000
#00212:007B000000000000
#00213:0S00007V000K0000
#00214:000T000000000000
#00215:0Z00000U007B0000
#00218:0010000000000000
#00219:7B00001100000000
#00301:00
#00301:007C0000
#00301:007C007V007B00000000000000000000
#00301:00
#00301:00
#00301:000000000000007C0000007V00000000
#00301:000K7B7C
#00301:0000000000000000007C0000007B0000
#00301:000000000000007V
#00301:0000000000000000000000000000007C
#00306:030405060708090A0B0C0D0E0F0G0H0I030405060708090A0B0C0D0E0F0G0H0I
#00311:0400000400000000
#00312:0V00007V00000000
#00313:000W000000040000
#00314:7B00000X00000000
#00315:007B0000007B0000
#00318:1200001400000000
#00319:00130000000K0000
#00401:007C7B7V7C7B7V7C7B7C7B007C000000
#00401:00000000000000000000007V007B7V00
#00401:0000000000000000000000000000007C
#00401:7B
#00406:030405060708090A0B0C0D0E0F0G0H0I030405060708090A0B0C0D0E0F0G0H0I
#00411:0400000400040000
#00412:0S00001100000000
#00413:0F0F0F0F0F0F0F0F
#00415:000G000G000G000G000G000G000G000G
#00416:0J00000I000I0000
#00418:000T000000000000
#00419:0Z10000U00000000
#00501:00
#00501:00
#00501:007C007V007B007C007C000000000000
#00501:7B00000000007V007B0000000000007C
#00501:007B000000000000
#00501:007C0000
#00506:030405060708090A0B0C0D0E0F0G0H0I030405060708090A0B0C0D0E0F0G0H0I
#00511:040W000400040000
#00512:0000000X007B007V
#00513:0F00000F00000F00000F00000F00000F000F000F000F000F
#00514:000000000000000000000000007B0000
#00515:0000000G00000000000G00000000000G00000000000G00000000000G000000000G0000000G0000000G0000000G000000
#00516:0J00000I000I0000
#00518:0V00007C
#00519:12001300000014000000007V00000700
#00601:00
#00601:00
#00601:00
#00601:00
#00601:00
#00601:00
#00601:00
#00601:00
#00601:00
#00601:00
#00601:00030003000300030003000300030003
#00601:00
#00601:00
#00601:7B7C7B7V7C7B7V7C7B7C7B7V7C7B7V7C
#00601:00
#00601:00
#00601:00
#00601:00
#00601:00
#00601:00
#00601:00
#00601:00
#00601:00
#00601:00
#00601:00
#00601:00
#00601:00
#00601:00
#00601:00
#00601:00
#00601:00
#00601:0N
#00606:030405060708090A0B0C0D0E0F0G0H0I030405060708090A0B0C0D0E0F0G0H0I
#00611:04040404
#00612:0001000100010001
#00613:0000000200000K00
#00614:2G000K000200022H
#00615:0002002H00020000
#00616:0C
#00618:022I2K2J
#00619:002H0200002I0002
#00701:00
#00701:00
#00701:00
#00701:00
#00701:00
#00701:00
#00701:00
#00701:00
#00701:00
#00701:00
#00701:00030003000300030003000300030003
#00701:00
#00701:00
#00701:7B7C7B7V7C7B7V7C7B7C7B7V7C7B7V7C
#00706:030405060708090A0B0C0D0E0F0G0H0I030405060708090A0B0C0D0E0F0G0H0I
#00711:04040404
#00712:0001000100010001
#00713:2G000K0002000K02
#00714:000200022L000200
#00715:0000022K002H002I
#00718:022J002K
#00719:002I000000020000
#00801:00
#00801:00
#00801:00
#00801:00
#00801:00
#00801:00
#00801:00
#00801:00
#00801:00
#00801:00
#00801:00030003000300030003000300030003
#00801:00
#00801:00
#00801:7D7E7D7W7E7D7W7E7D7E7D7W7E7D7W7E
#00806:030405060708090A0B0C0D0E0F0G0H0I030405060708090A0B0C0D0E0F0G0H0I
#00811:04040404
#00812:0001000100010001
#00813:00000K0000020K2M
#00814:2J02022L
#00815:002K0002002K0000
#00818:00022L002M000002
#00819:0200002H00000200
#00901:00
#00901:00
#00901:00
#00901:00
#00901:00
#00901:00
#00901:00
#00901:00
#00901:00
#00901:00
#00901:00030003000300030003000300030003
#00901:00
#00901:00
#00901:7D7E7D7W7E7D7W7E7D7E7D7W7E7D7W7E
#00906:030405060708090A0B0C0D0E0F0G0H0I030405060708090A0B0C0D0E0F0G0H0I
#00911:04040404
#00912:0001000100010001
#00913:00000K00002J0K00
#00914:2H002K2I
#00915:022L002I0002002N
#00918:00022K0002000200
#00919:0000020200000002
#01001:00
#01001:00
#01001:00
#01001:00
#01001:00
#01001:00
#01001:00
#01001:00
#01001:00
#01001:00
#01001:00030003000300030003000300030003
#01001:00
#01001:00
#01001:7F7G7F7X7G7F7X7G7F7G7F7X7G7F7X7G
#01006:030405060708090A0B0C0D0E0F0G0H0I030405060708090A0B0C0D0E0F0G0H0I
#01011:04040404
#01012:0001000100010001
#01013:00000K0000020K00
#01014:2G02022J
#01015:002H0002002I002H
#01018:022I2K02
#01019:0002002H00000002
#01101:00
#01101:00
#01101:00
#01101:00
#01101:00
#01101:00
#01101:00
#01101:00
#01101:00
#01101:00
#01101:00030003000300030003000300030003
#01101:00
#01101:00
#01101:7F7G7F7X7G7F7X7G7F7G7F7X7G7F7X7G
#01106:030405060708090A0B0C0D0E0F0G0H0I030405060708090A0B0C0D0E0F0G0H0I
#01111:04040404
#01112:0001000100010001
#01113:000K000K
#01114:2G2L
#01115:002I002K022H0002
#01118:02002J0200022K00
#01119:000202000000022I
#01201:00
#01201:00
#01201:00
#01201:00
#01201:00
#01201:00
#01201:00
#01201:00
#01201:00
#01201:00
#01201:00030003000300030003000300030003
#01201:00
#01201:00
#01201:7B7C7B7V7C7B7V7C7B7C7B7V7C7B7V7C
#01206:030405060708090A0B0C0D0E0F0G0H0I030405060708090A0B0C0D0E0F0G0H0I
#01211:04040404
#01212:0001000100010001
#01213:00020K2H00020K00
#01214:022L2M02
#01215:002K0000002K0002
#01218:2J00000200002L00
#01219:000002000200002M
#01301:00
#01301:00
#01301:00
#01301:00
#01301:00
#01301:00
#01301:00
#01301:00
#01301:00
#01301:00
#01301:00030003000300030003000300030003
#01301:00
#01301:00
#01301:7B7C7B7V7C7B7V7C7B7C7B7V7C7B7V7C
#01306:030405060708090A0B0C0D0E0F0G0H0I030405060708090A0B0C0D0E0F0G0H0I
#01311:04040404
#01312:0001000100010001
#01313:00000K2I00000K00
#01314:022K022I
#01315:002L0002002J002N
#01316:000000000000000000000000008M0000
#01318:2H022K02
#01319:0002000000020002
#01401:00
#01401:00
#01401:00
#01401:00
#01401:00
#01401:00
#01401:00
#01401:00
#01401:00
#01401:00
#01401:00030003000300030003000300030003
#01401:00
#01401:00
#01401:007C007V007B007C007C007V007B007C
#01406:030405060708090A0B0C0D0E0F0G0H0I030405060708090A0B0C0D0E0F0G0H0I
#01411:04040404
#01412:0001000102010001
#01413:7B000K00002I0K7V
#01414:027B2I0200007C2H
#01415:002H002H00022J00
#01418:2G0002007B7B0002
#01419:00027C7V2K000200
#01501:00
#01501:00
#01501:00
#01501:00
#01501:00
#01501:00
#01501:00
#01501:00
#01501:00
#01501:00
#01501:00030003000300030003000300030003
#01501:00
#01501:00
#01501:007C007V007B007C007C007V007B007C
#01506:030405060708090A0B0C0D0E0F0G0H0I030405060708090A0B0C0D0E0F0G0H0I
#01511:04040404
#01512:0001000102010001
#01513:7B000K022L000K02
#01514:00027C2K002H022I
#01515:2G2J7B2K
#01518:002I007V0002007V
#01519:027B0200007B7C00
#01601:00
#01601:00
#01601:00
#01601:00
#01601:00
#01601:00
#01601:00
#01601:00
#01601:00
#01601:00
#01601:00030003000300030003000300030003
#01601:00
#01601:00
#01601:007E007W007D007E007E007W007D007E
#01606:030405060708090A0B0C0D0E0F0G0H0I030405060708090A0B0C0D0E0F0G0H0I
#01611:04040404
#01612:0001000100010001
#01613:2J02002H022K0K00
#01614:00000K0200020202
#01615:022K02007D002L7W
#01618:007D2L7W007D002M
#01619:7D7E2M7E
#01701:00
#01701:00
#01701:00
#01701:00
#01701:00
#01701:00
#01701:00
#01701:00
#01701:00
#01701:00
#01701:00030003000300030003000300030003
#01701:00
#01701:00
#01701:007E007W007D007E007E007W007D007E
#01706:030405060708090A0B0C0D0E0F0G0H0I030405060708090A0B0C0D0E0F0G0H0I
#01711:04040404
#01712:0001000102010001
#01713:00020K022K020K02
#01714:0000022I002J0200
#01715:027D2K007D002I7W
#01718:7D2L007W007D002N
#01719:2H7E007E
#01801:00
#01801:00
#01801:00
#01801:00
#01801:00
#01801:00
#01801:00
#01801:00
#01801:00
#01801:00
#01801:00030003000300030003000300030003
#01801:00
#01801:00000000000000000000007X00000000
#01801:007G007X007F007G007G0000007F007G
#01806:030405060708090A0B0C0D0E0F0G0H0I030405060708090A0B0C0D0E0F0G0H0I
#01811:2G040404
#01812:00017G0100010001
#01813:0002020202000K2H
#01814:022H002H002I0202
#01815:04002I7X00022J00
#01818:007F00007F007G00
#01819:7F000K002K7F007X
#01901:00
#01901:00
#01901:00
#01901:00
#01901:00
#01901:00
#01901:00
#01901:00
#01901:00
#01901:00
#01901:00030003000300030003000300030003
#01901:00
#01901:00
#01901:007G007X007F007G007G007X007F007G
#01906:030405060708090A0B0C0D0E0F0G0H0I030405060708090A0B0C0D0E0F0G0H0I
#01911:2G040404
#01912:00020K0100010001
#01913:022I020002000K2I
#01914:007F002K00020202
#01915:04002J007F7F2K00
#01918:00010002002H007X
#01919:7F007G7X2L007G00
#02001:00
#02001:00
#02001:00
#02001:00
#02001:00
#02001:00
#02001:00
#02001:00
#02001:00
#02001:00
#02001:00030003000300030003000300030003
#02001:00
#02001:00
#02001:007C007V007B007C007C007V007B007C
#02006:030405060708090A0B0C0D0E0F0G0H0I030405060708090A0B0C0D0E0F0G0H0I
#02011:04040404
#02012:0201000100020002
#02013:2J020K2H027B0K7V
#02014:00000202002K0001
#02015:7B2K2L007B002L00
#02018:007B007V00017C2M
#02019:007C2M02
#02101:00
#02101:00
#02101:00
#02101:00
#02101:00
#02101:00
#02101:0000000K
#02101:00
#02101:00
#02101:0001000100010001
#02101:00020000
#02101:00
#02101:00
#02101:000000000000007V
#02106:030405060708090A0B0C0D0E0F0G0H0I030405060708090A0B0C0D0E0F0G0H0I
#02111:04000004000400000400040005000000
#02112:0003007V000000050003000000060000
#02113:02052K0202020207
#02114:007C000300030003007C000300030003
#02115:7B2L7C7V7B7B7C02
#02116:0I000M0J00000H00
#02118:00007B00007B007C0000007V007B007C
#02119:2H020K2I2K2J2I2N
#02201:008K0000008K000000008F0000000000
#02201:0000008F
#02201:0000000000000000008K000000000000
#02201:000000000000008E
#02201:00
#02201:00
#02201:00
#02201:00
#02201:00
#02201:00
#02201:02030203020302030203020302030203
#02201:00
#02201:00
#02201:7B7C7B7V7C7B7V7C7B7C7B7V7C7B7V7C
#02201:00
#02201:00
#02201:00
#02201:00
#02201:00
#02201:00
#02201:00
#02201:00
#02201:00
#02201:00
#02201:00
#02201:00
#02201:00
#02201:00
#02201:00
#02201:00
#02201:00
#02201:0O
#02206:030405060708090A0B0C0D0E0F0G0H0I030405060708090A0B0C0D0E0F0G0H0I
#02211:04040404
#02212:0001000100010000
#02213:16008F0000000K1K
#02214:00008F000000001J00001J0000000100
#02215:8F00000017001I00001I0000008K0000
#02216:0C
#02218:001K1I0017001I17
#02219:1I000K8F8F181900
#02301:00
#02301:0000008G00000000
#02301:00
#02301:00000000008K0000
#02301:0000008F
#02301:00
#02301:008F0000
#02301:00
#02301:00
#02301:00
#02301:02030203020302030203020302030203
#02301:00
#02301:00
#02301:7B7C7B7V7C7B7V7C7B7C7B7V7C7B7V7C
#02306:030405060708090A0B0C0D0E0F0G0H0I030405060708090A0B0C0D0E0F0G0H0I
#02311:04040404
#02312:0001000100010001
#02313:1I1K1I1I1A1J1600
#02314:8F000000008K001J001I0000008K0000
#02315:008K0000180017008F00000000008E00
#02318:180000008F00000000000000008L008L00000000000000001I0000001K000000
#02319:000019000K00008G000000000K000000
#02401:00
#02401:00
#02401:00
#02401:008F008F
#02401:00
#02401:0000000000180000
#02401:00
#02401:00
#02401:00
#02401:00
#02401:02030203020302030203020302030203
#02401:00
#02401:00
#02401:7D7E7D7W7E7D7W7E7D7E7D7W7E7D7W7E
#02406:030405060708090A0B0C0D0E0F0G0H0I030405060708090A0B0C0D0E0F0G0H0I
#02411:04040404
#02412:0001000100010001
#02413:008K00000K0000008F008F000K000000
#02414:8F008F0000008F00008K000000008E00
#02415:160000001700000017000000008K0000
#02418:00001N00008K001M00001M0019001700
#02419:1L0000001L001L00001L00001L001N00
#02501:00
#02501:8F8K8F008F8K0000000000008F000000
#02501:0000001L00000000
#02501:00
#02501:000000000000008E
#02501:00
#02501:00
#02501:00
#02501:00
#02501:00
#02501:02030203020302030203020302030203
#02501:00
#02501:00
#02501:7D7E7D7W7E7D7W7E7D7E7D7W7E7D7W7E
#02506:030405060708090A0B0C0D0E0F0G0H0I030405060708090A0B0C0D0E0F0G0H0I
#02511:04040404
#02512:0001000100010001
#02513:000000000K00008G00008K000K001A00
#02514:000000001900000000000000008L008L00000000000000001800000000000000
#02515:1B00188G8F17001N
#02518:00001N000000001M00001M00008K0000
#02519:1L0000001L0017001A1L00001L000000
#02601:00
#02601:000000008F000000008K8F008F8K0000
#02601:000000008F00008E
#02601:00
#02601:00
#02601:00
#02601:00
#02601:00
#02601:00
#02601:00
#02601:02030203020302030203020302030203
#02601:00
#02601:00
#02601:7F7G7F7X7G7F7X7G7F7G7F7X7G7F7X7G
#02606:030405060708090A0B0C0D0E0F0G0H0I030405060708090A0B0C0D0E0F0G0H0I
#02611:04040404
#02612:0001000100010001
#02613:160K000K
#02614:008F170000180017
#02615:008K000000008F001700000019000000
#02618:8F001Q00008K001P00001P0000001Q00
#02619:1O0000001O001O00001O00001O000000
#02701:00
#02701:00000000008K8F00
#02701:000000008F8K00000000000000000000
#02701:0000001O00000000
#02701:00
#02701:00
#02701:00
#02701:00
#02701:00
#02701:00
#02701:02030203020302030203020302030203
#02701:00
#02701:00
#02701:7F7G7F7X7G7F7X7G7F7G7F7X7G7F7X7G
#02706:030405060708090A0B0C0D0E0F0G0H0I030405060708090A0B0C0D0E0F0G0H0I
#02711:04040404
#02712:0001000100010001
#02713:180000000K00001P00001C000K000000
#02714:8F001900000017001C00001D008K0000
#02715:008K00001800008G000000001E008E00
#02718:1O0000008F00000000000000008L008L00001O0000000000000000001Q000000
#02719:001Q1O8G8F1P1O00
#02801:00
#02801:000000008F008F00008K8F008F000000
#02801:000000000000008E
#02801:00
#02801:00
#02801:00
#02801:00
#02801:00
#02801:00
#02801:00
#02801:02030203020302030203020302030203
#02801:00
#02801:00
#02801:7B7C7B7V7C7B7V7C7B7C7B7V7C7B7V7C
#02806:030405060708090A0B0C0D0E0F0G0H0I030405060708090A0B0C0D0E0F0G0H0I
#02811:04040404
#02812:0001000100010001
#02813:160K170K
#02814:008K0000170000000000180000001700
#02815:8F008F00008K00008F00000019000000
#02818:00001T0000001R00001R0000008K0000
#02819:1R0000001R00001S00001S001R001T00
#02901:00
#02901:008F8F00008K8F00
#02901:000000000000008E
#02901:0000001R00000000
#02901:00
#02901:00
#02901:00
#02901:00
#02901:00
#02901:00
#02901:02030203020302030203020302030203
#02901:00
#02901:00
#02901:7B7C7B7V7C7B7V7C7B7C7B7V7C7B7V7C
#02906:030405060708090A0B0C0D0E0F0G0H0I030405060708090A0B0C0D0E0F0G0H0I
#02911:04040404
#02912:0001000100010001
#02913:1G0000001G0000000K0000008G00008L00000000000000000K0000001A000000
#02914:8F00000000001H0000008K00008L00008F0000001700000000008K0000000000
#02915:008K00001E00008G0000000018000000
#02916:000000000000000000000000008M0000
#02918:001T001D1A1S001T
#02919:1R0000001R00001S001R00001R000000
#03001:00
#03001:00
#03001:8F008F008F8F8F00
#03001:000000000000008E
#03001:00
#03001:00
#03001:00
#03001:00
#03001:00
#03001:00
#03001:02030203020302030203020302030203
#03001:00
#03001:00
#03001:7B7C7B7V7C7B7V7C7B7C7B7V7C7B7V7C
#03006:030405060708090A0B0C0D0E0F0G0H0I030405060708090A0B0C0D0E0F0G0H0I
#03011:04040404
#03012:0001000100010001
#03013:160000000K008F00008K00000K000000
#03014:008K0000170000001700000019000000
#03015:00008F00008K000000001800008K0000
#03018:1I0000001I001I00001I00001I001700
#03019:00001K000000001J00001J0000001K00
#03101:00
#03101:8F8F8F8G00008F00
#03101:00
#03101:00
#03101:00
#03101:00
#03101:00
#03101:00
#03101:00
#03101:00
#03101:02030203020302030203020302030203
#03101:00
#03101:00
#03101:7B7C7B7V7C7B7V7C7B7C7B7V7C7B7V7C
#03106:030405060708090A0B0C0D0E0F0G0H0I030405060708090A0B0C0D0E0F0G0H0I
#03111:04040404
#03112:0001000100010001
#03113:008K00000K00008G000000000K000000
#03114:180000000000000000008K00008L008L00000000000000001600000000000000
#03115:0000190018001I008F008K00008K0000
#03118:1I0000000000001J001I00001I008E00
#03119:001K1I171A1J001K
#03201:00
#03201:00
#03201:8F0000008F008F00008K8F0000000000
#03201:000000000000008E
#03201:00
#03201:00
#03201:00
#03201:00
#03201:00
#03201:00
#03201:02030203020302030203020302030203
#03201:00
#03201:00
#03201:7D7E7D7W7E7D7W7E7D7E7D7W7E7D7W7E
#03206:030405060708090A0B0C0D0E0F0G0H0I030405060708090A0B0C0D0E0F0G0H0I
#03211:04040404
#03212:0001000100010001
#03213:160K8F0K
#03214:008F170017008F17
#03215:008K0000008K000000001800008K0000
#03218:1L0000001L001L00001L000019001N00
#03219:00001N000000001M00001M001L000000
#03301:00
#03301:8F8F8F00008K8F00
#03301:00
#03301:00
#03301:0000001L00000000
#03301:00
#03301:00
#03301:00
#03301:00
#03301:00
#03301:02030203020302030203020302030203
#03301:00
#03301:00
#03301:7D7E7D7W7E7D7W7E7D7E7D7W7E7D7W7E
#03306:030405060708090A0B0C0D0E0F0G0H0I030405060708090A0B0C0D0E0F0G0H0I
#03311:04040404
#03312:0000000001000000000000000100008L00000000010000000000000001000000
#03313:008K00000K00008G000000000K008E00
#03314:000000001900000000008K00008L00008F000000000000001800000000000000
#03315:1B00000018008G001A001700008K0000
#03318:1L0000001L001700001L00001L001A00
#03319:00001N000000001M00001M0000001N00
#03401:00
#03401:00
#03401:8F0000008F000000008K8F008F000000
#03401:00
#03401:00
#03401:00
#03401:00
#03401:00
#03401:00
#03401:00
#03401:02030203020302030203020302030203
#03401:00
#03401:00
#03401:7F7G7F7X7G7F7X7G7F7G7F7X7G7F7X7G
#03406:030405060708090A0B0C0D0E0F0G0H0I030405060708090A0B0C0D0E0F0G0H0I
#03411:04040404
#03412:0001000100010001
#03413:16000K0017000K8E
#03414:00008F0017008F0000001800008K0000
#03415:008K0000008K00008F00000019001700
#03418:1O0000001O001O00001O00001O000000
#03419:00001Q000000001P00001P0000001Q00
#03501:8F8K8F008F8K000000008K008F000000
#03501:000000000000008E
#03501:0000001O00000000
#03501:00
#03501:00
#03501:00
#03501:00
#03501:00
#03501:00
#03501:00
#03501:02030203020302030203020302030203
#03501:00
#03501:00
#03501:7F7G7F7X7G7F7X7G7F7G7F7X7G7F7X7G
#03506:030405060708090A0B0C0D0E0F0G0H0I030405060708090A0B0C0D0E0F0G0H0I
#03511:04040404
#03512:0001000100010001
#03513:000000000K00001P00001C000K000000
#03514:18000000180017001C00001D008K0000
#03515:0019008G8F001E00
#03518:1O000000000000001O000000008L008L00001O00000000001O0000001F000000
#03519:00001Q000000008G00001P0000001Q00
#03601:00
#03601:00
#03601:8F
#03601:00
#03601:00
#03601:00
#03601:00
#03601:00
#03601:00
#03601:00
#03601:02030203020302030203020302030203
#03601:00
#03601:00
#03601:7B7C7B7V7C7B7V7C7B7C7B7V7C7B7V7C
#03601:00
#03601:00
#03601:00
#03601:00
#03601:00008F008F8F8F00
#03601:000000000000008E
#03606:030405060708090A0B0C0D0E0F0G0H0I030405060708090A0B0C0D0E0F0G0H0I
#03611:04040404
#03612:0001000100010001
#03613:160000000K008F00008K00000K000000
#03614:008K0000170000001700000019000000
#03615:00008F00008K000000001800008K0000
#03618:1R0000001R001R00001R00001R001700
#03619:00001T000000001S00001S0000001T00
#03701:00
#03701:00
#03701:00
#03701:00
#03701:00
#03701:00
#03701:00
#03701:00
#03701:00
#03701:00
#03701:02030203020302030203020302030203
#03701:00
#03701:00
#03701:7B7C7B7V7C7B7V7C7B7C7B7V7C7B7V7C
#03701:00
#03701:00
#03701:000000000000001S0000000000000000
#03701:00
#03701:000000008F008G0000008K008F8K0000
#03701:000000000000008E
#03706:030405060708090A0B0C0D0E0F0G0H0I030405060708090A0B0C0D0E0F0G0H0I
#03711:04040404
#03712:0001000100010001
#03713:001T0K008F000K00
#03714:1R0000008F000000000000001D00008L000000001S0000000000000007000000
#03715:008K00001E00008G001R00001R000000
#03716:0I000M0J00000H00
#03718:8F00000000001H0000008K00008L00001A00000017000000000000001A000000
#03719:1G1G1R1R0000181T
#03801:00
#03801:00
#03801:00
#03801:00
#03801:00040404
#03801:00
#03801:0000000K
#03801:00
#03801:00
#03801:0001000000010001
#03801:00030203000300030203020302030203
#03801:00
#03801:00
#03801:7B7C7B7V7C7B7V7C7B7C7B7V7C7B7V7C
#03801:00
#03801:00
#03801:00
#03801:00
#03801:00
#03801:00
#03801:00
#03801:00
#03801:5J5K5J5K005L005M
#03801:00
#03801:00
#03801:00
#03801:00
#03801:00
#03801:00
#03801:00
#03801:00
#03801:0P
#03806:030405060708090A0B0C0D0E0F0G0H0I030405060708090A0B0C0D0E0F0G0H0I
#03811:04000K0200000000
#03812:00020000
#03813:02
#03814:0000000100000000
#03815:2T002U2V00000000
#03816:0C
#03819:610000000000000000000000000000000000000000000000000000000000008P
#03901:00
#03901:00
#03901:00
#03901:00
#03901:04040404
#03901:00
#03901:000K000K
#03901:00
#03901:00
#03901:0001000100010001
#03901:02030203020302030203020302030203
#03901:00
#03901:00
#03901:7B7C7B7V7C7B7V7C7B7C7B7V7C7B7V7C
#03906:030405060708090A0B0C0D0E0F0G0H0I030405060708090A0B0C0D0E0F0G0H0I
#03911:2L000000005L0000
#03912:002O005K002O005M
#03913:5J2P2L00
#03914:00005K0000002O000000000000000064
#03915:00005J0000000063
#03918:6200000000000000000000000000000000000000000000000000008P00000000
#04001:00
#04001:00
#04001:00
#04001:00
#04001:00040404
#04001:00
#04001:0000000K
#04001:00
#04001:00
#04001:0001000000010001
#04001:00030203020302030203020302030203
#04001:00
#04001:00
#04001:7F7G7F7X7G7F7X7G7F7G7F7X7G7F7X7G
#04001:00
#04001:00
#04001:00
#04001:00
#04001:00
#04001:00
#04001:00
#04001:00
#04001:5N5O0000005P005Q
#04006:030405060708090A0B0C0D0E0F0G0H0I030405060708090A0B0C0D0E0F0G0H0I
#04011:04000K0100000000
#04013:6500000000000000000000000000008P00000000000000000000000000006B00
#04014:000000006600006A
#04015:000000002X002Y000000670000690000
#04018:02000068
#04019:2W005N5O00000000
#04101:00
#04101:00
#04101:00
#04101:00
#04101:04040404
#04101:00
#04101:000K000K
#04101:00
#04101:00
#04101:0001000100010001
#04101:02030203020302030203020302030203
#04101:00
#04101:00
#04101:7F7G7F7X7G7F7X7G7F7G7F7X7G7F7X7G
#04101:00
#04101:00
#04101:00
#04101:00
#04101:00
#04101:00
#04101:00
#04101:00
#04101:5N5O5N5O005P005Q
#04106:030405060708090A0B0C0D0E0F0G0H0I030405060708090A0B0C0D0E0F0G0H0I
#04112:6C00000000000000000000000000008P000000002K0000000000000000000000
#04113:002Q000000000000
#04114:2O0000000000000000000000000000006D00000000000000000000000000008P
#04115:002Q
#04118:0000002O00000000
#04119:002P0000
#04201:00
#04201:00
#04201:00
#04201:00
#04201:00040404
#04201:00
#04201:000K000K
#04201:00
#04201:00
#04201:0001000100010001
#04201:00
#04201:00
#04201:00
#04201:7H7I7H7Y7I7H7Y7I7H7I7H7Y7I7H7Y7I
#04201:00
#04201:00
#04201:00
#04201:00
#04201:00
#04201:00
#04201:00
#04201:00
#04201:5R5S5R5T005U005V
#04206:030405060708090A0B0C0D0E0F0G0H0I030405060708090A0B0C0D0E0F0G0H0I
#04211:04020031
#04212:00030000000300030000020000000000
#04213:2Z000200000002000200000300030000
#04214:00000003000000000003000002000200
#04215:00000000000030000000000000000003
#04218:6E0000000000000000000000000000000000000000000000000000000000008P
#04219:02
#04301:00
#04301:00
#04301:00
#04301:00
#04301:04040404
#04301:00
#04301:000K000K
#04301:00
#04301:00
#04301:0001000100010001
#04301:02030203020302030203020000000000
#04301:00
#04301:00
#04301:7H7I7H7Y7I7H7Y7I7H7I7H7Y7I7H7Y7I
#04301:00
#04301:00
#04301:00
#04301:00
#04301:00
#04301:00
#04301:00
#04301:00
#04301:5R5S5R5T005U005V
#04306:030405060708090A0B0C0D0E0F0G0H0I030405060708090A0B0C0D0E0F0G0H0I
#04311:6F00000000000000000000000000008P00000000000000000000000000000000
#04312:000000000000000000000000000000006G00000000000000000000000000008P
#04313:2R000000000000000000000300000000
#04314:002S002O00000200
#04315:000000002P0000002Q00000000030000
#04318:00000000002L0002
#04319:00000000000000000000000000000003
#04401:00
#04401:00
#04401:00
#04401:00
#04401:00040404
#04401:00
#04401:000K000K
#04401:00
#04401:00
#04401:0001000100010001
#04401:00030203020302030203020302030203
#04401:00
#04401:00
#04401:7F7G7F7X7G7F7X7G7F7G7F7X7G7F7X7G
#04401:00
#04401:00
#04401:00
#04401:00
#04401:00
#04401:00
#04401:00
#04401:00
#04401:5O
#04406:030405060708090A0B0C0D0E0F0G0H0I030405060708090A0B0C0D0E0F0G0H0I
#04411:040000002S00005V
#04412:0000002P002R0000
#04413:322S003F
#04414:0000000000005T0000000000003G0000
#04415:6H0000000000000000000000000000000000000000000000000000000000008P
#04418:02005S000000003H
#04419:005U0000005U0000
#04501:00
#04501:00
#04501:00
#04501:00
#04501:00040004
#04501:00
#04501:000K000K
#04501:00
#04501:00
#04501:0001000100010001
#04501:00
#04501:00
#04501:00
#04501:7J7K7J7Z7K7J7Z7K007M7L807M7L807M
#04501:00
#04501:00
#04501:00
#04501:00
#04501:00
#04501:00
#04501:00
#04501:00
#04501:5W5X5Y5Z0060005Y
#04506:030405060708090A0B0C0D0E0F0G0H0I030405060708090A0B0C0D0E0F0G0H0I
#04511:04000402
#04512:6I00000000000000000000000000008P00000000000003000000030000000000
#04513:0200000002020002
#04514:00030000000000030003000000000003
#04515:000200027L000000
#04516:000000000000000000000000008M0000
#04518:000000000000030000000300000000006J00000000000000000000000000008P
#04519:33023400
#04601:00
#04601:00
#04601:00
#04601:00
#04601:00040404
#04601:00
#04601:000K000K
#04601:00
#04601:00
#04601:0001000100010001
#04601:00030203000000030000000000000000
#04601:00
#04601:00
#04601:7B7C7B7V7C7B7V7C7B7C7B7V7C7B7V7C
#04601:00
#04601:00
#04601:00
#04601:00
#04601:00
#04601:00
#04601:00
#04601:00
#04601:5J5K5J5K005L005M
#04606:030405060708090A0B0C0D0E0F0G0H0I030405060708090A0B0C0D0E0F0G0H0I
#04611:040000003I00000000003O3P0000003T
#04612:00000000003J0000003N00003Q003S00
#04613:6K00000002003K003M000200003R0000
#04614:00006L000003003L0003000300000003
#04615:02006K0202000202
#04618:00000000000000006N00000000030000
#04619:3500000000000000000000006M000000000000006O000000000000000000008P
#04701:00
#04701:00
#04701:00
#04701:00
#04701:04040404
#04701:00
#04701:000K000K
#04701:00
#04701:00
#04701:0001000100010001
#04701:00000203020302030203020302030203
#04701:00
#04701:00
#04701:7B7C7B7V7C7B7V7C7B7C7B7V7C7B7V7C
#04701:00
#04701:00
#04701:00
#04701:00
#04701:00
#04701:00
#04701:00
#04701:00
#04701:5J5K5J5K005L005M
#04706:030405060708090A0B0C0D0E0F0G0H0I030405060708090A0B0C0D0E0F0G0H0I
#04712:02000300000000000000000000000000000000006O000000000000000000008P
#04713:6K0000006N00002L
#04714:006L006M00002Q00
#04715:006K2O00
#04718:363800000000000000002P0000000000
#04801:00
#04801:00
#04801:00
#04801:00
#04801:00040400
#04801:00
#04801:000K000K
#04801:00
#04801:00
#04801:0001000100010000
#04801:00030203000000000000000000030003
#04801:00
#04801:00
#04801:7F7G7F7X7G7F7X7G7F7G7F7X7G7F7X7G
#04801:00
#04801:00
#04801:00
#04801:00
#04801:00
#04801:00
#04801:6P6Q6R6S6T6U6V6W
#04801:00
#04801:5N5O5N5O005P005Q
#04806:030405060708090A0B0C0D0E0F0G0H0I030405060708090A0B0C0D0E0F0G0H0I
#04811:043U0004
#04812:00000000003I00000000003O00000000
#04813:0000023J003N0201
#04814:390000000003003K003M000300000000
#04815:000000023L023A02
#04818:00000000000000030003000000000000
#04819:020000000200003A
#04901:00
#04901:00
#04901:00
#04901:00
#04901:04040404
#04901:00
#04901:000K000K
#04901:00
#04901:00
#04901:0001000100010001
#04901:02030203020302030203020302030203
#04901:00
#04901:00
#04901:7F7G7F7X7G7F7X7G7F7G7F7X7G7F7X7G
#04901:00
#04901:00
#04901:00
#04901:00
#04901:00
#04901:00
#04901:00
#04901:00
#04901:5N5O5N5O005P005Q
#04901:00
#04901:00
#04901:00
#04901:00
#04901:00
#04901:00
#04901:00
#04901:008O
#04906:030405060708090A0B0C0D0E0F0G0H0I030405060708090A0B0C0D0E0F0G0H0I
#04911:00000000000000000000003L00003L00
#04912:000000000000003N00003N00003N003J
#04913:0000003P00003P00003P00003P000000
#04914:000000003R00000000003R00000000003R00000000000000700000000000008P
#04915:00003T00000000003T000000000000006Z0000000000008P0000000000000000
#04918:3V000000000000006Y0000000000008P00000000000000000000000000000000
#04919:6X0000000000008P000000000000000000000000000000000000000000000000
#05001:00
#05001:00
#05001:00
#05001:00
#05001:00040400
#05001:00
#05001:000K000K
#05001:00
#05001:00
#05001:0001000000010001
#05001:00030203020300030203020300030203
#05001:00
#05001:00
#05001:7H7I7H7Y7I7H7Y7I7H7I7H7Y7I7H7Y7I
#05001:00
#05001:00
#05001:00
#05001:00
#05001:00
#05001:00
#05001:00
#05001:00
#05001:0000005T00000000
#05006:030405060708090A0B0C0D0E0F0G0H0I030405060708090A0B0C0D0E0F0G0H0I
#05011:0400007200000400
#05012:0000710000730000
#05013:2Z00003000000074
#05014:00725R0000003100
#05015:5R0000010000005V
#05018:025S0000005U0000
#05019:7100000200000200
#05101:00
#05101:00
#05101:00
#05101:00
#05101:04040404
#05101:00
#05101:000K000K
#05101:00
#05101:00
#05101:0001000100010001
#05101:02030203020302030203020302030203
#05101:00
#05101:00
#05101:7H7I7H7Y7I7H7Y7I7H7I7H7Y7I7H7Y7I
#05106:030405060708090A0B0C0D0E0F0G0H0I030405060708090A0B0C0D0E0F0G0H0I
#05111:0000007200000000
#05112:00007100002L0075
#05113:0072005T2Q007400
#05114:71005R2O00730000
#05115:005S2P000000005V
#05118:5R2S0000005U0000
#05119:2R
#05201:04
#05201:00
#05201:02
#05201:00
#05201:00040404
#05201:00
#05201:00
#05201:00
#05201:00
#05201:0001000100010001
#05201:00030203020302030203020302030203
#05201:00
#05201:00
#05201:7F7G7F7X7G7F7X7G7F7G7F7X7G7F7X7G
#05201:00
#05201:00
#05201:00
#05201:00
#05201:00
#05201:00
#05201:00
#05201:00
#05201:5O5U5S5T005U005V
#05206:030405060708090A0B0C0D0E0F0G0H0I030405060708090A0B0C0D0E0F0G0H0I
#05211:0F0F0F0F00003F00
#05212:000000000000000000000000000000007700000000000000000000000000008P
#05213:000G000G000G000G00002R00003G0000
#05214:320000002S00003H
#05215:0000002P0F0F0F0F
#05218:7600000000000000000000000000008P00000000000000000000000000000000
#05219:000000002S000000000G000G000G000G
#05301:00
#05301:00
#05301:00
#05301:00
#05301:0400040004000407
#05301:00
#05301:00
#05301:000F000000000000
#05301:00000000000000000000000G00000000
#05301:0001000100010001
#05301:00000200020302030000020002030203
#05301:00
#05301:00
#05301:7J7K7J7Z7K7J7Z7K7L7M7L807M7L807M
#05301:00
#05301:00
#05301:00
#05301:00
#05301:00
#05301:00
#05301:00
#05301:00
#05301:5W5X5Y5Z0060005Y
#05301:00
#05301:00
#05301:008J
#05301:00
#05301:00
#05301:00
#05301:0000000000000000005I000000000000
#05301:0000008I
#05306:030405060708090A0B0C0D0E0F0G0H0I030405060708090A0B0C0D0E0F0G0H0I
#05311:02030003000G000G0000000000000000
#05312:00000000000000000F0000000F0000007900000000000000000000000000008P
#05313:0F0G000G000000000203000300000000
#05315:3B3C003B000000000F0G000F00000000
#05316:0I000M0J00000H00
#05318:7800000000000000000000000000008P00000000000000000F0000000F000000
#05319:00000000000000003D3E003D000G000G
#05401:00
#05401:00
#05401:00
#05401:00
#05401:00
#05401:00
#05401:00
#05401:00
#05401:00
#05401:00
#05401:00
#05401:00
#05401:00
#05401:00
#05401:00
#05401:00
#05401:00
#05401:00
#05401:00
#05401:00
#05401:7A
#05401:00
#05401:00
#05401:00
#05401:00
#05401:89898989
#05401:00
#05401:00
#05401:00
#05401:00
#05401:00
#05401:0Q
#05403:5C
#05406:030405060708090A0B0C0D0E0F0G0H0I030405060708090A0B0C0D0E0F0G0H0I
#05411:08
#05415:000D
#05416:0C
#05501:00
#05501:00
#05501:00
#05501:00
#05501:00
#05501:00
#05501:00
#05501:00
#05501:00
#05501:00
#05501:00
#05501:00
#05501:00
#05501:00
#05501:00
#05501:00
#05501:00
#05501:00
#05501:00
#05501:00
#05501:00
#05501:00
#05501:00
#05501:00
#05501:00
#05501:8A8A8A8A
#05506:030405060708090A0B0C0D0E0F0G0H0I030405060708090A0B0C0D0E0F0G0H0I
#05601:00
#05601:00
#05601:00
#05601:00
#05601:00
#05601:00
#05601:00
#05601:00
#05601:00
#05601:00
#05601:00
#05601:00
#05601:00
#05601:00
#05601:00
#05601:00
#05601:00
#05601:00
#05601:00
#05601:00
#05601:00
#05601:00
#05601:00
#05601:00
#05601:00
#05601:8B8B8B8B
#05606:030405060708090A0B0C0D0E0F0G0H0I030405060708090A0B0C0D0E0F0G0H0I
#05615:000D
#05701:00
#05701:00
#05701:00
#05701:00
#05701:00
#05701:00
#05701:00
#05701:00
#05701:00
#05701:00
#05701:00
#05701:00
#05701:00
#05701:00
#05701:00
#05701:00
#05701:00
#05701:00
#05701:00
#05701:00
#05701:00
#05701:008D
#05701:00
#05701:00
#05701:00
#05701:8C8C8C8C
#05701:00
#05701:00
#05701:00
#05701:00
#05701:00
#05701:8H
#05706:030405060708090A0B0C0D0E0F0G0H0I030405060708090A0B0C0D0E0F0G0H0I
#05716:0000000000000000000B000000000000
#05801:00
#05801:00
#05801:00
#05801:00
#05801:00
#05801:00
#05801:00
#05801:00
#05801:00
#05801:00
#05801:00
#05801:0E0E0E0E0E0E0E0E
#05806:030405060708090A0B0C0D0E0F0G0H0I030405060708090A0B0C0D0E0F0G0H0I
#05811:04000004040000040004000404000000
#05813:000L000L
#05815:89898989
#05816:0C
#05818:0009000900090009
#05819:85858585
#05901:00
#05901:00
#05901:00
#05901:00
#05901:00
#05901:00
#05901:00
#05901:00
#05901:00
#05901:00
#05901:00
#05901:0E0E0E0E0E0E0E0E
#05906:030405060708090A0B0C0D0E0F0G0H0I030405060708090A0B0C0D0E0F0G0H0I
#05911:04000004040000040004000404000000
#05912:0000000000000000000000000000000F
#05913:00000000000000000L0000000000000000000000000000000L000000000G0000
#05914:8A008A008A008A0F
#05915:0009000900090000
#05918:86868686
#06001:00
#06001:00
#06001:00
#06001:00
#06001:00
#06001:00
#06001:00
#06001:00
#06001:00
#06001:00
#06001:00
#06001:000E0E0E0E0E0E0E
#06006:030405060708090A0B0C0D0E0F0G0H0I030405060708090A0B0C0D0E0F0G0H0I
#06011:04000004040000040004000404060400
#06012:000L000L
#06013:00000000000000008B0000000000000000000000000000008B00000500000000
#06014:8B878B87
#06015:8787
#06016:0H
#06018:000A000A000A000A000A000A000A000A
#06019:0909090909090909
#06101:00
#06101:00
#06101:00
#06101:00
#06101:00
#06101:00
#06101:00
#06101:00
#06101:00
#06101:00
#06101:00
#06101:0E0E0E0E0E0E0E0E
#06106:030405060708090A0B0C0D0E0F0G0H0I030405060708090A0B0C0D0E0F0G0H0I
#06111:04000004040000040004000404000F00
#06112:8C0000000000000000000000000000000L0000000000000000000000000000008C0000000000000000000000000000000L0000000000000G000G000000000000
#06113:8800000000000000880000000000000088000000000000008C00000F000F0000
#06114:0000000000000G000000000000000G000000000000000G000000000000000G000000000000000G000000000000000G0000000000000G00000000000G00000000
#06115:000F000F8C0F000F000F000F880F000F
#06118:00000G000000000000000G000000000000000G000000000000000G000000000000000G000000000000000G000000000000000G000000000000000000000G0000
#06119:0F0000000F0000000F0000000F0000000F0000000F0000000F0000000000000F
#06201:00
#06201:00
#06201:00
#06201:08
#06201:00
#06201:00
#06201:00
#06201:00
#06201:00
#06201:00
#06201:00
#06201:00
#06201:00
#06201:7B7C7B7V7C7B7V7C7B7C7B7V7C7B7V7C
#06201:00
#06201:00
#06201:00
#06201:00
#06201:00
#06201:00
#06201:00
#06201:00
#06201:00
#06201:00
#06201:00
#06201:00
#06201:00
#06201:00
#06201:00
#06201:00
#06201:00
#06201:29
#06203:B8
#06206:030405060708090A0B0C0D0E0F0G0H0I030405060708090A0B0C0D0E0F0G0H0I
#06211:00000000000000000000000000000042
#06212:0000000000004040
#06213:00000000000051520000003Z003Z0000
#06214:0040000000410000
#06215:003Z003Z000000004100000000000000
#06216:0C
#06218:3Y00000000004Z50003Y000000000000
#06301:00
#06301:00
#06301:00
#06301:00
#06301:00
#06301:00
#06301:00
#06301:00
#06301:00
#06301:00
#06301:00
#06301:00
#06301:00
#06301:7F7G7F7X7G7F7X7G7F7G7F7X7G7F7X7G
#06306:030405060708090A0B0C0D0E0F0G0H0I030405060708090A0B0C0D0E0F0G0H0I
#06312:4300000000000000550056000055000000000000000000000000480000000000
#06313:00400000000000000000000046004600
#06314:00003Z00000000000040000000470000
#06315:0000000000000000530054000053000000000000000000004500000045000000
#06318:0000003Y000000003Z003Z0000000000
#06401:00
#06401:00
#06401:00
#06401:00
#06401:00
#06401:00
#06401:00
#06401:00
#06401:00
#06401:00
#06401:00
#06401:00
#06401:00
#06401:7H7I7H7Y7I7H7Y7I7H7I7H7Y7I7H7Y7I
#06406:030405060708090A0B0C0D0E0F0G0H0I030405060708090A0B0C0D0E0F0G0H0I
#06411:4C00004F00000057
#06412:00004E000000004G4G00000000000000
#06413:000000000000000000004E000000000000000000000000000000000000580000
#06414:004D00004D0000000000480000480000
#06415:00000048000000000046000000000059
#06418:00000046
#06419:000000000000000000000000000000000000000000004700000000000000005A
#06501:00
#06501:00
#06501:00
#06501:00
#06501:00
#06501:00
#06501:00
#06501:00
#06501:00
#06501:00
#06501:00
#06501:00
#06501:00
#06501:7N7O7N817O7N817O7P7Q7P827Q7P827Q
#06501:00
#06501:00
#06501:00
#06501:00
#06501:00
#06501:00
#06501:00
#06501:00
#06501:00
#06501:00
#06501:00
#06501:00
#06501:0046004I004H0049
#06501:004E0000004D00000048000000460000
#06501:00
#06501:00
#06501:37
#06506:030405060708090A0B0C0D0E0F0G0H0I030405060708090A0B0C0D0E0F0G0H0I
#06511:4H
#06512:4200450000480000
#06513:0000004D42004300
#06514:3Z000000430000004000000000000046
#06515:00004E00004I0000004H00003Z004A00
#06518:000000004J0000004K00000000420042
#06519:0046000000000000000000004L000000
#06601:00
#06601:00
#06601:00
#06601:00
#06601:00
#06601:00
#06601:00
#06601:00
#06601:00
#06601:00
#06601:00
#06601:00
#06601:00
#06601:7B7C7B7V7C7B7V7C7B7C7B7V7C7B7V7C
#06606:030405060708090A0B0C0D0E0F0G0H0I030405060708090A0B0C0D0E0F0G0H0I
#06611:00000000450000000000000000470000
#06612:00004600004200000000000000004500
#06613:00000000000043000040000000000042
#06614:00470000000000400000000040000000
#06615:00000047000000000000003Z00000000
#06618:003Z
#06619:4500000000410000
#06701:00
#06701:00
#06701:00
#06701:00
#06701:00
#06701:00
#06701:00
#06701:00
#06701:00
#06701:00
#06701:00
#06701:00
#06701:00
#06701:7L7M7L807M7L807M7L7M7L807M7L807M
#06706:030405060708090A0B0C0D0E0F0G0H0I030405060708090A0B0C0D0E0F0G0H0I
#06711:00003Z3Y4N000000
#06712:0000420000430000000000000000000000004O00000000000000000000004U00
#06713:0000000000000000003Z0000003Y0000004N00004P000000000000004T000000
#06714:430000420000400000000000000000000000004O00004Q0000004S000000004U
#06715:00000000000000000000410000004L0000000000004P00004R000000004T0000
#06718:00430000430000400000000000000000000000000000004Q0000004S00000000
#06719:0000000000000000000000410000004L0000000000000000004R000000000000
#06801:00
#06801:00
#06801:00
#06801:00
#06801:00
#06801:00
#06801:00
#06801:00
#06801:00
#06801:00
#06801:00
#06801:00
#06801:00
#06801:7D7E7D7W7E7D7W7E7D7E7D7W7E7D7W7E
#06806:030405060708090A0B0C0D0E0F0G0H0I030405060708090A0B0C0D0E0F0G0H0I
#06811:433Z0000000000000041000000000000
#06812:0000004B000000000000000000000041
#06813:00000000003Z4B0000003Y0000000000
#06814:003X0000000000003Y00000000003Y00
#06815:0000003Y000000000000004L00000000
#06818:00000000003X3Y0000000000004L0000
#06819:0000004N
#06901:00
#06901:00
#06901:00
#06901:00
#06901:00
#06901:00
#06901:00
#06901:00
#06901:00
#06901:00
#06901:00
#06901:00
#06901:00
#06901:7R7S7R837S7R837S7T7U7T847U7T847U
#06906:030405060708090A0B0C0D0E0F0G0H0I030405060708090A0B0C0D0E0F0G0H0I
#06911:0000000000000000003Y0000000000000000004L000000004P00000000000000
#06912:0000000000000000000000000000004L00000000000000000000004L000000000000004O004P0000000000000000004S
#06913:0000000000000000000000004N00000000000000000000000000000000000000004L00000000000000000000000000000000003Y000000000000000000000000000000004O000000000000004P0000000000000000000000000000004S000000
#06914:0000004L004N0000000000004N0000003Y00000000004O0000004Q0000004S00
#06915:0000000000004L00000000000000000000004L00000000000000000000000000000000000000004N00000000004L0000000000000000000000000000000000004N0000000000000000000000000000004Q000000000000004T00000000000000
#06916:00000000000B0000
#06918:0000003Y00000000000000000000000000000000004L00000000000000000000000000000000000000004L000000000000000000000000000000000000004N000000000000000000000000000000000000004Q0000004T000000000000000000
#06919:3Y003Y00004N004T
#07001:00
#07001:00
#07001:00
#07001:00
#07001:00
#07001:00
#07001:00
#07001:00
#07001:00
#07001:00
#07001:02030203020302030203020302030203
#07001:00
#07001:00
#07001:7B7C7B7V7C7B7V7C7B7C7B7V7C7B7V7C
#07001:00
#07001:00
#07001:1R001T001R001R1S001R1S001R001T00
#07001:00
#07001:2A2B2C2D2E2B2F2B
#07001:8F8K8F008F8K8F008F8K8F008F8K0000
#07001:000000000000008E
#07001:00
#07001:00
#07001:00
#07001:00
#07001:00
#07001:00
#07001:00
#07001:00
#07001:00
#07001:00
#07001:0R
#07006:030405060708090A0B0C0D0E0F0G0H0I030405060708090A0B0C0D0E0F0G0H0I
#07011:04040404
#07012:0001000100010001
#07013:000K000K
#07014:0000400000004000004200003Z000000
#07015:003Z00000000003Z0000004000410000
#07016:0C
#07018:4500003Z003Z00004500000000003Y00
#07019:0000000041000000000043000000004L
#07101:00
#07101:00
#07101:00
#07101:00
#07101:04040404
#07101:00
#07101:000K000K
#07101:00
#07101:00
#07101:0001000100010001
#07101:02030203020302030203020302030203
#07101:00
#07101:00
#07101:7F7G7F7X7G7F7X7G7F7G7F7X7G7F7X7G
#07101:00
#07101:00
#07101:1O001Q001O001O1P001O1P001O001Q00
#07101:00
#07101:2A2B2C2D2E2B2F2B
#07101:8F008K008F0000008F008K008G8L8G8L8F0000008K0000008F008K0000000000
#07101:000000000000008E
#07106:030405060708090A0B0C0D0E0F0G0H0I030405060708090A0B0C0D0E0F0G0H0I
#07111:00000000003Z000000000000000000000000004G000000000000000000000040
#07112:00003Z003Y000000004G4E0000000040
#07113:00000041000040000000004100000000004V0000004E00000000000000420000
#07114:0000410000000000003Y0000000000004V000000000048000000000042000000
#07115:003Y000000000040000000004000004200000000000000480000004500000000
#07118:3Y000000004100420000000047450000
#07119:0000000000000000000000000040000000000000000000000047000000000000
#07201:00
#07201:00
#07201:00
#07201:00
#07201:04040404
#07201:00
#07201:000K000K
#07201:00
#07201:00
#07201:0001000100010001
#07201:02030203020302030203000000000003
#07201:00
#07201:00
#07201:7H7I7H7Y7I7H7Y7I7H7I7H7Y7I7H7Y7I
#07201:00
#07201:00
#07201:1L001N001L001L1M001L1M001L001N00
#07201:00
#07201:2A2B2C2D2E2B2F2B
#07201:00008F00000000008F8K8F008F8K0000
#07201:000000000000008E
#07201:0000008F00000000
#07206:030405060708090A0B0C0D0E0F0G0H0I030405060708090A0B0C0D0E0F0G0H0I
#07211:00000000008K000000003Y00005B0000
#07212:5G5H00008F0000420000004L00000000
#07213:00000000005G000000002K000000000000000000020000004P00005C00000000
#07214:5E5F00003Z0000000000000300000000
#07215:00000000005E00000000000000003Z000000000000000000020000005D000000
#07218:8F8K0000002Q00000000000000030000
#07219:00003Y0000000002
#07301:00
#07301:00
#07301:00
#07301:00
#07301:00
#07301:00
#07301:00
#07301:00
#07301:00
#07301:00
#07301:02030203020302030203020302030203
#07301:00
#07301:00
#07301:7N7O7N817O7N817O7P7Q7P827Q7P827Q
#07301:00
#07301:00
#07301:1U001W001U001U1V001O1P001O001Q00
#07301:00
#07301:2A2B2C2D2E2B2F2B
#07301:8F008K008F0000008F008K008G8L8G8L8F0000008K0000008F008K0000000000
#07301:000000000000008E
#07301:00
#07301:00
#07301:00
#07301:00
#07301:00
#07301:0046004I004H0000
#07301:004E0000004D00000048000000000000
#07306:030405060708090A0B0C0D0E0F0G0H0I030405060708090A0B0C0D0E0F0G0H0I
#07311:04040404
#07312:0001000100010001
#07313:420000000K000000000000000K000049
#07314:3Z0043004200003W
#07315:00004E00004I00004000480000000000
#07318:4H0000004J004D00004H0000004K0000
#07319:00460000450000004K0000004L000000
#07401:00
#07401:00
#07401:00
#07401:00
#07401:00
#07401:00
#07401:00
#07401:00
#07401:00
#07401:00
#07401:02030203020302030203020302030203
#07401:00
#07401:00
#07401:7B7C7B7V7C7B7V7C7B7C7B7V7C7B7V7C
#07401:00
#07401:00
#07401:1R001T001R001R1S001R1S001R001T00
#07401:00
#07401:2A2B2C2D2E2B2F2B
#07401:8F8K8F008F8K8F008F8K8F008F8K0000
#07401:000000000000008E
#07406:030405060708090A0B0C0D0E0F0G0H0I030405060708090A0B0C0D0E0F0G0H0I
#07411:04040404
#07412:0001000100010001
#07413:004700000K000000000000000K000000
#07414:45004600004200000040000040000042
#07415:00000047000043000000003Z00470000
#07418:00000000450000400000410000004500
#07419:003Z
#07501:00
#07501:00
#07501:00
#07501:00
#07501:04040404
#07501:00
#07501:000K000K
#07501:00
#07501:00
#07501:0001000100010001
#07501:02030203020302030203020302030203
#07501:00
#07501:00
#07501:7L7M7L807M7L807M7L7M7L807M7L807M
#07501:00
#07501:00
#07501:1X001Z001X001X1Y001X1Y001X001Z00
#07501:00
#07501:2A2B2C2D2E2B2F2B
#07501:8F008K008F0000008F008K008G8L8G8L8F0000008K0000008F008K0000000000
#07501:000000000000008E
#07506:030405060708090A0B0C0D0E0F0G0H0I030405060708090A0B0C0D0E0F0G0H0I
#07511:00000000000000400000410000000000000000000000000000004S0000000000
#07512:0000000043000000000000003Y00000000000000000000004R00004S00000000
#07513:00430000000000003Z00000000004L000000000000004Q00004R00004T000000
#07514:000000000043000000000041000000004N0000004P00004Q00000000004T0000
#07515:0000420000000000003Z0000003Y000000004O00004P00000000000000004U00
#07518:4300000000004000000000000000004L0000004O00000000000000000000004U
#07519:00000042000000000000000000000000004N0000000000000000000000000000
#07601:00
#07601:00
#07601:00
#07601:00
#07601:04040404
#07601:00
#07601:000K000K
#07601:00
#07601:00
#07601:0001000100010001
#07601:02030203020302030000000000000000
#07601:00
#07601:00
#07601:7D7E7D7W7E7D7W7E7D7E7D7W7E7D7W7E
#07601:00
#07601:00
#07601:20002200200020002120002120002200
#07601:00
#07601:2A2B2C2D2E2B2F2B
#07601:8F8K8F008F0000008F8K8F008F8K0000
#07601:000000000000008E
#07606:030405060708090A0B0C0D0E0F0G0H0I030405060708090A0B0C0D0E0F0G0H0I
#07611:00000000008K8F0000400041004O0000
#07612:00000000003Z4B0000003Y003Y004P00
#07613:0000004B000000004300004L00030003
#07614:453Z000000000000004100004N000200
#07615:00000000003X3Y004B000200004L004O
#07618:0000003Y000000000003000300004N00
#07619:433X00000000000002003Z000200004Q
#07701:00
#07701:00
#07701:00
#07701:0I000M0J00000H00
#07701:0400040004000407
#07701:00
#07701:000K000K
#07701:00
#07701:00
#07701:0001000100010001
#07701:02030203020302030203020302030203
#07701:00
#07701:00
#07701:7R7S7R837S7R837S7T7U7T847U7T847U
#07701:00
#07701:00
#07701:23002500230023240026270026002800
#07701:00
#07701:2A2B2C2D2E2B2F2B
#07701:8F008K008F0000008F008K008G8L8G8L8F0000008K0000008F008K0000000000
#07701:000000000000008E
#07706:030405060708090A0B0C0D0E0F0G0H0I030405060708090A0B0C0D0E0F0G0H0I
#07711:000000000000004X
#07712:0000000000004X00000000000000004X00000000000000004X00000000000000004X00000000000000004X00000000000000004X00000000000000004X00000000000000004X0000000000000000000000004Y0000004X000000000000000000
#07713:000000000000000000004Y4X
#07714:004P00004P00004P00004P00004P00004P00004P00004P0000004Y0000004K00
#07715:000000000000000000000000000000000000004S0000004K
#07718:4R00000000000000004R00000000000000004R00000000000000004R00000000000000004R00000000000000004R00000000000000004R00000000000000004R000000000000000000004S000000000000000000000000000000000000004K00
#07719:0000004S
#07801:00
#07801:00
#07801:00
#07801:00
#07801:00
#07801:00
#07801:00
#07801:00
#07801:00
#07801:00
#07801:02030203020302030203020302030203
#07801:00
#07801:00
#07801:7B7C7B7V7C7B7V7C7B7C7B7V7C7B7V7C
#07801:00
#07801:00
#07801:1R001T001R001R1S001R1S001R001T00
#07801:00
#07801:00
#07801:8F8K8F008F8K8F008F8K8F008F8K0000
#07806:030405060708090A0B0C0D0E0F0G0H0I030405060708090A0B0C0D0E0F0G0H0I
#07811:04040404
#07812:0001000100010001
#07813:45004100002B0K2B
#07814:003Z003Z003Z00002E0000002F00004L
#07815:00400K400043003Y
#07816:0C
#07818:00002B000000003Z0042004000410000
#07819:2A002C2D45003Z8E
#07901:00
#07901:00
#07901:00
#07901:00
#07901:00
#07901:00
#07901:00
#07901:00
#07901:00
#07901:00
#07901:02030203020302030203020302030203
#07901:00
#07901:00
#07901:7F7G7F7X7G7F7X7G7F7G7F7X7G7F7X7G
#07901:00
#07901:00
#07901:1O001Q001O001O1P001O1P001O001Q00
#07901:00
#07901:00
#07901:8F008K008F0000008F008K008G8L8G8L8F0000008K0000008F008K0000000000
#07906:030405060708090A0B0C0D0E0F0G0H0I030405060708090A0B0C0D0E0F0G0H0I
#07911:04040404
#07912:0001000100010001
#07913:3Y0000400000004200002B000K008E00
#07914:004100003Y0040004V0000002F000040
#07915:2A003Z0000410000004G000047002B00
#07918:00002B000K002D0000004E0000450000
#07919:000000002C0000002E00004800004200
#08001:00
#08001:00
#08001:00
#08001:00
#08001:00
#08001:00
#08001:00
#08001:00
#08001:00
#08001:00
#08001:02030203020302030203020302030203
#08001:00
#08001:00
#08001:7H7I7H7Y7I7H7Y7I7H7I7H7Y7I7H7Y7I
#08001:00
#08001:00
#08001:1L001N001L001L1M001L1M001L001N00
#08001:00
#08001:00
#08001:8F8K8F008F8K8F008F8K8F008F8K0000
#08006:030405060708090A0B0C0D0E0F0G0H0I030405060708090A0B0C0D0E0F0G0H0I
#08011:0400040004000401
#08012:000100010001005D
#08013:5E005F00005E00003Y002Q0000003Z0000000000000000000K00000000000000
#08014:00000000000000000K00000000000000000000003Y004L000000005C00000000
#08015:5G005H00005G00003Z002K000000420000000000000000004P00000000000000
#08018:00002B0000002D0000002B00005B2B00
#08019:2A002C002E002F8E
#08101:04040404
#08101:0001000100010001
#08101:00
#08101:00
#08101:00000000464645000000000000003X3X4P4P00000000003X00000000003Z4040
#08101:00
#08101:000K000K
#08101:00
#08101:00
#08101:00
#08101:02030203020302030203020302030203
#08101:00
#08101:00
#08101:7N7O7N817O7N817O7P7Q7P827Q7P827Q
#08101:00
#08101:00
#08101:1U001W001U001U1V001O1P001O001Q00
#08101:00
#08101:2A2B2C2D2E2B2F2B
#08101:8F008K008F0000008F008K008G8L8G8L8F0000008K0000008F008K0000000000
#08101:000000000000008E
#08106:030405060708090A0B0C0D0E0F0G0H0I030405060708090A0B0C0D0E0F0G0H0I
#08111:4C0000000045000000003Z004L003Z00
#08112:004C00000000000000460045000000000000003X003Z0000004L003Y00000045
#08113:004G000046004200003X0040003Y0045
#08114:4E00004G000000480000400000420000004L0000000000400000000000420000
#08115:004E00004E00480000420040000040004L0000004L0000003W00000042000000
#08118:00004800004E0000420000003Z0000400000004O004L0000003W004400000000
#08119:000000480000004500000000003Z000000004O0000003X000000440000000000
#08201:00000000000000004N4L4N4O4P4Q4S4Q
#08201:0000002D00000000
#08201:002C0000
#08201:00
#08201:00
#08201:00
#08201:00
#08201:00
#08201:00
#08201:00
#08201:02030203020302030203020302030203
#08201:00
#08201:00
#08201:7B7C7B7V7C7B7V7C7B7C7B7V7C7B7V7C
#08201:00
#08201:00
#08201:00
#08201:00
#08201:00
#08201:8F8K8F008F8K8F008F8K8F008F8K0000
#08201:000000000000008E
#08206:030405060708090A0B0C0D0E0F0G0H0I030405060708090A0B0C0D0E0F0G0H0I
#08211:04040404
#08212:00002B000000004L00002B0000001T00
#08213:004000001R003Y00001R00001R000000
#08214:00001T00004100002E0000002F000000
#08215:2A003Z003Y00001S00001S0000002B00
#08218:3Z010K1R00000K00
#08219:1R000041000001000000010000000100
#08301:4R4Q4P4O4Q4P4O0000004P004P4Q4P4O
#08301:00
#08301:00
#08301:00
#08301:00
#08301:00
#08301:00
#08301:00
#08301:00
#08301:00
#08301:02030203020302030203020302030203
#08301:00
#08301:00
#08301:7L7M7L807M7L807M7L7M7L807M7L807M
#08301:00
#08301:00
#08301:00
#08301:00
#08301:00
#08301:8F008K008F0000008F008K008G8L8G8L8F0000008K0000008F008K0000000000
#08301:000000000000008E
#08306:030405060708090A0B0C0D0E0F0G0H0I0304050607084W0A0B0C0D0E0F0G0H0I
#08311:04040404
#08312:000000001X001X00001X00001X000000
#08313:00001Z000000001Y00001Y0000001Z00
#08314:1X00002D2R002F00
#08315:00002B002C00003Y00002B0000002B00
#08318:2A0K2E0K
#08319:0001000100010001
#08401:00
#08401:00
#08401:00
#08401:00
#08401:04040404
#08401:0001000100010001
#08401:00002200000000210000210000002200
#08401:20000000200020000020000020000000
#08401:00
#08401:00
#08401:02030203020302030203020302030203
#08401:00
#08401:00
#08401:7D7E7D7W7E7D7W7E7D7E7D7W7E7D7W7E
#08401:00
#08401:00
#08401:00
#08401:00
#08401:2A2B2C2D2E2B2F2B
#08401:8F8K8F008F8K8F008F8K8F008F8K0000
#08401:000000000000008E
#08406:030405060708090A0B0C0D0E0F0G0H0I030405060708090A0B0C0D0E0F0G0H0I
#08411:4300003Y000000004B0000004N000000
#08412:003X0000003X3Y004341004L3Y4O004Q
#08413:4500004B0000000000403Y41004L4P4O
#08414:003Z0000003Z4B0000003Z0000004N00
#08415:000G000G000G000G000G000G000G000G
#08419:0F0F0F0F0F0F0F0F
#08501:000000000000000000000000008M0000
#08501:00
#08501:00
#08501:00002500000000240026270026002800
#08501:00070000
#08501:07000707
#08501:2A012C012E012F01
#08501:002B002D002B002B
#08501:2300232300000000
#08501:00
#08501:020302030203020302030203020302030203020302030203
#08501:00
#08501:00
#08501:7R7S7R837S7R837S7T7U7T847U7T847U
#08501:00
#08501:00
#08501:00
#08501:00
#08501:00
#08501:8F008K008F0000008F008K008G8L8G8L8F0000008K0000008F008K0000000000
#08501:000000000000008E
#08506:030405060708090A0B0C0D0E0F0G0H0I030405060708090A0B0C0D0E0F0G0H0I
#08511:4R00004R004P004X
#08512:004P0000004X004P004R004X004Y004K
#08513:004X4P004X004S00
#08514:0000000000004R0000000000000000000000000F0000000F0000000F0000000F
#08515:00000F0000000F0000000F0000000F0000000F0000000F000000000G00000000000G00000000000G00000000000G0000
#08516:0I000I0J00000H00
#08518:00000000000000000000000000000000000F0000000F0000000F0000000F0000
#08519:0G000G000G000G000G000G000G00000G00000G00000G0000
#08601:00
#08601:0000007B
#08601:000000000000000000000000007C0000
#08601:00
#08601:00
#08601:000000000000007C0000000000000000
#08606:030405060708090A0B0C0D0E0F0G0H0I030405060708090A0B0C0D0E0F0G0H0I
#08611:0400000400000400
#08612:4G0000000000000000000000454M0045
#08613:0Y00460000000Y000000004000000000
#08614:0048000045007B0000003Z0015000000
#08615:00000047000040000041000000000000
#08616:0I00000I00000J00
#08618:15000000004300003Y0000003Z3W003Z
#08619:7B7C00000000153Z000000000Y000000
#08701:0D
#08701:00
#08701:007C0000000000000000000000000000
#08701:7B
#08701:0000000000000000000000007B7C0000
#08701:000000000000007C0000000000000000
#08706:030405060708090A0B0C0D0E0F0G0H0I030405060708090A0B0C0D0E0F0G0H0I
#08711:0400000400000400
#08712:0000000000000Y0000000040454M0045
#08713:4G4800000000000000003Z0000000000
#08714:0000460000007B00004100000Y000000
#08715:15000047000040003Y00000000000000
#08716:0I00000I00000J00
#08718:000000004500003Z000000003Z3W003Z
#08719:0Y000000004315000000000015000000
#08801:8N
#08801:00
#08801:00
#08801:0000000000007B7C0000000000000000
#08801:7B7C0000000000000000000000000000
#08806:030405060708090A0B0C0D0E0F0G0H0I030405060708090A0B0C0D0E0F0G0H0I
#08811:0400000400000700
#08812:000000000041000000000047454M0045
#08813:0Y00004100001500000045003Z4B0000
#08814:000000003Y000000004000000Y00003Z
#08815:15003Y0000003Z003Z0000007B7C0000
#08816:0I00000000000I00005I00000J000000
#08818:0000000000000040000000003Y3X003Y
#08819:4N4L000000000Y000000000015000000
#08906:030405060708090A0B0C0D0E0F0G0H0I030405060708090A0B0C0D0E0F0G0H0I
#08911:08
#08913:2H
#08915:2L
#08916:0C
#08919:2O
