*---------------------- HEADER FIELD
#PLAYER 1
#GENRE RENAISSANCE
#TITLE Joker[ANOTHER]
#ARTIST D.J.Nero
#BPM 184
#PLAYLEVEL 12
#RANK 3
#TOTAL 460
#STAGEFILE title.jpg
#WAV01 opHH.wav
#WAV02 close.wav
#WAV03 close.wav
#WAV04 kickA.wav
#WAV05 kickB.wav
#WAV06 kickB.wav
#WAV07 kick32.wav
#WAV08 FXkick.wav
#WAV09 snare.wav
#WAV0A snare.wav
#WAV0B reverse.wav
#WAV0C SE1.wav
#WAV0D bell.wav
#WAV0E ride.wav
#WAV0F snare-Fill.wav
#WAV0G SE3.wav
#WAV0H snare-Fill.wav
#WAV0I clashA.wav
#WAV0J clashB.wav
#WAV0K clashC.wav
#WAV0L clap.wav
#WAV0M clap-deep.wav
#WAV0N clashB.wav
#WAV0O bgm1.wav
#WAV0P bgm1.wav
#WAV0Q bgm2.wav
#WAV0R bgm2.wav
#WAV0S bgm3.wav
#WAV0T str01.wav
#WAV0U str01.wav
#WAV0V str02.wav
#WAV0W str03.wav
#WAV0X str03.wav
#WAV0Y str04.wav
#WAV0Z str05.wav
#WAV10 str-01.wav
#WAV11 str-01.wav
#WAV12 str-02.wav
#WAV13 str-03.wav
#WAV14 str-03.wav
#WAV15 str-04.wav
#WAV16 str-05.wav
#WAV17 harp1.wav
#WAV18 harp2.wav
#WAV19 harp3.wav
#WAV1A harp4.wav
#WAV1B harp5.wav
#WAV1C harp6.wav
#WAV1D harp16-01.wav
#WAV1E harp16-02.wav
#WAV1F harp16-03.wav
#WAV1G harp16-04.wav
#WAV1H harp16-05.wav
#WAV1I harp16-06.wav
#WAV1J core1.wav
#WAV1K core1.wav
#WAV1L core1b.wav
#WAV1M core2.wav
#WAV1N core2.wav
#WAV1O core2b.wav
#WAV1P core3.wav
#WAV1Q core3.wav
#WAV1R core3b.wav
#WAV1S core4.wav
#WAV1T core4.wav
#WAV1U core4b.wav
#WAV1V core5.wav
#WAV1W core5.wav
#WAV1X core5b.wav
#WAV1Y core6.wav
#WAV1Z core6.wav
#WAV20 core6b.wav
#WAV21 core7.wav
#WAV22 core7.wav
#WAV23 core7b.wav
#WAV24 core8.wav
#WAV25 core8.wav
#WAV26 core8b.wav
#WAV27 core9.wav
#WAV28 core9.wav
#WAV29 core9b.wav
#WAV2A arp-bgm.wav
#WAV2B arp1.wav
#WAV2C arp2.wav
#WAV2D arp3.wav
#WAV2E arp4.wav
#WAV2F arp5.wav
#WAV2G arp6.wav
#WAV2H p-8-1.wav
#WAV2I p-8-2.wav
#WAV2J p-8-3.wav
#WAV2K p-8-4.wav
#WAV2L p-8-5.wav
#WAV2M p-8-6.wav
#WAV2N p-8-7.wav
#WAV2O p-8-8.wav
#WAV2P p-8-9.wav
#WAV2Q p-8-10.wav
#WAV2R p-8-11.wav
#WAV2S p-8-12.wav
#WAV2T p-8-13.wav
#WAV2U pA-1.wav
#WAV2V pA-2.wav
#WAV2W pA-2b.wav
#WAV2X pA-3.wav
#WAV2Y pA-4.wav
#WAV2Z pA-4b.wav
#WAV30 pA-5.wav
#WAV31 pA-6.wav
#WAV32 pA-7.wav
#WAV33 pA-8.wav
#WAV34 pA-9.wav
#WAV35 pA-10.wav
#WAV36 pA-11.wav
#WAV37 pA-12.wav
#WAV38 pA-12b.wav
#WAV39 pA-13.wav
#WAV3A pA-13b.wav
#WAV3B pA-14.wav
#WAV3C pA-14b.wav
#WAV3D pA-15.wav
#WAV3E pA-15b.wav
#WAV3F p-16-1.wav
#WAV3G p-16-2.wav
#WAV3H p-16-3.wav
#WAV3I p-16-4.wav
#WAV3J p-16-5.wav
#WAV3K p-16-6.wav
#WAV3L p-16-7.wav
#WAV3M p-16-8.wav
#WAV3N p-16-9.wav
#WAV3O p-16-10.wav
#WAV3P p-16-11.wav
#WAV3Q p-16-12.wav
#WAV3R p-16-13.wav
#WAV3S p-16-14.wav
#WAV3T p-16-15.wav
#WAV3U p-16-16.wav
#WAV3V p-16-17.wav
#WAV3W ps-16-2.wav
#WAV3X ps-16-1.wav
#WAV3Y ps-16-1.wav
#WAV3Z ps-16-2.wav
#WAV40 ps-16-3.wav
#WAV41 ps-16-4.wav
#WAV42 ps-16-5.wav
#WAV43 ps-16-6.wav
#WAV44 ps-16-3.wav
#WAV45 ps-16-7.wav
#WAV46 ps-16-8.wav
#WAV47 ps-16-9.wav
#WAV48 ps-16-10.wav
#WAV49 ps-16-5.wav
#WAV4A ps-16-8.wav
#WAV4B ps-16-2.wav
#WAV4C ps-16-11.wav
#WAV4D ps-16-12.wav
#WAV4E ps-16-13.wav
#WAV4F ps-16-14.wav
#WAV4G ps-16-15.wav
#WAV4H ps-16-16.wav
#WAV4I ps-16-17.wav
#WAV4J ps-16-18.wav
#WAV4K ps-16-19.wav
#WAV4L ps-16-20.wav
#WAV4M ps-16-7.wav
#WAV4N ps-16-21.wav
#WAV4O ps-16-22.wav
#WAV4P ps-16-23.wav
#WAV4Q ps-16-24.wav
#WAV4R ps-16-25.wav
#WAV4S ps-16-26.wav
#WAV4T ps-16-27.wav
#WAV4U ps-16-28.wav
#WAV4V ps-16-29.wav
#WAV4W ps-16-30.wav
#WAV4X ps-16-23.wav
#WAV4Y ps-16-31.wav
#WAV4Z ps-32-1.wav
#WAV50 ps-32-1.wav
#WAV51 ps-32-1b.wav
#WAV52 ps-32-1b.wav
#WAV53 ps-32-2.wav
#WAV54 ps-32-2.wav
#WAV55 ps-32-2b.wav
#WAV56 ps-32-2b.wav
#WAV57 ps-32-3.wav
#WAV58 ps-32-4.wav
#WAV59 ps-32-5.wav
#WAV5A ps-32-6.wav
#WAV5B ps-32-7.wav
#WAV5C ps-32-8.wav
#WAV5D ps-32-9.wav
#WAV5E ps-32-10.wav
#WAV5F ps-32-10.wav
#WAV5G ps-32-10b.wav
#WAV5H ps-32-10b.wav
#WAV5I SE2.wav
#WAV5J chero 1.wav
#WAV5K chero 2.wav
#WAV5L chero 3.wav
#WAV5M chero 4.wav
#WAV5N chero 9.wav
#WAV5O chero 10.wav
#WAV5P chero 11.wav
#WAV5Q chero 12.wav
#WAV5R chero 13.wav
#WAV5S chero 14.wav
#WAV5T chero 15.wav
#WAV5U chero 16.wav
#WAV5V chero 17.wav
#WAV5W chero 18.wav
#WAV5X chero 19.wav
#WAV5Y chero 20.wav
#WAV5Z chero 21.wav
#WAV60 chero 22.wav
#WAV61 solo 1.wav
#WAV62 solo 2.wav
#WAV63 solo 3.wav
#WAV64 solo 4.wav
#WAV65 solo 5.wav
#WAV66 solo 6.wav
#WAV67 solo 7.wav
#WAV68 solo 8.wav
#WAV69 solo 9.wav
#WAV6A solo 10.wav
#WAV6B solo 11.wav
#WAV6C solo 12.wav
#WAV6D solo 13.wav
#WAV6E solo 14.wav
#WAV6F solo 15.wav
#WAV6G solo 16.wav
#WAV6H solo 17.wav
#WAV6I solo 18.wav
#WAV6J solo 19.wav
#WAV6K solo 20.wav
#WAV6L solo 21.wav
#WAV6M solo 22.wav
#WAV6N solo 23.wav
#WAV6O solo 24.wav
#WAV6P solo 25.wav
#WAV6Q solo 26.wav
#WAV6R solo 27.wav
#WAV6S solo 28.wav
#WAV6T solo 29.wav
#WAV6U solo 30.wav
#WAV6V solo 31.wav
#WAV6W solo 32.wav
#WAV6X solo 33.wav
#WAV6Y solo 34.wav
#WAV6Z solo 35.wav
#WAV70 solo 36.wav
#WAV71 solo 37.wav
#WAV72 solo 38.wav
#WAV73 solo 39.wav
#WAV74 solo 40.wav
#WAV75 solo 41.wav
#WAV76 solo 42.wav
#WAV77 solo 43.wav
#WAV78 solo 44.wav
#WAV79 solo 45.wav
#WAV7A solo 46.wav
#WAV7B bass1.wav
#WAV7C bass2.wav
#WAV7D bass3.wav
#WAV7E bass4.wav
#WAV7F bass5.wav
#WAV7G bass6.wav
#WAV7H bass7.wav
#WAV7I bass8.wav
#WAV7J bass9.wav
#WAV7K bass10.wav
#WAV7L bass11.wav
#WAV7M bass12.wav
#WAV7N bass13.wav
#WAV7O bass14.wav
#WAV7P bass15.wav
#WAV7Q bass16.wav
#WAV7R bass17.wav
#WAV7S bass18.wav
#WAV7T bass19.wav
#WAV7U bass20.wav
#WAV7V bass1.wav
#WAV7W bass3.wav
#WAV7X bass5.wav
#WAV7Y bass7.wav
#WAV7Z bass9.wav
#WAV80 bass11.wav
#WAV81 bass13.wav
#WAV82 bass15.wav
#WAV83 bass17.wav
#WAV84 bass19.wav
#WAV85 chero1.wav
#WAV86 chero2.wav
#WAV87 chero3.wav
#WAV88 chero4.wav
#WAV89 vio1.wav
#WAV8A vio2.wav
#WAV8B vio3.wav
#WAV8C vio4.wav
#WAV8D tim.wav
#WAV8E tanbarin.wav
#WAV8F suzu.wav
#WAV8G suzu32.wav
#WAV8H syuooo.wav
#WAV8I SE5.wav
#WAV8J horn.wav
#WAV8K suzu.wav
#WAV8L suzu32.wav
#WAV8M cym B.wav
#WAV8N cym C.wav
#WAV8O SE4.wav
#BMP01 joker.mpg
#BMP03 miss 01.bmp
#BMP04 miss 02.bmp
#BMP05 miss 03.bmp
#BMP06 miss 04.bmp
#BMP07 miss 05.bmp
#BMP08 miss 06.bmp
#BMP09 miss 07.bmp
#BMP0A miss 08.bmp
#BMP0B miss 09.bmp
#BMP0C miss 10.bmp
#BMP0D miss 11.bmp
#BMP0E miss 12.bmp
#BMP0F miss 13.bmp
#BMP0G miss 14.bmp
#BMP0H miss 15.bmp
#BMP0I miss 16.bmp
#DIFFICULTY 4
#BACKBMP logo.jpg *---------------------- MAIN DATA FIELD
#00104:01
#00106:030405060708090A0B0C0D0E0F0G0H0I030405060708090A0B0C0D0E0F0G0H0I
#00116:000B000000000000
#00201:00
#00201:00
#00201:00
#00201:00
#00201:00
#00201:00
#00201:00
#00201:00
#00201:00
#00201:00
#00201:00
#00201:00
#00201:00
#00201:7B7C7B7V7C7B7V7C7B7C7B7V7C7B7V7C
#00206:030405060708090A0B0C0D0E0F0G0H0I030405060708090A0B0C0D0E0F0G0H0I
#00211:0400000400040000
#00212:0T0U000000000000
#00213:0000000V00000000
#00215:1011000000000000
#00218:0000001200000000
#00219:00000L00000L0000
#00301:00
#00301:00
#00301:00
#00301:00
#00301:00
#00301:00
#00301:00
#00301:00
#00301:00
#00301:00
#00301:00
#00301:00
#00301:00
#00301:7B7C7B7V7C7B7V7C7B7C7B7V7C7B7V7C
#00306:030405060708090A0B0C0D0E0F0G0H0I030405060708090A0B0C0D0E0F0G0H0I
#00311:0400000400040000
#00313:0W0X000000000000
#00314:0000000Y00000000
#00318:1314000000000000
#00319:00000L15000L0000
#00401:00
#00401:00
#00401:00
#00401:00
#00401:00
#00401:00
#00401:00
#00401:000H000H000H000H000H000H000H000H
#00401:0F0F0F0F0F0F0F0F
#00401:00
#00401:00
#00401:00
#00401:00
#00401:7B7C7B7V7C7B7V7C7B7C7B7V7C7B7V7C
#00406:030405060708090A0B0C0D0E0F0G0H0I030405060708090A0B0C0D0E0F0G0H0I
#00411:0400000400040000
#00412:0T0U000000000000
#00413:0000000V00000000
#00415:1011000000000000
#00416:0K00000J000J0000
#00418:0000001200000000
#00501:00
#00501:00
#00501:00
#00501:00
#00501:00
#00501:00
#00501:00
#00501:000H000H000H000H000H000H000H000H
#00501:0F0F0F0F0F0F0F0F
#00501:00
#00501:00
#00501:00
#00501:00
#00501:7B7C7B7V7C7B7V7C7B7C7B7V7C7B7V7C
#00506:030405060708090A0B0C0D0E0F0G0H0I030405060708090A0B0C0D0E0F0G0H0I
#00511:0400000400040007
#00513:0W0X000000000000
#00514:0000000Y00000000
#00516:0K00000J000J0000
#00518:1314000000000000
#00519:0000001500000000
#00601:00
#00601:00
#00601:00
#00601:00
#00601:00
#00601:00
#00601:00
#00601:00
#00601:00
#00601:00
#00601:00030003000300030003000300030003
#00601:00
#00601:00
#00601:7B7C7B7V7C7B7V7C7B7C7B7V7C7B7V7C
#00601:00
#00601:00
#00601:00
#00601:00
#00601:00
#00601:00
#00601:00
#00601:00
#00601:00
#00601:00
#00601:00
#00601:00
#00601:00
#00601:00
#00601:00
#00601:00
#00601:00
#00601:0O
#00606:030405060708090A0B0C0D0E0F0G0H0I030405060708090A0B0C0D0E0F0G0H0I
#00611:04040404
#00612:0001000100010001
#00613:2H0L000L
#00614:002I002I002J002I
#00615:02020202
#00616:0C
#00618:002J2L2K
#00619:0002000200020002
#00701:00
#00701:00
#00701:00
#00701:00
#00701:00
#00701:00
#00701:00
#00701:00
#00701:00
#00701:00
#00701:00030003000300030003000300030003
#00701:00
#00701:00
#00701:7B7C7B7V7C7B7V7C7B7C7B7V7C7B7V7C
#00706:030405060708090A0B0C0D0E0F0G0H0I030405060708090A0B0C0D0E0F0G0H0I
#00711:04040404
#00712:0001000100010001
#00713:2H2K000L
#00714:002J002L002I002J
#00715:02020202
#00718:00002M2L
#00719:00020L0200020002
#00801:00
#00801:00
#00801:00
#00801:00
#00801:00
#00801:00
#00801:00
#00801:00
#00801:00
#00801:00
#00801:00030003000300030003000300030003
#00801:00
#00801:00
#00801:7D7E7D7W7E7D7W7E7D7E7D7W7E7D7W7E
#00806:030405060708090A0B0C0D0E0F0G0H0I030405060708090A0B0C0D0E0F0G0H0I
#00811:04040404
#00812:0001000100010001
#00813:2K000L00002L0L00
#00814:002L002I00002M00
#00815:02020202
#00818:00002M002N00002N
#00819:0002000200020002
#00901:00
#00901:00
#00901:00
#00901:00
#00901:00
#00901:00
#00901:00
#00901:00
#00901:00
#00901:00
#00901:00030003000300030003000300030003
#00901:00
#00901:00
#00901:7D7E7D7W7E7D7W7E7D7E7D7W7E7D7W7E
#00906:030405060708090A0B0C0D0E0F0G0H0I030405060708090A0B0C0D0E0F0G0H0I
#00911:04040404
#00912:0001000100010001
#00913:2I000L2J00000L2O
#00914:002L002J
#00915:02000200022K0200
#00918:002M00002L000000
#00919:0002000200020002
#01001:00
#01001:00
#01001:00
#01001:00
#01001:00
#01001:00
#01001:00
#01001:00
#01001:00
#01001:00
#01001:00030003000300030003000300030003
#01001:00
#01001:00
#01001:7F7G7F7X7G7F7X7G7F7G7F7X7G7F7X7G
#01006:030405060708090A0B0C0D0E0F0G0H0I030405060708090A0B0C0D0E0F0G0H0I
#01011:04040404
#01012:0001000100010001
#01013:2H0L000L
#01014:002I002I002J002I
#01015:02020202
#01018:002J2L2K
#01019:0002000200020002
#01101:00
#01101:00
#01101:00
#01101:00
#01101:00
#01101:00
#01101:00
#01101:00
#01101:00
#01101:00
#01101:00030003000300030003000300030003
#01101:00
#01101:00
#01101:7F7G7F7X7G7F7X7G7F7G7F7X7G7F7X7G
#01106:030405060708090A0B0C0D0E0F0G0H0I030405060708090A0B0C0D0E0F0G0H0I
#01111:04040404
#01112:0001000100010001
#01113:2H2K000L
#01114:002J002L002I002J
#01115:02020202
#01118:00002M2L
#01119:00020L0200020002
#01201:00
#01201:00
#01201:00
#01201:00
#01201:00
#01201:00
#01201:00
#01201:00
#01201:00
#01201:00
#01201:00030003000300030003000300030003
#01201:00
#01201:00
#01201:7B7C7B7V7C7B7V7C7B7C7B7V7C7B7V7C
#01206:030405060708090A0B0C0D0E0F0G0H0I030405060708090A0B0C0D0E0F0G0H0I
#01211:04040404
#01212:0001000100010001
#01213:00000L00002L0L00
#01214:002L002I00002M00
#01215:020002000200022N
#01218:2K2M2N00
#01219:0002000200020002
#01301:00
#01301:00
#01301:00
#01301:00
#01301:00
#01301:00
#01301:00
#01301:00
#01301:00
#01301:00
#01301:00030003000300030003000300030003
#01301:00
#01301:00
#01301:7B7C7B7V7C7B7V7C7B7C7B7V7C7B7V7C
#01306:030405060708090A0B0C0D0E0F0G0H0I030405060708090A0B0C0D0E0F0G0H0I
#01311:04040404
#01312:0001000100010001
#01313:00000L2J00000L2O
#01314:2I2L002J
#01315:02000200022K0200
#01316:000000000000000000000000008M0000
#01318:002M00002L000000
#01319:0002000200020002
#01401:00
#01401:00
#01401:00
#01401:00
#01401:00
#01401:00
#01401:00
#01401:00
#01401:00
#01401:00
#01401:00030003000300030003000300030003
#01401:00
#01401:00
#01401:7B7C7B7V7C7B7V7C7B7C7B7V7C7B7V7C
#01406:030405060708090A0B0C0D0E0F0G0H0I030405060708090A0B0C0D0E0F0G0H0I
#01411:04040404
#01412:000L000L
#01413:2H0000000000002I
#01414:002I002I002J0000
#01415:02020202
#01418:00012J0100012K01
#01419:000200022L020002
#01501:00
#01501:00
#01501:00
#01501:00
#01501:00
#01501:00
#01501:00
#01501:00
#01501:00
#01501:00
#01501:00030003000300030003000300030003
#01501:00
#01501:00
#01501:7B7C7B7V7C7B7V7C7B7C7B7V7C7B7V7C
#01506:030405060708090A0B0C0D0E0F0G0H0I030405060708090A0B0C0D0E0F0G0H0I
#01511:04040404
#01512:2H0L000L
#01513:002J0000002I0000
#01514:00002K000000002J
#01515:0200022L02000200
#01518:0001000100012L01
#01519:000200022M020002
#01601:00
#01601:00
#01601:00
#01601:00
#01601:00
#01601:00
#01601:00
#01601:00
#01601:00
#01601:00
#01601:00030003000300030003000300030003
#01601:00
#01601:00
#01601:7D7E7D7W7E7D7W7E7D7E7D7W7E7D7W7E
#01606:030405060708090A0B0C0D0E0F0G0H0I030405060708090A0B0C0D0E0F0G0H0I
#01611:04040404
#01612:000L000L
#01613:2K000000002L0000
#01614:002L002I00002M00
#01615:020002000200022N
#01618:00012M0100010001
#01619:000200022N020002
#01701:00
#01701:00
#01701:00
#01701:00
#01701:00
#01701:00
#01701:00
#01701:00
#01701:00
#01701:00
#01701:00030003000300030003000300030003
#01701:00
#01701:00
#01701:7D7E7D7W7E7D7W7E7D7E7D7W7E7D7W7E
#01706:030405060708090A0B0C0D0E0F0G0H0I030405060708090A0B0C0D0E0F0G0H0I
#01711:04040404
#01712:000L000L
#01713:2I00002J0000002O
#01714:002L002J
#01715:022M0200022K0200
#01718:000100012L010001
#01719:0002000200020002
#01801:00
#01801:00
#01801:00
#01801:00
#01801:00
#01801:00
#01801:00
#01801:00
#01801:00
#01801:00
#01801:00030003000300030003000300030003
#01801:00
#01801:00
#01801:7F7G7F7X7G7F7X7G7F7G7F7X7G7F7X7G
#01806:030405060708090A0B0C0D0E0F0G0H0I030405060708090A0B0C0D0E0F0G0H0I
#01811:04040404
#01812:000L000L
#01813:2H0000000000002I
#01814:002I002I002J0000
#01815:02020202
#01818:00012J0100012K01
#01819:000200022L020002
#01901:00
#01901:00
#01901:00
#01901:00
#01901:00
#01901:00
#01901:00
#01901:00
#01901:00
#01901:00
#01901:00030003000300030003000300030003
#01901:00
#01901:00
#01901:7F7G7F7X7G7F7X7G7F7G7F7X7G7F7X7G
#01906:030405060708090A0B0C0D0E0F0G0H0I030405060708090A0B0C0D0E0F0G0H0I
#01911:04040404
#01912:2H0L000L
#01913:002J0000002I0000
#01914:00002K000000002J
#01915:0200022L02000200
#01918:0001000100012L01
#01919:000200022M020002
#02001:00
#02001:00
#02001:00
#02001:00
#02001:00
#02001:00
#02001:00
#02001:00
#02001:00
#02001:00
#02001:00030003000300030003000300030003
#02001:00
#02001:00
#02001:7B7C7B7V7C7B7V7C7B7C7B7V7C7B7V7C
#02006:030405060708090A0B0C0D0E0F0G0H0I030405060708090A0B0C0D0E0F0G0H0I
#02011:04040404
#02012:000L000L
#02013:2K000000002L0000
#02014:002L002I00002M00
#02015:020002000200022N
#02018:00012M0100010001
#02019:000200022N020002
#02101:00
#02101:00
#02101:00
#02101:00
#02101:00
#02101:00
#02101:00
#02101:00
#02101:00
#02101:00
#02101:00030003000300030003000300030003
#02101:00
#02101:00
#02101:7B7C7B7V7C7B7V7C7B7C7B7V7C7B7V7C
#02106:030405060708090A0B0C0D0E0F0G0H0I030405060708090A0B0C0D0E0F0G0H0I
#02111:04000004000400000400040005000700
#02112:000000000L000005000000000L002O00
#02113:2I00050000002J0000002K0000060000
#02114:002L002J
#02115:022M020002000200
#02116:0J000N0K00000I00
#02118:000100012L010001
#02119:0002000200020002
#02201:00
#02201:00
#02201:00
#02201:00
#02201:04040404
#02201:00
#02201:000L000L
#02201:00
#02201:00
#02201:0001000100010001
#02201:02030203020302030203020302030203
#02201:00
#02201:00
#02201:7B7C7B7V7C7B7V7C7B7C7B7V7C7B7V7C
#02201:00
#02201:8F8K8F008F8K8F008F8K8F008F8K0000
#02201:000000000000008E
#02201:00
#02201:00
#02201:00
#02201:00
#02201:00
#02201:00
#02201:00
#02201:00
#02201:00
#02201:00
#02201:00
#02201:00
#02201:00
#02201:00
#02201:0P
#02206:030405060708090A0B0C0D0E0F0G0H0I030405060708090A0B0C0D0E0F0G0H0I
#02211:1J0000001J00001K001J00001J000000
#02213:001L001J001K001L
#02214:1718
#02215:0000000000190018
#02216:0C
#02218:00180000
#02219:0000001A
#02301:00
#02301:00
#02301:00
#02301:00
#02301:04040404
#02301:00
#02301:000L000L
#02301:00
#02301:00
#02301:0001000100010001
#02301:02030203020302030203020302030203
#02301:00
#02301:00
#02301:7B7C7B7V7C7B7V7C7B7C7B7V7C7B7V7C
#02301:00
#02301:8F008K008F0000008F008K008G8L8G8L8F0000008K0000008F008K0000000000
#02301:000000000000008E
#02306:030405060708090A0B0C0D0E0F0G0H0I030405060708090A0B0C0D0E0F0G0H0I
#02311:1J0000001J001J00001J00001J000000
#02313:00001L000000001K00001K0000001L00
#02314:0000001800001700
#02315:00190000
#02318:191B
#02319:001A000000000000
#02401:00
#02401:00
#02401:00
#02401:00
#02401:04040404
#02401:00
#02401:000L000L
#02401:00
#02401:00
#02401:0001000100010001
#02401:02030203020302030203020302030203
#02401:00
#02401:00
#02401:7D7E7D7W7E7D7W7E7D7E7D7W7E7D7W7E
#02401:00
#02401:8F8K8F008F8K8F008F8K8F008F8K0000
#02401:000000000000008E
#02406:030405060708090A0B0C0D0E0F0G0H0I030405060708090A0B0C0D0E0F0G0H0I
#02412:1M0000001M001M00001M00001M000000
#02414:17001O000000001N00001N0000001O00
#02415:0000180018000018
#02418:0000000000190000
#02419:0000001A
#02501:00
#02501:00
#02501:00
#02501:00
#02501:04040404
#02501:00
#02501:000L000L
#02501:00
#02501:00
#02501:0001000100010001
#02501:02030203020302030203020302030203
#02501:00
#02501:00
#02501:7D7E7D7W7E7D7W7E7D7E7D7W7E7D7W7E
#02501:00
#02501:8F008K008F0000008F008K008G8L8G8L8F0000008K0000008F008K0000000000
#02501:000000000000008E
#02506:030405060708090A0B0C0D0E0F0G0H0I030405060708090A0B0C0D0E0F0G0H0I
#02512:1M0000001M001M00001M00001M000000
#02513:0000001800000000
#02514:00001O001900001N00001N0000001O00
#02515:000000001B00001B
#02518:001A000000180000
#02519:1C000019
#02601:00
#02601:00
#02601:00
#02601:00
#02601:04040404
#02601:00
#02601:000L000L
#02601:00
#02601:00
#02601:0001000100010001
#02601:02030203020302030203020302030203
#02601:00
#02601:00
#02601:7F7G7F7X7G7F7X7G7F7G7F7X7G7F7X7G
#02601:00
#02601:8F8K8F008F8K8F008F8K8F008F8K0000
#02601:000000000000008E
#02606:030405060708090A0B0C0D0E0F0G0H0I030405060708090A0B0C0D0E0F0G0H0I
#02611:1700000000000018
#02612:00181800
#02613:1P0000001P001P00001P00001P000000
#02614:0000000000190000
#02615:00001R000000001Q00001Q0000001R00
#02619:0000001A
#02701:00
#02701:00
#02701:00
#02701:00
#02701:04040404
#02701:00
#02701:000L000L
#02701:00
#02701:00
#02701:0001000100010001
#02701:02030203020302030203020302030203
#02701:00
#02701:00
#02701:7F7G7F7X7G7F7X7G7F7G7F7X7G7F7X7G
#02701:00
#02701:8F008K008F0000008F008K008G8L8G8L8F0000008K0000008F008K0000000000
#02701:000000000000008E
#02706:030405060708090A0B0C0D0E0F0G0H0I030405060708090A0B0C0D0E0F0G0H0I
#02711:000000001D1D0000
#02712:00000000000018000000001E00001G00
#02713:1P0000001P001P00001P00001P000000
#02714:1900001F
#02715:00001R001900001Q00001Q0000001R00
#02719:001A000000000000
#02801:00
#02801:00
#02801:00
#02801:00
#02801:04040404
#02801:00
#02801:000L000L
#02801:00
#02801:00
#02801:0001000100010001
#02801:02030203020302030203020302030203
#02801:00
#02801:00
#02801:7B7C7B7V7C7B7V7C7B7C7B7V7C7B7V7C
#02801:00
#02801:8F8K8F008F8K8F008F8K8F008F8K0000
#02801:000000000000008E
#02806:030405060708090A0B0C0D0E0F0G0H0I030405060708090A0B0C0D0E0F0G0H0I
#02811:17
#02813:0000180018000018
#02814:1S0000001S001S00001S00001S000000
#02815:0000000000190000
#02818:00001U000000001T00001T0000001U00
#02819:0000001A
#02901:00
#02901:00
#02901:00
#02901:00
#02901:04040404
#02901:00
#02901:000L000L
#02901:00
#02901:00
#02901:0001000100010001
#02901:02030203020302030203020302030203
#02901:00
#02901:00
#02901:7B7C7B7V7C7B7V7C7B7C7B7V7C7B7V7C
#02901:00
#02901:8F008K008F0000008F008K008G8L8G8L8F0000008K0000008F008K0000000000
#02901:000000000000008E
#02906:030405060708090A0B0C0D0E0F0G0H0I030405060708090A0B0C0D0E0F0G0H0I
#02911:0000001E00000000
#02912:000000001B00001B
#02913:00001F0000180000
#02914:1S0000001S001S00001S00001S000000
#02915:0000001I000000000000000000000000
#02916:000000000000000000000000008M0000
#02918:00001U000000001T00001T0000001U00
#02919:1H1H000000001900
#03001:00
#03001:00
#03001:00
#03001:00
#03001:00
#03001:00
#03001:000L000L
#03001:00
#03001:00
#03001:0001000100010001
#03001:02030203020302030203020302030203
#03001:00
#03001:00
#03001:7B7C7B7V7C7B7V7C7B7C7B7V7C7B7V7C
#03001:00
#03001:8F8K8F008F8K8F008F8K8F008F8K0000
#03001:000000000000008E
#03006:030405060708090A0B0C0D0E0F0G0H0I030405060708090A0B0C0D0E0F0G0H0I
#03011:04040404
#03012:1J0000001J001J00001J00001J000000
#03014:17001L000000001K00001K0000001L00
#03015:0000180018000018
#03018:0000000000190000
#03019:0000001A
#03101:00
#03101:00
#03101:00
#03101:00
#03101:00
#03101:00
#03101:000L000L
#03101:00
#03101:00
#03101:0001000100010001
#03101:02030203020302030203020302030203
#03101:00
#03101:00
#03101:7B7C7B7V7C7B7V7C7B7C7B7V7C7B7V7C
#03101:00
#03101:8F008K008F0000008F008K008G8L8G8L8F0000008K0000008F008K0000000000
#03101:000000000000008E
#03106:030405060708090A0B0C0D0E0F0G0H0I030405060708090A0B0C0D0E0F0G0H0I
#03111:04040404
#03112:1J0000001J001J00001J00001J000000
#03114:00001L000000001K00001K0000001L00
#03115:0000001800001700
#03118:19191B00
#03119:001A000000000000
#03201:00
#03201:00
#03201:00
#03201:00
#03201:00
#03201:00
#03201:000L000L
#03201:00
#03201:00
#03201:0001000100010001
#03201:02030203020302030203020302030203
#03201:00
#03201:00
#03201:7D7E7D7W7E7D7W7E7D7E7D7W7E7D7W7E
#03201:00
#03201:8F8K8F008F8K8F008F8K8F008F8K0000
#03201:000000000000008E
#03206:030405060708090A0B0C0D0E0F0G0H0I030405060708090A0B0C0D0E0F0G0H0I
#03211:04040404
#03212:17
#03213:1M0000001M001M00001M00001M000000
#03214:0000180018000018
#03215:00001O000000001N00001N0000001O00
#03218:0000000000190000
#03219:0000001A
#03301:00
#03301:00
#03301:00
#03301:00
#03301:00
#03301:00
#03301:000L000L
#03301:00
#03301:00
#03301:0001000100010001
#03301:02030203020302030203020302030203
#03301:00
#03301:00
#03301:7D7E7D7W7E7D7W7E7D7E7D7W7E7D7W7E
#03301:00
#03301:8F008K008F0000008F008K008G8L8G8L8F0000008K0000008F008K0000000000
#03301:000000000000008E
#03306:030405060708090A0B0C0D0E0F0G0H0I030405060708090A0B0C0D0E0F0G0H0I
#03311:04040404
#03312:001B
#03313:1M0000001M001M00001M00001M001B00
#03314:0000001800180000
#03315:00001O001900001N00001N0000001O00
#03318:001A000000001900
#03319:1C
#03401:00
#03401:00
#03401:00
#03401:00
#03401:00
#03401:00
#03401:000L000L
#03401:00
#03401:00
#03401:0001000100010001
#03401:02030203020302030203020302030203
#03401:00
#03401:00
#03401:7F7G7F7X7G7F7X7G7F7G7F7X7G7F7X7G
#03401:00
#03401:8F8K8F008F8K8F008F8K8F008F8K0000
#03401:000000000000008E
#03406:030405060708090A0B0C0D0E0F0G0H0I030405060708090A0B0C0D0E0F0G0H0I
#03411:04040404
#03413:1700000018000018
#03414:1P0000001P001P00001P00001P000000
#03415:0000000000190000
#03418:00001R001800001Q00001Q0000001R00
#03419:0000001A
#03501:00
#03501:00
#03501:00
#03501:00
#03501:00
#03501:00
#03501:000L000L
#03501:00
#03501:00
#03501:0001000100010001
#03501:02030203020302030203020302030203
#03501:00
#03501:00
#03501:7F7G7F7X7G7F7X7G7F7G7F7X7G7F7X7G
#03501:00
#03501:8F008K008F0000008F008K008G8L8G8L8F0000008K0000008F008K0000000000
#03501:000000000000008E
#03506:030405060708090A0B0C0D0E0F0G0H0I030405060708090A0B0C0D0E0F0G0H0I
#03511:04040404
#03512:000000001D1D0000
#03513:000000180000001G
#03514:1P0000001P001P00001P00001P000000
#03515:19000000190000000000001E00000000
#03518:00001R000000001Q00001Q0000001R00
#03519:001A000000001F00
#03601:00
#03601:00
#03601:00
#03601:00
#03601:00
#03601:00
#03601:000L000L
#03601:00
#03601:00
#03601:0001000100010001
#03601:02030203020302030203020302030203
#03601:00
#03601:00
#03601:7B7C7B7V7C7B7V7C7B7C7B7V7C7B7V7C
#03601:00
#03601:8F8K8F008F8K8F008F8K8F008F8K0000
#03601:000000000000008E
#03606:030405060708090A0B0C0D0E0F0G0H0I030405060708090A0B0C0D0E0F0G0H0I
#03611:04040404
#03612:17
#03613:0000180018000018
#03614:0000000000190000
#03615:1S0000001S001S00001S00001S000000
#03618:0000001A
#03619:00001U000000001T00001T0000001U00
#03701:00
#03701:00
#03701:00
#03701:00
#03701:00
#03701:00
#03701:000L000L
#03701:00
#03701:00
#03701:0001000100010001
#03701:02030203020302030203020302030203
#03701:00
#03701:00
#03701:7B7C7B7V7C7B7V7C7B7C7B7V7C7B7V7C
#03701:00
#03701:8F008K008F0000008F008K008G8L8G8L8F0000008K0000008F008K0000000000
#03701:000000000000008E
#03706:030405060708090A0B0C0D0E0F0G0H0I030405060708090A0B0C0D0E0F0G0H0I
#03711:040004001B000407
#03712:0000001E0400001B
#03713:00001F0000180000
#03714:0000001I000000000000000000000000
#03715:1S0000001S001S00001S00001S000000
#03716:0J000N0K00000I00
#03718:1H1H000000001900
#03719:00001U000000001T00001T0000001U00
#03801:00
#03801:00
#03801:00
#03801:00
#03801:04040404
#03801:00
#03801:000L000L
#03801:00
#03801:00
#03801:0001000100010001
#03801:00030203000300030203020302030203
#03801:00
#03801:00
#03801:7B7C7B7V7C7B7V7C7B7C7B7V7C7B7V7C
#03801:00
#03801:00
#03801:00
#03801:00
#03801:00
#03801:00
#03801:00
#03801:00
#03801:00
#03801:00
#03801:00
#03801:00
#03801:00
#03801:00
#03801:00
#03801:00
#03801:00
#03801:0Q
#03806:030405060708090A0B0C0D0E0F0G0H0I030405060708090A0B0C0D0E0F0G0H0I
#03811:61
#03812:005J0000
#03813:5J00005K00000000
#03814:005K0000005L0000
#03815:020002020000005M
#03816:0C
#03819:2U002V2W00000000
#03901:00
#03901:00
#03901:00
#03901:00
#03901:04040404
#03901:00
#03901:000L000L
#03901:00
#03901:00
#03901:0001000100010001
#03901:02030203020302030203020302030203
#03901:00
#03901:00
#03901:7B7C7B7V7C7B7V7C7B7C7B7V7C7B7V7C
#03906:030405060708090A0B0C0D0E0F0G0H0I030405060708090A0B0C0D0E0F0G0H0I
#03911:5J5J0000
#03912:005K005K00000000
#03913:002M
#03914:2M000000005L0000
#03915:002P002P0000005M
#03918:620000000000000000002P0000000064
#03919:00002Q0000000063
#04001:00
#04001:00
#04001:00
#04001:00
#04001:04040404
#04001:00
#04001:000L000L
#04001:00
#04001:00
#04001:0001000100010001
#04001:00030203000300030203020302030203
#04001:00
#04001:00
#04001:7F7G7F7X7G7F7X7G7F7G7F7X7G7F7X7G
#04006:030405060708090A0B0C0D0E0F0G0H0I030405060708090A0B0C0D0E0F0G0H0I
#04011:5N5N0068
#04012:0200000000005O000000670000690000
#04013:005O00006600006A
#04014:2X00000002000200000000000000006B
#04015:65000000005P0000
#04018:00002Y2Z0000005Q
#04101:00
#04101:00
#04101:00
#04101:00
#04101:04040404
#04101:00
#04101:000L000L
#04101:00
#04101:00
#04101:0001000100010001
#04101:02030203020302030203020302030203
#04101:00
#04101:00
#04101:7F7G7F7X7G7F7X7G7F7G7F7X7G7F7X7G
#04106:030405060708090A0B0C0D0E0F0G0H0I030405060708090A0B0C0D0E0F0G0H0I
#04111:5N5N0000
#04112:005O005O002L0000
#04113:006D
#04114:002R0000005P0000
#04115:2P2R
#04118:0000002P0000005Q
#04119:6C2Q0000
#04201:00
#04201:00
#04201:00
#04201:00
#04201:04040404
#04201:00
#04201:000L000L
#04201:00
#04201:00
#04201:0001000100010001
#04201:00030203020300030203020300030203
#04201:00
#04201:00
#04201:7H7I7H7Y7I7H7Y7I7H7I7H7Y7I7H7Y7I
#04206:030405060708090A0B0C0D0E0F0G0H0I030405060708090A0B0C0D0E0F0G0H0I
#04211:02
#04213:5R0000020000005V
#04214:005R0032
#04215:6E000031005U0000
#04218:005S000000000200
#04219:3000005T00000000
#04301:00
#04301:00
#04301:00
#04301:00
#04301:04040404
#04301:00
#04301:000L000L
#04301:00
#04301:00
#04301:0001000100010001
#04301:02030203020302030203020302030203
#04301:00
#04301:00
#04301:7H7I7H7Y7I7H7Y7I7H7I7H7Y7I7H7Y7I
#04306:030405060708090A0B0C0D0E0F0G0H0I030405060708090A0B0C0D0E0F0G0H0I
#04311:5R
#04312:00005R00002M0000
#04313:005S00002R000000
#04314:6F00002P0000005V
#04315:00002Q00005U0000
#04318:002T00006G000000
#04319:2S00005T00000000
#04401:00
#04401:00
#04401:00
#04401:00
#04401:04040404
#04401:00
#04401:000L000L
#04401:00
#04401:00
#04401:0001000100010001
#04401:00030203020302030203020302030203
#04401:00
#04401:00
#04401:7F7G7F7X7G7F7X7G7F7G7F7X7G7F7X7G
#04406:030405060708090A0B0C0D0E0F0G0H0I030405060708090A0B0C0D0E0F0G0H0I
#04411:02
#04412:5O00002Q00000000
#04413:332T2T00
#04414:00000000002S005V
#04415:6H5S003F
#04418:00005U000000000000005U00003G0000
#04419:0000005T0000003H
#04501:00
#04501:00
#04501:00
#04501:00
#04501:04040404
#04501:00
#04501:000L000L
#04501:00
#04501:00
#04501:0001000100010001
#04501:00030203020302030003020302030203
#04501:00
#04501:00
#04501:7J7K7J7Z7K7J7Z7K7L7M7L807M7L807M
#04506:030405060708090A0B0C0D0E0F0G0H0I030405060708090A0B0C0D0E0F0G0H0I
#04511:5W
#04512:005Y0200
#04513:3400005Z0000005Y
#04514:005X000035000000
#04515:6I00000000600000
#04516:000000000000000000000000008M0000
#04518:026J
#04601:00
#04601:00
#04601:00
#04601:00
#04601:04040404
#04601:00
#04601:000L000L
#04601:00
#04601:00
#04601:0001000100010001
#04601:00030203020302030203020302030203
#04601:00
#04601:00
#04601:7B7C7B7V7C7B7V7C7B7C7B7V7C7B7V7C
#04606:030405060708090A0B0C0D0E0F0G0H0I030405060708090A0B0C0D0E0F0G0H0I
#04611:5J5J003Q
#04612:0200005K006O0000
#04613:00005K003I0000006N000000003R0000
#04614:36000000003J00003M005L0000003S00
#04615:000000006K003K00003N000000005M00
#04618:6K0000000000003L00003O0000000000
#04619:00006L0000006M000000003P0000003T
#04701:00
#04701:00
#04701:00
#04701:00
#04701:04040404
#04701:00
#04701:000L000L
#04701:00
#04701:00
#04701:0001000100010001
#04701:00000203020302030203020302030203
#04701:00
#04701:00
#04701:7B7C7B7V7C7B7V7C7B7C7B7V7C7B7V7C
#04706:030405060708090A0B0C0D0E0F0G0H0I030405060708090A0B0C0D0E0F0G0H0I
#04711:6K006K00006O0000
#04712:5J6N
#04713:006L5J6M0000002M
#04714:020300000000000000005L0000000000
#04715:005K005K2P002R00
#04718:37380000000000000000000000005M00
#04719:00000000002Q0000
#04801:00
#04801:00
#04801:00
#04801:00
#04801:04040400
#04801:00
#04801:000L000L
#04801:00
#04801:00
#04801:0001000100010000
#04801:00030203020302030203020300030003
#04801:00
#04801:00
#04801:7F7G7F7X7G7F7X7G7F7G7F7X7G7F7X7G
#04806:030405060708090A0B0C0D0E0F0G0H0I030405060708090A0B0C0D0E0F0G0H0I
#04811:5N005N0000000401
#04812:02003U5O6T000000
#04813:00005O00003I000000005P0002000200
#04814:3900003J3L6U005Q
#04815:00006Q000000003K003M00003A003A00
#04818:6P006R00003N6V00
#04819:0000000000006S000000003O00006W00
#04901:00
#04901:00
#04901:00
#04901:00
#04901:04040404
#04901:00
#04901:000L000L
#04901:00
#04901:00
#04901:0001000100010001
#04901:02030203020302030203020302030203
#04901:00
#04901:00
#04901:7F7G7F7X7G7F7X7G7F7G7F7X7G7F7X7G
#04901:00
#04901:00
#04901:00
#04901:00
#04901:00
#04901:00
#04901:00
#04901:00
#04901:00
#04901:00
#04901:00
#04901:00
#04901:00
#04901:00
#04901:00
#04901:00
#04901:008O
#04906:030405060708090A0B0C0D0E0F0G0H0I030405060708090A0B0C0D0E0F0G0H0I
#04911:5N5N0000
#04912:6X00000000005O00000000007000003J
#04913:00005O006Y00003N00005P0000003L00
#04914:0000003P00003P000000003L003N0000
#04915:00003R00003R00006Z003N003P000000
#04918:003T00003T000000003P000000005Q00
#04919:3V3R
#05001:00
#05001:00
#05001:00
#05001:00
#05001:04040404
#05001:00
#05001:000L000L
#05001:00
#05001:00
#05001:0001000100010001
#05001:00030203020302030203020300030203
#05001:00
#05001:00
#05001:7H7I7H7Y7I7H7Y7I7H7I7H7Y7I7H7Y7I
#05006:030405060708090A0B0C0D0E0F0G0H0I030405060708090A0B0C0D0E0F0G0H0I
#05011:71710000
#05012:007200720000005V
#05013:5R005R00005U0000
#05014:005S003100000074
#05015:30000002
#05018:0200005T00730000
#05019:00000032
#05101:00
#05101:00
#05101:00
#05101:00
#05101:04040404
#05101:00
#05101:000L000L
#05101:00
#05101:00
#05101:0001000100010001
#05101:02030203020302030203020302030203
#05101:00
#05101:00
#05101:7H7I7H7Y7I7H7Y7I7H7I7H7Y7I7H7Y7I
#05106:030405060708090A0B0C0D0E0F0G0H0I030405060708090A0B0C0D0E0F0G0H0I
#05111:71710000
#05112:00720072002M0075
#05113:5R5R2R74
#05114:005S002P00730000
#05115:00002Q000000005V
#05118:002T0000005U0000
#05119:2S00005T00000000
#05201:00
#05201:00
#05201:00
#05201:00
#05201:04040404
#05201:00
#05201:00
#05201:000H000H000H000H000H000H000H000H
#05201:0F0F0F0F0F0F0F0F
#05201:0001000100010001
#05201:00030203020302030203020302030203
#05201:00
#05201:00
#05201:7F7G7F7X7G7F7X7G7F7G7F7X7G7F7X7G
#05201:00
#05201:00
#05201:00
#05201:00
#05201:00
#05201:00
#05201:7677
#05206:030405060708090A0B0C0D0E0F0G0H0I030405060708090A0B0C0D0E0F0G0H0I
#05211:0200002Q00000000
#05212:002T0000
#05213:000000002T00005V
#05214:5O005S00002S0000
#05215:005U000000003F00
#05218:330000000000000000005U00003G0000
#05219:0000005T0000003H
#05301:00
#05301:00
#05301:00
#05301:00
#05301:00
#05301:00
#05301:00
#05301:00000000000H000H0000000H000H000H
#05301:000F0F0F00000F0F
#05301:0001000100010001
#05301:00000200020302030000020002030203
#05301:00
#05301:00
#05301:7J7K7J7Z7K7J7Z7K7L7M7L807M7L807M
#05301:00
#05301:00
#05301:00
#05301:00
#05301:00
#05301:00
#05301:7879
#05301:00
#05301:5W5X5Y5Z0060005Y
#05301:00
#05301:00
#05301:008J
#05301:00
#05301:00
#05301:00
#05301:00
#05301:0000008I
#05306:030405060708090A0B0C0D0E0F0G0H0I030405060708090A0B0C0D0E0F0G0H0I
#05311:0400040004000407
#05312:0203000H000000000000000000000000
#05313:0000000000000000020H000F00000000
#05314:0F0H0003000000000000000000000000
#05315:00000000000000000F03000300000000
#05316:0J0000000N000K00005I00000I000000
#05318:3B3C003B000000000000000000000000
#05319:00000000000000003D3E003D00000000
#05401:00
#05401:00
#05401:00
#05401:00
#05401:00
#05401:00
#05401:00
#05401:00
#05401:00
#05401:00
#05401:00
#05401:00
#05401:00
#05401:00
#05401:00
#05401:00
#05401:00
#05401:00
#05401:00
#05401:00
#05401:7A
#05401:00
#05401:00
#05401:00
#05401:00
#05401:89898989
#05401:00
#05401:00
#05401:00
#05401:00
#05401:00
#05401:0R
#05403:5C
#05406:030405060708090A0B0C0D0E0F0G0H0I030405060708090A0B0C0D0E0F0G0H0I
#05411:08
#05415:000D
#05416:0C
#05501:00
#05501:00
#05501:00
#05501:00
#05501:00
#05501:00
#05501:00
#05501:00
#05501:00
#05501:00
#05501:00
#05501:00
#05501:00
#05501:00
#05501:00
#05501:00
#05501:00
#05501:00
#05501:00
#05501:00
#05501:00
#05501:00
#05501:00
#05501:00
#05501:00
#05501:8A8A8A8A
#05506:030405060708090A0B0C0D0E0F0G0H0I030405060708090A0B0C0D0E0F0G0H0I
#05601:00
#05601:00
#05601:00
#05601:00
#05601:00
#05601:00
#05601:00
#05601:00
#05601:00
#05601:00
#05601:00
#05601:00
#05601:00
#05601:00
#05601:00
#05601:00
#05601:00
#05601:00
#05601:00
#05601:00
#05601:00
#05601:00
#05601:00
#05601:00
#05601:00
#05601:8B8B8B8B
#05606:030405060708090A0B0C0D0E0F0G0H0I030405060708090A0B0C0D0E0F0G0H0I
#05615:000D
#05701:00
#05701:00
#05701:00
#05701:00
#05701:00
#05701:00
#05701:00
#05701:00
#05701:00
#05701:00
#05701:00
#05701:00
#05701:00
#05701:00
#05701:00
#05701:00
#05701:00
#05701:00
#05701:00
#05701:00
#05701:00
#05701:00
#05701:00
#05701:00
#05701:00
#05701:8C8C8C8C
#05701:00
#05701:00
#05701:00
#05701:00
#05701:008D
#05701:8H
#05706:030405060708090A0B0C0D0E0F0G0H0I030405060708090A0B0C0D0E0F0G0H0I
#05716:0000000000000000000B000000000000
#05806:030405060708090A0B0C0D0E0F0G0H0I030405060708090A0B0C0D0E0F0G0H0I
#05811:04000004040000040004000404000000
#05813:89898989
#05814:000M000M
#05815:85858585
#05816:0C
#05818:0009000900090009
#05819:0E0E0E0E0E0E0E0E
#05906:030405060708090A0B0C0D0E0F0G0H0I030405060708090A0B0C0D0E0F0G0H0I
#05911:04000004040000040004000404000000
#05912:8A8A8A8A
#05913:000M000M
#05914:8600000086000000860000008600000F
#05915:00000000000000000000000000000000000000000000000000000000000H0000
#05918:000900090009000F
#05919:0E0E0E0E0E0E0E0E
#06001:00
#06001:00
#06001:00
#06001:00
#06001:00
#06001:00
#06001:00
#06001:00
#06001:00
#06001:00
#06001:00
#06001:000E0E0E0E0E0E0E
#06006:030405060708090A0B0C0D0E0F0G0H0I030405060708090A0B0C0D0E0F0G0H0I
#06011:04000004040000040004000404050400
#06012:00000000000000000M0000000000000000000000000000000M00000600000000
#06013:8B8B8B8B
#06014:0000000000000000000000000000000A
#06015:000A000A000A000A000A000A000A0000
#06016:0I
#06018:8700870087008709
#06019:0909090909090900
#06101:00
#06101:00
#06101:00
#06101:00
#06101:00
#06101:00
#06101:00
#06101:00
#06101:00
#06101:00
#06101:00
#06101:0E0E0E0E0E0E0E0E
#06106:030405060708090A0B0C0D0E0F0G0H0I030405060708090A0B0C0D0E0F0G0H0I
#06111:04000004040000040004000404000000
#06112:000M000M
#06113:8C8C8C8C
#06114:0000000H0000000H0000000H0000000H0000000H0000000H0000000H0000000H
#06115:880F000F880F000F880F000F880F000F
#06118:000H0000000H0000000H0000000H0000000H0000000H0000000H0000000H0000
#06119:0F0F0F0F0F0F0F0F
#06201:00
#06201:00
#06201:00
#06201:00
#06201:00
#06201:00
#06201:00
#06201:00
#06201:00
#06201:00
#06201:00
#06201:00
#06201:00
#06201:7B7C7B7V7C7B7V7C7B7C7B7V7C7B7V7C
#06201:00
#06201:00
#06201:00
#06201:00
#06201:00
#06201:00
#06201:00
#06201:00
#06201:00
#06201:00
#06201:00
#06201:00
#06201:00
#06201:00
#06201:00
#06201:00
#06201:00
#06201:2A
#06203:B8
#06206:030405060708090A0B0C0D0E0F0G0H0I030405060708090A0B0C0D0E0F0G0H0I
#06211:08000000000000000000000000000042
#06213:0000000000004040
#06214:00000000000051520000003Z003Z0000
#06215:0040000041410000
#06216:0C
#06218:003Z003Z00004Z50003Y000000000000
#06219:3Y
#06301:00
#06301:00
#06301:00
#06301:00
#06301:00
#06301:00
#06301:00
#06301:00
#06301:00
#06301:00
#06301:00
#06301:00
#06301:00
#06301:7F7G7F7X7G7F7X7G7F7G7F7X7G7F7X7G
#06306:030405060708090A0B0C0D0E0F0G0H0I030405060708090A0B0C0D0E0F0G0H0I
#06311:00000000000000000000000000480000
#06312:4300000000004646
#06313:00400000000000000040000000470000
#06314:0000000000000000550056000055000000000000000000004500000045000000
#06315:003Z00003Z3Z0000
#06318:0000000000000000530054000053000000000000000000000000000000000000
#06319:0000003Y000000000000000000000000
#06401:00
#06401:00
#06401:00
#06401:00
#06401:00
#06401:00
#06401:00
#06401:00
#06401:00
#06401:00
#06401:00
#06401:00
#06401:00
#06401:7H7I7H7Y7I7H7Y7I7H7I7H7Y7I7H7Y7I
#06406:030405060708090A0B0C0D0E0F0G0H0I030405060708090A0B0C0D0E0F0G0H0I
#06411:0000004F00000057
#06412:000000000000004G4G00000000000000
#06413:4C0000000000000000004E000000000000000000000000000000480000580000
#06414:00004E00000000000000480000000059
#06415:00004D00000000004D000000000000000000460000000000460000000000005A
#06418:00000048000000000000000000000000
#06419:00000000000000000000004700000000
#06501:00
#06501:00
#06501:00
#06501:00
#06501:00
#06501:00
#06501:00
#06501:00
#06501:00
#06501:00
#06501:00
#06501:00
#06501:00
#06501:7N7O7N817O7N817O7P7Q7P827Q7P827Q
#06501:00
#06501:00
#06501:00
#06501:00
#06501:00
#06501:00
#06501:00
#06501:00
#06501:00
#06501:00
#06501:00
#06501:00
#06501:00
#06501:00
#06501:00
#06501:00
#06501:0G
#06506:030405060708090A0B0C0D0E0F0G0H0I030405060708090A0B0C0D0E0F0G0H0I
#06511:004E4E00000000000000000000000000
#06512:00464600004D4D000000000000000000
#06513:4H000000450000000048480043000000
#06514:42000000004I4I004200000000464A46
#06515:0000000043000000004H4H003Z000000
#06518:3Z0000004J0000004000000000424942
#06519:00004K4L
#06601:00
#06601:00
#06601:00
#06601:00
#06601:00
#06601:00
#06601:00
#06601:00
#06601:00
#06601:00
#06601:00
#06601:00
#06601:00
#06601:7B7C7B7V7C7B7V7C7B7C7B7V7C7B7V7C
#06606:030405060708090A0B0C0D0E0F0G0H0I030405060708090A0B0C0D0E0F0G0H0I
#06611:00004600000000000000000000470000
#06612:00000047000000000000000040000000
#06613:00470000450000000000000000004500
#06614:00000000004200000000003Z00000000
#06615:45000000000043000040000000000042
#06618:00000000000000400000410000000000
#06619:003Z
#06701:00
#06701:00
#06701:00
#06701:00
#06701:00
#06701:00
#06701:00
#06701:00
#06701:00
#06701:00
#06701:00
#06701:00
#06701:00
#06701:7L7M7L807M7L807M7L7M7L807M7L807M
#06706:030405060708090A0B0C0D0E0F0G0H0I030405060708090A0B0C0D0E0F0G0H0I
#06711:000000003Z0000000000004Q00000000
#06712:00420000004100000000000000000000
#06713:0000003Y00004R00
#06714:000043000000004L00000000004S0000
#06715:000000004N00004T
#06718:0000004000000000004O000000000000
#06719:430000000000000000004P000000004U
#06801:00
#06801:00
#06801:00
#06801:00
#06801:00
#06801:00
#06801:00
#06801:00
#06801:00
#06801:00
#06801:00
#06801:00
#06801:00
#06801:7D7E7D7W7E7D7W7E7D7E7D7W7E7D7W7E
#06806:030405060708090A0B0C0D0E0F0G0H0I030405060708090A0B0C0D0E0F0G0H0I
#06812:43
#06813:003Z004B003Z4B000041000000000041
#06814:000000003Y3Y0000
#06815:000000000000003Y
#06818:003X003Y003X3Y000000004L004L0000
#06819:0000004N
#06901:00
#06901:00
#06901:00
#06901:00
#06901:00
#06901:00
#06901:00
#06901:00
#06901:00
#06901:00
#06901:00
#06901:00
#06901:00
#06901:7R7S7R837S7R837S7T7U7T847U7T847U
#06906:030405060708090A0B0C0D0E0F0G0H0I030405060708090A0B0C0D0E0F0G0H0I
#06911:3Y3Y3Y00
#06912:0000000000000000004L000000000000
#06913:00000000004N0000
#06914:004L004L004L004L0000004O00000000
#06915:0000000000000000000000004P00004S
#06916:00000000000B0000
#06918:000000000000000000000000004Q0000
#06919:004N004N0000004T
#07001:00
#07001:00
#07001:00
#07001:00
#07001:04040404
#07001:00
#07001:000L000L
#07001:00
#07001:00
#07001:0001000100010001
#07001:02030203020302030203020302030203
#07001:00
#07001:00
#07001:7B7C7B7V7C7B7V7C7B7C7B7V7C7B7V7C
#07001:00
#07001:00
#07001:1S001U001S001S1T001S1T001S001U00
#07001:00
#07001:2B2C2D2E2F2C2G2C
#07001:8F8K8F008F8K8F008F8K8F008F8K0000
#07001:000000000000008E
#07001:00
#07001:00
#07001:00
#07001:00
#07001:00
#07001:00
#07001:00
#07001:00
#07001:00
#07001:00
#07001:0S
#07006:030405060708090A0B0C0D0E0F0G0H0I030405060708090A0B0C0D0E0F0G0H0I
#07011:4545
#07012:0040000000430000
#07013:0000000000004000004200003Z000000
#07014:003Z003Z000000000000004000000000
#07015:00000000003Z003Z0000000000410000
#07016:0C
#07018:000000000000003Y
#07019:0000000041000000000000000000004L
#07101:00
#07101:00
#07101:00
#07101:00
#07101:04040404
#07101:00
#07101:000L000L
#07101:00
#07101:00
#07101:0001000100010001
#07101:02030203020302030203020302030203
#07101:00
#07101:00
#07101:7F7G7F7X7G7F7X7G7F7G7F7X7G7F7X7G
#07101:00
#07101:00
#07101:1P001R001P001P1Q001P1Q001P001R00
#07101:00
#07101:2B2C2D2E2F2C2G2C
#07101:8F008K008F0000008F008K008G8L8G8L8F0000008K0000008F008K0000000000
#07101:000000000000008E
#07106:030405060708090A0B0C0D0E0F0G0H0I030405060708090A0B0C0D0E0F0G0H0I
#07111:00004V47
#07112:0000000000000042004G000000000000
#07113:00000040000040000000000000450000
#07114:00003Z000041000000004E0000000000
#07115:004100003Y0000000000000000004200
#07118:3Y000000000000000000004800000000
#07119:00000000000000000000000000000040
#07201:00
#07201:00
#07201:00
#07201:00
#07201:04040404
#07201:00
#07201:000L000L
#07201:00
#07201:00
#07201:0001000100010001
#07201:02030203020302030203020302030203
#07201:00
#07201:00
#07201:7H7I7H7Y7I7H7Y7I7H7I7H7Y7I7H7Y7I
#07201:00
#07201:00
#07201:1M001O001M001M1N001M1N001M001O00
#07201:00
#07201:2B2C2D2E2F2C2G2C
#07201:8F8K8F008F8K8F008F8K8F008F8K0000
#07201:000000000000008E
#07206:030405060708090A0B0C0D0E0F0G0H0I030405060708090A0B0C0D0E0F0G0H0I
#07211:00000000000000420000000000000000
#07212:5G005H00005G00000000000000000000000000003Y0000000000000000000000
#07213:00000000002L00000000004L00000000
#07214:000000003Z00003Z000000004P000000
#07215:5E005F00005E00000000000000000000000000000000000000005B0000000000
#07218:000000000000000000002R000000000000000000000000000000005C00000000
#07219:00003Y000000005D
#07301:00
#07301:00
#07301:00
#07301:00
#07301:04040404
#07301:00
#07301:000L000L
#07301:00
#07301:00
#07301:0001000100010001
#07301:02030203020302030203020302030203
#07301:00
#07301:00
#07301:7N7O7N817O7N817O7P7Q7P827Q7P827Q
#07301:00
#07301:00
#07301:1V001X001V001V1W001P1Q001P001R00
#07301:00
#07301:2B2C2D2E2F2C2G2C
#07301:8F008K008F0000008F008K008G8L8G8L8F0000008K0000008F008K0000000000
#07301:000000000000008E
#07306:030405060708090A0B0C0D0E0F0G0H0I030405060708090A0B0C0D0E0F0G0H0I
#07311:004E4E00000000000000000000000000
#07312:00464600004D4D000000000000000049
#07313:4H000000450000000048480000000000
#07314:42000000004I4I004200000000003Z00
#07315:0000000043000000004H4H0000000000
#07318:3Z0000004J00000040000000004K0000
#07319:00004K4L
#07401:00
#07401:00
#07401:00
#07401:00
#07401:04040404
#07401:00
#07401:000L000L
#07401:00
#07401:00
#07401:0001000100010001
#07401:02030203020302030203020302030203
#07401:00
#07401:00
#07401:7B7C7B7V7C7B7V7C7B7C7B7V7C7B7V7C
#07401:00
#07401:00
#07401:00
#07401:00
#07401:2B2C2D2E2F2C2G2C
#07401:8F8K8F008F8K8F008F8K8F008F8K0000
#07401:000000000000008E
#07406:030405060708090A0B0C0D0E0F0G0H0I030405060708090A0B0C0D0E0F0G0H0I
#07411:1S0000001S001S00001S00001S000000
#07412:00001U000000001T00001T0000001U00
#07413:00000000000043000000000000470000
#07414:00004600000000400000000040004500
#07415:00000047000000000040003Z00000042
#07418:00470000450000000000410000000000
#07419:45000000004200003Z00000000000000
#07501:00
#07501:00
#07501:00
#07501:00
#07501:04040404
#07501:00
#07501:000L000L
#07501:00
#07501:00
#07501:0001000100010001
#07501:02030203020302030203020302030203
#07501:00
#07501:00
#07501:7L7M7L807M7L807M7L7M7L807M7L807M
#07501:00
#07501:00
#07501:00
#07501:00
#07501:2B2C2D2E2F2C2G2C
#07501:8F008K008F0000008F008K008G8L8G8L8F0000008K0000008F008K0000000000
#07501:000000000000008E
#07506:030405060708090A0B0C0D0E0F0G0H0I030405060708090A0B0C0D0E0F0G0H0I
#07511:0042000000003Y00000000004R000000
#07512:1Y0000001Y001Y00001Y00001Y000000
#07513:000020000000001Z00001Z0000002000
#07514:00004300000000004N000000004S0000
#07515:000000400000004L004O000000004T00
#07518:43003Z00004P0000
#07519:00000000004100000000004Q0000004U
#07601:00
#07601:00
#07601:00
#07601:00
#07601:04040404
#07601:00
#07601:000L000L
#07601:00
#07601:00
#07601:0001000100010001
#07601:02030203020302030203020302030203
#07601:00
#07601:00
#07601:7D7E7D7W7E7D7W7E7D7E7D7W7E7D7W7E
#07601:00
#07601:00
#07601:00
#07601:00
#07601:2B2C2D2E2F2C2G2C
#07601:8F8K8F008F8K8F008F8K8F008F8K0000
#07601:000000000000008E
#07606:030405060708090A0B0C0D0E0F0G0H0I030405060708090A0B0C0D0E0F0G0H0I
#07611:21000000210021000021000021000000
#07612:0023000043224N23
#07613:000000000000002200400000004O0000
#07614:430000004B3Z3Y4P
#07615:003Z004B003Z4B0000410041004L004Q
#07618:00000000003Y004N
#07619:003X003Y003X3Y000000004L0000004O
#07701:00
#07701:00
#07701:00
#07701:00
#07701:00
#07701:00
#07701:00
#07701:00
#07701:00
#07701:0001000100010001
#07701:02030203020302030203020302030203
#07701:00
#07701:00
#07701:7R7S7R837S7R837S7T7U7T847U7T847U
#07701:00
#07701:00
#07701:00
#07701:00
#07701:2B2C2D2E2F2C2G2C
#07701:8F008K008F0000008F008K008G8L8G8L8F0000008K0000008F008K0000000000
#07701:000000000000008E
#07706:030405060708090A0B0C0D0E0F0G0H0I030405060708090A0B0C0D0E0F0G0H0I
#07711:0400040004000407
#07712:2400242400000000
#07713:0000260000000025002700002700004K
#07714:004X0L0000280L29
#07715:004P0000004X00004X00004X00004X00
#07716:0J000N0K00000I00
#07718:4R0000004P00004P00004P00004Y0000
#07719:0000004R00004R00004R00004S000000
#07801:00
#07801:00
#07801:00
#07801:00
#07801:00
#07801:00
#07801:00
#07801:00
#07801:00
#07801:00
#07801:02030203020302030203020302030203
#07801:00
#07801:00
#07801:7B7C7B7V7C7B7V7C7B7C7B7V7C7B7V7C
#07801:00
#07801:00
#07801:00
#07801:00
#07801:00
#07801:8F8K8F008F8K8F008F8K8F008F8K0000
#07801:00
#07801:00
#07801:453Z403Z413Z403Z454243403Z413Y4L
#07806:030405060708090A0B0C0D0E0F0G0H0I030405060708090A0B0C0D0E0F0G0H0I
#07811:04040404
#07812:2B00002E002C008E
#07813:002C000000002G00
#07814:00001U002D00001T00001T0000001U00
#07815:1S0000001S001S00001S00001S000000
#07816:0C
#07818:0001000100010001
#07819:00000L002F000L2C
#07901:00
#07901:00
#07901:00
#07901:00
#07901:00
#07901:00
#07901:00
#07901:00
#07901:00
#07901:00
#07901:02030203020302030203020302030203
#07901:00
#07901:00
#07901:7F7G7F7X7G7F7X7G7F7G7F7X7G7F7X7G
#07901:00
#07901:00
#07901:00
#07901:00
#07901:00
#07901:8F008K008F0000008F008K008G8L8G8L8F0000008K0000008F008K0000000000
#07901:00
#07901:00
#07901:3Y413Z403Y4140424V4G4E4847454240
#07906:030405060708090A0B0C0D0E0F0G0H0I030405060708090A0B0C0D0E0F0G0H0I
#07911:04040404
#07912:0000002E00002G8E
#07913:2B001R000000001Q00001Q0000001R00
#07914:1P0000001P001P00001P00001P000000
#07915:002C0000002C002C
#07918:00012D0100010001
#07919:000L2F0L
#08001:00
#08001:00
#08001:00
#08001:00
#08001:00
#08001:00
#08001:00
#08001:00
#08001:00
#08001:00
#08001:02030203020302030203020302030203
#08001:00
#08001:00
#08001:7H7I7H7Y7I7H7Y7I7H7I7H7Y7I7H7Y7I
#08001:00
#08001:00
#08001:00
#08001:00
#08001:00
#08001:8F8K8F008F8K8F008F8K8F008F8K0000
#08001:00
#08001:00
#08001:000000000000000000003Y4L4P000000
#08001:5E005F00005E00003Y002R0000003Z00000000000000000000005B5C5D000000
#08001:5G005H00005G00003Z002L000000420000000000000000000000000000000000
#08006:030405060708090A0B0C0D0E0F0G0H0I030405060708090A0B0C0D0E0F0G0H0I
#08011:04040404
#08012:00001O000000001N00001N0000001O00
#08013:1M0000001M001M00001M00001M000000
#08014:2B00002E002C008E
#08015:002C2D002F002G00
#08018:0001000100010001
#08019:00000L0000000L2C
#08101:00
#08101:00
#08101:00
#08101:00
#08101:04040404
#08101:00
#08101:000L000L
#08101:00
#08101:00
#08101:0001000100010001
#08101:02030203020302030203020302030203
#08101:00
#08101:00
#08101:7N7O7N817O7N817O7P7Q7P827Q7P827Q
#08101:00
#08101:00
#08101:1V001X001V001V1W001P1Q001P001R00
#08101:00
#08101:2B2C2D2E2F2C2G2C
#08101:8F008K008F0000008F008K008G8L8G8L8F0000008K0000008F008K0000000000
#08101:000000000000008E
#08106:030405060708090A0B0C0D0E0F0G0H0I030405060708090A0B0C0D0E0F0G0H0I
#08111:4C460000
#08112:004G0000004500000000004000000045
#08113:4E4E4242003Z0042
#08114:0048004800400040003X003X00440040
#08115:0046003Z4L4L3W3Z
#08118:000000450000003X004O0000003Y0000
#08119:00004P4L
#08201:00
#08201:00
#08201:00
#08201:00
#08201:00
#08201:00
#08201:00
#08201:00
#08201:00
#08201:00
#08201:02030203020302030203020302030203
#08201:00
#08201:00
#08201:7B7C7B7V7C7B7V7C7B7C7B7V7C7B7V7C
#08201:00
#08201:00
#08201:1S001U001S001S1T001S1T001S001U00
#08201:00
#08201:00
#08201:8F8K8F008F8K8F008F8K8F008F8K0000
#08206:030405060708090A0B0C0D0E0F0G0H0I030405060708090A0B0C0D0E0F0G0H0I
#08211:04040404
#08212:0040000000002E00000000002G008E00
#08213:3Z003Z0000410000000001004P000000
#08214:0000004100003Y00004L0000004Q004Q
#08215:2B0000003Y00004L00004N0000002C00
#08218:002C0L004N2C0L4S
#08219:000001002D0001002F00004O00000100
#08301:00
#08301:00
#08301:00
#08301:00
#08301:00
#08301:00
#08301:00
#08301:00
#08301:00
#08301:00
#08301:02030203020302030203020302030203
#08301:00
#08301:00
#08301:7L7M7L807M7L807M7L7M7L807M7L807M
#08301:00
#08301:00
#08301:1Y0020001Y001Y1Z001Y1Z001Y002000
#08301:00
#08301:00
#08301:8F008K008F0000008F008K008G8L8G8L8F0000008K0000008F008K0000000000
#08306:030405060708090A0B0C0D0E0F0G0H0I030405060708090A0B0C0D0E0F0G0H0I
#08311:04040404
#08312:0000004O0000003Y000000002G008E00
#08313:2B01004O2S2C002C
#08314:00004P00004P000000004P004P000100
#08315:00002C004Q0001002F00004W0000004O
#08318:004Q00000L002E00000000000L004P00
#08319:4R0000002D00000000000100004Q0000
#08401:00
#08401:00
#08401:00
#08401:00
#08401:00
#08401:00
#08401:00
#08401:000H000H000H000H000H000H000H000H
#08401:0F0F0F0F0F0F0F0F
#08401:0001000100010001
#08401:02030203020302030203020302030203
#08401:00
#08401:00
#08401:7D7E7D7W7E7D7W7E7D7E7D7W7E7D7W7E
#08401:00
#08401:00
#08401:21002300210021220021220021002300
#08401:00
#08401:00
#08401:8F8K8F008F8K8F008F8K8F008F8K0000
#08401:000000000000008E
#08406:030405060708090A0B0C0D0E0F0G0H0I030405060708090A0B0C0D0E0F0G0H0I
#08411:04040404
#08412:2B000000432C2G00
#08413:00002C0000002E00004000004N002C00
#08414:43002D004B3Z3Y4P
#08415:003Z004B003Z4B0000410041004O004Q
#08418:000000002F3Y004N
#08419:003X003Y003X3Y000000004L004L004O
#08501:00
#08501:00
#08501:00
#08501:00
#08501:00
#08501:00
#08501:00
#08501:00
#08501:00
#08501:0001000100010001
#08501:02030203020302030203020302030203
#08501:00
#08501:00
#08501:7R7S7R837S7R837S7T7U7T847U7T847U
#08501:00
#08501:00
#08501:24002600240024250027280027002900
#08501:00
#08501:2B2C2D2E2F2C2G2C
#08501:8F008K008F0000008F008K008G8L8G8L8F0000008K0000008F008K0000000000
#08501:000000000000008E
#08506:030405060708090A0B0C0D0E0F0G0H0I030405060708090A0B0C0D0E0F0G0H0I
#08511:07070707
#08512:0000000F0000000F0000000F008M000F
#08513:000H000H000H000F
#08514:000F0000000F0000000F0000000H004K
#08515:004P4X004P4X004P4X004P4X0H004X00
#08516:0J000J0K00000I00
#08518:0H0000000H0000000H000000004Y0000
#08519:4R00004R00004R00004R00004S000000
#08601:00
#08601:00
#08601:00
#08601:00
#08601:00
#08601:00
#08601:00
#08601:00
#08601:00
#08601:00
#08601:00
#08601:00
#08601:00
#08601:7B7C000000007B7C000000007B7C0000
#08606:030405060708090A0B0C0D0E0F0G0H0I030405060708090A0B0C0D0E0F0G0H0I
#08611:4G00000400000400
#08612:004800000000000000000000454M0045
#08613:0400460000000Z000000004000000000
#08614:0000004700000000000000000Z000000
#08615:0Z004540003Z0000
#08616:0J00000J00000K00
#08618:000000000043003Z004100003Z3W003Z
#08619:160000163Y001600
#08701:00
#08701:00
#08701:00
#08701:00
#08701:00
#08701:00
#08701:00
#08701:00
#08701:00
#08701:00
#08701:00
#08701:00
#08701:00
#08701:7B7C000000007B7C000000007B7C0000
#08706:030405060708090A0B0C0D0E0F0G0H0I030405060708090A0B0C0D0E0F0G0H0I
#08711:4G00000400000400
#08712:004800000000000000000000454M0045
#08713:0400460000000Z000000004000000000
#08714:0D00004700000000000000000Z000000
#08715:0Z004540003Z0000
#08716:0J00000J00000K00
#08718:000000000043003Z004100003Z3W003Z
#08719:160000163Y001600
#08801:00
#08801:00
#08801:00
#08801:00
#08801:00000007
#08801:00
#08801:00
#08801:00
#08801:00
#08801:00
#08801:00
#08801:00
#08801:00
#08801:7B7C000000007B7C000000007B7C0000
#08806:030405060708090A0B0C0D0E0F0G0H0I030405060708090A0B0C0D0E0F0G0H0I
#08811:0400000400000Z00
#08812:000000410000004000000000454M0045
#08813:0Z00000000003Z000000004700000000
#08814:8N003Y0000410000000045003Z4B003Z
#08815:1600000000000Z000040000000000000
#08816:0J00000000000J00005I00000K000000
#08818:004L00003Y0000003Z0000003Y3X003Y
#08819:4N00001600001600
#08906:030405060708090A0B0C0D0E0F0G0H0I030405060708090A0B0C0D0E0F0G0H0I
#08911:08
#08913:2I
#08915:2M
#08916:0C
#08919:2P
