*---------------------- HEADER FIELD
#PLAYER 3
#GENRE RENAISSANCE
#TITLE Joker ('A`)
#ARTIST D.J.Nero - obj:(=߃Öß)ƒm‚¡‚å‚£
#BPM 184
#PLAYLEVEL 12
#RANK 3
#TOTAL 580
#STAGEFILE title.jpg
#WAV01 opHH.wav
#WAV02 close.wav
#WAV03 close.wav
#WAV04 kickA.wav
#WAV05 kickB.wav
#WAV06 kickB.wav
#WAV07 kick32.wav
#WAV08 FXkick.wav
#WAV09 snare.wav
#WAV0A snare.wav
#WAV0B reverse.wav
#WAV0C SE1.wav
#WAV0D bell.wav
#WAV0E ride.wav
#WAV0F snare-Fill.wav
#WAV0G snare-Fill.wav
#WAV0H clashA.wav
#WAV0I clashB.wav
#WAV0J clashC.wav
#WAV0K clap.wav
#WAV0L clap-deep.wav
#WAV0M clashB.wav
#WAV0N bgm1.wav
#WAV0O bgm1.wav
#WAV0P bgm2.wav
#WAV0Q bgm2.wav
#WAV0R bgm3.wav
#WAV0S str01.wav
#WAV0T str01.wav
#WAV0U str02.wav
#WAV0V str03.wav
#WAV0W str03.wav
#WAV0X str04.wav
#WAV0Y str05.wav
#WAV0Z str-01.wav
#WAV10 str-01.wav
#WAV11 str-02.wav
#WAV12 str-03.wav
#WAV13 str-03.wav
#WAV14 str-04.wav
#WAV15 str-05.wav
#WAV16 harp1.wav
#WAV17 harp2.wav
#WAV18 harp3.wav
#WAV19 harp4.wav
#WAV1A harp5.wav
#WAV1B harp6.wav
#WAV1C harp16-01.wav
#WAV1D harp16-02.wav
#WAV1E harp16-03.wav
#WAV1F harp16-04.wav
#WAV1G harp16-05.wav
#WAV1H harp16-06.wav
#WAV1I core1.wav
#WAV1J core1.wav
#WAV1K core1b.wav
#WAV1L core2.wav
#WAV1M core2.wav
#WAV1N core2b.wav
#WAV1O core3.wav
#WAV1P core3.wav
#WAV1Q core3b.wav
#WAV1R core4.wav
#WAV1S core4.wav
#WAV1T core4b.wav
#WAV1U core5.wav
#WAV1V core5.wav
#WAV1W core5b.wav
#WAV1X core6.wav
#WAV1Y core6.wav
#WAV1Z core6b.wav
#WAV20 core7.wav
#WAV21 core7.wav
#WAV22 core7b.wav
#WAV23 core8.wav
#WAV24 core8.wav
#WAV25 core8b.wav
#WAV26 core9.wav
#WAV27 core9.wav
#WAV28 core9b.wav
#WAV29 arp-bgm.wav
#WAV2A arp1.wav
#WAV2B arp2.wav
#WAV2C arp3.wav
#WAV2D arp4.wav
#WAV2E arp5.wav
#WAV2F arp6.wav
#WAV2G p-8-1.wav
#WAV2H p-8-2.wav
#WAV2I p-8-3.wav
#WAV2J p-8-4.wav
#WAV2K p-8-5.wav
#WAV2L p-8-6.wav
#WAV2M p-8-7.wav
#WAV2N p-8-8.wav
#WAV2O p-8-9.wav
#WAV2P p-8-10.wav
#WAV2Q p-8-11.wav
#WAV2R p-8-12.wav
#WAV2S p-8-13.wav
#WAV2T pA-1.wav
#WAV2U pA-2.wav
#WAV2V pA-2b.wav
#WAV2W pA-3.wav
#WAV2X pA-4.wav
#WAV2Y pA-4b.wav
#WAV2Z pA-5.wav
#WAV30 pA-6.wav
#WAV31 pA-7.wav
#WAV32 pA-8.wav
#WAV33 pA-9.wav
#WAV34 pA-10.wav
#WAV35 pA-11.wav
#WAV36 pA-12.wav
#WAV37 SE3.wav
#WAV38 pA-12b.wav
#WAV39 pA-13.wav
#WAV3A pA-13b.wav
#WAV3B pA-14.wav
#WAV3C pA-14b.wav
#WAV3D pA-15.wav
#WAV3E pA-15b.wav
#WAV3F p-16-1.wav
#WAV3G p-16-2.wav
#WAV3H p-16-3.wav
#WAV3I p-16-4.wav
#WAV3J p-16-5.wav
#WAV3K p-16-6.wav
#WAV3L p-16-7.wav
#WAV3M p-16-8.wav
#WAV3N p-16-9.wav
#WAV3O p-16-10.wav
#WAV3P p-16-11.wav
#WAV3Q p-16-12.wav
#WAV3R p-16-13.wav
#WAV3S p-16-14.wav
#WAV3T p-16-15.wav
#WAV3U p-16-16.wav
#WAV3V p-16-17.wav
#WAV3W ps-16-2.wav
#WAV3X ps-16-1.wav
#WAV3Y ps-16-1.wav
#WAV3Z ps-16-2.wav
#WAV40 ps-16-3.wav
#WAV41 ps-16-4.wav
#WAV42 ps-16-5.wav
#WAV43 ps-16-6.wav
#WAV44 ps-16-3.wav
#WAV45 ps-16-7.wav
#WAV46 ps-16-8.wav
#WAV47 ps-16-9.wav
#WAV48 ps-16-10.wav
#WAV49 ps-16-5.wav
#WAV4A ps-16-8.wav
#WAV4B ps-16-2.wav
#WAV4C ps-16-11.wav
#WAV4D ps-16-12.wav
#WAV4E ps-16-13.wav
#WAV4F ps-16-14.wav
#WAV4G ps-16-15.wav
#WAV4H ps-16-16.wav
#WAV4I ps-16-17.wav
#WAV4J ps-16-18.wav
#WAV4K ps-16-19.wav
#WAV4L ps-16-20.wav
#WAV4M ps-16-7.wav
#WAV4N ps-16-21.wav
#WAV4O ps-16-22.wav
#WAV4P ps-16-23.wav
#WAV4Q ps-16-24.wav
#WAV4R ps-16-25.wav
#WAV4S ps-16-26.wav
#WAV4T ps-16-27.wav
#WAV4U ps-16-28.wav
#WAV4V ps-16-29.wav
#WAV4W ps-16-30.wav
#WAV4X ps-16-23.wav
#WAV4Y ps-16-31.wav
#WAV4Z ps-32-1.wav
#WAV50 ps-32-1.wav
#WAV51 ps-32-1b.wav
#WAV52 ps-32-1b.wav
#WAV53 ps-32-2.wav
#WAV54 ps-32-2.wav
#WAV55 ps-32-2b.wav
#WAV56 ps-32-2b.wav
#WAV57 ps-32-3.wav
#WAV58 ps-32-4.wav
#WAV59 ps-32-5.wav
#WAV5A ps-32-6.wav
#WAV5B ps-32-7.wav
#WAV5C ps-32-8.wav
#WAV5D ps-32-9.wav
#WAV5E ps-32-10.wav
#WAV5F ps-32-10.wav
#WAV5G ps-32-10b.wav
#WAV5H ps-32-10b.wav
#WAV5I SE2.wav
#WAV5J chero 1.wav
#WAV5K chero 2.wav
#WAV5L chero 3.wav
#WAV5M chero 4.wav
#WAV5N chero 9.wav
#WAV5O chero 10.wav
#WAV5P chero 11.wav
#WAV5Q chero 12.wav
#WAV5R chero 13.wav
#WAV5S chero 14.wav
#WAV5T chero 15.wav
#WAV5U chero 16.wav
#WAV5V chero 17.wav
#WAV5W chero 18.wav
#WAV5X chero 19.wav
#WAV5Y chero 20.wav
#WAV5Z chero 21.wav
#WAV60 chero 22.wav
#WAV61 solo 1.wav
#WAV62 solo 2.wav
#WAV63 solo 3.wav
#WAV64 solo 4.wav
#WAV65 solo 5.wav
#WAV66 solo 6.wav
#WAV67 solo 7.wav
#WAV68 solo 8.wav
#WAV69 solo 9.wav
#WAV6A solo 10.wav
#WAV6B solo 11.wav
#WAV6C solo 12.wav
#WAV6D solo 13.wav
#WAV6E solo 14.wav
#WAV6F solo 15.wav
#WAV6G solo 16.wav
#WAV6H solo 17.wav
#WAV6I solo 18.wav
#WAV6J solo 19.wav
#WAV6K solo 20.wav
#WAV6L solo 21.wav
#WAV6M solo 22.wav
#WAV6N solo 23.wav
#WAV6O solo 24.wav
#WAV6P solo 25.wav
#WAV6Q solo 26.wav
#WAV6R solo 27.wav
#WAV6S solo 28.wav
#WAV6T solo 29.wav
#WAV6U solo 30.wav
#WAV6V solo 31.wav
#WAV6W solo 32.wav
#WAV6X solo 33.wav
#WAV6Y solo 34.wav
#WAV6Z solo 35.wav
#WAV70 solo 36.wav
#WAV71 solo 37.wav
#WAV72 solo 38.wav
#WAV73 solo 39.wav
#WAV74 solo 40.wav
#WAV75 solo 41.wav
#WAV76 solo 42.wav
#WAV77 solo 43.wav
#WAV78 solo 44.wav
#WAV79 solo 45.wav
#WAV7A solo 46.wav
#WAV7B bass1.wav
#WAV7C bass2.wav
#WAV7D bass3.wav
#WAV7E bass4.wav
#WAV7F bass5.wav
#WAV7G bass6.wav
#WAV7H bass7.wav
#WAV7I bass8.wav
#WAV7J bass9.wav
#WAV7K bass10.wav
#WAV7L bass11.wav
#WAV7M bass12.wav
#WAV7N bass13.wav
#WAV7O bass14.wav
#WAV7P bass15.wav
#WAV7Q bass16.wav
#WAV7R bass17.wav
#WAV7S bass18.wav
#WAV7T bass19.wav
#WAV7U bass20.wav
#WAV7V bass1.wav
#WAV7W bass3.wav
#WAV7X bass5.wav
#WAV7Y bass7.wav
#WAV7Z bass9.wav
#WAV80 bass11.wav
#WAV81 bass13.wav
#WAV82 bass15.wav
#WAV83 bass17.wav
#WAV84 bass19.wav
#WAV85 chero1.wav
#WAV86 chero2.wav
#WAV87 chero3.wav
#WAV88 chero4.wav
#WAV89 vio1.wav
#WAV8A vio2.wav
#WAV8B vio3.wav
#WAV8C vio4.wav
#WAV8D tim.wav
#WAV8E tanbarin.wav
#WAV8F suzu.wav
#WAV8G suzu32.wav
#WAV8H syuooo.wav
#WAV8I SE5.wav
#WAV8J horn.wav
#WAV8K suzu.wav
#WAV8L suzu32.wav
#WAV8M cym B.wav
#WAV8N cym C.wav
#WAV8O SE4.wav
#BMP01 joker.mpg
#BMP03 miss 01.bmp
#BMP04 miss 02.bmp
#BMP05 miss 03.bmp
#BMP06 miss 04.bmp
#BMP07 miss 05.bmp
#BMP08 miss 06.bmp
#BMP09 miss 07.bmp
#BMP0A miss 08.bmp
#BMP0B miss 09.bmp
#BMP0C miss 10.bmp
#BMP0D miss 11.bmp
#BMP0E miss 12.bmp
#BMP0F miss 13.bmp
#BMP0G miss 14.bmp
#BMP0H miss 15.bmp
#BMP0I miss 16.bmp
#DIFFICULTY 5
#BACKBMP logo.jpg *---------------------- MAIN DATA FIELD
#00104:01
#00106:030405060708090A0B0C0D0E0F0G0H0I030405060708090A0B0C0D0E0F0G0H0I
#00116:000B000000000000
#00201:00
#00201:00
#00201:00
#00201:00
#00201:00
#00201:00
#00201:00
#00201:00
#00201:00
#00201:00
#00201:00
#00201:00
#00201:00
#00201:7B7C7B7V7C7B7V7C7B7C7B7V7C7B7V7C
#00206:030405060708090A0B0C0D0E0F0G0H0I030405060708090A0B0C0D0E0F0G0H0I
#00211:0400000400040000
#00215:00000K00000K0000
#00221:0S0T000000000000
#00222:0000000U00000000
#00224:0Z10000000000000
#00225:0000001100000000
#00301:00
#00301:00
#00301:00
#00301:00
#00301:00
#00301:00
#00301:00
#00301:00
#00301:00
#00301:00
#00301:00
#00301:00
#00301:00
#00301:7B7C7B7V7C7B7V7C7B7C7B7V7C7B7V7C
#00306:030405060708090A0B0C0D0E0F0G0H0I030405060708090A0B0C0D0E0F0G0H0I
#00311:0400000400040000
#00315:00000K00000K0000
#00323:0V0W000000000000
#00324:0000000X00000000
#00328:1213000000000000
#00329:0000001400000000
#00401:0J00000I000I0000
#00401:0400000400040000
#00401:00
#00401:00
#00401:00
#00401:00
#00401:00
#00401:00
#00401:00
#00401:00
#00401:00
#00401:00
#00401:00
#00401:7B7C7B7V7C7B7V7C7B7C7B7V7C7B7V7C
#00406:030405060708090A0B0C0D0E0F0G0H0I030405060708090A0B0C0D0E0F0G0H0I
#00411:0S0T000000000000
#00412:0000000U00000000
#00414:0Z10000000000000
#00415:0000001100000000
#00423:0F0F0F0F0F0F0F0F
#00425:000G000G000G000G000G000G000G000G
#00501:0J00000I000I0007
#00501:0400000400040000
#00501:00
#00501:00
#00501:00
#00501:00
#00501:00
#00501:00
#00501:00
#00501:00
#00501:00
#00501:00
#00501:00
#00501:7B7C7B7V7C7B7V7C7B7C7B7V7C7B7V7C
#00506:030405060708090A0B0C0D0E0F0G0H0I030405060708090A0B0C0D0E0F0G0H0I
#00513:0V0W000000000000
#00514:0000000X00000000
#00518:1213000000000000
#00519:0000001400000000
#00523:0F0F0F0F0F0F0F0F
#00525:000G000G000G000G000G000G000G000G
#00601:00
#00601:00
#00601:00
#00601:00
#00601:00
#00601:00
#00601:00
#00601:00
#00601:00
#00601:00
#00601:02030203020302030203020302030203
#00601:00
#00601:00
#00601:7B7C7B7V7C7B7V7C7B7C7B7V7C7B7V7C
#00601:00
#00601:00
#00601:00
#00601:00
#00601:00
#00601:00
#00601:00
#00601:00
#00601:00
#00601:00
#00601:00
#00601:00
#00601:00
#00601:00
#00601:00
#00601:00
#00601:00
#00601:0N
#00606:030405060708090A0B0C0D0E0F0G0H0I030405060708090A0B0C0D0E0F0G0H0I
#00611:04040404
#00613:000K000K
#00616:0C
#00618:0001000100010001
#00621:2G
#00623:002H002H0000002H
#00624:00002I00002I0000
#00628:0000002J
#00629:002K
#00701:00
#00701:00
#00701:00
#00701:00
#00701:00
#00701:00
#00701:00
#00701:00
#00701:00
#00701:00
#00701:02030203020302030203020302030203
#00701:00
#00701:00
#00701:7B7C7B7V7C7B7V7C7B7C7B7V7C7B7V7C
#00706:030405060708090A0B0C0D0E0F0G0H0I030405060708090A0B0C0D0E0F0G0H0I
#00711:04040404
#00713:000K000K
#00718:0001000100010001
#00721:2G
#00722:00000000002H0000
#00723:000000000000002I
#00724:002I000000000000
#00725:002J0000
#00728:0000002K00002K00
#00729:002L
#00801:00
#00801:00
#00801:00
#00801:00
#00801:00
#00801:00
#00801:00
#00801:00
#00801:00
#00801:00
#00801:02030203020302030203020302030203
#00801:00
#00801:00
#00801:7D7E7D7W7E7D7W7E7D7E7D7W7E7D7W7E
#00806:030405060708090A0B0C0D0E0F0G0H0I030405060708090A0B0C0D0E0F0G0H0I
#00811:04040404
#00813:000K000K
#00818:0001000100010001
#00822:0000002H00000000
#00823:00000000002K0000
#00824:2J
#00825:002K000000002L00
#00828:002L0000
#00829:000000002M00002M
#00901:00
#00901:00
#00901:00
#00901:00
#00901:00
#00901:00
#00901:00
#00901:00
#00901:00
#00901:00
#00901:02030203020302030203020302030203
#00901:00
#00901:00
#00901:7D7E7D7W7E7D7W7E7D7E7D7W7E7D7W7E
#00906:030405060708090A0B0C0D0E0F0G0H0I030405060708090A0B0C0D0E0F0G0H0I
#00911:04040404
#00913:000K000K
#00918:0001000100010001
#00922:000000000000002N
#00923:0000002I
#00924:2H00002I002J0000
#00925:002K0000
#00928:002L00002K000000
#01001:00
#01001:00
#01001:00
#01001:00
#01001:00
#01001:00
#01001:00
#01001:00
#01001:00
#01001:00
#01001:02030203020302030203020302030203
#01001:00
#01001:00
#01001:7F7G7F7X7G7F7X7G7F7G7F7X7G7F7X7G
#01006:030405060708090A0B0C0D0E0F0G0H0I030405060708090A0B0C0D0E0F0G0H0I
#01012:04040404
#01015:000K000K
#01019:0001000100010001
#01021:2G
#01023:002H002H0000002H
#01024:00002I00002I0000
#01028:0000002J
#01029:002K
#01101:00
#01101:00
#01101:00
#01101:00
#01101:00
#01101:00
#01101:00
#01101:00
#01101:00
#01101:00
#01101:02030203020302030203020302030203
#01101:00
#01101:00
#01101:7F7G7F7X7G7F7X7G7F7G7F7X7G7F7X7G
#01106:030405060708090A0B0C0D0E0F0G0H0I030405060708090A0B0C0D0E0F0G0H0I
#01112:04040404
#01115:000K000K
#01119:0001000100010001
#01121:2G
#01122:00000000002H0000
#01123:000000000000002I
#01124:002I000000000000
#01125:002J0000
#01128:0000002K00002K00
#01129:002L
#01201:00
#01201:00
#01201:00
#01201:00
#01201:00
#01201:00
#01201:00
#01201:00
#01201:00
#01201:00
#01201:02030203020302030203020302030203
#01201:00
#01201:00
#01201:7B7C7B7V7C7B7V7C7B7C7B7V7C7B7V7C
#01206:030405060708090A0B0C0D0E0F0G0H0I030405060708090A0B0C0D0E0F0G0H0I
#01212:04040404
#01215:000K000K
#01219:0001000100010001
#01222:0000002H00000000
#01223:00000000002K0000
#01224:2J
#01225:002K000000002L00
#01228:002L0000
#01229:000000002M00002M
#01301:000000000000000000000000008M0000
#01301:00
#01301:00
#01301:00
#01301:00
#01301:00
#01301:00
#01301:00
#01301:00
#01301:00
#01301:02030203020302030203020302030203
#01301:00
#01301:00
#01301:7B7C7B7V7C7B7V7C7B7C7B7V7C7B7V7C
#01306:030405060708090A0B0C0D0E0F0G0H0I030405060708090A0B0C0D0E0F0G0H0I
#01312:04040404
#01315:000K000K
#01319:0001000100010001
#01322:000000000000002N
#01323:0000002I
#01324:2H00002I002J0000
#01325:002K0000
#01328:002L00002K000000
#01401:00
#01401:00
#01401:00
#01401:00
#01401:00
#01401:00
#01401:00
#01401:00
#01401:00
#01401:00
#01401:02030203020302030203020302030203
#01401:00
#01401:00
#01401:7B7C7B7V7C7B7V7C7B7C7B7V7C7B7V7C
#01406:030405060708090A0B0C0D0E0F0G0H0I030405060708090A0B0C0D0E0F0G0H0I
#01411:2G
#01413:002H002H0000002H
#01414:00002I00002I0000
#01418:0000002J
#01419:002K
#01421:04040404
#01423:000K000K
#01428:0001000100010001
#01501:00
#01501:00
#01501:00
#01501:00
#01501:00
#01501:00
#01501:00
#01501:00
#01501:00
#01501:00
#01501:02030203020302030203020302030203
#01501:00
#01501:00
#01501:7B7C7B7V7C7B7V7C7B7C7B7V7C7B7V7C
#01506:030405060708090A0B0C0D0E0F0G0H0I030405060708090A0B0C0D0E0F0G0H0I
#01511:2G
#01512:00000000002H0000
#01513:000000000000002I
#01514:002I000000000000
#01515:002J0000
#01518:0000002K00002K00
#01519:002L
#01521:04040404
#01523:000K000K
#01528:0001000100010001
#01601:00
#01601:00
#01601:00
#01601:00
#01601:00
#01601:00
#01601:00
#01601:00
#01601:00
#01601:00
#01601:02030203020302030203020302030203
#01601:00
#01601:00
#01601:7D7E7D7W7E7D7W7E7D7E7D7W7E7D7W7E
#01606:030405060708090A0B0C0D0E0F0G0H0I030405060708090A0B0C0D0E0F0G0H0I
#01612:0000002H00000000
#01613:00000000002K0000
#01614:2J
#01615:002K000000002L00
#01618:002L0000
#01619:000000002M00002M
#01621:04040404
#01623:000K000K
#01628:0001000100010001
#01701:00
#01701:00
#01701:00
#01701:00
#01701:00
#01701:00
#01701:00
#01701:00
#01701:00
#01701:00
#01701:02030203020302030203020302030203
#01701:00
#01701:00
#01701:7D7E7D7W7E7D7W7E7D7E7D7W7E7D7W7E
#01706:030405060708090A0B0C0D0E0F0G0H0I030405060708090A0B0C0D0E0F0G0H0I
#01712:000000000000002N
#01713:0000002I
#01714:2H00002I002J0000
#01715:002K0000
#01718:002L00002K000000
#01721:04040404
#01723:000K000K
#01728:0001000100010001
#01801:00
#01801:00
#01801:00
#01801:00
#01801:00
#01801:00
#01801:00
#01801:00
#01801:00
#01801:00
#01801:02030203020302030203020302030203
#01801:00
#01801:00
#01801:7F7G7F7X7G7F7X7G7F7G7F7X7G7F7X7G
#01806:030405060708090A0B0C0D0E0F0G0H0I030405060708090A0B0C0D0E0F0G0H0I
#01811:2G
#01813:002H002H0000002H
#01814:00002I00002I0000
#01818:0000002J
#01819:002K
#01822:04040404
#01825:000K000K
#01829:0001000100010001
#01901:00
#01901:00
#01901:00
#01901:00
#01901:00
#01901:00
#01901:00
#01901:00
#01901:00
#01901:00
#01901:02030203020302030203020302030203
#01901:00
#01901:00
#01901:7F7G7F7X7G7F7X7G7F7G7F7X7G7F7X7G
#01906:030405060708090A0B0C0D0E0F0G0H0I030405060708090A0B0C0D0E0F0G0H0I
#01911:2G
#01912:00000000002H0000
#01913:000000000000002I
#01914:002I000000000000
#01915:002J0000
#01918:0000002K00002K00
#01919:002L
#01922:04040404
#01925:000K000K
#01929:0001000100010001
#02001:00
#02001:00
#02001:00
#02001:00
#02001:00
#02001:00
#02001:00
#02001:00
#02001:00
#02001:00
#02001:02030203020302030203020302030203
#02001:00
#02001:00
#02001:7B7C7B7V7C7B7V7C7B7C7B7V7C7B7V7C
#02006:030405060708090A0B0C0D0E0F0G0H0I030405060708090A0B0C0D0E0F0G0H0I
#02012:0000002H00000000
#02013:00000000002K0000
#02014:2J
#02015:002K000000002L00
#02018:002L0000
#02019:000000002M00002M
#02022:04040404
#02025:000K000K
#02029:0001000100010001
#02101:0000000000000007
#02101:00
#02101:04000004000400050400000005060000
#02101:00
#02101:000K000K
#02101:00
#02101:0000000100000001
#02101:00
#02101:00
#02101:00
#02101:02030203020302030203020302030203
#02101:00
#02101:00
#02101:7B7C7B7V7C7B7V7C7B7C7B7V7C7B7V7C
#02106:030405060708090A0B0C0D0E0F0G0H0I030405060708090A0B0C0D0E0F0G0H0I
#02112:000000000000002N
#02113:0000002I
#02114:2H00002I002J0000
#02115:002K0000
#02118:002L00002K000000
#02121:0005000000040000
#02126:0I000M0J00000H00
#02129:0001000000010000
#02201:0C
#02201:00
#02201:00
#02201:00
#02201:00
#02201:00
#02201:00
#02201:00
#02201:00
#02201:00
#02201:02030203020302030203020302030203
#02201:00
#02201:00
#02201:7B7C7B7V7C7B7V7C7B7C7B7V7C7B7V7C
#02201:00
#02201:00
#02201:00
#02201:00
#02201:8F8K8F008F8K8F008F8K8F008F8K0000
#02201:00
#02201:00
#02201:00
#02201:00
#02201:00
#02201:00
#02201:00
#02201:00
#02201:00
#02201:00
#02201:00
#02201:00
#02201:0O
#02206:030405060708090A0B0C0D0E0F0G0H0I030405060708090A0B0C0D0E0F0G0H0I
#02211:1I00000000001I00001I00001I001K00
#02212:001K1I0000000000
#02213:000000000000001J00001J0000000000
#02214:000000000000008E
#02218:0001000100010001
#02221:04040404
#02222:000K000K
#02223:16
#02225:0000170017000017
#02228:0000000000180000
#02229:00000019
#02301:00
#02301:00
#02301:00
#02301:00
#02301:00
#02301:00
#02301:00
#02301:00
#02301:00
#02301:00
#02301:02030203020302030203020302030203
#02301:00
#02301:00
#02301:7B7C7B7V7C7B7V7C7B7C7B7V7C7B7V7C
#02301:00
#02301:00
#02301:00
#02301:00
#02301:8F008K008F0000008F008K008G8L8G8L8F0000008K0000008F008K0000000000
#02306:030405060708090A0B0C0D0E0F0G0H0I030405060708090A0B0C0D0E0F0G0H0I
#02311:000000001I001I00001I00001I001K00
#02312:1I1K000000000000
#02313:000000000000001J00001J0000000000
#02314:000000000000008E
#02318:0001000100010001
#02321:04040404
#02322:000K000K
#02323:00000016
#02324:001A
#02325:0000001700000000
#02328:18180000
#02329:0019000000000000
#02401:00
#02401:00
#02401:00
#02401:00
#02401:00
#02401:00
#02401:00
#02401:00
#02401:00
#02401:00
#02401:02030203020302030203020302030203
#02401:00
#02401:00
#02401:7D7E7D7W7E7D7W7E7D7E7D7W7E7D7W7E
#02401:00
#02401:00
#02401:00
#02401:00
#02401:8F8K8F008F8K8F008F8K8F008F8K0000
#02406:030405060708090A0B0C0D0E0F0G0H0I030405060708090A0B0C0D0E0F0G0H0I
#02412:1L00000000001L00001L00001L001N00
#02413:001N1L0000000000
#02414:000000000000001M00001M0000000000
#02415:000000000000008E
#02419:0001000100010001
#02421:04040404
#02422:000K000K
#02423:16
#02424:0000000000000017
#02425:00171700
#02428:0000000000180000
#02429:00000019
#02501:00
#02501:00
#02501:00
#02501:00
#02501:00
#02501:00
#02501:00
#02501:00
#02501:00
#02501:00
#02501:02030203020302030203020302030203
#02501:00
#02501:00
#02501:7D7E7D7W7E7D7W7E7D7E7D7W7E7D7W7E
#02501:00
#02501:00
#02501:00
#02501:00
#02501:8F008K008F0000008F008K008G8L8G8L8F0000008K0000008F008K0000000000
#02506:030405060708090A0B0C0D0E0F0G0H0I030405060708090A0B0C0D0E0F0G0H0I
#02512:1L00000000001L00001L00001L001N00
#02513:001N1L0000000000
#02514:000000000000001M00001M0000000000
#02515:000000000000008E
#02519:0001000100010001
#02521:04040404
#02522:000K000K
#02523:001A
#02524:0000001700000000
#02525:0000180000170000
#02528:001900000000001A
#02529:1B000018
#02601:00
#02601:00
#02601:00
#02601:00
#02601:00
#02601:00
#02601:00
#02601:00
#02601:00
#02601:00
#02601:02030203020302030203020302030203
#02601:00
#02601:00
#02601:7F7G7F7X7G7F7X7G7F7G7F7X7G7F7X7G
#02601:00
#02601:00
#02601:00
#02601:00
#02601:8F8K8F008F8K8F008F8K8F008F8K0000
#02606:030405060708090A0B0C0D0E0F0G0H0I030405060708090A0B0C0D0E0F0G0H0I
#02611:0001000100010001
#02613:1O00000000001O00001O00001O001Q00
#02614:001Q1O0000000000
#02615:000000000000008E
#02618:000000000000001P00001P0000000000
#02621:04040404
#02622:000K000K
#02623:16
#02625:0000170017000017
#02628:0000000000180000
#02629:00000019
#02701:00
#02701:00
#02701:00
#02701:00
#02701:00
#02701:00
#02701:00
#02701:00
#02701:00
#02701:00
#02701:02030203020302030203020302030203
#02701:00
#02701:00
#02701:7F7G7F7X7G7F7X7G7F7G7F7X7G7F7X7G
#02701:00
#02701:00
#02701:00
#02701:00
#02701:8F008K008F0000008F008K008G8L8G8L8F0000008K0000008F008K0000000000
#02706:030405060708090A0B0C0D0E0F0G0H0I030405060708090A0B0C0D0E0F0G0H0I
#02711:0001000100010001
#02713:1O00000000001O00001O00001O001Q00
#02714:001Q1O0000000000
#02715:000000000000008E
#02718:000000000000001P00001P0000000000
#02721:04040404
#02722:000K000K
#02723:000000000000001F
#02724:000000001C1C0000
#02725:00000000000017000000001D00000000
#02728:18180000
#02729:0019000000001E00
#02801:00
#02801:00
#02801:00
#02801:00
#02801:00
#02801:00
#02801:00
#02801:00
#02801:00
#02801:00
#02801:02030203020302030203020302030203
#02801:00
#02801:00
#02801:7B7C7B7V7C7B7V7C7B7C7B7V7C7B7V7C
#02801:00
#02801:00
#02801:00
#02801:00
#02801:8F8K8F008F8K8F008F8K8F008F8K0000
#02806:030405060708090A0B0C0D0E0F0G0H0I030405060708090A0B0C0D0E0F0G0H0I
#02812:0001000100010001
#02814:1R00000000001R00001R00001R001T00
#02815:001T1R0000000000
#02818:000000000000008E
#02819:000000000000001S00001S0000000000
#02821:04040404
#02822:000K000K
#02823:16
#02824:0000000000000017
#02825:00171700
#02828:0000000000180000
#02829:00000019
#02901:000000000000000000000000008M0000
#02901:00
#02901:00
#02901:00
#02901:00
#02901:00
#02901:00
#02901:00
#02901:00
#02901:00
#02901:02030203020302030203020302030203
#02901:00
#02901:00
#02901:7B7C7B7V7C7B7V7C7B7C7B7V7C7B7V7C
#02901:00
#02901:00
#02901:00
#02901:00
#02901:8F008K008F0000008F008K008G8L8G8L8F0000008K0000008F008K0000000000
#02906:030405060708090A0B0C0D0E0F0G0H0I030405060708090A0B0C0D0E0F0G0H0I
#02912:0001000100010001
#02914:1R00000000001R00001R00001R001T00
#02915:001T1R0000000000
#02918:000000000000008E
#02919:000000000000001S00001S0000000000
#02921:04040404
#02922:000K000K
#02923:001A
#02924:0000001D0017001A
#02925:001E0000
#02928:0000001H000000000000000018000000
#02929:1G1G000000000000
#03001:00
#03001:00
#03001:00
#03001:00
#03001:00
#03001:00
#03001:00
#03001:00
#03001:00
#03001:00
#03001:02030203020302030203020302030203
#03001:00
#03001:00
#03001:7B7C7B7V7C7B7V7C7B7C7B7V7C7B7V7C
#03001:00
#03001:00
#03001:00
#03001:00
#03001:8F8K8F008F8K8F008F8K8F008F8K0000
#03006:030405060708090A0B0C0D0E0F0G0H0I030405060708090A0B0C0D0E0F0G0H0I
#03011:04040404
#03012:000K000K
#03013:16
#03015:0000170017000017
#03018:0000000000180000
#03019:00000019
#03021:1I00000000001I00001I00001I001K00
#03022:001K1I0000000000
#03023:000000000000001J00001J0000000000
#03024:000000000000008E
#03028:0001000100010001
#03101:00
#03101:00
#03101:00
#03101:00
#03101:00
#03101:00
#03101:00
#03101:00
#03101:00
#03101:00
#03101:02030203020302030203020302030203
#03101:00
#03101:00
#03101:7B7C7B7V7C7B7V7C7B7C7B7V7C7B7V7C
#03101:00
#03101:00
#03101:00
#03101:00
#03101:8F008K008F0000008F008K008G8L8G8L8F0000008K0000008F008K0000000000
#03106:030405060708090A0B0C0D0E0F0G0H0I030405060708090A0B0C0D0E0F0G0H0I
#03111:04040404
#03112:000K000K
#03113:00000016
#03114:001A
#03115:0000001700000000
#03118:18180000
#03119:0019000000000000
#03121:000000001I001I00001I00001I001K00
#03122:1I1K000000000000
#03123:000000000000001J00001J0000000000
#03124:000000000000008E
#03128:0001000100010001
#03201:00
#03201:00
#03201:00
#03201:00
#03201:00
#03201:00
#03201:00
#03201:00
#03201:00
#03201:00
#03201:02030203020302030203020302030203
#03201:00
#03201:00
#03201:7D7E7D7W7E7D7W7E7D7E7D7W7E7D7W7E
#03201:00
#03201:00
#03201:00
#03201:00
#03201:8F8K8F008F8K8F008F8K8F008F8K0000
#03206:030405060708090A0B0C0D0E0F0G0H0I030405060708090A0B0C0D0E0F0G0H0I
#03211:04040404
#03212:000K000K
#03213:16
#03214:0000000000000017
#03215:00171700
#03218:0000000000180000
#03219:00000019
#03222:1L00000000001L00001L00001L001N00
#03223:001N1L0000000000
#03224:000000000000001M00001M0000000000
#03225:000000000000008E
#03229:0001000100010001
#03301:00
#03301:00
#03301:00
#03301:00
#03301:00
#03301:00
#03301:00
#03301:00
#03301:00
#03301:00
#03301:02030203020302030203020302030203
#03301:00
#03301:00
#03301:7D7E7D7W7E7D7W7E7D7E7D7W7E7D7W7E
#03301:00
#03301:00
#03301:00
#03301:00
#03301:8F008K008F0000008F008K008G8L8G8L8F0000008K0000008F008K0000000000
#03306:030405060708090A0B0C0D0E0F0G0H0I030405060708090A0B0C0D0E0F0G0H0I
#03311:04040404
#03312:000K000K
#03313:001A
#03314:0000001700000000
#03315:0000180000170000
#03318:001900000000001A
#03319:1B000018
#03322:1L00000000001L00001L00001L001N00
#03323:001N1L0000000000
#03324:000000000000001M00001M0000000000
#03325:000000000000008E
#03329:0001000100010001
#03401:00
#03401:00
#03401:00
#03401:00
#03401:00
#03401:00
#03401:00
#03401:00
#03401:00
#03401:00
#03401:02030203020302030203020302030203
#03401:00
#03401:00
#03401:7F7G7F7X7G7F7X7G7F7G7F7X7G7F7X7G
#03401:00
#03401:00
#03401:00
#03401:00
#03401:8F8K8F008F8K8F008F8K8F008F8K0000
#03406:030405060708090A0B0C0D0E0F0G0H0I030405060708090A0B0C0D0E0F0G0H0I
#03411:04040404
#03412:000K000K
#03413:16
#03415:0000170017000017
#03418:0000000000180000
#03419:00000019
#03421:0001000100010001
#03423:1O00000000001O00001O00001O001Q00
#03424:001Q1O0000000000
#03425:000000000000008E
#03428:000000000000001P00001P0000000000
#03501:00
#03501:00
#03501:00
#03501:00
#03501:00
#03501:00
#03501:00
#03501:00
#03501:00
#03501:00
#03501:02030203020302030203020302030203
#03501:00
#03501:00
#03501:7F7G7F7X7G7F7X7G7F7G7F7X7G7F7X7G
#03501:00
#03501:00
#03501:00
#03501:00
#03501:8F008K008F0000008F008K008G8L8G8L8F0000008K0000008F008K0000000000
#03506:030405060708090A0B0C0D0E0F0G0H0I030405060708090A0B0C0D0E0F0G0H0I
#03511:04040404
#03512:000K000K
#03513:000000000000001F
#03514:000000001C1C0000
#03515:00000000000017000000001D00000000
#03518:18180000
#03519:0019000000001E00
#03521:0001000100010001
#03523:1O00000000001O00001O00001O001Q00
#03524:001Q1O0000000000
#03525:000000000000008E
#03528:000000000000001P00001P0000000000
#03601:00
#03601:00
#03601:00
#03601:00
#03601:00
#03601:00
#03601:00
#03601:00
#03601:00
#03601:00
#03601:02030203020302030203020302030203
#03601:00
#03601:00
#03601:7B7C7B7V7C7B7V7C7B7C7B7V7C7B7V7C
#03601:00
#03601:00
#03601:00
#03601:00
#03601:8F8K8F008F8K8F008F8K8F008F8K0000
#03606:030405060708090A0B0C0D0E0F0G0H0I030405060708090A0B0C0D0E0F0G0H0I
#03611:04040404
#03612:000K000K
#03613:16
#03614:0000000000000017
#03615:00171700
#03618:0000000000180000
#03619:00000019
#03622:0001000100010001
#03624:1R00000000001R00001R00001R001T00
#03625:001T1R0000000000
#03628:000000000000008E
#03629:000000000000001S00001S0000000000
#03701:0I000M0J00000H07
#03701:00
#03701:00
#03701:00
#03701:00
#03701:00
#03701:00
#03701:00
#03701:00
#03701:00
#03701:02030203020302030203020302030203
#03701:00
#03701:00
#03701:7B7C7B7V7C7B7V7C7B7C7B7V7C7B7V7C
#03701:00
#03701:00
#03701:00
#03701:00
#03701:8F008K008F0000008F008K008G8L8G8L8F0000008K0000008F008K0000000000
#03706:030405060708090A0B0C0D0E0F0G0H0I030405060708090A0B0C0D0E0F0G0H0I
#03711:04040404
#03712:000K000K
#03713:001A
#03714:0000001D0017001A
#03715:001E0000
#03718:0000001H000000000000000018000000
#03719:1G1G000000000000
#03722:0001000100010001
#03724:1R00000000001R00001R00001R001T00
#03725:001T1R0000000000
#03728:000000000000008E
#03729:000000000000001S00001S0000000000
#03801:04
#03801:00
#03801:00
#03801:00
#03801:00040404
#03801:00
#03801:000K000K
#03801:00
#03801:00
#03801:0001000100010001
#03801:00030203000300030203020302030203
#03801:00
#03801:00
#03801:7B7C7B7V7C7B7V7C7B7C7B7V7C7B7V7C
#03801:00
#03801:00
#03801:00
#03801:00
#03801:00
#03801:00
#03801:00
#03801:00
#03801:5J5K5J5K005L005M
#03801:00
#03801:00
#03801:00
#03801:00
#03801:00
#03801:00
#03801:00
#03801:00
#03801:0P
#03806:030405060708090A0B0C0D0E0F0G0H0I030405060708090A0B0C0D0E0F0G0H0I
#03811:61
#03813:02
#03814:0000020200000000
#03818:2T
#03819:00002U2V00000000
#03826:0C
#03901:00
#03901:00
#03901:00
#03901:00
#03901:04040404
#03901:00
#03901:000K000K
#03901:00
#03901:00
#03901:0001000100010001
#03901:02030203020302030203020302030203
#03901:00
#03901:00
#03901:7B7C7B7V7C7B7V7C7B7C7B7V7C7B7V7C
#03901:00
#03901:00
#03901:00
#03901:00
#03901:00
#03901:00
#03901:00
#03901:00
#03901:5J5K5J5K005L005M
#03906:030405060708090A0B0C0D0E0F0G0H0I030405060708090A0B0C0D0E0F0G0H0I
#03912:62
#03913:002L
#03918:2L
#03919:00000000002O0000
#03922:0000002O00000000
#03923:002O000000000000
#03924:00000000000000000000000000000064
#03928:00002P0000000063
#04001:00
#04001:00
#04001:00
#04001:00
#04001:00040404
#04001:00
#04001:0000000K
#04001:00
#04001:00
#04001:0001000000010001
#04001:00030203020302030203020302030203
#04001:00
#04001:00
#04001:7F7G7F7X7G7F7X7G7F7G7F7X7G7F7X7G
#04001:00
#04001:00
#04001:00
#04001:00
#04001:00
#04001:00
#04001:00
#04001:00
#04001:5N5O5N5O005P005Q
#04006:030405060708090A0B0C0D0E0F0G0H0I030405060708090A0B0C0D0E0F0G0H0I
#04011:04
#04012:02
#04013:00000K0100000000
#04014:2W
#04015:00002X2Y00000000
#04021:65000068
#04022:00000000000000000000000000690000
#04023:000000000067006A
#04024:0000000000000000000000000000006B
#04025:0066
#04101:00
#04101:00
#04101:00
#04101:00
#04101:04040404
#04101:00
#04101:000K000K
#04101:00
#04101:00
#04101:0001000100010001
#04101:02030203020302030203020302030203
#04101:00
#04101:00
#04101:7F7G7F7X7G7F7X7G7F7G7F7X7G7F7X7G
#04101:00
#04101:00
#04101:00
#04101:00
#04101:00
#04101:00
#04101:00
#04101:00
#04101:5N5O5N5O005P005Q
#04106:030405060708090A0B0C0D0E0F0G0H0I030405060708090A0B0C0D0E0F0G0H0I
#04112:00000000002K0000
#04113:002Q000000000000
#04115:2O2Q
#04118:0000002O00000000
#04119:002P0000
#04125:006D
#04128:6C
#04201:00
#04201:00
#04201:00
#04201:00
#04201:00040404
#04201:00
#04201:000K000K
#04201:00
#04201:00
#04201:0001000100010001
#04201:00030203020300030203020300030203
#04201:00
#04201:00
#04201:7H7I7H7Y7I7H7Y7I7H7I7H7Y7I7H7Y7I
#04201:00
#04201:00
#04201:00
#04201:00
#04201:00
#04201:00
#04201:00
#04201:00
#04201:5R5S5R5T005U005V
#04206:030405060708090A0B0C0D0E0F0G0H0I030405060708090A0B0C0D0E0F0G0H0I
#04211:04
#04212:0000000200000000
#04213:2Z
#04214:00000002
#04215:0000003000000000
#04218:02000031
#04222:6E
#04301:00
#04301:00
#04301:00
#04301:00
#04301:04040404
#04301:00
#04301:000K000K
#04301:00
#04301:00
#04301:0001000100010001
#04301:02030203020302030203020302030203
#04301:00
#04301:00
#04301:7H7I7H7Y7I7H7Y7I7H7I7H7Y7I7H7Y7I
#04301:00
#04301:00
#04301:00
#04301:00
#04301:00
#04301:00
#04301:6F6G
#04301:00
#04301:5R5S5R5T005U005V
#04306:030405060708090A0B0C0D0E0F0G0H0I030405060708090A0B0C0D0E0F0G0H0I
#04322:00000000002L0000
#04323:002Q
#04324:0000002O00000000
#04325:002P0000
#04328:002S000000000000
#04329:2R
#04401:00
#04401:00
#04401:00
#04401:00
#04401:00040404
#04401:00
#04401:000K000K
#04401:00
#04401:00
#04401:0001000100010001
#04401:00030203020302030203020302030203
#04401:00
#04401:00
#04401:7F7G7F7X7G7F7X7G7F7G7F7X7G7F7X7G
#04401:00
#04401:00
#04401:00
#04401:00
#04401:00
#04401:00
#04401:6H
#04401:00
#04401:5O5U5S5T005U005V
#04406:030405060708090A0B0C0D0E0F0G0H0I030405060708090A0B0C0D0E0F0G0H0I
#04412:32
#04413:002S
#04414:00000000002R0000
#04415:0200003F
#04418:000000000000000000000000003G0000
#04419:040000000000003H
#04422:0000002P00000000
#04425:002S0000
#04501:00
#04501:00
#04501:00
#04501:00
#04501:00040004
#04501:00
#04501:000K000K
#04501:00
#04501:00
#04501:0001000100010001
#04501:00030203020302030003020302030203
#04501:00
#04501:00
#04501:7J7K7J7Z7K7J7Z7K7L7M7L807M7L807M
#04501:00
#04501:00
#04501:00
#04501:00
#04501:00
#04501:00
#04501:00
#04501:00
#04501:5W5X5Y5Z0060005Y
#04506:030405060708090A0B0C0D0E0F0G0H0I030405060708090A0B0C0D0E0F0G0H0I
#04511:04
#04512:02
#04513:0002
#04514:33
#04518:0034
#04522:0004
#04524:6I
#04525:006J
#04526:000000000000000000000000008M0000
#04601:00
#04601:00
#04601:00
#04601:00
#04601:00040404
#04601:00
#04601:000K000K
#04601:00
#04601:00
#04601:0001000100010001
#04601:00030203020302030203020302030203
#04601:00
#04601:00
#04601:7B7C7B7V7C7B7V7C7B7C7B7V7C7B7V7C
#04601:00
#04601:00
#04601:00
#04601:00
#04601:00
#04601:00
#04601:6K6L6K6M6N6O0000
#04601:00
#04601:5J5K5J5K005L005M
#04606:030405060708090A0B0C0D0E0F0G0H0I030405060708090A0B0C0D0E0F0G0H0I
#04611:003I0000
#04612:00000000003J00000000000000000000
#04613:0000003K00000000
#04614:000000000000003L0000000000000000
#04615:003M
#04618:0000000000000000003N000000000000
#04619:00000000003O0000
#04621:04000000000000000000003P00000000
#04622:0000003Q
#04623:000000000000000000000000003R0000
#04624:020000000000003S
#04625:0000000000000000000000000000003T
#04628:35
#04701:02030000000000000000000000000000
#04701:00
#04701:00
#04701:00
#04701:04040404
#04701:00
#04701:000K000K
#04701:00
#04701:00
#04701:0001000100010001
#04701:00000203020302030203020302030203
#04701:00
#04701:00
#04701:7B7C7B7V7C7B7V7C7B7C7B7V7C7B7V7C
#04701:00
#04701:00
#04701:00
#04701:00
#04701:00
#04701:00
#04701:6K6L6K6M6N6O0000
#04701:00
#04701:5J5K5J5K005L005M
#04706:030405060708090A0B0C0D0E0F0G0H0I030405060708090A0B0C0D0E0F0G0H0I
#04721:000000000000002L
#04724:0000002Q
#04725:002O
#04728:363800000000000000002P0000000000
#04801:00
#04801:00
#04801:00
#04801:00
#04801:00040400
#04801:00
#04801:000K000K
#04801:00
#04801:00
#04801:0001000100010000
#04801:00030203020302030203020300030003
#04801:00
#04801:00
#04801:7F7G7F7X7G7F7X7G7F7G7F7X007F007G
#04801:00
#04801:00
#04801:00
#04801:00
#04801:00
#04801:00
#04801:6P6Q6R6S6T6U6V6W
#04801:00
#04801:5N5O5N5O005P005Q
#04806:030405060708090A0B0C0D0E0F0G0H0I030405060708090A0B0C0D0E0F0G0H0I
#04811:04
#04812:00003U0000007G7X
#04813:39
#04814:00000000003I00000000000000000000
#04815:0000003J00000000
#04818:0200000000000401
#04819:000000000000003K0000000000000000
#04821:003L
#04823:0000000000000000003M00003A003A00
#04824:00000000003N0000
#04825:00000000000000000000003O00000000
#04829:0000000000000202
#04901:00
#04901:00
#04901:00
#04901:00
#04901:04040404
#04901:00
#04901:000K000K
#04901:00
#04901:00
#04901:0001000100010001
#04901:02030203020302030203020302030203
#04901:00
#04901:00
#04901:7F7G7F7X7G7F7X7G7F7G7F7X7G7F7X7G
#04901:00
#04901:00
#04901:00
#04901:00
#04901:00
#04901:00
#04901:6X6Y6Z70
#04901:00
#04901:5N5O5N5O005P005Q
#04901:00
#04901:00
#04901:00
#04901:00
#04901:00
#04901:00
#04901:00
#04901:008O
#04906:030405060708090A0B0C0D0E0F0G0H0I030405060708090A0B0C0D0E0F0G0H0I
#04912:0000000000000000000000000000003J
#04913:000000000000003N0000000000003L00
#04914:0000003P00000000
#04915:000000000000000000000000003N0000
#04918:00000000003R00000000000000000000
#04919:003T003P
#04921:00000000000000000000003L00000000
#04922:0000003P0000000000003N0000000000
#04923:003R000000000000
#04924:0000000000000000003P000000000000
#04925:003T0000000000000000000000000000
#04928:003R
#04929:3V
#05001:00
#05001:00
#05001:00
#05001:00
#05001:00040400
#05001:00
#05001:000K000K
#05001:00
#05001:00
#05001:0001000000010001
#05001:00030203020300030203020300030203
#05001:00
#05001:00
#05001:007I7H7Y7I7H007I7H7I7H7Y007H7Y7I
#05001:00
#05001:00
#05001:00
#05001:00
#05001:00
#05001:00
#05001:7172717200730074
#05001:00
#05001:5R5S5R5T005U005V
#05006:030405060708090A0B0C0D0E0F0G0H0I030405060708090A0B0C0D0E0F0G0H0I
#05011:04
#05012:0000007Y00000000
#05013:0000007I
#05015:2Z
#05018:0000000100000000
#05019:00000004
#05021:02
#05022:0000003000000000
#05023:00000031
#05025:7H
#05028:0000000200000000
#05029:00000002
#05101:00
#05101:00
#05101:00
#05101:00
#05101:04040404
#05101:00
#05101:000K000K
#05101:00
#05101:00
#05101:0001000100010001
#05101:02030203020302030203020302030203
#05101:00
#05101:00
#05101:7H7I7H7Y7I7H7Y7I7H7I7H7Y7I7H7Y7I
#05101:00
#05101:00
#05101:00
#05101:00
#05101:00
#05101:00
#05101:7172717200737475
#05101:00
#05101:5R5S5R5T005U005V
#05106:030405060708090A0B0C0D0E0F0G0H0I030405060708090A0B0C0D0E0F0G0H0I
#05121:00000000002L0000
#05122:002Q
#05123:0000002O00000000
#05124:002P0000
#05125:002S000000000000
#05128:2R
#05201:00
#05201:00
#05201:00
#05201:00
#05201:00040404
#05201:00
#05201:00
#05201:0F0F0F0F0F0F0F0F
#05201:000G000G000G000G000G000G000G000G
#05201:0001000100010001
#05201:00030203020302030203020302030203
#05201:00
#05201:00
#05201:7F7G7F7X7G7F7X7G7F7G7F7X7G7F7X7G
#05201:00
#05201:00
#05201:00
#05201:00
#05201:00
#05201:00
#05201:7677
#05201:00
#05201:5O5U5S5T005U005V
#05206:030405060708090A0B0C0D0E0F0G0H0I030405060708090A0B0C0D0E0F0G0H0I
#05211:04
#05212:02
#05214:32
#05222:0000002P00000000
#05223:002S
#05224:00000000002R0000
#05225:002S003F
#05228:000000000000000000000000003G0000
#05229:000000000000003H
#05301:00
#05301:00
#05301:00
#05301:0I000M0J00000H00
#05301:0400040004000407
#05301:00
#05301:00
#05301:000F0F0F00000F0F
#05301:00000000000G000G0000000G000G000G
#05301:0001000100010001
#05301:00000200020302030000020002030203
#05301:00
#05301:00
#05301:00007J007K7J7Z7K00007L007M7L807M
#05301:00
#05301:00
#05301:00
#05301:00
#05301:00
#05301:00
#05301:7879
#05301:00
#05301:5W5X5Y5Z0060005Y
#05301:00
#05301:00
#05301:008J
#05301:00
#05301:00
#05301:00
#05301:0000000000000000005I000000000000
#05301:0000008I
#05306:030405060708090A0B0C0D0E0F0G0H0I030405060708090A0B0C0D0E0F0G0H0I
#05312:02030003000000000000000000000000
#05313:00000000000000007L7M008000000000
#05314:0F0G000G000000000000000000000000
#05319:00000000000000003D3E003D00000000
#05321:7J7K007Z000000000000000000000000
#05322:00000000000000000203000300000000
#05323:3B3C003B000000000000000000000000
#05328:00000000000000000F0G000F00000000
#05401:00
#05401:00
#05401:00
#05401:00
#05401:00
#05401:00
#05401:00
#05401:00
#05401:00
#05401:00
#05401:00
#05401:00
#05401:00
#05401:00
#05401:00
#05401:00
#05401:00
#05401:00
#05401:00
#05401:00
#05401:7A
#05401:00
#05401:00
#05401:00
#05401:00
#05401:00
#05401:00
#05401:00
#05401:00
#05401:00
#05401:00
#05401:0Q
#05403:5C
#05406:030405060708090A0B0C0D0E0F0G0H0I030405060708090A0B0C0D0E0F0G0H0I
#05416:0C0D
#05425:89898989
#05426:08
#05506:030405060708090A0B0C0D0E0F0G0H0I030405060708090A0B0C0D0E0F0G0H0I
#05523:8A8A8A8A
#05606:030405060708090A0B0C0D0E0F0G0H0I030405060708090A0B0C0D0E0F0G0H0I
#05613:8B8B8B8B
#05626:000D
#05701:00
#05701:00
#05701:00
#05701:00
#05701:00
#05701:00
#05701:00
#05701:00
#05701:00
#05701:00
#05701:00
#05701:00
#05701:00
#05701:00
#05701:00
#05701:00
#05701:00
#05701:00
#05701:00
#05701:00
#05701:00
#05701:00
#05701:00
#05701:00
#05701:008D
#05701:00
#05701:00
#05701:00
#05701:00
#05701:00
#05701:00
#05701:8H
#05706:030405060708090A0B0C0D0E0F0G0H0I030405060708090A0B0C0D0E0F0G0H0I
#05715:8C8C8C8C
#05726:0000000000000000000B000000000000
#05801:00
#05801:00
#05801:00
#05801:00
#05801:00
#05801:00
#05801:00
#05801:00
#05801:0009000900090009
#05806:030405060708090A0B0C0D0E0F0G0H0I030405060708090A0B0C0D0E0F0G0H0I
#05811:04000004040000040004000404000000
#05816:0C
#05819:0E0E0E0E0E0E0E0E
#05823:85858585
#05825:000L000L
#05829:89898989
#05901:00
#05901:00
#05901:00
#05901:00
#05901:00
#05901:00
#05901:00
#05901:00
#05901:000000000900000000000000090000000000000009000000000000000F0G0F00
#05906:030405060708090A0B0C0D0E0F0G0H0I030405060708090A0B0C0D0E0F0G0H0I
#05911:04000004040000040004000404000000
#05919:0E0E0E0E0E0E0E0E
#05922:86868686
#05924:000L000L
#05928:8A8A8A8A
#06001:00
#06001:0400000000000400040000000000040000000400000004000400060504000000
#06001:00
#06001:00
#06001:00
#06001:00
#06001:00
#06001:00
#06001:00
#06001:00
#06001:00
#06001:000E0E0E0E0E0E0E
#06006:030405060708090A0B0C0D0E0F0G0H0I030405060708090A0B0C0D0E0F0G0H0I
#06011:87878787
#06013:000L000L
#06015:8B8B8B8B
#06023:000A000A000A000A000A000A000A000A
#06025:0909090909090909
#06026:0H
#06101:00
#06101:04000004040000040004000404000000
#06101:00
#06101:00
#06101:00
#06101:00
#06101:00
#06101:00
#06101:00
#06101:00
#06101:00
#06101:0E0E0E0E0E0E0E0E
#06106:030405060708090A0B0C0D0E0F0G0H0I030405060708090A0B0C0D0E0F0G0H0I
#06112:88888888
#06114:000L000L
#06118:8C8C8C8C
#06123:000G000G000G000G000G000G000G000G000G000G000G000G000G000G000G000G
#06125:0F0F0F0F0F0F0F0F0F0F0F0F0F0F0F0F
#06201:00
#06201:00
#06201:00
#06201:08
#06201:00
#06201:00
#06201:00
#06201:00
#06201:00
#06201:00
#06201:00
#06201:00
#06201:00
#06201:7B7C7B7V7C7B7V7C7B7C7B7V7C7B7V7C
#06201:00
#06201:00
#06201:00
#06201:00
#06201:00
#06201:00
#06201:00
#06201:00
#06201:00
#06201:00
#06201:00
#06201:00
#06201:00
#06201:00
#06201:00
#06201:00
#06201:00
#06201:29
#06203:B8
#06206:030405060708090A0B0C0D0E0F0G0H0I030405060708090A0B0C0D0E0F0G0H0I
#06211:00004000000000000000000000000042
#06213:0000000000004040
#06214:0000003Z000051520000000000000000
#06215:000000000000000000000000003Z0000
#06216:0C
#06223:00000000000000000000003Z00000000
#06224:003Z0000000000000000000000000000
#06225:0000000041410000
#06229:3Y00000000004Z50003Y000000000000
#06301:00
#06301:00
#06301:00
#06301:00
#06301:00
#06301:00
#06301:00
#06301:00
#06301:00
#06301:00
#06301:00
#06301:00
#06301:00
#06301:7F7G7F7X7G7F7X7G7F7G7F7X7G7F7X7G
#06306:030405060708090A0B0C0D0E0F0G0H0I030405060708090A0B0C0D0E0F0G0H0I
#06312:00000000000000000000000000480000
#06313:00000000000000000040000000000000
#06314:43
#06315:000000000000000055005600005500003Z0000003Z0000000000000000000000
#06318:0000000000004646
#06319:00400000000000000000000000000000
#06321:00000000000000000000000000470000
#06323:003Z000000000000
#06324:0000000000000000530054000053000000000000000000000000000000000000
#06325:0000000000004545
#06328:0000003Y000000000000000000000000
#06401:00
#06401:00
#06401:00
#06401:00
#06401:00
#06401:00
#06401:00
#06401:00
#06401:00
#06401:00
#06401:00
#06401:00
#06401:00
#06401:7H7I7H7Y7I7H7Y7I7H7I7H7Y7I7H7Y7I
#06406:030405060708090A0B0C0D0E0F0G0H0I030405060708090A0B0C0D0E0F0G0H0I
#06411:4C
#06412:004G
#06413:00000000004E00000000000000000000
#06415:004D00004D0000000000000000480000
#06419:00000000000000000046000046000000
#06421:0000004F00000057
#06423:00000000000000000000000000004G0000000000000000000000000000580000
#06424:004E000000000000
#06425:00000000000000000000480000000059
#06428:00000048000000000000000000000000
#06429:000000000000000000000000000000000000000000004700000000000000005A
#06501:00
#06501:00
#06501:00
#06501:00
#06501:00
#06501:00
#06501:00
#06501:00
#06501:00
#06501:00
#06501:00
#06501:00
#06501:00
#06501:7N7O7N817O7N817O7P7Q7P827Q7P827Q
#06501:00
#06501:00
#06501:00
#06501:00
#06501:00
#06501:00
#06501:00
#06501:00
#06501:00
#06501:00
#06501:00
#06501:00
#06501:0046004I004H0049
#06501:004E0000004D00000048000000460000
#06501:00
#06501:00
#06501:37
#06506:030405060708090A0B0C0D0E0F0G0H0I030405060708090A0B0C0D0E0F0G0H0I
#06511:00004E00000000000000000000000046
#06512:0000004D00000000
#06513:00460000000000000000480000000000
#06514:4H000000004I00000000000000004A00
#06515:0000000045000000004H000000000000
#06518:00000000000000004200000000420000
#06519:00000043
#06521:00000000000000000000000000000042
#06522:42
#06523:00430000
#06524:3Z40
#06525:004J003Z
#06528:004K
#06529:0000004L
#06601:00
#06601:00
#06601:00
#06601:00
#06601:00
#06601:00
#06601:00
#06601:00
#06601:00
#06601:00
#06601:00
#06601:00
#06601:00
#06601:7B7C7B7V7C7B7V7C7B7C7B7V7C7B7V7C
#06606:030405060708090A0B0C0D0E0F0G0H0I030405060708090A0B0C0D0E0F0G0H0I
#06611:00000000000000000000000000470000
#06613:0046000000000045
#06614:00000000000000000040000000000000
#06615:00000000000000000000000000000042
#06618:00000047000000000000000040000000
#06619:003Z
#06621:00450000
#06623:00000000004200000000000000000000
#06624:00470000000043000000000000000000
#06625:00000000000000000000003Z00000000
#06628:00000000000000400000000000000000
#06629:4500000000410000
#06701:00
#06701:00
#06701:00
#06701:00
#06701:00
#06701:00
#06701:00
#06701:00
#06701:00
#06701:00
#06701:00
#06701:00
#06701:00
#06701:7L7M7L807M7L807M7L7M7L807M7L807M
#06706:030405060708090A0B0C0D0E0F0G0H0I030405060708090A0B0C0D0E0F0G0H0I
#06711:003Z0000
#06713:00000000004100000000000000000000
#06715:0000003Y00000000
#06719:000000000000004L0000000000000000
#06721:004N
#06722:004200000000000000004P0000000000
#06723:0000004R
#06724:4300430000000000004O000000004T00
#06725:00000000000000000000004Q00000000
#06728:000000400000000000000000004S0000
#06729:0000000000000000000000000000004U
#06801:00
#06801:00
#06801:00
#06801:00
#06801:00
#06801:00
#06801:00
#06801:00
#06801:00
#06801:00
#06801:00
#06801:00
#06801:00
#06801:7D7E7D7W7E7D7W7E7D7E7D7W7E7D7W7E
#06806:030405060708090A0B0C0D0E0F0G0H0I030405060708090A0B0C0D0E0F0G0H0I
#06811:43000000000000000000000000000041
#06813:00000000003Y0000
#06814:000000000000003Y
#06815:003Z004B003Z4B000000000000000000
#06818:00000000000000000000004L00000000
#06822:00000000000000000041000000000000
#06824:000000000000000000000000004L0000
#06825:003X003Y003X3Y003Y00000000000000
#06829:0000004N
#06901:00
#06901:00
#06901:00
#06901:00
#06901:00
#06901:00
#06901:00
#06901:00
#06901:00
#06901:00
#06901:00
#06901:00
#06901:00
#06901:7R7S7R837S7R837S7T7U7T847U7T847U
#06906:030405060708090A0B0C0D0E0F0G0H0I030405060708090A0B0C0D0E0F0G0H0I
#06912:003Y0000
#06915:00000000004L004L0000000000000000
#06916:00000000000B0000
#06919:0000004N00000000
#06921:3Y3Y
#06922:00000000004N0000
#06923:004L004L00000000004L00004P000000
#06924:00000000000000000000004O0000004S
#06925:000000000000000000000000004Q0000
#06928:004N000000000000
#06929:000000000000004T
#07001:00
#07001:00
#07001:00
#07001:00
#07001:00
#07001:00
#07001:00
#07001:00
#07001:00
#07001:00
#07001:02030203020302030203020302030203
#07001:00
#07001:00
#07001:7B7C7B7V7C7B7V7C7B7C7B7V7C7B7V7C
#07001:00
#07001:00
#07001:1R001T001R001R1S001R1S001R001T00
#07001:00
#07001:2A2B2C2D2E2B2F2B
#07001:8F8K8F008F8K8F008F8K8F008F8K0000
#07001:000000000000008E
#07001:00
#07001:00
#07001:00
#07001:00
#07001:00
#07001:00
#07001:00
#07001:00
#07001:00
#07001:00
#07001:0R
#07006:030405060708090A0B0C0D0E0F0G0H0I030405060708090A0B0C0D0E0F0G0H0I
#07011:04040404
#07014:0001000100010001
#07016:0C
#07018:000K000K
#07021:4545
#07022:0040004000430000
#07023:0000003Z
#07024:00000000000000000042000000003Y00
#07025:003Z003Z003Z003Z0000004000000000
#07028:00000000000000000000000000410000
#07029:0000000041000000000000000000004L
#07101:00
#07101:00
#07101:00
#07101:00
#07101:00
#07101:00
#07101:00
#07101:00
#07101:00
#07101:00
#07101:02030203020302030203020302030203
#07101:00
#07101:00
#07101:7F7G7F7X7G7F7X7G7F7G7F7X7G7F7X7G
#07101:00
#07101:00
#07101:1O001Q001O001O1P001O1P001O001Q00
#07101:00
#07101:2A2B2C2D2E2B2F2B
#07101:8F008K008F0000008F008K008G8L8G8L8F0000008K0000008F008K0000000000
#07101:000000000000008E
#07106:030405060708090A0B0C0D0E0F0G0H0I030405060708090A0B0C0D0E0F0G0H0I
#07111:04040404
#07114:0001000100010001
#07118:000K000K
#07121:004V
#07122:00000000000000420000000047000000
#07123:0000004000004000004G000000000000
#07124:00003Z00004100000000000000450000
#07125:004100003Y00000000004E0000000000
#07128:3Y00000000000042
#07129:00000000000000000000004800000040
#07201:00
#07201:00
#07201:00
#07201:00
#07201:00
#07201:00
#07201:00
#07201:00
#07201:00
#07201:00
#07201:02030203020302030203020302030203
#07201:00
#07201:00
#07201:7H7I7H7Y7I7H7Y7I7H7I7H7Y7I7H7Y7I
#07201:00
#07201:00
#07201:1L001N001L001L1M001L1M001L001N00
#07201:00
#07201:2A2B2C2D2E2B2F2B
#07201:8F8K8F008F8K8F008F8K8F008F8K0000
#07201:000000000000008E
#07206:030405060708090A0B0C0D0E0F0G0H0I030405060708090A0B0C0D0E0F0G0H0I
#07212:04040404
#07215:0001000100000K00
#07219:00000K0000010001
#07221:5G005H00005G0000000000000000420000000000000000000000000000000000
#07222:00000000002K000000003Y0000000000
#07223:5E005F00005E00000000000000003Z00000000000000000000005B0000000000
#07224:00000000002Q00000000004L00000000
#07225:00000000000000003Z0000000000000000000000000000000000005C00000000
#07228:0000004P
#07229:00003Y000000005D
#07301:00
#07301:00
#07301:00
#07301:00
#07301:00
#07301:00
#07301:00
#07301:00
#07301:00
#07301:00
#07301:02030203020302030203020302030203
#07301:00
#07301:00
#07301:7N7O7N817O7N817O7P7Q7P827Q7P827Q
#07301:00
#07301:00
#07301:1U001W001U001U1V001O1P001O001Q00
#07301:00
#07301:2A2B2C2D2E2B2F2B
#07301:8F008K008F0000008F008K008G8L8G8L8F0000008K0000008F008K0000000000
#07301:000000000000008E
#07301:00
#07301:00
#07301:00
#07301:00
#07301:00
#07301:0046004I004H0000
#07301:004E0000004D00000048000000000000
#07306:030405060708090A0B0C0D0E0F0G0H0I030405060708090A0B0C0D0E0F0G0H0I
#07312:04040404
#07315:000K000K
#07319:0001000100010001
#07321:4H00000000480000
#07322:42000000450000000000000000000049
#07323:004E004D0000003W
#07324:3Z434200
#07325:00000000004I0000004H0000004K0000
#07328:004J4000
#07329:00460000000000004K0000004L000000
#07401:00
#07401:00
#07401:00
#07401:00
#07401:00
#07401:00
#07401:00
#07401:00
#07401:00
#07401:00
#07401:02030203020302030203020302030203
#07401:00
#07401:00
#07401:7B7C7B7V7C7B7V7C7B7C7B7V7C7B7V7C
#07401:00
#07401:00
#07401:1R001T001R001R1S001R1S001R001T00
#07401:00
#07401:2A2B2C2D2E2B2F2B
#07401:8F8K8F008F8K8F008F8K8F008F8K0000
#07401:000000000000008E
#07406:030405060708090A0B0C0D0E0F0G0H0I030405060708090A0B0C0D0E0F0G0H0I
#07411:00004600000000000000000000470000
#07412:00000047000000000000000000004500
#07413:00470000450000000000000040000000
#07414:00000000004200000040000000000042
#07415:45000000000043000000003Z00000000
#07418:00000000000000400000000000000000
#07419:000000003Z410000
#07421:04040404
#07424:0001000100010001
#07428:000K000K
#07501:00
#07501:00
#07501:00
#07501:00
#07501:00
#07501:00
#07501:00
#07501:00
#07501:00
#07501:00
#07501:02030203020302030203020302030203
#07501:00
#07501:00
#07501:7L7M7L807M7L807M7L7M7L807M7L807M
#07501:00
#07501:00
#07501:1X001Z001X001X1Y001X1Y001X001Z00
#07501:00
#07501:2A2B2C2D2E2B2F2B
#07501:8F008K008F0000008F008K008G8L8G8L8F0000008K0000008F008K0000000000
#07501:000000000000008E
#07506:030405060708090A0B0C0D0E0F0G0H0I030405060708090A0B0C0D0E0F0G0H0I
#07511:004200000041000000000000004S0000
#07512:000000000000004L0000000000000000
#07513:0000430000000000004O000000000000
#07514:0000000000003Y000000004Q00004T00
#07515:00000040000000004N00000000000000
#07518:43000000004P0000
#07519:000000003Z000000000000004R00004U
#07521:04040404
#07524:0001000100010001
#07528:000K000K
#07601:00
#07601:00
#07601:00
#07601:00
#07601:00
#07601:000000000000000043403Z413Y4L4N4O
#07601:00
#07601:00
#07601:00
#07601:00
#07601:02030203020302030203020302030203
#07601:00
#07601:00
#07601:7D7E7D7W7E7D7W7E7D7E7D7W7E7D7W7E
#07601:00
#07601:00
#07601:20002200200020002120002120002200
#07601:00
#07601:2A2B2C2D2E2B2F2B
#07601:8F8K8F008F8K8F008F8K8F008F8K0000
#07601:000000000000008E
#07606:030405060708090A0B0C0D0E0F0G0H0I030405060708090A0B0C0D0E0F0G0H0I
#07611:454B
#07613:4300000000000000004100004N000000
#07614:003Z004B003Z4B0000000000004O0000
#07615:00000000003Y004P
#07618:003X003Y003X3Y00000000000000004Q
#07619:00000000000000000000004L00000000
#07622:04040404
#07625:0001000100010001
#07629:000K000K
#07701:0000000000000007
#07701:000K000K
#07701:04040404
#07701:0000000100000001
#07701:00
#07701:00
#07701:00
#07701:00
#07701:00
#07701:00
#07701:02030003020302030203000302030203
#07701:00
#07701:00
#07701:7R7S7R837S7R837S7T7U7T847U7T847U
#07701:00
#07701:00
#07701:23002500230023240026270026002800
#07701:00
#07701:2A2B2C2D2E2B2F2B
#07701:8F008K008F0000008F008K008G8L8G8L8F0000008K0000008F008K0000000000
#07701:000000000000008E
#07706:030405060708090A0B0C0D0E0F0G0H0I030405060708090A0B0C0D0E0F0G0H0I
#07714:004P4X004P4X004P4X004P4X0000004K
#07715:000000000000004X
#07718:000000000000000000000000004Y0000
#07719:4R00004R00004R00004R00004S000000
#07721:0002000000020000
#07726:0I000M0J00000H00
#07729:0001000000010000
#07801:0C
#07801:00
#07801:00
#07801:00
#07801:00
#07801:00
#07801:00
#07801:00
#07801:00
#07801:00
#07801:00030203000302030003020300030203
#07801:00
#07801:00
#07801:7B7C7B7V7C7B7V7C7B7C7B7V7C7B7V7C
#07801:00
#07801:00
#07801:00
#07801:00
#07801:00
#07801:8F8K8F008F8K8F008F8K8F008F8K0000
#07801:00
#07801:00
#07801:453Z403Z413Z403Z454243403Z413Y4L
#07806:030405060708090A0B0C0D0E0F0G0H0I030405060708090A0B0C0D0E0F0G0H0I
#07811:0200022F
#07812:0001000100010001
#07813:00020000
#07814:00000000002B002B
#07815:2A2E
#07818:002B002D00000200
#07819:00002C000000008E
#07821:04040404
#07822:000K000K
#07824:000000000000001S00001S0000000000
#07825:001T000000000000
#07828:1R0000001R001R00001R000000001T00
#07829:0000001R
#07901:00
#07901:00
#07901:00
#07901:00
#07901:00
#07901:00
#07901:00
#07901:00
#07901:00
#07901:00
#07901:00030203000302030003020300030203
#07901:00
#07901:00
#07901:7F7G7F7X7G7F7X7G7F7G7F7X7G7F7X7G
#07901:00
#07901:00
#07901:00
#07901:00
#07901:00
#07901:8F008K008F0000008F008K008G8L8G8L8F0000008K0000008F008K0000000000
#07901:00
#07901:00
#07901:3Y413Z403Y4140424V4G4E4847454240
#07906:030405060708090A0B0C0D0E0F0G0H0I030405060708090A0B0C0D0E0F0G0H0I
#07911:0200022F
#07912:0001000100010001
#07913:00020000
#07914:00000000002B002B
#07915:2A2E
#07918:002B002D00000200
#07919:00002C000000008E
#07921:04040404
#07922:000K000K
#07923:000000000000001P00001P0000000000
#07924:001Q000000000000
#07925:1O0000001O001O00001O000000001Q00
#07928:0000001O
#08001:00
#08001:00
#08001:00
#08001:00
#08001:00
#08001:00
#08001:00
#08001:00
#08001:00
#08001:00
#08001:00030203000302030003020300030203
#08001:00
#08001:00
#08001:7H7I7H7Y7I7H7Y7I7H7I7H7Y7I7H7Y7I
#08001:00
#08001:00
#08001:00
#08001:00
#08001:00
#08001:8F8K8F008F8K8F008F8K8F008F8K0000
#08001:00
#08001:00
#08001:000000000000000000003Y4L4P000000
#08001:5E005F00005E00003Y002Q0000003Z00000000000000000000005B5C5D000000
#08001:5G005H00005G00003Z002K000000420000000000000000000000000000000000
#08006:030405060708090A0B0C0D0E0F0G0H0I030405060708090A0B0C0D0E0F0G0H0I
#08011:04040404
#08012:000K000K
#08014:000000000000001M00001M0000000000
#08015:001N000000000000
#08018:1L0000001L001L00001L00001L000000
#08019:000000000000001N
#08021:0200022F
#08022:0001000100010001
#08023:00020000
#08024:00000000002B002B
#08025:2A2E
#08028:002B002D00000200
#08029:00002C000000008E
#08101:00
#08101:00
#08101:00
#08101:00
#08101:00
#08101:00
#08101:00
#08101:00
#08101:00
#08101:00
#08101:00030203000302030003020300030203
#08101:00
#08101:00
#08101:7N7O7N817O7N817O7P7Q7P827Q7P827Q
#08101:00
#08101:00
#08101:00
#08101:00
#08101:00
#08101:8F008K008F0000008F008K008G8L8G8L8F0000008K0000008F008K0000000000
#08101:00
#08101:00
#08101:4C4G4E48464542404L3X3Z403W444245
#08101:4E48464542403Z3X4P4O4L3X4L3Y3Z40
#08106:030405060708090A0B0C0D0E0F0G0H0I030405060708090A0B0C0D0E0F0G0H0I
#08111:04040404
#08112:000K000K
#08113:000000000000001V0000000000000000
#08114:001W000000000000
#08115:1U001U1U001P0000
#08118:0000001O
#08119:0000000000000000001O000000001Q00
#08121:0200022F
#08122:0001000100010001
#08123:00020000
#08124:00000000002B002B
#08125:2A2E
#08128:002B002D00000200
#08129:00002C000000008E
#08201:00
#08201:0001000100010001
#08201:00
#08201:00
#08201:04040404
#08201:00
#08201:00
#08201:00
#08201:00
#08201:00
#08201:02030203020302030203020302030203
#08201:00
#08201:00
#08201:7B7C7B7V7C7B7V7C7B7C7B7V7C7B7V7C
#08201:00
#08201:00
#08201:00
#08201:00
#08201:00
#08201:8F8K8F008F8K8F008F8K8F008F8K0000
#08201:000000000000008E
#08204:000000000000004S
#08206:030405060708090A0B0C0D0E0F0G0H0I030405060708090A0B0C0D0E0F0G0H0I
#08211:1R0000001R001R00001R00001R000000
#08212:001T0000001S001T
#08213:2A2E
#08214:002B002D00002F00
#08215:00002C00002B002B
#08218:000000000000001S0000000000000000
#08219:000K000K
#08221:00400000000000000000000000000000
#08222:00003Z00004100000000000000000000
#08223:3Z00004100003Y00004L000000000000
#08224:000000003Y00004L00004N000000004Q
#08225:00000000000000004N00004O00000000
#08228:0000004P
#08229:000000000000000000000000004Q0000
#08301:00
#08301:0001000100010001
#08301:00
#08301:00
#08301:04040404
#08301:00
#08301:00
#08301:00
#08301:00
#08301:00
#08301:02030203020302030203020302030203
#08301:00
#08301:00
#08301:7L7M7L807M7L807M7L7M7L807M7L807M
#08301:00
#08301:00
#08301:00
#08301:00
#08301:00
#08301:8F008K008F0000008F008K008G8L8G8L8F0000008K0000008F008K0000000000
#08301:000000000000008E
#08306:030405060708090A0B0C0D0E0F0G0H0I030405060708090A0B0C0D0E0F0G0H0I
#08311:000K000K
#08312:002B002D00002F00
#08313:2A000000002B0000
#08314:002C2E00
#08315:00001Z0000001X00001X00001X001Z00
#08318:1X1X0000
#08319:000000000000001Y00001Y0000002B00
#08321:0000004O0000003Y0000000000000000
#08322:0000004O00000000
#08323:00004P00004P00002R00000000000000
#08324:00004Q00004P4P00
#08325:004Q000000000000000000000000004O
#08328:00000000000000000000004W00004P00
#08329:4R0000000000000000000000004Q0000
#08401:00
#08401:00
#08401:00
#08401:00
#08401:04040404
#08401:00
#08401:00
#08401:0F0G0F0G0F0G0F0G0F0G0F0G0F0G0F0G
#08401:00
#08401:00
#08401:02030203020302030203020302030203
#08401:00
#08401:00
#08401:7D7E7D7W7E7D7W7E7D7E7D7W7E7D7W7E
#08401:00
#08401:00
#08401:00
#08401:00
#08401:00
#08401:8F8K8F008F8K8F008F8K8F008F8K0000
#08401:000000000000008E
#08401:00
#08401:00
#08401:00
#08401:000000000000000043403Z413Y4L4N4O
#08406:030405060708090A0B0C0D0E0F0G0H0I030405060708090A0B0C0D0E0F0G0H0I
#08411:454B
#08413:4300000000000000004100004N000000
#08414:003Z004B003Z4B0000000000004O0000
#08415:00000000003Y004P
#08418:003X003Y003X3Y00000000000000004Q
#08419:00000000000000000000004L00000000
#08421:20000000200020000020000020000000
#08422:0022000000210022
#08423:2A2E
#08424:002B002D00002F00
#08425:00002C00002B002B
#08428:00000000000000210000000000000000
#08429:0001000100010001
#08501:000000000000000000000000008M0000
#08501:07070707
#08501:00
#08501:00
#08501:00
#08501:00
#08501:00
#08501:0G0F0G0F0G0F0G0F0G0F0G0F0G0F0G0F
#08501:00
#08501:0001000100010001
#08501:02030203020302030203020302030203
#08501:00
#08501:00
#08501:7R7S7R837S7R837S7T7U7T847U7T847U
#08501:00
#08501:00
#08501:00
#08501:00
#08501:00
#08501:8F008K008F0000008F008K008G8L8G8L8F0000008K0000008F008K0000000000
#08501:000000000000008E
#08506:030405060708090A0B0C0D0E0F0G0H0I030405060708090A0B0C0D0E0F0G0H0I
#08514:004P4X004P4X004P4X004P4X0000004K
#08515:000000000000004X
#08518:000000000000000000000000004Y0000
#08519:4R00004R00004R00004R00004S000000
#08521:0I000I0J00000H00
#08522:002B002D00002F00
#08523:2A000000002B0000
#08524:002C2E00
#08525:00002500000023000026000026002800
#08528:23230000
#08529:00000000000000240000270000002B00
#08601:00
#08601:00
#08601:00
#08601:00
#08601:00
#08601:00
#08601:00
#08601:00
#08601:00
#08601:00
#08601:00
#08601:00
#08601:00
#08601:7B7C000000007B7C000000007B7C0000
#08606:030405060708090A0B0C0D0E0F0G0H0I030405060708090A0B0C0D0E0F0G0H0I
#08611:0400000400000400
#08613:1500001500001500
#08615:0Y00000Y00000Y00
#08619:0I00000I00000J00
#08621:4G000000000000000000004000000000
#08622:0046000000000000
#08623:004800004500000000003Z0000000000
#08624:000000470000400000000000454M0045
#08625:00000000004300000041000000000000
#08628:000000000000003Z000000003Z3W003Z
#08629:003Y
#08701:0D
#08701:00
#08701:00
#08701:00
#08701:00
#08701:00
#08701:00
#08701:00
#08701:00
#08701:00
#08701:00
#08701:00
#08701:00
#08701:7B7C000000007B7C000000007B7C0000
#08706:030405060708090A0B0C0D0E0F0G0H0I030405060708090A0B0C0D0E0F0G0H0I
#08711:4G000000000000000000004000000000
#08712:0046000000000000
#08713:004800004500000000003Z0000000000
#08714:000000470000400000000000454M0045
#08715:00000000004300000041000000000000
#08718:000000000000003Z000000003Z3W003Z
#08719:003Y
#08721:0400000400000400
#08723:1500001500001500
#08725:0Y00000Y00000Y00
#08729:0I00000I00000J00
#08801:8N00000000000000005I000000000000
#08801:00
#08801:00
#08801:00
#08801:0400000400000000
#08801:00
#08801:00
#08801:0Y00000Y00000000
#08801:1500001500000000
#08801:00
#08801:00
#08801:00
#08801:00
#08801:7B7C000000007B7C000000007B7C0000
#08806:030405060708090A0B0C0D0E0F0G0H0I030405060708090A0B0C0D0E0F0G0H0I
#08811:00000000000000400000000007000000
#08813:0000000000003Z000000004700000000
#08814:000000000000000000000000454M0045
#08815:00000000004100000000450000000000
#08816:0I
#08819:003Y000J
#08821:00000041000000000000000015000000
#08822:0000000000000000004000000000003Z
#08823:00003Y0000000000000000003Z4B0000
#08825:004L000000000000000000003Y3X0000
#08826:0000000I00000000
#08828:00000000000000003Z0000000000003Y
#08829:4N00000Y
#08906:030405060708090A0B0C0D0E0F0G0H0I030405060708090A0B0C0D0E0F0G0H0I
#08911:08
#08914:2H
#08919:0C
#08922:2L
#08928:2O
