*---------------------- HEADER FIELD
#PLAYER 1
#GENRE RENAISSANCE
#TITLE Joker[ExHard]
#ARTIST D.J.Nero / obj.Ap
#BPM 184
#PLAYLEVEL 12
#RANK 3
#TOTAL 320
#STAGEFILE title.jpg
#WAV01 opHH.wav
#WAV02 close.wav
#WAV03 close.wav
#WAV04 kickA.wav
#WAV05 kickB.wav
#WAV06 kickB.wav
#WAV07 kick32.wav
#WAV08 FXkick.wav
#WAV09 snare.wav
#WAV0A snare.wav
#WAV0B reverse.wav
#WAV0C SE1.wav
#WAV0D bell.wav
#WAV0E ride.wav
#WAV0F snare-Fill.wav
#WAV0G SE3.wav
#WAV0H snare-Fill.wav
#WAV0I clashA.wav
#WAV0J clashB.wav
#WAV0K clashC.wav
#WAV0L clap.wav
#WAV0M clap-deep.wav
#WAV0N clashB.wav
#WAV0O bgm1.wav
#WAV0P bgm1.wav
#WAV0Q bgm2.wav
#WAV0R bgm2.wav
#WAV0S bgm3.wav
#WAV0T str01.wav
#WAV0U str01.wav
#WAV0V str02.wav
#WAV0W str03.wav
#WAV0X str03.wav
#WAV0Y str04.wav
#WAV0Z str05.wav
#WAV10 str-01.wav
#WAV11 str-01.wav
#WAV12 str-02.wav
#WAV13 str-03.wav
#WAV14 str-03.wav
#WAV15 str-04.wav
#WAV16 str-05.wav
#WAV17 harp1.wav
#WAV18 harp2.wav
#WAV19 harp3.wav
#WAV1A harp4.wav
#WAV1B harp5.wav
#WAV1C harp6.wav
#WAV1D harp16-01.wav
#WAV1E harp16-02.wav
#WAV1F harp16-03.wav
#WAV1G harp16-04.wav
#WAV1H harp16-05.wav
#WAV1I harp16-06.wav
#WAV1J core1.wav
#WAV1K core1.wav
#WAV1L core1b.wav
#WAV1M core2.wav
#WAV1N core2.wav
#WAV1O core2b.wav
#WAV1P core3.wav
#WAV1Q core3.wav
#WAV1R core3b.wav
#WAV1S core4.wav
#WAV1T core4.wav
#WAV1U core4b.wav
#WAV1V core5.wav
#WAV1W core5.wav
#WAV1X core5b.wav
#WAV1Y core6.wav
#WAV1Z core6.wav
#WAV20 core6b.wav
#WAV21 core7.wav
#WAV22 core7.wav
#WAV23 core7b.wav
#WAV24 core8.wav
#WAV25 core8.wav
#WAV26 core8b.wav
#WAV27 core9.wav
#WAV28 core9.wav
#WAV29 core9b.wav
#WAV2A arp-bgm.wav
#WAV2B arp1.wav
#WAV2C arp2.wav
#WAV2D arp3.wav
#WAV2E arp4.wav
#WAV2F arp5.wav
#WAV2G arp6.wav
#WAV2H p-8-1.wav
#WAV2I p-8-2.wav
#WAV2J p-8-3.wav
#WAV2K p-8-4.wav
#WAV2L p-8-5.wav
#WAV2M p-8-6.wav
#WAV2N p-8-7.wav
#WAV2O p-8-8.wav
#WAV2P p-8-9.wav
#WAV2Q p-8-10.wav
#WAV2R p-8-11.wav
#WAV2S p-8-12.wav
#WAV2T p-8-13.wav
#WAV2U pA-1.wav
#WAV2V pA-2.wav
#WAV2W pA-2b.wav
#WAV2X pA-3.wav
#WAV2Y pA-4.wav
#WAV2Z pA-4b.wav
#WAV30 pA-5.wav
#WAV31 pA-6.wav
#WAV32 pA-7.wav
#WAV33 pA-8.wav
#WAV34 pA-9.wav
#WAV35 pA-10.wav
#WAV36 pA-11.wav
#WAV37 pA-12.wav
#WAV38 pA-12b.wav
#WAV39 pA-13.wav
#WAV3A pA-13b.wav
#WAV3B pA-14.wav
#WAV3C pA-14b.wav
#WAV3D pA-15.wav
#WAV3E pA-15b.wav
#WAV3F p-16-1.wav
#WAV3G p-16-2.wav
#WAV3H p-16-3.wav
#WAV3I p-16-4.wav
#WAV3J p-16-5.wav
#WAV3K p-16-6.wav
#WAV3L p-16-7.wav
#WAV3M p-16-8.wav
#WAV3N p-16-9.wav
#WAV3O p-16-10.wav
#WAV3P p-16-11.wav
#WAV3Q p-16-12.wav
#WAV3R p-16-13.wav
#WAV3S p-16-14.wav
#WAV3T p-16-15.wav
#WAV3U p-16-16.wav
#WAV3V p-16-17.wav
#WAV3W ps-16-2.wav
#WAV3X ps-16-1.wav
#WAV3Y ps-16-1.wav
#WAV3Z ps-16-2.wav
#WAV40 ps-16-3.wav
#WAV41 ps-16-4.wav
#WAV42 ps-16-5.wav
#WAV43 ps-16-6.wav
#WAV44 ps-16-3.wav
#WAV45 ps-16-7.wav
#WAV46 ps-16-8.wav
#WAV47 ps-16-9.wav
#WAV48 ps-16-10.wav
#WAV49 ps-16-5.wav
#WAV4A ps-16-8.wav
#WAV4B ps-16-2.wav
#WAV4C ps-16-11.wav
#WAV4D ps-16-12.wav
#WAV4E ps-16-13.wav
#WAV4F ps-16-14.wav
#WAV4G ps-16-15.wav
#WAV4H ps-16-16.wav
#WAV4I ps-16-17.wav
#WAV4J ps-16-18.wav
#WAV4K ps-16-19.wav
#WAV4L ps-16-20.wav
#WAV4M ps-16-7.wav
#WAV4N ps-16-21.wav
#WAV4O ps-16-22.wav
#WAV4P ps-16-23.wav
#WAV4Q ps-16-24.wav
#WAV4R ps-16-25.wav
#WAV4S ps-16-26.wav
#WAV4T ps-16-27.wav
#WAV4U ps-16-28.wav
#WAV4V ps-16-29.wav
#WAV4W ps-16-30.wav
#WAV4X ps-16-23.wav
#WAV4Y ps-16-31.wav
#WAV4Z ps-32-1.wav
#WAV50 ps-32-1.wav
#WAV51 ps-32-1b.wav
#WAV52 ps-32-1b.wav
#WAV53 ps-32-2.wav
#WAV54 ps-32-2.wav
#WAV55 ps-32-2b.wav
#WAV56 ps-32-2b.wav
#WAV57 ps-32-3.wav
#WAV58 ps-32-4.wav
#WAV59 ps-32-5.wav
#WAV5A ps-32-6.wav
#WAV5B ps-32-7.wav
#WAV5C ps-32-8.wav
#WAV5D ps-32-9.wav
#WAV5E ps-32-10.wav
#WAV5F ps-32-10.wav
#WAV5G ps-32-10b.wav
#WAV5H ps-32-10b.wav
#WAV5I SE2.wav
#WAV5J chero 1.wav
#WAV5K chero 2.wav
#WAV5L chero 3.wav
#WAV5M chero 4.wav
#WAV5N chero 9.wav
#WAV5O chero 10.wav
#WAV5P chero 11.wav
#WAV5Q chero 12.wav
#WAV5R chero 13.wav
#WAV5S chero 14.wav
#WAV5T chero 15.wav
#WAV5U chero 16.wav
#WAV5V chero 17.wav
#WAV5W chero 18.wav
#WAV5X chero 19.wav
#WAV5Y chero 20.wav
#WAV5Z chero 21.wav
#WAV60 chero 22.wav
#WAV61 solo 1.wav
#WAV62 solo 2.wav
#WAV63 solo 3.wav
#WAV64 solo 4.wav
#WAV65 solo 5.wav
#WAV66 solo 6.wav
#WAV67 solo 7.wav
#WAV68 solo 8.wav
#WAV69 solo 9.wav
#WAV6A solo 10.wav
#WAV6B solo 11.wav
#WAV6C solo 12.wav
#WAV6D solo 13.wav
#WAV6E solo 14.wav
#WAV6F solo 15.wav
#WAV6G solo 16.wav
#WAV6H solo 17.wav
#WAV6I solo 18.wav
#WAV6J solo 19.wav
#WAV6K solo 20.wav
#WAV6L solo 21.wav
#WAV6M solo 22.wav
#WAV6N solo 23.wav
#WAV6O solo 24.wav
#WAV6P solo 25.wav
#WAV6Q solo 26.wav
#WAV6R solo 27.wav
#WAV6S solo 28.wav
#WAV6T solo 29.wav
#WAV6U solo 30.wav
#WAV6V solo 31.wav
#WAV6W solo 32.wav
#WAV6X solo 33.wav
#WAV6Y solo 34.wav
#WAV6Z solo 35.wav
#WAV70 solo 36.wav
#WAV71 solo 37.wav
#WAV72 solo 38.wav
#WAV73 solo 39.wav
#WAV74 solo 40.wav
#WAV75 solo 41.wav
#WAV76 solo 42.wav
#WAV77 solo 43.wav
#WAV78 solo 44.wav
#WAV79 solo 45.wav
#WAV7A solo 46.wav
#WAV7B bass1.wav
#WAV7C bass2.wav
#WAV7D bass3.wav
#WAV7E bass4.wav
#WAV7F bass5.wav
#WAV7G bass6.wav
#WAV7H bass7.wav
#WAV7I bass8.wav
#WAV7J bass9.wav
#WAV7K bass10.wav
#WAV7L bass11.wav
#WAV7M bass12.wav
#WAV7N bass13.wav
#WAV7O bass14.wav
#WAV7P bass15.wav
#WAV7Q bass16.wav
#WAV7R bass17.wav
#WAV7S bass18.wav
#WAV7T bass19.wav
#WAV7U bass20.wav
#WAV7V bass1.wav
#WAV7W bass3.wav
#WAV7X bass5.wav
#WAV7Y bass7.wav
#WAV7Z bass9.wav
#WAV80 bass11.wav
#WAV81 bass13.wav
#WAV82 bass15.wav
#WAV83 bass17.wav
#WAV84 bass19.wav
#WAV85 chero1.wav
#WAV86 chero2.wav
#WAV87 chero3.wav
#WAV88 chero4.wav
#WAV89 vio1.wav
#WAV8A vio2.wav
#WAV8B vio3.wav
#WAV8C vio4.wav
#WAV8D tim.wav
#WAV8E tanbarin.wav
#WAV8F suzu.wav
#WAV8G suzu32.wav
#WAV8H syuooo.wav
#WAV8I SE5.wav
#WAV8J horn.wav
#WAV8K suzu.wav
#WAV8L suzu32.wav
#WAV8M cym B.wav
#WAV8N cym C.wav
#WAV8O SE4.wav
#BMP01 joker.mpg
#BMP03 miss 01.bmp
#BMP04 miss 02.bmp
#BMP05 miss 03.bmp
#BMP06 miss 04.bmp
#BMP07 miss 05.bmp
#BMP08 miss 06.bmp
#BMP09 miss 07.bmp
#BMP0A miss 08.bmp
#BMP0B miss 09.bmp
#BMP0C miss 10.bmp
#BMP0D miss 11.bmp
#BMP0E miss 12.bmp
#BMP0F miss 13.bmp
#BMP0G miss 14.bmp
#BMP0H miss 15.bmp
#BMP0I miss 16.bmp
#DIFFICULTY 5
#BACKBMP logo.jpg *---------------------- MAIN DATA FIELD
#00104:01
#00106:030405060708090A0B0C0D0E0F0G0H0I030405060708090A0B0C0D0E0F0G0H0I
#00116:000B000000000000
#00201:00
#00201:00
#00201:00
#00201:00
#00201:00
#00201:00
#00201:00
#00201:00
#00201:00
#00201:00
#00201:00
#00201:00
#00201:00
#00201:7B7C7B7V7C7B7V7C7B7C7B7V7C7B7V7C
#00206:030405060708090A0B0C0D0E0F0G0H0I030405060708090A0B0C0D0E0F0G0H0I
#00211:0400000400040000
#00212:000L0000
#00213:0T0U0000000L0000
#00214:0000000V00000000
#00215:1011000000000000
#00218:0000001200000000
#00301:00
#00301:00
#00301:00
#00301:00
#00301:00
#00301:00
#00301:00
#00301:00
#00301:00
#00301:00
#00301:00
#00301:00
#00301:00
#00301:7B7C7B7V7C7B7V7C7B7C7B7V7C7B7V7C
#00306:030405060708090A0B0C0D0E0F0G0H0I030405060708090A0B0C0D0E0F0G0H0I
#00311:0400000400040000
#00312:000L0000
#00313:00000000000L0000
#00314:0W0X000000000000
#00315:0000000Y00000000
#00318:1314000000000000
#00319:0000001500000000
#00401:00
#00401:00
#00401:00
#00401:00
#00401:00
#00401:00
#00401:00
#00401:000H000H000H000H000H000H000H000H
#00401:0F0F0F0F0F0F0F0F
#00401:00
#00401:00
#00401:00
#00401:00
#00401:7B7C7B7V7C7B7V7C7B7C7B7V7C7B7V7C
#00406:030405060708090A0B0C0D0E0F0G0H0I030405060708090A0B0C0D0E0F0G0H0I
#00411:0400000400040000
#00413:0T0U000000000000
#00414:0000000V00000000
#00415:1011000000000000
#00416:0K00000J000J0000
#00418:0000001200000000
#00501:00
#00501:00
#00501:00
#00501:00
#00501:00
#00501:00
#00501:00
#00501:000H000H000H000H000H000H000H000H
#00501:0F0F0F0F0F0F0F0F
#00501:00
#00501:00
#00501:00
#00501:00
#00501:7B7C7B7V7C7B7V7C7B7C7B7V7C7B7V7C
#00506:030405060708090A0B0C0D0E0F0G0H0I030405060708090A0B0C0D0E0F0G0H0I
#00511:0400000400040000
#00514:0W0X000000000000
#00515:0000000Y00000000
#00516:0K00000J000J0000
#00518:1314000000000000
#00519:0000001500000007
#00601:00
#00601:0001000100010001
#00601:00
#00601:00
#00601:00
#00601:00
#00601:00
#00601:00
#00601:00
#00601:00
#00601:02030203020302030203020302030203
#00601:00
#00601:00
#00601:7B7C7B7V7C7B7V7C7B7C7B7V7C7B7V7C
#00601:00
#00601:00
#00601:00
#00601:00
#00601:00
#00601:00
#00601:00
#00601:00
#00601:00
#00601:00
#00601:00
#00601:00
#00601:00
#00601:00
#00601:00
#00601:00
#00601:00
#00601:0O
#00606:030405060708090A0B0C0D0E0F0G0H0I030405060708090A0B0C0D0E0F0G0H0I
#00611:04040404
#00612:2H
#00613:002I002I0000002I
#00614:00002J00002J0000
#00615:0000002K
#00616:0C
#00618:002L
#00619:000L000L
#00701:00
#00701:0001000100010001
#00701:00
#00701:00
#00701:00
#00701:00
#00701:00
#00701:00
#00701:00
#00701:00
#00701:02030203020302030203020302030203
#00701:00
#00701:00
#00701:7B7C7B7V7C7B7V7C7B7C7B7V7C7B7V7C
#00706:030405060708090A0B0C0D0E0F0G0H0I030405060708090A0B0C0D0E0F0G0H0I
#00711:04040404
#00712:2H000000002I0000
#00713:000000000000002J
#00714:002J000000000000
#00715:002K0000
#00718:0000002L00002L00
#00719:000L2M0L
#00801:00
#00801:0001000100010001
#00801:00
#00801:00
#00801:00
#00801:00
#00801:00
#00801:00
#00801:00
#00801:00
#00801:02030203020302030203020302030203
#00801:00
#00801:00
#00801:7D7E7D7W7E7D7W7E7D7E7D7W7E7D7W7E
#00806:030405060708090A0B0C0D0E0F0G0H0I030405060708090A0B0C0D0E0F0G0H0I
#00811:04040404
#00813:0000002I00000L00
#00814:2K
#00815:002L0000002L0000
#00818:002M002M
#00819:00000L002N00002N
#00901:00
#00901:0001000100010001
#00901:00
#00901:00
#00901:00
#00901:00
#00901:00
#00901:00
#00901:00
#00901:00
#00901:02030203020302030203020302030203
#00901:00
#00901:00
#00901:7D7E7D7W7E7D7W7E7D7E7D7W7E7D7W7E
#00906:030405060708090A0B0C0D0E0F0G0H0I030405060708090A0B0C0D0E0F0G0H0I
#00911:04040404
#00912:2I
#00913:0000002J0000002O
#00914:0000002J
#00915:00002L00002K0000
#00918:002M00002L000000
#00919:000L000L
#01001:00
#01001:0001000100010001
#01001:00
#01001:00
#01001:00
#01001:00
#01001:00
#01001:00
#01001:00
#01001:00
#01001:02030203020302030203020302030203
#01001:00
#01001:00
#01001:7F7G7F7X7G7F7X7G7F7G7F7X7G7F7X7G
#01006:030405060708090A0B0C0D0E0F0G0H0I030405060708090A0B0C0D0E0F0G0H0I
#01011:04040404
#01012:2H
#01013:000L000L
#01014:002I002I0000002I
#01015:00002J00002J0000
#01018:0000002K
#01019:002L
#01101:00
#01101:0001000100010001
#01101:00
#01101:00
#01101:00
#01101:00
#01101:00
#01101:00
#01101:00
#01101:00
#01101:02030203020302030203020302030203
#01101:00
#01101:00
#01101:7F7G7F7X7G7F7X7G7F7G7F7X7G7F7X7G
#01106:030405060708090A0B0C0D0E0F0G0H0I030405060708090A0B0C0D0E0F0G0H0I
#01111:04040404
#01112:2H
#01113:002J00000000002J
#01114:00002K00002I0000
#01115:0000002L00002L00
#01119:000L2M0L
#01201:00
#01201:0001000100010001
#01201:00
#01201:00
#01201:00
#01201:00
#01201:00
#01201:00
#01201:00
#01201:00
#01201:02030203020302030203020302030203
#01201:00
#01201:00
#01201:7B7C7B7V7C7B7V7C7B7C7B7V7C7B7V7C
#01206:030405060708090A0B0C0D0E0F0G0H0I030405060708090A0B0C0D0E0F0G0H0I
#01211:04040404
#01213:000L000L
#01214:2K00002I00000000
#01215:002L0000002L0000
#01218:002M002M
#01219:000000002N00002N
#01301:00
#01301:0001000100010001
#01301:00
#01301:00
#01301:00
#01301:00
#01301:00
#01301:00
#01301:00
#01301:00
#01301:02030203020302030203020302030203
#01301:00
#01301:00
#01301:7B7C7B7V7C7B7V7C7B7C7B7V7C7B7V7C
#01306:030405060708090A0B0C0D0E0F0G0H0I030405060708090A0B0C0D0E0F0G0H0I
#01311:04040404
#01312:2I0000000000002O
#01313:0000002J00002J00
#01314:00000000002K0000
#01315:002L2L00
#01316:000000000000000000000000008M0000
#01318:002M000000000000
#01319:000L000L
#01401:00
#01401:00
#01401:00
#01401:00
#01401:00
#01401:00
#01401:00
#01401:00
#01401:00
#01401:00
#01401:02030203020302030203020302030203
#01401:00
#01401:00
#01401:7B7C7B7V7C7B7V7C7B7C7B7V7C7B7V7C
#01406:030405060708090A0B0C0D0E0F0G0H0I030405060708090A0B0C0D0E0F0G0H0I
#01411:04
#01412:0001000100000001
#01413:2H00040000010000
#01414:002I002I0000042I
#01415:00002J00042J0000
#01416:000L000L
#01418:0000002K
#01419:002L
#01501:00
#01501:00
#01501:00
#01501:00
#01501:00
#01501:00
#01501:00
#01501:00
#01501:00
#01501:00
#01501:02030203020302030203020302030203
#01501:00
#01501:00
#01501:7B7C7B7V7C7B7V7C7B7C7B7V7C7B7V7C
#01506:030405060708090A0B0C0D0E0F0G0H0I030405060708090A0B0C0D0E0F0G0H0I
#01511:04
#01512:0001000000010000
#01513:2H00040000000001
#01514:002J0001002I0400
#01515:00002K000400002J
#01516:000L000L
#01518:0000002L00002L00
#01519:002M
#01601:00
#01601:00
#01601:00
#01601:00
#01601:00
#01601:00
#01601:00
#01601:00
#01601:00
#01601:00
#01601:02030203020302030203020302030203
#01601:00
#01601:00
#01601:7D7E7D7W7E7D7W7E7D7E7D7W7E7D7W7E
#01606:030405060708090A0B0C0D0E0F0G0H0I030405060708090A0B0C0D0E0F0G0H0I
#01612:0400000000010000
#01613:0001000100000000
#01614:2K000400002L0400
#01615:002L002I04000001
#01616:000L000L
#01618:002M002M
#01619:000000002N00002N
#01701:00
#01701:00
#01701:00
#01701:00
#01701:00
#01701:00
#01701:00
#01701:00
#01701:00
#01701:00
#01701:02030203020302030203020302030203
#01701:00
#01701:00
#01701:7D7E7D7W7E7D7W7E7D7E7D7W7E7D7W7E
#01706:030405060708090A0B0C0D0E0F0G0H0I030405060708090A0B0C0D0E0F0G0H0I
#01711:04
#01712:0000000100000001
#01713:2I000004
#01714:0000042J0001002O
#01715:0001000004002J00
#01716:000L000L
#01718:00002L00002K0000
#01719:002M00002L000000
#01801:00
#01801:00
#01801:00
#01801:00
#01801:00
#01801:00
#01801:00
#01801:00
#01801:00
#01801:00
#01801:02030203020302030203020302030203
#01801:00
#01801:00
#01801:7F7G7F7X7G7F7X7G7F7G7F7X7G7F7X7G
#01806:030405060708090A0B0C0D0E0F0G0H0I030405060708090A0B0C0D0E0F0G0H0I
#01811:04
#01812:0001000100000001
#01813:2H00040000010000
#01814:002I002I0000042I
#01815:00002J00042J0000
#01816:000L000L
#01818:0000002K
#01819:002L
#01901:00
#01901:00
#01901:00
#01901:00
#01901:00
#01901:00
#01901:00
#01901:00
#01901:00
#01901:00
#01901:02030203020302030203020302030203
#01901:00
#01901:00
#01901:7F7G7F7X7G7F7X7G7F7G7F7X7G7F7X7G
#01906:030405060708090A0B0C0D0E0F0G0H0I030405060708090A0B0C0D0E0F0G0H0I
#01911:0400000000000001
#01912:0001000000010000
#01913:2H0004000000002J
#01914:002J0001002I0400
#01915:002K0400
#01916:000L000L
#01918:0000002L00002L00
#01919:002M
#02001:00
#02001:00
#02001:00
#02001:00
#02001:00
#02001:00
#02001:00
#02001:00
#02001:00
#02001:00
#02001:02030203020302030203020302030203
#02001:00
#02001:00
#02001:7B7C7B7V7C7B7V7C7B7C7B7V7C7B7V7C
#02006:030405060708090A0B0C0D0E0F0G0H0I030405060708090A0B0C0D0E0F0G0H0I
#02012:0400000100000000
#02013:0001000000010000
#02014:2K00042I00000400
#02015:002L0000042L0001
#02016:000L000L
#02018:002M002M
#02019:000000002N00002N
#02101:00
#02101:00
#02101:00
#02101:0001000100010001
#02101:00
#02101:00
#02101:00
#02101:00
#02101:00
#02101:00
#02101:02030203020302030203020302030203
#02101:00
#02101:00
#02101:7B7C7B7V7C7B7V7C7B7C7B7V7C7B7V7C
#02106:030405060708090A0B0C0D0E0F0G0H0I030405060708090A0B0C0D0E0F0G0H0I
#02111:04000004000000050000000005000000
#02112:00000500000000000000040000060000
#02113:2I002L000400002O
#02114:002M002J002K0000
#02115:00000L0000002J07
#02116:0J000N0K00000I00
#02118:002L
#02119:0000000000040000000000000L000000
#02201:00
#02201:00
#02201:00
#02201:00
#02201:00
#02201:00
#02201:000L000L
#02201:00
#02201:00
#02201:0001000100010001
#02201:02030203020302030203020302030203
#02201:00
#02201:00
#02201:7B7C7B7V7C7B7V7C7B7C7B7V7C7B7V7C
#02201:00
#02201:8F8K8F008F8K8F008F8K8F008F8K0000
#02201:000000000000008E
#02201:00
#02201:00
#02201:00
#02201:00
#02201:00
#02201:00
#02201:00
#02201:00
#02201:00
#02201:00
#02201:00
#02201:00
#02201:00
#02201:00
#02201:0P
#02206:030405060708090A0B0C0D0E0F0G0H0I030405060708090A0B0C0D0E0F0G0H0I
#02211:04040404
#02212:1J0000001J00001K00001K0000001L00
#02213:00001L0000001J00001J00001J000000
#02214:17
#02215:0000180018000018
#02216:0C
#02218:0000000000190000
#02219:0000001A
#02301:00
#02301:00
#02301:00
#02301:00
#02301:00
#02301:00
#02301:000L000L
#02301:00
#02301:00
#02301:0001000100010001
#02301:02030203020302030203020302030203
#02301:00
#02301:00
#02301:7B7C7B7V7C7B7V7C7B7C7B7V7C7B7V7C
#02301:00
#02301:8F008K008F0000008F008K008G8L8G8L8F0000008K0000008F008K0000000000
#02301:000000000000008E
#02306:030405060708090A0B0C0D0E0F0G0H0I030405060708090A0B0C0D0E0F0G0H0I
#02311:04040404
#02312:00001L0000001J00001J00001J000000
#02313:1J0000001J00001K00001K0000001L00
#02314:001B
#02315:0000001800001700
#02318:19190000
#02319:001A000000000000
#02401:00
#02401:00
#02401:00
#02401:00
#02401:00
#02401:00
#02401:000L000L
#02401:00
#02401:00
#02401:0001000100010001
#02401:02030203020302030203020302030203
#02401:00
#02401:00
#02401:7D7E7D7W7E7D7W7E7D7E7D7W7E7D7W7E
#02401:00
#02401:8F8K8F008F8K8F008F8K8F008F8K0000
#02401:000000000000008E
#02406:030405060708090A0B0C0D0E0F0G0H0I030405060708090A0B0C0D0E0F0G0H0I
#02411:04040404
#02412:0000000000190018
#02413:00001O0000001M00001M00001M000000
#02414:1M0000001M00001N00001N0000001O00
#02415:0000001A
#02418:1718
#02419:00180000
#02501:00
#02501:00
#02501:00
#02501:00
#02501:00
#02501:00
#02501:000L000L
#02501:00
#02501:00
#02501:0001000100010001
#02501:02030203020302030203020302030203
#02501:00
#02501:00
#02501:7D7E7D7W7E7D7W7E7D7E7D7W7E7D7W7E
#02501:00
#02501:8F008K008F0000008F008K008G8L8G8L8F0000008K0000008F008K0000000000
#02501:000000000000008E
#02506:030405060708090A0B0C0D0E0F0G0H0I030405060708090A0B0C0D0E0F0G0H0I
#02511:04040404
#02512:001A00001B000000
#02513:1M0000001M00001N00001N0000001O00
#02514:00001O0000001M00001M00001M000000
#02515:000000000018001B
#02518:1C00001800000000
#02519:00190019
#02601:00
#02601:00
#02601:00
#02601:00
#02601:00
#02601:00
#02601:000L000L
#02601:00
#02601:00
#02601:0001000100010001
#02601:02030203020302030203020302030203
#02601:00
#02601:00
#02601:7F7G7F7X7G7F7X7G7F7G7F7X7G7F7X7G
#02601:00
#02601:8F8K8F008F8K8F008F8K8F008F8K0000
#02601:000000000000008E
#02606:030405060708090A0B0C0D0E0F0G0H0I030405060708090A0B0C0D0E0F0G0H0I
#02611:17
#02612:0000180018000018
#02613:0000000000190000
#02614:1P0000001P00001Q00001Q0000001R00
#02615:00001R0000001P00001P00001P000000
#02618:0000001A
#02619:04040404
#02701:00
#02701:00
#02701:00
#02701:00
#02701:00
#02701:00
#02701:000L000L
#02701:00
#02701:00
#02701:0001000100010001
#02701:02030203020302030203020302030203
#02701:00
#02701:00
#02701:7F7G7F7X7G7F7X7G7F7G7F7X7G7F7X7G
#02701:00
#02701:8F008K008F0000008F008K008G8L8G8L8F0000008K0000008F008K0000000000
#02701:000000000000008E
#02706:030405060708090A0B0C0D0E0F0G0H0I030405060708090A0B0C0D0E0F0G0H0I
#02711:190000001D1D0000
#02712:00000000000018000000001E00001G00
#02713:0019001F
#02714:00001R0000001P00001P00001P000000
#02715:1P0000001P00001Q00001Q0000001R00
#02718:001A000000000000
#02719:04040404
#02801:00
#02801:00
#02801:00
#02801:00
#02801:00
#02801:00
#02801:000L000L
#02801:00
#02801:00
#02801:0001000100010001
#02801:02030203020302030203020302030203
#02801:00
#02801:00
#02801:7B7C7B7V7C7B7V7C7B7C7B7V7C7B7V7C
#02801:00
#02801:8F8K8F008F8K8F008F8K8F008F8K8E00
#02806:030405060708090A0B0C0D0E0F0G0H0I030405060708090A0B0C0D0E0F0G0H0I
#02811:1700000000000018
#02812:00181800
#02813:0000000000190000
#02814:0000001A
#02815:00001U0000001S00001S00001S000000
#02818:1S0000001S00001T00001T0000001U00
#02819:04040404
#02901:00
#02901:00
#02901:00
#02901:00
#02901:00
#02901:00
#02901:000L000L
#02901:00
#02901:00
#02901:0001000100010001
#02901:02030203020302030203020302030203
#02901:00
#02901:00
#02901:7B7C7B7V7C7B7V7C7B7C7B7V7C7B7V7C
#02901:00
#02901:8F008K008F0000008F008K008G8L8G8L8F0000008K0000008F008K0000000000
#02901:000000000000008E
#02906:030405060708090A0B0C0D0E0F0G0H0I030405060708090A0B0C0D0E0F0G0H0I
#02911:0000001E00000000
#02912:00001F001B00001B
#02913:0000001I000000000000180000000000
#02914:1H1H000000001900
#02915:1S0000001S00001T00001T0000001U00
#02916:000000000000000000000000008M0000
#02918:00001U0000001S00001S00001S000000
#02919:04040404
#03001:00
#03001:00
#03001:04040404
#03001:00
#03001:00
#03001:00
#03001:00
#03001:00
#03001:00
#03001:00
#03001:02030203020302030203020302030203
#03001:00
#03001:00
#03001:7B7C7B7V7C7B7V7C7B7C7B7V7C7B7V7C
#03001:00
#03001:8F8K8F008F8K8F008F8K8F008F8K8E00
#03006:030405060708090A0B0C0D0E0F0G0H0I030405060708090A0B0C0D0E0F0G0H0I
#03011:1J0000001J00001K00001K0000001L00
#03012:0001000100000L00
#03013:17000L0000010001
#03014:00001L0000001J00001J00001J000000
#03015:0000180018000018
#03018:0000000000190000
#03019:0000001A
#03101:00
#03101:00
#03101:04040404
#03101:00
#03101:00
#03101:00
#03101:00
#03101:00
#03101:00
#03101:00
#03101:02030203020302030203020302030203
#03101:00
#03101:00
#03101:7B7C7B7V7C7B7V7C7B7C7B7V7C7B7V7C
#03101:00
#03101:8F008K008F0000008F008K008G8L8G8L8F0000008K0000008F008K0000000000
#03101:000000000000008E
#03106:030405060708090A0B0C0D0E0F0G0H0I030405060708090A0B0C0D0E0F0G0H0I
#03111:00001L0000001J00001J00001J000000
#03112:000L0017
#03113:000100001B000000
#03114:1J0000001J00001K00001K0000001L00
#03115:0000001800000L00
#03118:1900190000010001
#03119:001A000100000000
#03201:00
#03201:00
#03201:04040404
#03201:00
#03201:00
#03201:00
#03201:00
#03201:00
#03201:00
#03201:00
#03201:02030203020302030203020302030203
#03201:00
#03201:00
#03201:7D7E7D7W7E7D7W7E7D7E7D7W7E7D7W7E
#03201:00
#03201:8F8K8F008F8K8F008F8K8F008F8K0000
#03201:000000000000008E
#03206:030405060708090A0B0C0D0E0F0G0H0I030405060708090A0B0C0D0E0F0G0H0I
#03211:1700000100000L00
#03212:1M0000001M00001N00001N0000001O00
#03213:0000180018000001
#03214:0000000000190018
#03215:00001O0000001M00001M00001M000000
#03218:000L001A
#03219:0001000000010000
#03301:00
#03301:00
#03301:04040404
#03301:00
#03301:00
#03301:00
#03301:00
#03301:00
#03301:00
#03301:00
#03301:02030203020302030203020302030203
#03301:00
#03301:00
#03301:7D7E7D7W7E7D7W7E7D7E7D7W7E7D7W7E
#03301:00
#03301:8F008K008F0000008F008K008G8L8G8L8F0000008K0000008F008K0000000000
#03301:000000000000008E
#03306:030405060708090A0B0C0D0E0F0G0H0I030405060708090A0B0C0D0E0F0G0H0I
#03311:000100001B000L00
#03312:00001O0000001M00001M00001M000000
#03313:0000001800180000
#03314:000019000000001B
#03315:1M0000001M00001N00001N0000001O00
#03318:001A000100001900
#03319:1C000L0000010001
#03401:00
#03401:00
#03401:04040404
#03401:00
#03401:00
#03401:00
#03401:00
#03401:00
#03401:00
#03401:00
#03401:02030203020302030203020302030203
#03401:00
#03401:00
#03401:7F7G7F7X7G7F7X7G7F7G7F7X7G7F7X7G
#03401:00
#03401:8F8K8F008F8K8F008F8K8F008F8K0000
#03401:000000000000008E
#03406:030405060708090A0B0C0D0E0F0G0H0I030405060708090A0B0C0D0E0F0G0H0I
#03411:1700000100000L00
#03412:00181800
#03413:1P0000001P00001Q00001Q0000001R00
#03414:0001000000190018
#03415:0000001A
#03418:00001R0000001P00001P00001P000000
#03419:00000L0000010001
#03501:00
#03501:00
#03501:04040404
#03501:00
#03501:00
#03501:00
#03501:00
#03501:00
#03501:00
#03501:00
#03501:02030203020302030203020302030203
#03501:00
#03501:00
#03501:7F7G7F7X7G7F7X7G7F7G7F7X7G7F7X7G
#03501:00
#03501:8F008K008F0000008F008K008G8L8G8L8F0000008K0000008F008K0000000000
#03501:000000000000008E
#03506:030405060708090A0B0C0D0E0F0G0H0I030405060708090A0B0C0D0E0F0G0H0I
#03511:000100001D000L00
#03512:00000018001D001G
#03513:00001R0000001P00001P00001P000000
#03514:00000000190000000000001E00000100
#03515:190L001F
#03518:1P0000001P00001Q00001Q0000001R00
#03519:001A000100010000
#03601:00
#03601:00
#03601:04040404
#03601:00
#03601:00
#03601:00
#03601:00
#03601:00
#03601:00
#03601:00
#03601:02030203020302030203020302030203
#03601:00
#03601:00
#03601:7B7C7B7V7C7B7V7C7B7C7B7V7C7B7V7C
#03601:00
#03601:8F8K8F008F8K8F008F8K8F008F8K0000
#03601:000000000000008E
#03606:030405060708090A0B0C0D0E0F0G0H0I030405060708090A0B0C0D0E0F0G0H0I
#03611:1700000100000L00
#03612:0000180018000018
#03613:0001000000190001
#03614:1S0000001S00001T00001T0000001U00
#03615:0000001A
#03618:00000L0000010000
#03619:00001U0000001S00001S00001S000000
#03701:00
#03701:00
#03701:0400040004000407
#03701:00
#03701:00
#03701:00
#03701:00
#03701:00
#03701:00
#03701:00
#03701:02030203020302030203020302030203
#03701:00
#03701:00
#03701:7B7C7B7V7C7B7V7C7B7C7B7V7C7B7V7C
#03701:00
#03701:8F008K008F0000008F008K008G8L8G8L8F0000008K0000008F008K0000000000
#03701:000000000000008E
#03706:030405060708090A0B0C0D0E0F0G0H0I030405060708090A0B0C0D0E0F0G0H0I
#03711:00000L001B00001B
#03712:0001001E00180000
#03713:001F0019
#03714:00001U0000001S00001S00001S000000
#03715:0000001I000000000000010000000100
#03716:0J000N0K00000I00
#03718:1H1H000100000L00
#03719:1S0000001S00001T00001T0000001U00
#03801:00
#03801:00
#03801:00
#03801:00
#03801:00
#03801:00
#03801:000L000L
#03801:00
#03801:00
#03801:0001000100010001
#03801:02030203000300030203020302030203
#03801:00
#03801:00
#03801:7B7C7B7V7C7B7V7C7B7C7B7V7C7B7V7C
#03801:00
#03801:00
#03801:00
#03801:00
#03801:00
#03801:00
#03801:00
#03801:00
#03801:00
#03801:00
#03801:00
#03801:00
#03801:00
#03801:00
#03801:00
#03801:00
#03801:00
#03801:0Q
#03806:030405060708090A0B0C0D0E0F0G0H0I030405060708090A0B0C0D0E0F0G0H0I
#03811:04040404
#03812:005J0000
#03813:6100005K00000000
#03814:005K0000005L0000
#03815:5J0002020000005M
#03816:0C
#03819:2U002V2W00000000
#03901:00
#03901:00
#03901:00
#03901:00
#03901:00
#03901:00
#03901:000L000L
#03901:00
#03901:00
#03901:0001000100010001
#03901:02030203020302030203020302030203
#03901:00
#03901:00
#03901:7B7C7B7V7C7B7V7C7B7C7B7V7C7B7V7C
#03906:030405060708090A0B0C0D0E0F0G0H0I030405060708090A0B0C0D0E0F0G0H0I
#03911:04040404
#03912:5J5J0000
#03913:005K005K00000000
#03914:2M0000002M5L0000
#03915:002P002P0000005M
#03918:620000000000000000002P0000000064
#03919:00002Q0000000063
#04001:00
#04001:00
#04001:00
#04001:00
#04001:00
#04001:000L000L
#04001:00
#04001:00
#04001:00
#04001:0001000100010001
#04001:02030203020302030203020302030203
#04001:00
#04001:00
#04001:7F7G7F7X7G7F7X7G7F7G7F7X7G7F7X7G
#04006:030405060708090A0B0C0D0E0F0G0H0I030405060708090A0B0C0D0E0F0G0H0I
#04011:04040404
#04012:5N005N000000685Q
#04013:00005O0000005O000000670000690000
#04014:2X0000006600006A
#04015:650000000000000000005P000000006B
#04018:00002Y2Z00000000
#04101:00
#04101:00
#04101:00
#04101:00
#04101:00
#04101:000L000L
#04101:00
#04101:00
#04101:00
#04101:0001000100010001
#04101:02030203020302030203020302030203
#04101:00
#04101:00
#04101:7F7G7F7X7G7F7X7G7F7G7F7X7G7F7X7G
#04106:030405060708090A0B0C0D0E0F0G0H0I030405060708090A0B0C0D0E0F0G0H0I
#04111:04040404
#04112:005O005O002L0000
#04113:5N5N6D00
#04114:002R0000005P0000
#04115:002R
#04118:6C00002P0000005Q
#04119:2P2Q0000
#04201:00
#04201:00
#04201:00
#04201:00
#04201:00
#04201:00
#04201:000L000L
#04201:00
#04201:00
#04201:0001000100010001
#04201:02030203020302030203020302030203
#04201:00
#04201:00
#04201:7H7I7H7Y7I7H7Y7I7H7I7H7Y7I7H7Y7I
#04206:030405060708090A0B0C0D0E0F0G0H0I030405060708090A0B0C0D0E0F0G0H0I
#04211:04040404
#04213:5R0000000000005V
#04214:005R0032
#04215:6E000031005U0000
#04218:005S000000000000
#04219:3000005T00000000
#04301:00
#04301:00
#04301:00
#04301:00
#04301:00
#04301:00
#04301:000L000L
#04301:00
#04301:00
#04301:0001000100010001
#04301:02030203020302030203020302030203
#04301:00
#04301:00
#04301:7H7I7H7Y7I7H7Y7I7H7I7H7Y7I7H7Y7I
#04306:030405060708090A0B0C0D0E0F0G0H0I030405060708090A0B0C0D0E0F0G0H0I
#04311:04040404
#04312:5R005R00002M0000
#04313:005S00002R000000
#04314:6F00002P0000005V
#04315:00002Q00005U0000
#04318:002T00006G000000
#04319:2S00005T00000000
#04401:00
#04401:00
#04401:00
#04401:00
#04401:00
#04401:00
#04401:000L000L
#04401:00
#04401:00
#04401:0001000100010001
#04401:02030203020302030203020302030203
#04401:00
#04401:00
#04401:7F7G7F7X7G7F7X7G7F7G7F7X7G7F7X7G
#04406:030405060708090A0B0C0D0E0F0G0H0I030405060708090A0B0C0D0E0F0G0H0I
#04411:04040404
#04412:5O00002Q00000000
#04413:332T2T00
#04414:00000000002S005V
#04415:6H5S003F
#04418:00005U000000000000005U00003G0000
#04419:0000005T0000003H
#04501:00
#04501:00
#04501:00
#04501:00
#04501:00
#04501:00
#04501:000L000L
#04501:00
#04501:00
#04501:0001000100010001
#04501:02030203020302030203020302030203
#04501:00
#04501:00
#04501:7J7K7J7Z7K7J7Z7K7L7M7L807M7L807M
#04506:030405060708090A0B0C0D0E0F0G0H0I030405060708090A0B0C0D0E0F0G0H0I
#04511:04040404
#04512:5W5Y0000
#04513:0000005Z0000005Y
#04514:005X000035000000
#04515:3400000000600000
#04516:000000000000000000000000008M0000
#04518:6I6J
#04601:00
#04601:00
#04601:04040404
#04601:00
#04601:00
#04601:00
#04601:000L000L
#04601:00
#04601:00
#04601:0001000100010001
#04601:02030203020302030203020302030203
#04601:00
#04601:00
#04601:7B7C7B7V7C7B7V7C7B7C7B7V7C7B7V7C
#04606:030405060708090A0B0C0D0E0F0G0H0I030405060708090A0B0C0D0E0F0G0H0I
#04611:5J005J00006O0000
#04612:005K005K0000005M
#04613:003I3M3Q
#04614:36000000003J000000005L00003R0000
#04615:000000006K003K00003N000000003S00
#04618:6K0000000000003L00003O000000003T
#04619:00006L0000006M006N00003P00000000
#04701:00
#04701:00
#04701:00
#04701:00
#04701:00
#04701:00
#04701:000L000L
#04701:00
#04701:00
#04701:0001000100010001
#04701:02030203020302030203020302030203
#04701:00
#04701:00
#04701:7B7C7B7V7C7B7V7C7B7C7B7V7C7B7V7C
#04706:030405060708090A0B0C0D0E0F0G0H0I030405060708090A0B0C0D0E0F0G0H0I
#04711:04040404
#04712:006L006M0000002M
#04713:6K006K00006O0000
#04714:005K00006N00005M
#04715:5J00005K005L0000
#04718:005J2P2R
#04719:373800000000000000002Q0000000000
#04801:00
#04801:04040404
#04801:00
#04801:00
#04801:00
#04801:00
#04801:000L000L
#04801:00
#04801:00
#04801:0001000100010001
#04801:02030203020302030203020302030203
#04801:00
#04801:00
#04801:7F7G7F7X7G7F7X7G7F7G7F7X7G7F7X7G
#04806:030405060708090A0B0C0D0E0F0G0H0I030405060708090A0B0C0D0E0F0G0H0I
#04811:5N3U6T3A
#04812:00005O00003I000000005P0000000000
#04813:3900003J3L00005Q
#04814:00006Q005N00003K003M00006V000000
#04815:00000000003N003A
#04818:6P00000000005O000000003O00000000
#04819:00006R6S006U006W
#04901:00
#04901:04040404
#04901:00
#04901:00
#04901:00
#04901:00
#04901:000L000L
#04901:00
#04901:00
#04901:0001000100010001
#04901:02030203020302030203020302030203
#04901:00
#04901:00
#04901:7F7G7F7X7G7F7X7G7F7G7F7X7G7F7X7G
#04901:00
#04901:00
#04901:00
#04901:00
#04901:00
#04901:00
#04901:00
#04901:00
#04901:00
#04901:00
#04901:00
#04901:00
#04901:00
#04901:00
#04901:00
#04901:00
#04901:008O
#04906:030405060708090A0B0C0D0E0F0G0H0I030405060708090A0B0C0D0E0F0G0H0I
#04911:5N005N000000005Q
#04912:005O005O005P0000
#04913:000000000000003N000000007000003J
#04914:6X00003P00003P006Z00003L00003L00
#04915:00003R00003R000000003N00003N0000
#04918:003T00003T000000003P00003P000000
#04919:3V6Y3R00
#05001:00
#05001:00
#05001:00
#05001:00
#05001:00
#05001:00
#05001:000L000L
#05001:00
#05001:00
#05001:0001000100010001
#05001:02030203020302030203020302030203
#05001:00
#05001:00
#05001:7H7I7H7Y7I7H7Y7I7H7I7H7Y7I7H7Y7I
#05006:030405060708090A0B0C0D0E0F0G0H0I030405060708090A0B0C0D0E0F0G0H0I
#05011:04040404
#05012:710071000000005V
#05013:00720072005U0000
#05014:5R5R0000
#05015:005S003100000074
#05018:3000000000730000
#05019:0000005T00003200
#05101:00
#05101:00
#05101:00
#05101:00
#05101:00
#05101:00
#05101:000L000L
#05101:00
#05101:00
#05101:0001000100010001
#05101:02030203020302030203020302030203
#05101:00
#05101:00
#05101:7H7I7H7Y7I7H7Y7I7H7I7H7Y7I7H7Y7I
#05106:030405060708090A0B0C0D0E0F0G0H0I030405060708090A0B0C0D0E0F0G0H0I
#05111:04040404
#05112:00720072002M0075
#05113:71712R00
#05114:5R00002P00007400
#05115:005S2Q000073005V
#05118:002T005T00000000
#05119:2S005R00005U0000
#05201:00
#05201:00
#05201:00
#05201:00
#05201:00
#05201:00
#05201:00
#05201:000H000H000H000H000H000H000H000H
#05201:0F0F0F0F0F0F0F0F
#05201:0001000100010001
#05201:02030203020302030203020302030203
#05201:00
#05201:00
#05201:7F7G7F7X7G7F7X7G7F7G7F7X7G7F7X7G
#05206:030405060708090A0B0C0D0E0F0G0H0I030405060708090A0B0C0D0E0F0G0H0I
#05211:04040404
#05212:00002T000000005V
#05213:00002T3F
#05214:5O005S00002S0000
#05215:00005U0000002Q0000000000003G0000
#05218:33000000775U0000
#05219:7600005T0000003H
#05301:00
#05301:00
#05301:00
#05301:00
#05301:00
#05301:0000000000000000005I000000000000
#05301:00
#05301:00000000000H000H0000000H000H000H
#05301:000F0F0F00000F0F
#05301:0001000100010001
#05301:02030203020302030203020302030203
#05301:00
#05301:00
#05301:7J7K7J7Z7K7J7Z7K7L7M7L807M7L807M
#05301:00
#05301:00
#05301:00
#05301:00
#05301:00
#05301:00
#05301:00
#05301:00
#05301:00
#05301:00
#05301:00
#05301:00
#05301:00
#05301:00
#05301:00
#05301:00
#05301:00008J8I
#05306:030405060708090A0B0C0D0E0F0G0H0I030405060708090A0B0C0D0E0F0G0H0I
#05311:04040404
#05312:005X000000600000
#05313:5W00005Z0000005Y
#05314:0F0H000H000000000000000000000000
#05315:780000005Y0000000F0H000F00000000
#05316:0J000N0K00000I00
#05318:3B3C003B000000007900000000000700
#05319:00000000000000003D3E003D00000000
#05401:00
#05401:00
#05401:00
#05401:00
#05401:00
#05401:00
#05401:00
#05401:00
#05401:00
#05401:00
#05401:00
#05401:00
#05401:00
#05401:00
#05401:00
#05401:00
#05401:00
#05401:00
#05401:00
#05401:00
#05401:00
#05401:00
#05401:00
#05401:00
#05401:00
#05401:00
#05401:00
#05401:00
#05401:00
#05401:00
#05401:00
#05401:0R
#05403:5C
#05406:030405060708090A0B0C0D0E0F0G0H0I030405060708090A0B0C0D0E0F0G0H0I
#05411:08
#05415:89898989
#05416:0C0D
#05419:7A
#05506:030405060708090A0B0C0D0E0F0G0H0I030405060708090A0B0C0D0E0F0G0H0I
#05513:8A8A8A8A
#05606:030405060708090A0B0C0D0E0F0G0H0I030405060708090A0B0C0D0E0F0G0H0I
#05615:8B8B8B8B
#05616:000D
#05701:00
#05701:00
#05701:00
#05701:00
#05701:00
#05701:00
#05701:00
#05701:00
#05701:00
#05701:00
#05701:00
#05701:00
#05701:00
#05701:00
#05701:00
#05701:00
#05701:00
#05701:00
#05701:00
#05701:00
#05701:00
#05701:00
#05701:00
#05701:00
#05701:00
#05701:00
#05701:00
#05701:00
#05701:00
#05701:00
#05701:008D
#05701:8H
#05706:030405060708090A0B0C0D0E0F0G0H0I030405060708090A0B0C0D0E0F0G0H0I
#05716:0000000000000000000B000000000000
#05719:8C8C8C8C
#05801:00
#05801:00
#05801:00
#05801:00
#05801:00
#05801:00
#05801:00
#05801:00
#05801:00
#05801:0E0E0E0E0E0E0E0E
#05806:030405060708090A0B0C0D0E0F0G0H0I030405060708090A0B0C0D0E0F0G0H0I
#05811:04000004040000040004000404000000
#05813:0009000900090009
#05814:89898989
#05816:0C
#05818:85858585
#05819:000M000M
#05901:00
#05901:00
#05901:00
#05901:00
#05901:00
#05901:00
#05901:00
#05901:00
#05901:00
#05901:0E0E0E0E0E0E0E0E
#05906:030405060708090A0B0C0D0E0F0G0H0I030405060708090A0B0C0D0E0F0G0H0I
#05911:04000004040000040004000404000F00
#05912:8A8A8A8A
#05913:00000000090000000000000009000000000000000900000000000000000H0000
#05914:86868686
#05915:0000000000000000000000000000000F
#05919:000M000M
#06001:00
#06001:00
#06001:00
#06001:00
#06001:00
#06001:00
#06001:00
#06001:000M000M
#06001:00
#06001:00
#06001:00
#06001:000E0E0E0E0E0E0E
#06006:030405060708090A0B0C0D0E0F0G0H0I030405060708090A0B0C0D0E0F0G0H0I
#06011:0909090909090909
#06013:000A000A000A000A000A000A000A000A
#06014:8B8B8B8B
#06015:0000000000000000000000000000000000000000000000000000000600000000
#06016:0I
#06018:87878787
#06019:04000004040000040004000404050400
#06101:00
#06101:00
#06101:04000004040000040004000404000000
#06101:00
#06101:00
#06101:00
#06101:00
#06101:000M000M
#06101:00
#06101:00
#06101:00
#06101:0E0E0E0E0E0E0E0E
#06106:030405060708090A0B0C0D0E0F0G0H0I030405060708090A0B0C0D0E0F0G0H0I
#06111:0F0F0F0F0F0F0F0F
#06112:8C8C8C8C
#06113:000F000F000F000F000F000F000F000F
#06115:0000000H0000000H0000000H0000000H0000000H0000000H0000000H0000000H
#06118:88888888
#06119:000H0000000H0000000H0000000H0000000H0000000H0000000H0000000H0000
#06201:00
#06201:00
#06201:00
#06201:00
#06201:00
#06201:00
#06201:00
#06201:00
#06201:00
#06201:00
#06201:00
#06201:00
#06201:00
#06201:7B7C7B7V7C7B7V7C7B7C7B7V7C7B7V7C
#06201:00
#06201:00
#06201:00
#06201:00
#06201:00
#06201:00
#06201:00
#06201:00
#06201:00
#06201:00
#06201:00
#06201:00
#06201:00
#06201:00
#06201:00
#06201:00
#06201:00
#06201:2A
#06203:B8
#06206:030405060708090A0B0C0D0E0F0G0H0I030405060708090A0B0C0D0E0F0G0H0I
#06211:08000000000000520000000000000042
#06212:0040005100000000
#06213:0000000000004040
#06214:003Z003Z000000004100003Z003Z0000
#06215:0000000000410000
#06216:0C
#06218:0000000000004Z00003Y000000000000
#06219:3Y000000000000500000000000000000
#06301:00
#06301:00
#06301:00
#06301:00
#06301:00
#06301:00
#06301:00
#06301:00
#06301:00
#06301:00
#06301:00
#06301:00
#06301:00
#06301:7F7G7F7X7G7F7X7G7F7G7F7X7G7F7X7G
#06306:030405060708090A0B0C0D0E0F0G0H0I030405060708090A0B0C0D0E0F0G0H0I
#06311:00000000005600000000000000480000
#06312:4300000000000000550000000055000000000000000000004600000046000000
#06313:00400000000000000040000000470000
#06314:0000000000004545
#06315:00003Z00005400003Z003Z0000000000
#06318:0000000000000000530000000053000000000000000000000000000000000000
#06319:0000003Y000000000000000000000000
#06401:00
#06401:00
#06401:00
#06401:00
#06401:00
#06401:00
#06401:00
#06401:00
#06401:00
#06401:00
#06401:00
#06401:00
#06401:00
#06401:7H7I7H7Y7I7H7Y7I7H7I7H7Y7I7H7Y7I
#06406:030405060708090A0B0C0D0E0F0G0H0I030405060708090A0B0C0D0E0F0G0H0I
#06411:0000004F00000057
#06412:000000000000004G0000000000000000
#06413:4C0000000000000000004E00000000004G000000000000000000480000580000
#06414:004E000000480000
#06415:004D00004D0000000046000046000000
#06418:00000048000000000000000000000059
#06419:000000000000000000000000000000000000000000004700000000000000005A
#06501:00
#06501:00
#06501:00
#06501:00
#06501:00
#06501:00
#06501:00
#06501:00
#06501:00
#06501:00
#06501:00
#06501:00
#06501:00
#06501:7N7O7N817O7N817O7P7Q7P827Q7P827Q
#06501:00
#06501:00
#06501:00
#06501:00
#06501:00
#06501:00
#06501:00
#06501:00
#06501:00
#06501:00
#06501:00
#06501:00
#06501:00
#06501:00
#06501:00
#06501:00
#06501:0G
#06506:030405060708090A0B0C0D0E0F0G0H0I030405060708090A0B0C0D0E0F0G0H0I
#06511:4H000000000000000000000000460046
#06512:004E0000450000000000000043000000
#06513:42004E00004D00004200000000004A00
#06514:0046000043004D00004800003Z000000
#06515:3Z004600004I00004000480000004900
#06518:000000004J004I00004H00004L000000
#06519:00000000000000004K004H0000420042
#06601:00
#06601:00
#06601:00
#06601:00
#06601:00
#06601:00
#06601:00
#06601:00
#06601:00
#06601:00
#06601:00
#06601:00
#06601:00
#06601:7B7C7B7V7C7B7V7C7B7C7B7V7C7B7V7C
#06606:030405060708090A0B0C0D0E0F0G0H0I030405060708090A0B0C0D0E0F0G0H0I
#06611:00004600000000000000000000470000
#06612:00000047000000000000000040000000
#06613:00470000450000000000000000004500
#06614:00000000004200000000003Z00000000
#06615:45000000000043000040000000000042
#06618:00000000000000400000410000000000
#06619:003Z
#06701:00
#06701:00
#06701:00
#06701:00
#06701:00
#06701:00
#06701:00
#06701:00
#06701:00
#06701:00
#06701:00
#06701:00
#06701:00
#06701:7L7M7L807M7L807M7L7M7L807M7L807M
#06706:030405060708090A0B0C0D0E0F0G0H0I030405060708090A0B0C0D0E0F0G0H0I
#06711:000000003Z0000000000004Q00000000
#06712:00420000004100000000000000000000
#06713:0000003Y00004R00
#06714:000043000000004L00000000004S0000
#06715:000000004N00004T
#06718:0000004000000000004O000000000000
#06719:430000000000000000004P000000004U
#06801:00
#06801:00
#06801:00
#06801:00
#06801:00
#06801:00
#06801:00
#06801:00
#06801:00
#06801:00
#06801:00
#06801:00
#06801:00
#06801:7D7E7D7W7E7D7W7E7D7E7D7W7E7D7W7E
#06806:030405060708090A0B0C0D0E0F0G0H0I030405060708090A0B0C0D0E0F0G0H0I
#06811:0000004B00000000
#06812:003Z004B003Z00000000000000000000
#06813:43000000000000000041000000000041
#06814:000000003Y3Y0000
#06815:000000000000003Y
#06818:003X003Y003X00000000004L004L0000
#06819:0000003Y00004N00
#06901:00
#06901:00
#06901:00
#06901:00
#06901:00
#06901:00
#06901:00
#06901:00
#06901:00
#06901:00
#06901:00
#06901:00
#06901:00
#06901:7R7S7R837S7R837S7T7U7T847U7T847U
#06906:030405060708090A0B0C0D0E0F0G0H0I030405060708090A0B0C0D0E0F0G0H0I
#06911:3Y3Y3Y00
#06912:0000000000000000004L000000000000
#06913:00000000004N0000
#06914:004L004L004L004L0000004O00000000
#06915:0000000000000000000000004P00004S
#06916:00000000000B0000
#06918:000000000000000000000000004Q0000
#06919:004N004N0000004T
#07001:00
#07001:00
#07001:00
#07001:00
#07001:00
#07001:00
#07001:00
#07001:00
#07001:00
#07001:0001000100010001
#07001:02030203020302030203020302030203
#07001:00
#07001:00
#07001:7B7C7B7V7C7B7V7C7B7C7B7V7C7B7V7C
#07001:00
#07001:00
#07001:1S001U001S001S1T001S1T001S001U00
#07001:00
#07001:2B2C2D2E2F2C2G2C
#07001:8F8K8F008F8K8F008F8K8F008F8K0000
#07001:000000000000008E
#07001:00
#07001:00
#07001:00
#07001:00
#07001:00
#07001:00
#07001:00
#07001:00
#07001:00
#07001:00
#07001:0S
#07006:030405060708090A0B0C0D0E0F0G0H0I030405060708090A0B0C0D0E0F0G0H0I
#07011:04040404
#07012:4545
#07013:000000000L0000000042000000000000
#07014:0040004000433Z00
#07015:00000000000000000000004000410000
#07016:0C
#07018:003Z003Z003Z003Z0000000000003Y00
#07019:0000000041000000000000000L00004L
#07101:00
#07101:00
#07101:00
#07101:00
#07101:00
#07101:00
#07101:00
#07101:00
#07101:00
#07101:0001000100010001
#07101:02030203020302030203020302030203
#07101:00
#07101:00
#07101:7F7G7F7X7G7F7X7G7F7G7F7X7G7F7X7G
#07101:00
#07101:00
#07101:1P001R001P001P1Q001P1Q001P001R00
#07101:00
#07101:2B2C2D2E2F2C2G2C
#07101:8F008K008F0000008F008K008G8L8G8L8F0000008K0000008F008K0000000000
#07101:000000000000008E
#07106:030405060708090A0B0C0D0E0F0G0H0I030405060708090A0B0C0D0E0F0G0H0I
#07111:04040404
#07112:000L4V00
#07113:00000040000000420000000047000000
#07114:00003Z0000004000004G000000450000
#07115:004100000041000000004E0000000000
#07118:3Y0000003Y0000000000004800004200
#07119:0000000000000000000000000L000040
#07201:00
#07201:00
#07201:00
#07201:00
#07201:00
#07201:00
#07201:00
#07201:00
#07201:00
#07201:0001000100010001
#07201:02030203020302030203020302030203
#07201:00
#07201:00
#07201:7H7I7H7Y7I7H7Y7I7H7I7H7Y7I7H7Y7I
#07201:00
#07201:00
#07201:1M001O001M001M1N001M1N001M001O00
#07201:00
#07201:2B2C2D2E2F2C2G2C
#07201:8F8K8F008F8K8F008F8K8F008F8K0000
#07201:000000000000008E
#07206:030405060708090A0B0C0D0E0F0G0H0I030405060708090A0B0C0D0E0F0G0H0I
#07211:04040404
#07212:00000000003Y0000
#07213:005H00003Z0000420000004L00000000
#07214:5G000000005G000000002L000000000000000000000000004P00000000000000
#07215:005F00003Y00003Z00000000005B0000
#07218:5E000000005E000000002R000000000000000000000000000000005C00000000
#07219:00000L0000000L5D
#07301:04040400
#07301:00
#07301:00
#07301:00
#07301:000L0000
#07301:00
#07301:00
#07301:00
#07301:00
#07301:0001000100010001
#07301:02030203020302030203020302030203
#07301:00
#07301:00
#07301:7N7O7N817O7N817O7P7Q7P827Q7P827Q
#07301:00
#07301:00
#07301:1V001X001V001V1W001P1Q001P001R00
#07301:00
#07301:2B2C2D2E2F2C2G2C
#07301:8F008K008F0000008F008K008G8L8G8L8F0000008K0000008F008K0000000000
#07301:000000000000008E
#07306:030405060708090A0B0C0D0E0F0G0H0I030405060708090A0B0C0D0E0F0G0H0I
#07311:4H4E000000000400
#07312:004E000045004D000000000000000049
#07313:42000000004D00004200480000000000
#07314:00460000430000000048000000003Z00
#07315:3Z004600004I0000400000000L000000
#07318:000000004J004I00004H0000004K0000
#07319:000000004K4H4L00
#07401:00
#07401:00
#07401:00
#07401:00
#07401:00
#07401:00
#07401:00
#07401:00
#07401:00
#07401:0001000100010001
#07401:02030203020302030203020302030203
#07401:00
#07401:00
#07401:7B7C7B7V7C7B7V7C7B7C7B7V7C7B7V7C
#07401:00
#07401:00
#07401:1S001U001S001S1T001S1T001S001U00
#07401:00
#07401:2B2C2D2E2F2C2G2C
#07401:8F8K8F008F8K8F008F8K8F008F8K0000
#07401:000000000000008E
#07406:030405060708090A0B0C0D0E0F0G0H0I030405060708090A0B0C0D0E0F0G0H0I
#07411:04040404
#07412:00000000000043000000000000470000
#07413:000L000L
#07414:00004600000000400000000040004500
#07415:00000047000000000040003Z00000042
#07418:00470000450000000000410000000000
#07419:45000000004200003Z00000000000000
#07501:00
#07501:00
#07501:00
#07501:00
#07501:00
#07501:00
#07501:00
#07501:00
#07501:00
#07501:0001000100010001
#07501:02030203020302030203020302030203
#07501:00
#07501:00
#07501:7L7M7L807M7L807M7L7M7L807M7L807M
#07501:00
#07501:00
#07501:1Y0020001Y001Y1Z001Y1Z001Y002000
#07501:00
#07501:2B2C2D2E2F2C2G2C
#07501:8F008K008F0000008F008K008G8L8G8L8F0000008K0000008F008K0000000000
#07501:000000000000008E
#07506:030405060708090A0B0C0D0E0F0G0H0I030405060708090A0B0C0D0E0F0G0H0I
#07511:04040404
#07512:00420000000000000000000000000000
#07513:000043000L00004L000000000L000000
#07514:00000040000000004N0000004R000000
#07515:000000003Z000000004O0000004S0000
#07518:430000000041000000004P0000004T00
#07519:0000000000003Y000000004Q0000004U
#07601:00
#07601:00
#07601:00
#07601:00
#07601:00
#07601:0000000L
#07601:00
#07601:00
#07601:00
#07601:0001000100010001
#07601:02030203020302030203020302030203
#07601:00
#07601:00
#07601:7D7E7D7W7E7D7W7E7D7E7D7W7E7D7W7E
#07601:00
#07601:00
#07601:21002300210021220021220021002300
#07601:00
#07601:2B2C2D2E2F2C2G2C
#07601:8F8K8F008F8K8F008F8K8F008F8K0000
#07601:000000000000008E
#07606:030405060708090A0B0C0D0E0F0G0H0I030405060708090A0B0C0D0E0F0G0H0I
#07611:04040404
#07612:0000434N
#07613:000000000L00000000400000004O0000
#07614:43000000003Z00004B003Z003Y004P00
#07615:003Z004B00004B0000410041004L004Q
#07618:00000000003X000000003Y0000004N00
#07619:003X003Y00003Y000000004L0000004O
#07701:00
#07701:00
#07701:00
#07701:00
#07701:00
#07701:00
#07701:00
#07701:00
#07701:00
#07701:0001000100010001
#07701:02030203020302030203020302030203
#07701:00
#07701:00
#07701:7R7S7R837S7R837S7T7U7T847U7T847U
#07701:00
#07701:00
#07701:24002600240024250027280027002900
#07701:00
#07701:2B2C2D2E2F2C2G2C
#07701:8F008K008F0000008F008K008G8L8G8L8F0000008K0000008F008K0000000000
#07701:000000000000008E
#07706:030405060708090A0B0C0D0E0F0G0H0I030405060708090A0B0C0D0E0F0G0H0I
#07711:04040404
#07712:00004X00004X00004X00004X00000700
#07713:0000000L
#07714:004P00004P00004P00004P000000004K
#07715:000000000000004X
#07716:0J000N0K00000I00
#07718:4R00004R00004R00004R0000004Y0000
#07719:000L004S
#07801:00
#07801:00
#07801:00
#07801:0001000100010001
#07801:00
#07801:00
#07801:00
#07801:00
#07801:00
#07801:00
#07801:02030203020302030203020302030203
#07801:00
#07801:00
#07801:7B7C7B7V7C7B7V7C7B7C7B7V7C7B7V7C
#07801:00
#07801:00
#07801:1S001U001S001S1T001S1T001S001U00
#07801:00
#07801:2B2C2D2E2F2C2G2C
#07801:8F8K8F008F8K8F008F8K8F008F8K8E00
#07806:030405060708090A0B0C0D0E0F0G0H0I030405060708090A0B0C0D0E0F0G0H0I
#07811:04040404
#07812:0045
#07813:450000000L0000000042000000000000
#07814:0040004000433Z00
#07815:00000000000000000000004000410000
#07816:0C
#07818:003Z003Z003Z003Z0000000000003Y00
#07819:0000000041000000000000000L00004L
#07901:00
#07901:00
#07901:00
#07901:00
#07901:00
#07901:0001000100010001
#07901:00
#07901:00
#07901:00
#07901:00
#07901:02030203020302030203020302030203
#07901:00
#07901:00
#07901:7F7G7F7X7G7F7X7G7F7G7F7X7G7F7X7G
#07901:00
#07901:00
#07901:1P001R001P001P1Q001P1Q001P002C00
#07901:00
#07901:2B2C2D2E2F2C2G1R
#07901:8F008K008F0000008F008K008G8L8G8L8F0000008K0000008F008K008E000000
#07906:030405060708090A0B0C0D0E0F0G0H0I030405060708090A0B0C0D0E0F0G0H0I
#07911:04040404
#07912:000L4V00
#07913:00000040000000420000000047000000
#07914:00003Z0000004000004G000000450000
#07915:004100000041000000004E0000000000
#07918:3Y0000003Y0000000000004800004200
#07919:0000000000000000000000000L000040
#08001:00
#08001:00
#08001:00
#08001:00
#08001:00
#08001:00
#08001:00
#08001:0001000100010001
#08001:00
#08001:00
#08001:02030203020302030203020302030203
#08001:00
#08001:00
#08001:7H7I7H7Y7I7H7Y7I7H7I7H7Y7I7H7Y7I
#08001:00
#08001:00
#08001:1M001O001M001M1N001M1N001M001O00
#08001:00
#08001:2B2C2D2E2F2C2G2C
#08001:8F8K8F008F8K8F008F8K8F008F8K8E00
#08006:030405060708090A0B0C0D0E0F0G0H0I030405060708090A0B0C0D0E0F0G0H0I
#08011:04040404
#08012:00000000003Y0000
#08013:005H00003Z0000420000004L00000000
#08014:5G000000005G000000002L000000000000000000000000004P00000000000000
#08015:005F00003Y00003Z00000000005B0000
#08018:5E000000005E000000002R000000000000000000000000000000005C00000000
#08019:00000L0000000L5D
#08101:00
#08101:00
#08101:00
#08101:00
#08101:04040404
#08101:00
#08101:000L000L
#08101:00
#08101:00
#08101:0001000100010001
#08101:02030203020302030203020302030203
#08101:00
#08101:00
#08101:7N7O7N817O7N817O7P7Q7P827Q7P827Q
#08101:00
#08101:00
#08101:1V001X001V001V1W001P1Q001P001R00
#08101:00
#08101:2B2C2D2E2F2C2G2C
#08101:8F008K008F0000008F008K008G8L8G8L8F0000008K0000008F008K0000000000
#08101:000000000000008E
#08106:030405060708090A0B0C0D0E0F0G0H0I030405060708090A0B0C0D0E0F0G0H0I
#08111:4C460000
#08112:004G0000004500000000004000000045
#08113:4E4E4242003Z0042
#08114:0048004800400040003X003X00440040
#08115:0046003Z4L4L3W3Z
#08118:000000450000003X004O0000003Y0000
#08119:00004P4L
#08201:00
#08201:00
#08201:00
#08201:00
#08201:0001000100010001
#08201:00
#08201:00
#08201:00
#08201:00
#08201:00
#08201:02030203020302030203020302030203
#08201:00
#08201:00
#08201:7B7C7B7V7C7B7V7C7B7C7B7V7C7B7V7C
#08201:00
#08201:00
#08201:1S001U001S001S1T001S1T001S001U00
#08201:00
#08201:2B2C2D2E2F2C2G2C
#08201:8F8K8F008F8K8F008F8K8F008F8K8E00
#08206:030405060708090A0B0C0D0E0F0G0H0I030405060708090A0B0C0D0E0F0G0H0I
#08211:04040404
#08212:0040000000000000004L000000000000
#08213:3Z3Z0000004N0L00
#08214:00000041004100000000004O00000000
#08215:000000003Y003Y00000000004P00004Q
#08218:000000000000004L00000000004Q0000
#08219:00000L004N00004S
#08301:00
#08301:00
#08301:00
#08301:00
#08301:00
#08301:00
#08301:00
#08301:00
#08301:00
#08301:0001000100010001
#08301:02030203020302030203020302030203
#08301:00
#08301:00
#08301:7L7M7L807M7L807M7L7M7L807M7L807M
#08301:00
#08301:00
#08301:1Y0020001Y001Y1Z001Y1Z001Y002000
#08301:00
#08301:2B2C2D2E2F2C2G2C
#08301:8F008K008F0000008F008K008G8L8G8L8F0000008K0000008F008K008E000000
#08306:030405060708090A0B0C0D0E0F0G0H0I030405060708090A0B0C0D0E0F0G0H0I
#08311:04040404
#08312:000000000000003Y0000000000000000
#08313:0000004O00004O002S0000000L000000
#08314:00004P00004P000000004P004P000000
#08315:004Q00004Q000000000000000000004O
#08318:4R000000000000000000004W00004P00
#08319:000000000L00000000000000004Q0000
#08401:00
#08401:00
#08401:00
#08401:00
#08401:00
#08401:00
#08401:00
#08401:000H000H000H000H000H000H000H000H
#08401:0F0F0F0F0F0F0F0F
#08401:0001000100010001
#08401:02030203020302030203020302030203
#08401:00
#08401:00
#08401:7D7E7D7W7E7D7W7E7D7E7D7W7E7D7W7E
#08401:00
#08401:00
#08401:21002300210021220021220021002300
#08401:00
#08401:2B2C2D2E2F2C2G2C
#08401:8F8K8F008F8K8F008F8K8F008F8K0000
#08401:000000000000008E
#08406:030405060708090A0B0C0D0E0F0G0H0I030405060708090A0B0C0D0E0F0G0H0I
#08411:04040404
#08412:0000434N
#08413:000000000000000000400000004O0000
#08414:43000000003Z00004B003Z003Y004P00
#08415:003Z004B00004B0000410041004L004Q
#08418:00000000003X000000003Y0000004N00
#08419:003X003Y00003Y000000004L0000004O
#08501:00
#08501:00
#08501:00
#08501:00
#08501:00
#08501:00
#08501:0H0F0H0F000F0H0F0H0F0H0F000H0F0F
#08501:00
#08501:00
#08501:0001000100010001
#08501:02030203020302030203020302030203
#08501:00
#08501:00
#08501:7R7S7R837S7R837S7T7U7T847U7T847U
#08501:00
#08501:00
#08501:24002600240024250027280027002900
#08501:00
#08501:2B2C2D2E2F2C2G2C
#08501:8F008K008F0000008F008K008G8L8G8L8F0000008K0000008F008K0000000000
#08501:000000000000008E
#08501:00
#08501:000000000000000000000000008M0000
#08506:030405060708090A0B0C0D0E0F0G0H0I030405060708090A0B0C0D0E0F0G0H0I
#08511:07070707
#08512:00004X00004X00004X00004X00000000
#08513:0000000H
#08514:004P00004P00004P00004P000000004K
#08515:000000000000004X
#08516:0J000J0K00000I00
#08518:4R00004R00004R00004R0000004Y0000
#08519:000H004S
#08601:00
#08601:1600001600001600
#08601:00
#08601:0Z00000Z00000Z00
#08601:00
#08601:00
#08601:00
#08601:00
#08601:00
#08601:00
#08601:00
#08601:00
#08601:00
#08601:7B7C000000007B7C000000007B7C0000
#08606:030405060708090A0B0C0D0E0F0G0H0I030405060708090A0B0C0D0E0F0G0H0I
#08611:4G00000400000400
#08612:00480000000000000000004000000045
#08613:000046000000000000000000004M0000
#08614:000000470000000000003Z0045000000
#08615:000000004500003Z00000000003W0000
#08616:0J00000J00000K00
#08618:0000000000430000004100000000003Z
#08619:040000403Y003Z00
#08701:00
#08701:1600001600001600
#08701:00
#08701:0Z00000Z00000Z00
#08701:00
#08701:00
#08701:00
#08701:0D
#08701:00
#08701:00
#08701:00
#08701:00
#08701:00
#08701:7B7C000000007B7C000000007B7C0000
#08706:030405060708090A0B0C0D0E0F0G0H0I030405060708090A0B0C0D0E0F0G0H0I
#08711:4G00000400000400
#08712:00480000000000000000004000000045
#08713:000046000000000000000000004M0000
#08714:000000470000000000003Z0045000000
#08715:000000004500003Z00000000003W0000
#08716:0J00000J00000K00
#08718:0000000000430000004100000000003Z
#08719:040000403Y003Z00
#08801:00
#08801:1600001600001600
#08801:00
#08801:0Z00000Z00000Z00
#08801:00
#08801:00
#08801:00
#08801:8N00000000000000005I000000000000
#08801:00
#08801:00
#08801:00
#08801:00
#08801:00
#08801:7B7C000000007B7C000000007B7C0000
#08806:030405060708090A0B0C0D0E0F0G0H0I030405060708090A0B0C0D0E0F0G0H0I
#08811:0400000400000700
#08812:000000410000000000000047004M0045
#08813:00000000004100000000450045000000
#08814:00003Y000000004000000000004B003Z
#08815:000000003Y000000004000003Z000000
#08816:0J00000J00000K00
#08818:004L0000000000003Z000000003X003Y
#08819:4N00003Z00003Y00
#08906:030405060708090A0B0C0D0E0F0G0H0I030405060708090A0B0C0D0E0F0G0H0I
#08911:08
#08913:2I
#08915:2M
#08916:0C
#08919:2P
