2854 lines
58 KiB
Plaintext
2854 lines
58 KiB
Plaintext
|
|
*---------------------- HEADER FIELD
|
|
|
|
#PLAYER 1
|
|
#GENRE RENAISSANCE
|
|
#TITLE Joker[SP jikusofumen]
|
|
#ARTIST D.J.Nero obj:NO4N10
|
|
#BPM 184
|
|
#PLAYLEVEL 11
|
|
#RANK 3
|
|
#TOTAL 510
|
|
#STAGEFILE title.jpg
|
|
|
|
#WAV01 opHH.wav
|
|
#WAV02 close.wav
|
|
#WAV03 close.wav
|
|
#WAV04 kickA.wav
|
|
#WAV05 kickB.wav
|
|
#WAV06 kickB.wav
|
|
#WAV07 kick32.wav
|
|
#WAV08 FXkick.wav
|
|
#WAV09 snare.wav
|
|
#WAV0A snare.wav
|
|
#WAV0B reverse.wav
|
|
#WAV0C SE1.wav
|
|
#WAV0D bell.wav
|
|
#WAV0E ride.wav
|
|
#WAV0F snare-Fill.wav
|
|
#WAV0G snare-Fill.wav
|
|
#WAV0H clashA.wav
|
|
#WAV0I clashB.wav
|
|
#WAV0J clashC.wav
|
|
#WAV0K clap.wav
|
|
#WAV0L clap-deep.wav
|
|
#WAV0M clashB.wav
|
|
#WAV0N bgm1.wav
|
|
#WAV0O bgm1.wav
|
|
#WAV0P bgm2.wav
|
|
#WAV0Q bgm2.wav
|
|
#WAV0R bgm3.wav
|
|
#WAV0S str01.wav
|
|
#WAV0T str01.wav
|
|
#WAV0U str02.wav
|
|
#WAV0V str03.wav
|
|
#WAV0W str03.wav
|
|
#WAV0X str04.wav
|
|
#WAV0Y str05.wav
|
|
#WAV0Z str-01.wav
|
|
#WAV10 str-01.wav
|
|
#WAV11 str-02.wav
|
|
#WAV12 str-03.wav
|
|
#WAV13 str-03.wav
|
|
#WAV14 str-04.wav
|
|
#WAV15 str-05.wav
|
|
#WAV16 harp1.wav
|
|
#WAV17 harp2.wav
|
|
#WAV18 harp3.wav
|
|
#WAV19 harp4.wav
|
|
#WAV1A harp5.wav
|
|
#WAV1B harp6.wav
|
|
#WAV1C harp16-01.wav
|
|
#WAV1D harp16-02.wav
|
|
#WAV1E harp16-03.wav
|
|
#WAV1F harp16-04.wav
|
|
#WAV1G harp16-05.wav
|
|
#WAV1H harp16-06.wav
|
|
#WAV1I core1.wav
|
|
#WAV1J core1.wav
|
|
#WAV1K core1b.wav
|
|
#WAV1L core2.wav
|
|
#WAV1M core2.wav
|
|
#WAV1N core2b.wav
|
|
#WAV1O core3.wav
|
|
#WAV1P core3.wav
|
|
#WAV1Q core3b.wav
|
|
#WAV1R core4.wav
|
|
#WAV1S core4.wav
|
|
#WAV1T core4b.wav
|
|
#WAV1U core5.wav
|
|
#WAV1V core5.wav
|
|
#WAV1W core5b.wav
|
|
#WAV1X core6.wav
|
|
#WAV1Y core6.wav
|
|
#WAV1Z core6b.wav
|
|
#WAV20 core7.wav
|
|
#WAV21 core7.wav
|
|
#WAV22 core7b.wav
|
|
#WAV23 core8.wav
|
|
#WAV24 core8.wav
|
|
#WAV25 core8b.wav
|
|
#WAV26 core9.wav
|
|
#WAV27 core9.wav
|
|
#WAV28 core9b.wav
|
|
#WAV29 arp-bgm.wav
|
|
#WAV2A arp1.wav
|
|
#WAV2B arp2.wav
|
|
#WAV2C arp3.wav
|
|
#WAV2D arp4.wav
|
|
#WAV2E arp5.wav
|
|
#WAV2F arp6.wav
|
|
#WAV2G p-8-1.wav
|
|
#WAV2H p-8-2.wav
|
|
#WAV2I p-8-3.wav
|
|
#WAV2J p-8-4.wav
|
|
#WAV2K p-8-5.wav
|
|
#WAV2L p-8-6.wav
|
|
#WAV2M p-8-7.wav
|
|
#WAV2N p-8-8.wav
|
|
#WAV2O p-8-9.wav
|
|
#WAV2P p-8-10.wav
|
|
#WAV2Q p-8-11.wav
|
|
#WAV2R p-8-12.wav
|
|
#WAV2S p-8-13.wav
|
|
#WAV2T pA-1.wav
|
|
#WAV2U pA-2.wav
|
|
#WAV2V pA-2b.wav
|
|
#WAV2W pA-3.wav
|
|
#WAV2X pA-4.wav
|
|
#WAV2Y pA-4b.wav
|
|
#WAV2Z pA-5.wav
|
|
#WAV30 pA-6.wav
|
|
#WAV31 pA-7.wav
|
|
#WAV32 pA-8.wav
|
|
#WAV33 pA-9.wav
|
|
#WAV34 pA-10.wav
|
|
#WAV35 pA-11.wav
|
|
#WAV36 pA-12.wav
|
|
#WAV37 SE3.wav
|
|
#WAV38 pA-12b.wav
|
|
#WAV39 pA-13.wav
|
|
#WAV3A pA-13b.wav
|
|
#WAV3B pA-14.wav
|
|
#WAV3C pA-14b.wav
|
|
#WAV3D pA-15.wav
|
|
#WAV3E pA-15b.wav
|
|
#WAV3F p-16-1.wav
|
|
#WAV3G p-16-2.wav
|
|
#WAV3H p-16-3.wav
|
|
#WAV3I p-16-4.wav
|
|
#WAV3J p-16-5.wav
|
|
#WAV3K p-16-6.wav
|
|
#WAV3L p-16-7.wav
|
|
#WAV3M p-16-8.wav
|
|
#WAV3N p-16-9.wav
|
|
#WAV3O p-16-10.wav
|
|
#WAV3P p-16-11.wav
|
|
#WAV3Q p-16-12.wav
|
|
#WAV3R p-16-13.wav
|
|
#WAV3S p-16-14.wav
|
|
#WAV3T p-16-15.wav
|
|
#WAV3U p-16-16.wav
|
|
#WAV3V p-16-17.wav
|
|
#WAV3W ps-16-2.wav
|
|
#WAV3X ps-16-1.wav
|
|
#WAV3Y ps-16-1.wav
|
|
#WAV3Z ps-16-2.wav
|
|
#WAV40 ps-16-3.wav
|
|
#WAV41 ps-16-4.wav
|
|
#WAV42 ps-16-5.wav
|
|
#WAV43 ps-16-6.wav
|
|
#WAV44 ps-16-3.wav
|
|
#WAV45 ps-16-7.wav
|
|
#WAV46 ps-16-8.wav
|
|
#WAV47 ps-16-9.wav
|
|
#WAV48 ps-16-10.wav
|
|
#WAV49 ps-16-5.wav
|
|
#WAV4A ps-16-8.wav
|
|
#WAV4B ps-16-2.wav
|
|
#WAV4C ps-16-11.wav
|
|
#WAV4D ps-16-12.wav
|
|
#WAV4E ps-16-13.wav
|
|
#WAV4F ps-16-14.wav
|
|
#WAV4G ps-16-15.wav
|
|
#WAV4H ps-16-16.wav
|
|
#WAV4I ps-16-17.wav
|
|
#WAV4J ps-16-18.wav
|
|
#WAV4K ps-16-19.wav
|
|
#WAV4L ps-16-20.wav
|
|
#WAV4M ps-16-7.wav
|
|
#WAV4N ps-16-21.wav
|
|
#WAV4O ps-16-22.wav
|
|
#WAV4P ps-16-23.wav
|
|
#WAV4Q ps-16-24.wav
|
|
#WAV4R ps-16-25.wav
|
|
#WAV4S ps-16-26.wav
|
|
#WAV4T ps-16-27.wav
|
|
#WAV4U ps-16-28.wav
|
|
#WAV4V ps-16-29.wav
|
|
#WAV4W ps-16-30.wav
|
|
#WAV4X ps-16-23.wav
|
|
#WAV4Y ps-16-31.wav
|
|
#WAV4Z ps-32-1.wav
|
|
#WAV50 ps-32-1.wav
|
|
#WAV51 ps-32-1b.wav
|
|
#WAV52 ps-32-1b.wav
|
|
#WAV53 ps-32-2.wav
|
|
#WAV54 ps-32-2.wav
|
|
#WAV55 ps-32-2b.wav
|
|
#WAV56 ps-32-2b.wav
|
|
#WAV57 ps-32-3.wav
|
|
#WAV58 ps-32-4.wav
|
|
#WAV59 ps-32-5.wav
|
|
#WAV5A ps-32-6.wav
|
|
#WAV5B ps-32-7.wav
|
|
#WAV5C ps-32-8.wav
|
|
#WAV5D ps-32-9.wav
|
|
#WAV5E ps-32-10.wav
|
|
#WAV5F ps-32-10.wav
|
|
#WAV5G ps-32-10b.wav
|
|
#WAV5H ps-32-10b.wav
|
|
#WAV5I SE2.wav
|
|
#WAV5J chero 1.wav
|
|
#WAV5K chero 2.wav
|
|
#WAV5L chero 3.wav
|
|
#WAV5M chero 4.wav
|
|
#WAV5N chero 9.wav
|
|
#WAV5O chero 10.wav
|
|
#WAV5P chero 11.wav
|
|
#WAV5Q chero 12.wav
|
|
#WAV5R chero 13.wav
|
|
#WAV5S chero 14.wav
|
|
#WAV5T chero 15.wav
|
|
#WAV5U chero 16.wav
|
|
#WAV5V chero 17.wav
|
|
#WAV5W chero 18.wav
|
|
#WAV5X chero 19.wav
|
|
#WAV5Y chero 20.wav
|
|
#WAV5Z chero 21.wav
|
|
#WAV60 chero 22.wav
|
|
#WAV61 solo 1.wav
|
|
#WAV62 solo 2.wav
|
|
#WAV63 solo 3.wav
|
|
#WAV64 solo 4.wav
|
|
#WAV65 solo 5.wav
|
|
#WAV66 solo 6.wav
|
|
#WAV67 solo 7.wav
|
|
#WAV68 solo 8.wav
|
|
#WAV69 solo 9.wav
|
|
#WAV6A solo 10.wav
|
|
#WAV6B solo 11.wav
|
|
#WAV6C solo 12.wav
|
|
#WAV6D solo 13.wav
|
|
#WAV6E solo 14.wav
|
|
#WAV6F solo 15.wav
|
|
#WAV6G solo 16.wav
|
|
#WAV6H solo 17.wav
|
|
#WAV6I solo 18.wav
|
|
#WAV6J solo 19.wav
|
|
#WAV6K solo 20.wav
|
|
#WAV6L solo 21.wav
|
|
#WAV6M solo 22.wav
|
|
#WAV6N solo 23.wav
|
|
#WAV6O solo 24.wav
|
|
#WAV6P solo 25.wav
|
|
#WAV6Q solo 26.wav
|
|
#WAV6R solo 27.wav
|
|
#WAV6S solo 28.wav
|
|
#WAV6T solo 29.wav
|
|
#WAV6U solo 30.wav
|
|
#WAV6V solo 31.wav
|
|
#WAV6W solo 32.wav
|
|
#WAV6X solo 33.wav
|
|
#WAV6Y solo 34.wav
|
|
#WAV6Z solo 35.wav
|
|
#WAV70 solo 36.wav
|
|
#WAV71 solo 37.wav
|
|
#WAV72 solo 38.wav
|
|
#WAV73 solo 39.wav
|
|
#WAV74 solo 40.wav
|
|
#WAV75 solo 41.wav
|
|
#WAV76 solo 42.wav
|
|
#WAV77 solo 43.wav
|
|
#WAV78 solo 44.wav
|
|
#WAV79 solo 45.wav
|
|
#WAV7A solo 46.wav
|
|
#WAV7B bass1.wav
|
|
#WAV7C bass2.wav
|
|
#WAV7D bass3.wav
|
|
#WAV7E bass4.wav
|
|
#WAV7F bass5.wav
|
|
#WAV7G bass6.wav
|
|
#WAV7H bass7.wav
|
|
#WAV7I bass8.wav
|
|
#WAV7J bass9.wav
|
|
#WAV7K bass10.wav
|
|
#WAV7L bass11.wav
|
|
#WAV7M bass12.wav
|
|
#WAV7N bass13.wav
|
|
#WAV7O bass14.wav
|
|
#WAV7P bass15.wav
|
|
#WAV7Q bass16.wav
|
|
#WAV7R bass17.wav
|
|
#WAV7S bass18.wav
|
|
#WAV7T bass19.wav
|
|
#WAV7U bass20.wav
|
|
#WAV7V bass1.wav
|
|
#WAV7W bass3.wav
|
|
#WAV7X bass5.wav
|
|
#WAV7Y bass7.wav
|
|
#WAV7Z bass9.wav
|
|
#WAV80 bass11.wav
|
|
#WAV81 bass13.wav
|
|
#WAV82 bass15.wav
|
|
#WAV83 bass17.wav
|
|
#WAV84 bass19.wav
|
|
#WAV85 chero1.wav
|
|
#WAV86 chero2.wav
|
|
#WAV87 chero3.wav
|
|
#WAV88 chero4.wav
|
|
#WAV89 vio1.wav
|
|
#WAV8A vio2.wav
|
|
#WAV8B vio3.wav
|
|
#WAV8C vio4.wav
|
|
#WAV8D tim.wav
|
|
#WAV8E tanbarin.wav
|
|
#WAV8F suzu.wav
|
|
#WAV8G suzu32.wav
|
|
#WAV8H syuooo.wav
|
|
#WAV8I SE5.wav
|
|
#WAV8J horn.wav
|
|
#WAV8K suzu.wav
|
|
#WAV8L suzu32.wav
|
|
#WAV8M cym B.wav
|
|
#WAV8N cym C.wav
|
|
#WAV8O SE4.wav
|
|
|
|
#BMP01 joker.mpg
|
|
#BMP03 miss 01.bmp
|
|
#BMP04 miss 02.bmp
|
|
#BMP05 miss 03.bmp
|
|
#BMP06 miss 04.bmp
|
|
#BMP07 miss 05.bmp
|
|
#BMP08 miss 06.bmp
|
|
#BMP09 miss 07.bmp
|
|
#BMP0A miss 08.bmp
|
|
#BMP0B miss 09.bmp
|
|
#BMP0C miss 10.bmp
|
|
#BMP0D miss 11.bmp
|
|
#BMP0E miss 12.bmp
|
|
#BMP0F miss 13.bmp
|
|
#BMP0G miss 14.bmp
|
|
#BMP0H miss 15.bmp
|
|
#BMP0I miss 16.bmp
|
|
|
|
|
|
|
|
|
|
#DIFFICULTY 3
|
|
#BACKBMP logo.jpg
|
|
|
|
|
|
|
|
*---------------------- MAIN DATA FIELD
|
|
|
|
|
|
#00104:01
|
|
#00106:030405060708090A0B0C0D0E0F0G0H0I030405060708090A0B0C0D0E0F0G0H0I
|
|
#00116:000B000000000000
|
|
|
|
#00201:0400000400040000
|
|
#00201:00000K00000K0000
|
|
#00201:00
|
|
#00201:00
|
|
#00201:00
|
|
#00201:00
|
|
#00201:00
|
|
#00201:00
|
|
#00201:00
|
|
#00201:00
|
|
#00201:00
|
|
#00201:00
|
|
#00201:00
|
|
#00201:7B7C7B7V7C7B7V7C7B7C7B7V7C7B7V7C
|
|
#00206:030405060708090A0B0C0D0E0F0G0H0I030405060708090A0B0C0D0E0F0G0H0I
|
|
#00211:0Z10000000000000
|
|
#00212:0000001100000000
|
|
#00213:0S0T000000000000
|
|
#00214:0000000U00000000
|
|
|
|
#00301:0400000400040000
|
|
#00301:00000K00000K0000
|
|
#00301:00
|
|
#00301:00
|
|
#00301:00
|
|
#00301:00
|
|
#00301:00
|
|
#00301:00
|
|
#00301:00
|
|
#00301:00
|
|
#00301:00
|
|
#00301:00
|
|
#00301:00
|
|
#00301:7B7C7B7V7C7B7V7C7B7C7B7V7C7B7V7C
|
|
#00306:030405060708090A0B0C0D0E0F0G0H0I030405060708090A0B0C0D0E0F0G0H0I
|
|
#00313:1213000000000000
|
|
#00314:0000001400000000
|
|
#00315:0V0W000000000000
|
|
#00318:0000000X00000000
|
|
|
|
#00401:0400000400040000
|
|
#00401:00
|
|
#00401:00
|
|
#00401:0Z10000000000000
|
|
#00401:0000001100000000
|
|
#00401:00
|
|
#00401:00
|
|
#00401:00
|
|
#00401:00
|
|
#00401:00
|
|
#00401:00
|
|
#00401:00
|
|
#00401:00
|
|
#00401:7B7C7B7V7C7B7V7C7B7C7B7V7C7B7V7C
|
|
#00406:030405060708090A0B0C0D0E0F0G0H0I030405060708090A0B0C0D0E0F0G0H0I
|
|
#00411:0S0T00000F00000F
|
|
#00412:000F000U00000F00
|
|
#00413:0F000F0F000F0000
|
|
#00414:000000000000000G0000000000000000
|
|
#00415:00000000000G0000000G00000000000G
|
|
#00416:0J00000I000I0000
|
|
#00418:0000000G0000000000000000000G0000
|
|
#00419:000G0000000000000000000G00000000
|
|
|
|
#00501:0400000400040000
|
|
#00501:00
|
|
#00501:00
|
|
#00501:1213000000000000
|
|
#00501:0000001400000000
|
|
#00501:00
|
|
#00501:00
|
|
#00501:00
|
|
#00501:00
|
|
#00501:00
|
|
#00501:00
|
|
#00501:00
|
|
#00501:00
|
|
#00501:7B7C7B7V7C7B7V7C7B7C7B7V7C7B7V7C
|
|
#00506:030405060708090A0B0C0D0E0F0G0H0I030405060708090A0B0C0D0E0F0G0H0I
|
|
#00511:000F000F00000000
|
|
#00512:0V0W00000F000000
|
|
#00513:0F00000X000F0000
|
|
#00514:000G00000F000000000G00000F000000
|
|
#00515:00000000000000000000000G00000F00
|
|
#00516:0J00000I000I0007
|
|
#00518:00000000000G000G00000000000G0000
|
|
#00519:0000000G00000000000000000000000G
|
|
|
|
#00601:00
|
|
#00601:00
|
|
#00601:00
|
|
#00601:00
|
|
#00601:00
|
|
#00601:00
|
|
#00601:00
|
|
#00601:00
|
|
#00601:00
|
|
#00601:00
|
|
#00601:02030203020302030203020302030203
|
|
#00601:00
|
|
#00601:00
|
|
#00601:7B7C7B7V7C7B7V7C7B7C7B7V7C7B7V7C
|
|
#00601:00
|
|
#00601:00
|
|
#00601:00
|
|
#00601:00
|
|
#00601:00
|
|
#00601:00
|
|
#00601:00
|
|
#00601:00
|
|
#00601:00
|
|
#00601:00
|
|
#00601:00
|
|
#00601:00
|
|
#00601:00
|
|
#00601:00
|
|
#00601:00
|
|
#00601:00
|
|
#00601:00
|
|
#00601:0N
|
|
#00606:030405060708090A0B0C0D0E0F0G0H0I030405060708090A0B0C0D0E0F0G0H0I
|
|
#00611:04040404
|
|
#00612:0001000100010001
|
|
#00613:000K000K
|
|
#00614:2G00002H00000000
|
|
#00615:002H0000002I002H
|
|
#00616:0C
|
|
#00618:002I0000
|
|
#00619:00002K2J
|
|
|
|
#00701:00
|
|
#00701:00
|
|
#00701:00
|
|
#00701:00
|
|
#00701:00
|
|
#00701:00
|
|
#00701:00
|
|
#00701:00
|
|
#00701:00
|
|
#00701:00
|
|
#00701:02030203020302030203020302030203
|
|
#00701:00
|
|
#00701:00
|
|
#00701:7B7C7B7V7C7B7V7C7B7C7B7V7C7B7V7C
|
|
#00706:030405060708090A0B0C0D0E0F0G0H0I030405060708090A0B0C0D0E0F0G0H0I
|
|
#00711:04040404
|
|
#00712:0001000100010001
|
|
#00713:000K000K
|
|
#00714:2G000000002H0000
|
|
#00715:00002J000000002I
|
|
#00718:002I002K00002K00
|
|
#00719:002L
|
|
|
|
#00801:00
|
|
#00801:00
|
|
#00801:00
|
|
#00801:00
|
|
#00801:00
|
|
#00801:00
|
|
#00801:00
|
|
#00801:00
|
|
#00801:00
|
|
#00801:00
|
|
#00801:02030203020302030203020302030203
|
|
#00801:00
|
|
#00801:00
|
|
#00801:7D7E7D7W7E7D7W7E7D7E7D7W7E7D7W7E
|
|
#00806:030405060708090A0B0C0D0E0F0G0H0I030405060708090A0B0C0D0E0F0G0H0I
|
|
#00811:04040404
|
|
#00812:0001000100010001
|
|
#00813:000K000K
|
|
#00814:2J00002H00000000
|
|
#00815:002K0000002K0000
|
|
#00818:002L002L
|
|
#00819:000000002M00002M
|
|
|
|
#00901:00
|
|
#00901:00
|
|
#00901:00
|
|
#00901:00
|
|
#00901:00
|
|
#00901:00
|
|
#00901:00
|
|
#00901:00
|
|
#00901:00
|
|
#00901:00
|
|
#00901:02030203020302030203020302030203
|
|
#00901:00
|
|
#00901:00
|
|
#00901:7D7E7D7W7E7D7W7E7D7E7D7W7E7D7W7E
|
|
#00906:030405060708090A0B0C0D0E0F0G0H0I030405060708090A0B0C0D0E0F0G0H0I
|
|
#00911:04040404
|
|
#00912:0001000100010001
|
|
#00913:000K000K
|
|
#00914:2H00002I00000000
|
|
#00915:002K002I
|
|
#00918:00000000002J002N
|
|
#00919:002L00002K000000
|
|
|
|
#01001:00
|
|
#01001:00
|
|
#01001:00
|
|
#01001:00
|
|
#01001:00
|
|
#01001:00
|
|
#01001:00
|
|
#01001:00
|
|
#01001:00
|
|
#01001:00
|
|
#01001:02030203020302030203020302030203
|
|
#01001:00
|
|
#01001:00
|
|
#01001:7F7G7F7X7G7F7X7G7F7G7F7X7G7F7X7G
|
|
#01006:030405060708090A0B0C0D0E0F0G0H0I030405060708090A0B0C0D0E0F0G0H0I
|
|
#01011:04040404
|
|
#01012:0001000100010001
|
|
#01013:000K000K
|
|
#01014:2G
|
|
#01015:002H002H002I002H
|
|
#01018:002I0000
|
|
#01019:00002K2J
|
|
|
|
#01101:00
|
|
#01101:00
|
|
#01101:00
|
|
#01101:00
|
|
#01101:00
|
|
#01101:00
|
|
#01101:00
|
|
#01101:00
|
|
#01101:00
|
|
#01101:00
|
|
#01101:02030203020302030203020302030203
|
|
#01101:00
|
|
#01101:00
|
|
#01101:7F7G7F7X7G7F7X7G7F7G7F7X7G7F7X7G
|
|
#01106:030405060708090A0B0C0D0E0F0G0H0I030405060708090A0B0C0D0E0F0G0H0I
|
|
#01111:04040404
|
|
#01112:0001000100010001
|
|
#01113:000K000K
|
|
#01114:2G
|
|
#01115:00002J00002H002I
|
|
#01118:002I002K00000000
|
|
#01119:00002L2K
|
|
|
|
#01201:00
|
|
#01201:00
|
|
#01201:00
|
|
#01201:00
|
|
#01201:00
|
|
#01201:00
|
|
#01201:00
|
|
#01201:00
|
|
#01201:00
|
|
#01201:00
|
|
#01201:02030203020302030203020302030203
|
|
#01201:00
|
|
#01201:00
|
|
#01201:7B7C7B7V7C7B7V7C7B7C7B7V7C7B7V7C
|
|
#01206:030405060708090A0B0C0D0E0F0G0H0I030405060708090A0B0C0D0E0F0G0H0I
|
|
#01211:04040404
|
|
#01212:0001000100010001
|
|
#01213:000K000K
|
|
#01214:2J00002H002K0000
|
|
#01215:002K000000000000
|
|
#01218:002L002L
|
|
#01219:000000002M00002M
|
|
|
|
#01301:00
|
|
#01301:00
|
|
#01301:00
|
|
#01301:00
|
|
#01301:00
|
|
#01301:00
|
|
#01301:00
|
|
#01301:00
|
|
#01301:00
|
|
#01301:00
|
|
#01301:02030203020302030203020302030203
|
|
#01301:00
|
|
#01301:00
|
|
#01301:7B7C7B7V7C7B7V7C7B7C7B7V7C7B7V7C
|
|
#01306:030405060708090A0B0C0D0E0F0G0H0I030405060708090A0B0C0D0E0F0G0H0I
|
|
#01311:04040404
|
|
#01312:0001000100010001
|
|
#01313:000K000K
|
|
#01314:0000002I002J002N
|
|
#01315:2H2K002I
|
|
#01316:000000000000000000000000008M0000
|
|
#01318:002K
|
|
#01319:002L000000000000
|
|
|
|
#01401:00
|
|
#01401:00
|
|
#01401:00
|
|
#01401:00
|
|
#01401:00
|
|
#01401:00
|
|
#01401:00
|
|
#01401:00
|
|
#01401:00
|
|
#01401:00
|
|
#01401:02030203020302030203020302030203
|
|
#01401:00
|
|
#01401:00
|
|
#01401:7B7C7B7V7C7B7V7C7B7C7B7V7C7B7V7C
|
|
#01406:030405060708090A0B0C0D0E0F0G0H0I030405060708090A0B0C0D0E0F0G0H0I
|
|
#01411:04040404
|
|
#01412:000K000K
|
|
#01413:2G00002H0000002H
|
|
#01414:002H000000002J00
|
|
#01415:00002I00002I0000
|
|
#01418:002K
|
|
#01419:0001000100010001
|
|
|
|
#01501:00
|
|
#01501:00
|
|
#01501:00
|
|
#01501:00
|
|
#01501:00
|
|
#01501:00
|
|
#01501:00
|
|
#01501:00
|
|
#01501:00
|
|
#01501:00
|
|
#01501:02030203020302030203020302030203
|
|
#01501:00
|
|
#01501:00
|
|
#01501:7B7C7B7V7C7B7V7C7B7C7B7V7C7B7V7C
|
|
#01506:030405060708090A0B0C0D0E0F0G0H0I030405060708090A0B0C0D0E0F0G0H0I
|
|
#01511:04040404
|
|
#01512:000K000K
|
|
#01513:2G0000000000002I
|
|
#01514:00002J00002H0000
|
|
#01515:002I002K00000000
|
|
#01518:00002L2K
|
|
#01519:0001000100010001
|
|
|
|
#01601:00
|
|
#01601:00
|
|
#01601:00
|
|
#01601:00
|
|
#01601:00
|
|
#01601:00
|
|
#01601:00
|
|
#01601:00
|
|
#01601:00
|
|
#01601:00
|
|
#01601:02030203020302030203020302030203
|
|
#01601:00
|
|
#01601:00
|
|
#01601:7D7E7D7W7E7D7W7E7D7E7D7W7E7D7W7E
|
|
#01606:030405060708090A0B0C0D0E0F0G0H0I030405060708090A0B0C0D0E0F0G0H0I
|
|
#01611:04040404
|
|
#01612:000K000K
|
|
#01613:0000002H00000000
|
|
#01614:2J00002L
|
|
#01615:002K0000002K002M
|
|
#01618:002L2M00
|
|
#01619:0001000100010001
|
|
|
|
#01701:00
|
|
#01701:00
|
|
#01701:00
|
|
#01701:00
|
|
#01701:00
|
|
#01701:00
|
|
#01701:00
|
|
#01701:00
|
|
#01701:00
|
|
#01701:00
|
|
#01701:02030203020302030203020302030203
|
|
#01701:00
|
|
#01701:00
|
|
#01701:7D7E7D7W7E7D7W7E7D7E7D7W7E7D7W7E
|
|
#01706:030405060708090A0B0C0D0E0F0G0H0I030405060708090A0B0C0D0E0F0G0H0I
|
|
#01711:04040404
|
|
#01712:000K000K
|
|
#01713:2H00002I0000002N
|
|
#01714:0000002I
|
|
#01715:00002K00002J0000
|
|
#01718:002L00002K000000
|
|
#01719:0001000100010001
|
|
|
|
#01801:00
|
|
#01801:00
|
|
#01801:00
|
|
#01801:00
|
|
#01801:00
|
|
#01801:00
|
|
#01801:00
|
|
#01801:00
|
|
#01801:00
|
|
#01801:00
|
|
#01801:02030203020302030203020302030203
|
|
#01801:00
|
|
#01801:00
|
|
#01801:7F7G7F7X7G7F7X7G7F7G7F7X7G7F7X7G
|
|
#01806:030405060708090A0B0C0D0E0F0G0H0I030405060708090A0B0C0D0E0F0G0H0I
|
|
#01811:04040404
|
|
#01812:000K000K
|
|
#01813:2G00002H00000000
|
|
#01814:002H0000002I002H
|
|
#01815:002I002J
|
|
#01818:002K
|
|
#01819:0001000100010001
|
|
|
|
#01901:00
|
|
#01901:00
|
|
#01901:00
|
|
#01901:00
|
|
#01901:00
|
|
#01901:00
|
|
#01901:00
|
|
#01901:00
|
|
#01901:00
|
|
#01901:00
|
|
#01901:02030203020302030203020302030203
|
|
#01901:00
|
|
#01901:00
|
|
#01901:7F7G7F7X7G7F7X7G7F7G7F7X7G7F7X7G
|
|
#01906:030405060708090A0B0C0D0E0F0G0H0I030405060708090A0B0C0D0E0F0G0H0I
|
|
#01911:04040404
|
|
#01912:000K000K
|
|
#01913:2G000000002H0000
|
|
#01914:002J0000
|
|
#01915:002I002K0000002I
|
|
#01918:00002L2K
|
|
#01919:0001000100010001
|
|
|
|
#02001:00
|
|
#02001:00
|
|
#02001:00
|
|
#02001:00
|
|
#02001:00
|
|
#02001:00
|
|
#02001:00
|
|
#02001:00
|
|
#02001:00
|
|
#02001:00
|
|
#02001:02030203020302030203020302030203
|
|
#02001:00
|
|
#02001:00
|
|
#02001:7B7C7B7V7C7B7V7C7B7C7B7V7C7B7V7C
|
|
#02006:030405060708090A0B0C0D0E0F0G0H0I030405060708090A0B0C0D0E0F0G0H0I
|
|
#02011:04040404
|
|
#02012:000K000K
|
|
#02013:2J00002H00000000
|
|
#02014:002K0000002K0000
|
|
#02015:00002M2L
|
|
#02018:00002L000000002M
|
|
#02019:0001000100010001
|
|
|
|
#02101:0000000000000007
|
|
#02101:00
|
|
#02101:00
|
|
#02101:00
|
|
#02101:00
|
|
#02101:00
|
|
#02101:000K0000
|
|
#02101:00
|
|
#02101:00
|
|
#02101:0000000100000000
|
|
#02101:00030200020002000003020302000200
|
|
#02101:00
|
|
#02101:00
|
|
#02101:7B7C7B7V7C7B7V7C7B7C7B7V7C7B7V7C
|
|
#02106:030405060708090A0B0C0D0E0F0G0H0I030405060708090A0B0C0D0E0F0G0H0I
|
|
#02111:04000004000400000400040000060000
|
|
#02112:002K
|
|
#02113:02000003000300000200010000030000
|
|
#02114:002L002I00002I01
|
|
#02115:00000500000000050000000005000003
|
|
#02116:0I000M0J00000H00
|
|
#02118:2H002K00002J002N
|
|
#02119:0000010000000003000000000K000000
|
|
|
|
#02201:00
|
|
#02201:00
|
|
#02201:00
|
|
#02201:00
|
|
#02201:00
|
|
#02201:00
|
|
#02201:000K000K
|
|
#02201:00
|
|
#02201:00
|
|
#02201:00
|
|
#02201:02000000020302030003020002000200
|
|
#02201:00
|
|
#02201:00
|
|
#02201:7B7C7B7V7C7B7V7C7B7C7B7V7C7B7V7C
|
|
#02201:00
|
|
#02201:00
|
|
#02201:00
|
|
#02201:00
|
|
#02201:8F8K8F008F8K8F008F8K8F008F8K0000
|
|
#02201:000000000000008E
|
|
#02201:00
|
|
#02201:00
|
|
#02201:00
|
|
#02201:00
|
|
#02201:00
|
|
#02201:00
|
|
#02201:00
|
|
#02201:00
|
|
#02201:00
|
|
#02201:00
|
|
#02201:00
|
|
#02201:0O
|
|
#02206:030405060708090A0B0C0D0E0F0G0H0I030405060708090A0B0C0D0E0F0G0H0I
|
|
#02211:04040404
|
|
#02212:00001I00171J0001
|
|
#02213:1602001I00180017
|
|
#02214:0003000017000000020000001I000000
|
|
#02215:00000100000000000000000300030003
|
|
#02216:0C
|
|
#02218:1I0000030000001J001I000019000000
|
|
#02219:001K00000001001K
|
|
|
|
#02301:00
|
|
#02301:00
|
|
#02301:00
|
|
#02301:00
|
|
#02301:00
|
|
#02301:00
|
|
#02301:000K000K
|
|
#02301:00
|
|
#02301:00
|
|
#02301:0000000100000000
|
|
#02301:02000200020002030003000002000200
|
|
#02301:00
|
|
#02301:00
|
|
#02301:7B7C7B7V7C7B7V7C7B7C7B7V7C7B7V7C
|
|
#02301:00
|
|
#02301:00
|
|
#02301:00
|
|
#02301:00
|
|
#02301:8F008K008F0000008F008K008G8L8G8L8F0000008K0000008F008K0000000000
|
|
#02301:000000000000008E
|
|
#02306:030405060708090A0B0C0D0E0F0G0H0I030405060708090A0B0C0D0E0F0G0H0I
|
|
#02311:04040404
|
|
#02312:001K1I00001J0001
|
|
#02313:1I0100171A001600
|
|
#02314:0000000300001I000000010000001K00
|
|
#02315:0000190000030000001I000300000003
|
|
#02318:000300000000001J0000020000030000
|
|
#02319:1818021I
|
|
|
|
#02401:00
|
|
#02401:00
|
|
#02401:00
|
|
#02401:00
|
|
#02401:00
|
|
#02401:00
|
|
#02401:000K000K
|
|
#02401:00
|
|
#02401:00
|
|
#02401:0000000000000001
|
|
#02401:02000000020002030003020002000200
|
|
#02401:00
|
|
#02401:00
|
|
#02401:7D7E7D7W7E7D7W7E7D7E7D7W7E7D7W7E
|
|
#02401:00
|
|
#02401:00
|
|
#02401:00
|
|
#02401:00
|
|
#02401:8F8K8F008F8K8F008F8K8F008F8K0000
|
|
#02401:000000000000008E
|
|
#02406:030405060708090A0B0C0D0E0F0G0H0I030405060708090A0B0C0D0E0F0G0H0I
|
|
#02411:04040404
|
|
#02412:000002000000001M00001M0000000003
|
|
#02413:1600000300000100000001001L000000
|
|
#02414:00000100000300001700000300001700
|
|
#02415:00030000170000000000180000030000
|
|
#02418:00001N0000001L00001L000000001N00
|
|
#02419:1L1L0219
|
|
|
|
#02501:00
|
|
#02501:00
|
|
#02501:00
|
|
#02501:00
|
|
#02501:00
|
|
#02501:00
|
|
#02501:000K000K
|
|
#02501:00
|
|
#02501:00
|
|
#02501:0000000100010001
|
|
#02501:02000200020002030203020002000200
|
|
#02501:00
|
|
#02501:00
|
|
#02501:7D7E7D7W7E7D7W7E7D7E7D7W7E7D7W7E
|
|
#02501:00
|
|
#02501:00
|
|
#02501:00
|
|
#02501:00
|
|
#02501:8F008K008F0000008F008K008G8L8G8L8F0000008K0000008F008K0000000000
|
|
#02501:000000000000008E
|
|
#02506:030405060708090A0B0C0D0E0F0G0H0I030405060708090A0B0C0D0E0F0G0H0I
|
|
#02511:04040404
|
|
#02512:00001N001L00001M0000170000001N00
|
|
#02513:1L000003000000001A0000001L001A00
|
|
#02514:00010017001M0000
|
|
#02515:0003000000030000001L000000030000
|
|
#02518:0000190000001L000000000300000003
|
|
#02519:1B180018
|
|
|
|
#02601:00
|
|
#02601:00
|
|
#02601:00
|
|
#02601:00
|
|
#02601:00
|
|
#02601:00
|
|
#02601:000K000K
|
|
#02601:00
|
|
#02601:00
|
|
#02601:0000000000010001
|
|
#02601:02000000020002030003020002000200
|
|
#02601:00
|
|
#02601:00
|
|
#02601:7F7G7F7X7G7F7X7G7F7G7F7X7G7F7X7G
|
|
#02601:00
|
|
#02601:00
|
|
#02601:00
|
|
#02601:00
|
|
#02601:8F8K8F008F8K8F008F8K8F008F8K0000
|
|
#02601:000000000000008E
|
|
#02606:030405060708090A0B0C0D0E0F0G0H0I030405060708090A0C000D0E0F0G0H0I
|
|
#02611:04040404
|
|
#02612:00021701001P0017
|
|
#02613:1600000000001O000200000300000003
|
|
#02614:00011O0017001O00
|
|
#02615:00030000000000000000180000030000
|
|
#02618:00001Q0000030000001O000019000000
|
|
#02619:1O0000030000001P0000000000001Q00
|
|
|
|
#02701:00
|
|
#02701:00
|
|
#02701:00
|
|
#02701:00
|
|
#02701:00
|
|
#02701:00
|
|
#02701:000K000K
|
|
#02701:00
|
|
#02701:00
|
|
#02701:0000000100010001
|
|
#02701:02000200020002030203020302000200
|
|
#02701:00
|
|
#02701:00
|
|
#02701:7F7G7F7X7G7F7X7G7F7G7F7X7G7F7X7G
|
|
#02701:00
|
|
#02701:00
|
|
#02701:00
|
|
#02701:00
|
|
#02701:8F008K008F0000008F008K008G8L8G8L8F0000008K0000008F008K0000000000
|
|
#02701:000000000000008E
|
|
#02706:030405060708090A0B0C0D0E0F0G0H0I030405060708090A0B0C0D0E0F0G0H0I
|
|
#02711:04040404
|
|
#02712:1O00001O001C001F
|
|
#02713:001Q181700001O1Q
|
|
#02714:00000100000000000000001D00000000
|
|
#02715:180000030000001P001O000000030000
|
|
#02718:0000190000030000000000001E000003
|
|
#02719:000300001O0000001C001P0000000000
|
|
|
|
#02801:00
|
|
#02801:00
|
|
#02801:00
|
|
#02801:00
|
|
#02801:00
|
|
#02801:00
|
|
#02801:000K000K
|
|
#02801:00
|
|
#02801:00
|
|
#02801:0000000000010000
|
|
#02801:02000000020002030203020002000200
|
|
#02801:00
|
|
#02801:00
|
|
#02801:7B7C7B7V7C7B7V7C7B7C7B7V7C7B7V7C
|
|
#02801:00
|
|
#02801:00
|
|
#02801:00
|
|
#02801:00
|
|
#02801:8F8K8F008F8K8F008F8K8F008F8K0000
|
|
#02801:000000000000008E
|
|
#02806:030405060708090A0B0C0D0E0F0G0H0I030405060708090A0B0C0D0E0F0G0H0I
|
|
#02811:04040404
|
|
#02812:0001001R0000001T
|
|
#02813:00001T001700000017001S0000030000
|
|
#02814:16000003000300000000000300001700
|
|
#02815:0003000000000100001R00001R000000
|
|
#02818:00001R0000000001
|
|
#02819:1R0002000000001S0000180019000003
|
|
|
|
#02901:00
|
|
#02901:00
|
|
#02901:00
|
|
#02901:00
|
|
#02901:00
|
|
#02901:00
|
|
#02901:000K000K
|
|
#02901:00
|
|
#02901:00
|
|
#02901:0001000000000000
|
|
#02901:02000203020002030003020002000200
|
|
#02901:00
|
|
#02901:00
|
|
#02901:7B7C7B7V7C7B7V7C7B7C7B7V7C7B7V7C
|
|
#02901:00
|
|
#02901:00
|
|
#02901:00
|
|
#02901:00
|
|
#02901:8F008K008F0000008F008K008G8L8G8L8F0000008K0000008F008K0000000000
|
|
#02901:000000000000008E
|
|
#02906:030405060708090A0B0C0D0E0F0G0H0I030405060708090A0B0C0D0E0F0G0H0I
|
|
#02911:04040404
|
|
#02912:001T0001001S1R1T
|
|
#02913:1R001E1D1A010000
|
|
#02914:0003001H0000001S0000000300001A00
|
|
#02915:1G00001R02170001
|
|
#02916:000000000000000000000000008M0000
|
|
#02918:00001G00000300000000000018000003
|
|
#02919:000000001R000000001R000000030000
|
|
|
|
#03001:00
|
|
#03001:00
|
|
#03001:00
|
|
#03001:00
|
|
#03001:04040404
|
|
#03001:00
|
|
#03001:000K000K
|
|
#03001:00
|
|
#03001:00
|
|
#03001:0001000100010001
|
|
#03001:00
|
|
#03001:00
|
|
#03001:00
|
|
#03001:7B7C7B7V7C7B7V7C7B7C7B7V7C7B7V7C
|
|
#03001:00
|
|
#03001:00
|
|
#03001:00
|
|
#03001:00
|
|
#03001:8F8K8F008F8K8F008F8K8F008F8K0000
|
|
#03001:000000000000008E
|
|
#03006:030405060708090A0B0C0D0E0F0G0H0I030405060708090A0B0C0D0E0F0G0H0I
|
|
#03011:001K001I02001I00
|
|
#03012:00020202001J001K
|
|
#03013:160000001700001J0000180002000003
|
|
#03014:0003000000000000001I000300000200
|
|
#03015:02000003000000030003000000030000
|
|
#03018:00000000000300000000020000001700
|
|
#03019:1I1I1719
|
|
|
|
#03101:00
|
|
#03101:00
|
|
#03101:00
|
|
#03101:00
|
|
#03101:04040404
|
|
#03101:00
|
|
#03101:000K000K
|
|
#03101:00
|
|
#03101:00
|
|
#03101:0001000100010001
|
|
#03101:00
|
|
#03101:00
|
|
#03101:00
|
|
#03101:7B7C7B7V7C7B7V7C7B7C7B7V7C7B7V7C
|
|
#03101:00
|
|
#03101:00
|
|
#03101:00
|
|
#03101:00
|
|
#03101:8F008K008F0000008F008K008G8L8G8L8F0000008K0000008F008K0000000000
|
|
#03101:000000000000008E
|
|
#03106:030405060708090A0B0C0D0E0F0G0H0I030405060708090A0B0C0D0E0F0G0H0I
|
|
#03111:1I00190000001I00001I00001I000000
|
|
#03112:0200180202001602
|
|
#03113:00001K000200001J00001J0000001K00
|
|
#03114:00000003000000030000000000000000
|
|
#03115:00030000000000001A00020000030000
|
|
#03118:00000200000300000000000300000000
|
|
#03119:180000001I0017000003000002000003
|
|
|
|
#03201:00
|
|
#03201:00
|
|
#03201:00
|
|
#03201:00
|
|
#03201:04040404
|
|
#03201:00
|
|
#03201:000K000K
|
|
#03201:00
|
|
#03201:00
|
|
#03201:0001000000010001
|
|
#03201:00
|
|
#03201:00
|
|
#03201:00
|
|
#03201:7D7E7D7W7E7D7W7E7D7E7D7W7E7D7W7E
|
|
#03201:00
|
|
#03201:00
|
|
#03201:00
|
|
#03201:00
|
|
#03201:8F8K8F008F8K8F008F8K8F008F8K0000
|
|
#03201:000000000000008E
|
|
#03206:030405060708090A0B0C0D0E0F0G0H0I030405060708090A0B0C0D0E0F0G0H0I
|
|
#03211:02001N00020000030003000002000200
|
|
#03212:000000001L00001M001L00001L000000
|
|
#03213:16000200000300000000000300001N00
|
|
#03214:0003000017001L0000001M0000000003
|
|
#03215:1L000000000000001700020000030000
|
|
#03218:0000000200180017
|
|
#03219:00000003000001000200000019000000
|
|
|
|
#03301:00
|
|
#03301:00
|
|
#03301:00
|
|
#03301:00
|
|
#03301:04040404
|
|
#03301:00
|
|
#03301:000K000K
|
|
#03301:00
|
|
#03301:00
|
|
#03301:0001000100010001
|
|
#03301:00
|
|
#03301:00
|
|
#03301:00
|
|
#03301:7D7E7D7W7E7D7W7E7D7E7D7W7E7D7W7E
|
|
#03301:00
|
|
#03301:00
|
|
#03301:00
|
|
#03301:00
|
|
#03301:8F008K008F0000008F008K008G8L8G8L8F0000008K0000008F008K0000000000
|
|
#03301:000000000000008E
|
|
#03306:030405060708090A0B0C0D0E0F0G0H0I030405060708090A0B0C0D0E0F0G0H0I
|
|
#03311:000000001L0002000003000000000200
|
|
#03312:1L00020000001L00001L000000001N00
|
|
#03313:02000003000000030000000300000000
|
|
#03314:001N0017021M021A
|
|
#03315:00030000020000000000020000030000
|
|
#03318:00001900000300001A0017001L000003
|
|
#03319:1B0000001800001M0000000018000000
|
|
|
|
#03401:00
|
|
#03401:00
|
|
#03401:00
|
|
#03401:00
|
|
#03401:04040404
|
|
#03401:00
|
|
#03401:000K000K
|
|
#03401:00
|
|
#03401:00
|
|
#03401:0000000100010001
|
|
#03401:00
|
|
#03401:00
|
|
#03401:00
|
|
#03401:7F7G7F7X7G7F7X7G7F7G7F7X7G7F7X7G
|
|
#03401:00
|
|
#03401:00
|
|
#03401:00
|
|
#03401:00
|
|
#03401:8F8K8F008F8K8F008F8K8F008F8K0000
|
|
#03401:000000000000008E
|
|
#03406:030405060708090A0B0C0D0E0F0G0H0I030405060708090A0B0C0D0E0F0G0H0I
|
|
#03411:16000000000002000003000002000000
|
|
#03412:00000200020000030000000300030000
|
|
#03413:02001Q0000001O00001O00001O000000
|
|
#03414:00030000170000000200180000001700
|
|
#03415:000000030003001P00001P0000001Q00
|
|
#03418:00000100000000000000020000000003
|
|
#03419:1O001O0017001902
|
|
|
|
#03501:00
|
|
#03501:00
|
|
#03501:00
|
|
#03501:00
|
|
#03501:04040404
|
|
#03501:00
|
|
#03501:000K000K
|
|
#03501:00
|
|
#03501:00
|
|
#03501:0001000100010001
|
|
#03501:00
|
|
#03501:00
|
|
#03501:00
|
|
#03501:7F7G7F7X7G7F7X7G7F7G7F7X7G7F7X7G
|
|
#03501:00
|
|
#03501:00
|
|
#03501:00
|
|
#03501:00
|
|
#03501:8F008K008F0000008F008K008G8L8G8L8F0000008K0000008F008K0000000000
|
|
#03501:000000000000008E
|
|
#03506:030405060708090A0B0C0D0E0F0G0H0I030405060708090A0B0C0D0E0F0G0H0I
|
|
#03511:0000000002000003001O001D00000200
|
|
#03512:0202001O001C001F
|
|
#03513:000300001O00001P000002001O001Q00
|
|
#03514:1O000003000017000003000002000000
|
|
#03515:18000000000300000200000300030000
|
|
#03518:001Q1800001P0000
|
|
#03519:00001900000002001C0000001E000003
|
|
|
|
#03601:00
|
|
#03601:00
|
|
#03601:00
|
|
#03601:00
|
|
#03601:04040404
|
|
#03601:00
|
|
#03601:000K000K
|
|
#03601:00
|
|
#03601:00
|
|
#03601:0001000100010001
|
|
#03601:00
|
|
#03601:00
|
|
#03601:00
|
|
#03601:7B7C7B7V7C7B7V7C7B7C7B7V7C7B7V7C
|
|
#03601:00
|
|
#03601:00
|
|
#03601:00
|
|
#03601:00
|
|
#03601:8F8K8F008F8K8F008F8K8F008F8K0000
|
|
#03601:000000000000008E
|
|
#03606:030405060708090A0B0C0D0E0F0G0H0I030405060708090A0B0C0D0E0F0G0H0I
|
|
#03611:16000000020000030000020002000000
|
|
#03612:020000001700001S000000001R000200
|
|
#03613:000300001R001R001700180000001700
|
|
#03614:0000020000030000001R000000030000
|
|
#03615:1R000000000000000003000300000003
|
|
#03618:00000003000002000000000019001T00
|
|
#03619:001T0000021S0000
|
|
|
|
#03701:0000000104020007
|
|
#03701:00
|
|
#03701:00
|
|
#03701:00
|
|
#03701:00
|
|
#03701:00
|
|
#03701:000K000K
|
|
#03701:00
|
|
#03701:00
|
|
#03701:0001000000010001
|
|
#03701:00
|
|
#03701:00
|
|
#03701:00
|
|
#03701:7B7C7B7V7C7B7V7C7B7C7B7V7C7B7V7C
|
|
#03701:00
|
|
#03701:00
|
|
#03701:1R1T1R0000001R1T
|
|
#03701:00
|
|
#03701:8F008K008F0000008F008K008G8L8G8L8F0000008K0000008F00000000000000
|
|
#03701:000000000000008E
|
|
#03706:030405060708090A0B0C0D0E0F0G0H0I030405060708090A0B0C0D0E0F0G0H0I
|
|
#03711:0400040200000400
|
|
#03712:0003000300001D000003000300030003
|
|
#03713:0200001H00001R00001R000002000000
|
|
#03714:000000000200000300001S0000000000
|
|
#03715:00000200000300000200001800001A00
|
|
#03716:0I000M0J00000H00
|
|
#03718:00001G000000001S00001700008K0000
|
|
#03719:1G001E001A000002
|
|
|
|
#03801:00
|
|
#03801:00
|
|
#03801:00
|
|
#03801:0000000200000000
|
|
#03801:00
|
|
#03801:00
|
|
#03801:00
|
|
#03801:00
|
|
#03801:00
|
|
#03801:0000000000010001
|
|
#03801:00000000020300000000000000000000
|
|
#03801:00
|
|
#03801:00
|
|
#03801:7B7C7B7V7C7B7V7C7B7C7B7V7C7B7V7C
|
|
#03801:00
|
|
#03801:00
|
|
#03801:00
|
|
#03801:00
|
|
#03801:00
|
|
#03801:00
|
|
#03801:61
|
|
#03801:00
|
|
#03801:5J5K000000000000
|
|
#03801:00
|
|
#03801:00
|
|
#03801:00
|
|
#03801:00
|
|
#03801:00
|
|
#03801:00
|
|
#03801:00
|
|
#03801:00
|
|
#03801:0P
|
|
#03806:030405060708090A0B0C0D0E0F0G0H0I030405060708090A0B0C0D0E0F0G0H0I
|
|
#03811:04040404
|
|
#03812:00030000000000030000000000030000
|
|
#03813:000002000K000100000300000K005M00
|
|
#03814:2T000003000000000000000300000003
|
|
#03815:00002U2V005L0000
|
|
#03816:0C
|
|
#03818:0001000002000200
|
|
#03819:02005J5K00020002
|
|
|
|
#03901:02020K0200000000
|
|
#03901:00
|
|
#03901:00
|
|
#03901:00
|
|
#03901:00
|
|
#03901:00
|
|
#03901:0000000K
|
|
#03901:00
|
|
#03901:00
|
|
#03901:0000000000000001
|
|
#03901:00030003020300030003000300000000
|
|
#03901:00
|
|
#03901:00
|
|
#03901:7B7C7B7V7C7B7V7C007C7B7V7C007V7C
|
|
#03901:00
|
|
#03901:00
|
|
#03901:00
|
|
#03901:00
|
|
#03901:00
|
|
#03901:00
|
|
#03901:62
|
|
#03901:00
|
|
#03901:00000000005L005M
|
|
#03906:030405060708090A0B0C0D0E0F0G0H0I030405060708090A0B0C0D0E0F0G0H0I
|
|
#03911:04040404
|
|
#03912:0001000100010000
|
|
#03913:2L0000005J0000007B00000002000064
|
|
#03914:002O002O002O0063
|
|
#03915:5J0000002P0000002L00000000030003
|
|
#03918:005K005K00020002
|
|
#03919:000000000000000002000000007B0000
|
|
|
|
#04001:02
|
|
#04001:00
|
|
#04001:00
|
|
#04001:00
|
|
#04001:00
|
|
#04001:00
|
|
#04001:0000000K
|
|
#04001:00
|
|
#04001:00
|
|
#04001:0001000000010001
|
|
#04001:00000000020302000000000000000000
|
|
#04001:00
|
|
#04001:00
|
|
#04001:7F7G7F7X7G7F7X7G7F7G7F7X7G7F7X7G
|
|
#04001:00
|
|
#04001:00
|
|
#04001:00
|
|
#04001:00
|
|
#04001:00
|
|
#04001:00
|
|
#04001:00
|
|
#04001:00
|
|
#04001:5N5O0000005P005Q
|
|
#04006:030405060708090A0B0C0D0E0F0G0H0I030405060708090A0B0C0D0E0F0G0H0I
|
|
#04011:04040404
|
|
#04012:650000000K0001000003000002006A00
|
|
#04013:00030000000000006600000300000000
|
|
#04014:2W0002005N005O00000067000000006B
|
|
#04015:00000003000000030000000068000200
|
|
#04018:000000002X002Y000000020000690000
|
|
#04019:00000000000000000200000000030003
|
|
|
|
#04101:02
|
|
#04101:00
|
|
#04101:6C
|
|
#04101:00
|
|
#04101:00
|
|
#04101:00
|
|
#04101:000K000K
|
|
#04101:00
|
|
#04101:00
|
|
#04101:0001000100010001
|
|
#04101:00
|
|
#04101:00
|
|
#04101:00
|
|
#04101:7F7G7F7X7G7F7X7G7F7G7F7X7G7F7X7G
|
|
#04101:00
|
|
#04101:00
|
|
#04101:00
|
|
#04101:00
|
|
#04101:00
|
|
#04101:00
|
|
#04101:006D
|
|
#04106:030405060708090A0B0C0D0E0F0G0H0I030405060708090A0B0C0D0E0F0G0H0I
|
|
#04111:04040404
|
|
#04112:00025N5O022K0002
|
|
#04113:5N2Q0002005P025Q
|
|
#04114:00005O00000300002Q00000300000003
|
|
#04115:00030003000000000003000000000000
|
|
#04118:2O000000020000030000000000030000
|
|
#04119:00002P2O00020000
|
|
|
|
#04201:00
|
|
#04201:00
|
|
#04201:00
|
|
#04201:00
|
|
#04201:00
|
|
#04201:00
|
|
#04201:00
|
|
#04201:00
|
|
#04201:00
|
|
#04201:00
|
|
#04201:00
|
|
#04201:00
|
|
#04201:00
|
|
#04201:7H7I7H7Y7I7H7Y7I7H7I7H7Y7I7H7Y7I
|
|
#04201:00
|
|
#04201:00
|
|
#04201:00
|
|
#04201:00
|
|
#04201:00
|
|
#04201:00
|
|
#04201:6E
|
|
#04201:00
|
|
#04201:005S5R00005U005V
|
|
#04206:030405060708090A0B0C0D0E0F0G0H0I030405060708090A0B0C0D0E0F0G0H0I
|
|
#04211:04040400
|
|
#04212:0001005T00010401
|
|
#04213:2Z00020000000200020000000K000003
|
|
#04214:00030000020030000000000300000200
|
|
#04215:020000000K0000030000020002000000
|
|
#04218:00000003000001000003000000030000
|
|
#04219:5R000000000300000000000031000000
|
|
|
|
#04301:00
|
|
#04301:00
|
|
#04301:00
|
|
#04301:00
|
|
#04301:00
|
|
#04301:00
|
|
#04301:00
|
|
#04301:00
|
|
#04301:00
|
|
#04301:0000000000010000
|
|
#04301:00030203020302030203020300000000
|
|
#04301:00
|
|
#04301:00
|
|
#04301:7H7I7H7Y7I7H7Y7I7H7I7H7Y7I7H7Y7I
|
|
#04301:00
|
|
#04301:00
|
|
#04301:00
|
|
#04301:00
|
|
#04301:00
|
|
#04301:00
|
|
#04301:6F
|
|
#04306:030405060708090A0B0C0D0E0F0G0H0I030405060708090A0B0C0D0E0F0G0H0I
|
|
#04311:04000400045U0400
|
|
#04312:000000016G2L0002
|
|
#04313:00000K5T2Q00005V
|
|
#04314:000001005R002O000000000000030000
|
|
#04315:02005S002P0000000000000000000003
|
|
#04318:5R2S000000000201
|
|
#04319:2R00000K
|
|
|
|
#04401:00
|
|
#04401:00000000000000000000000000000003
|
|
#04401:00
|
|
#04401:00
|
|
#04401:00
|
|
#04401:00
|
|
#04401:0000000K
|
|
#04401:00
|
|
#04401:00
|
|
#04401:0000000000010001
|
|
#04401:00000000020302030003020300000000
|
|
#04401:00
|
|
#04401:00
|
|
#04401:7F7G7F7X7G7F7X7G7F7G7F7X7G7F7X7G
|
|
#04401:00
|
|
#04401:00
|
|
#04401:00
|
|
#04401:00
|
|
#04401:00
|
|
#04401:00
|
|
#04401:6H
|
|
#04401:00
|
|
#04401:5O5U5S00005U005V
|
|
#04406:030405060708090A0B0C0D0E0F0G0H0I030405060708090A0B0C0D0E0F0G0H0I
|
|
#04411:04040404
|
|
#04412:0001002P00000000
|
|
#04413:002S2S02
|
|
#04414:320002000000010000002R0000030000
|
|
#04415:00000K0002003F02
|
|
#04418:0003000000005T0000000000003G0000
|
|
#04419:02000003000000000000000000003H00
|
|
|
|
#04501:00
|
|
#04501:00
|
|
#04501:00
|
|
#04501:00
|
|
#04501:00
|
|
#04501:00
|
|
#04501:0000000K
|
|
#04501:00
|
|
#04501:00
|
|
#04501:00
|
|
#04501:00
|
|
#04501:00
|
|
#04501:00
|
|
#04501:7J7K7J7Z7K7J7Z7K7L7M7L807M7L807M
|
|
#04501:00
|
|
#04501:00
|
|
#04501:00
|
|
#04501:00
|
|
#04501:00
|
|
#04501:00
|
|
#04501:6I6J
|
|
#04501:00
|
|
#04501:5W5X5Y5Z0060005Y
|
|
#04506:030405060708090A0B0C0D0E0F0G0H0I030405060708090A0B0C0D0E0F0G0H0I
|
|
#04511:04040404
|
|
#04512:00000003000300000000010000000003
|
|
#04513:020000000K0000030000020002000000
|
|
#04514:0002000202000001
|
|
#04515:33000000020000000003000000000200
|
|
#04516:000000000000000000000000008M0000
|
|
#04518:00000100000000003400000300000000
|
|
#04519:00030000000001000000000000030000
|
|
|
|
#04601:00
|
|
#04601:00
|
|
#04601:00
|
|
#04601:00
|
|
#04601:0004
|
|
#04601:00
|
|
#04601:000K000K
|
|
#04601:00
|
|
#04601:00
|
|
#04601:0000000100010000
|
|
#04601:00000000020000000003020302000200
|
|
#04601:00
|
|
#04601:00
|
|
#04601:7B7C7B7V7C7B7V7C7B7C7B7V7C7B7V7C
|
|
#04601:00
|
|
#04601:00
|
|
#04601:00
|
|
#04601:00
|
|
#04601:00
|
|
#04601:00
|
|
#04601:6K6L6K6M6N6O0000
|
|
#04601:00
|
|
#04601:5J5K5J5K005L005M
|
|
#04606:030405060708090A0B0C0D0E0F0G0H0I030405060708090A0C000D0E0F0G0H0I
|
|
#04611:04000000040000000000003P00000000
|
|
#04612:00000200003J0000000000003Q000000
|
|
#04613:000001003I003K0000000000003R0000
|
|
#04614:020000000003003L0000000004003S00
|
|
#04615:00030000000002003M0000000003003T
|
|
#04618:3500000000000003003N000000000100
|
|
#04619:000000030000000002003O0000000003
|
|
|
|
#04701:00
|
|
#04701:00
|
|
#04701:00
|
|
#04701:00
|
|
#04701:00
|
|
#04701:00
|
|
#04701:000K000K
|
|
#04701:00
|
|
#04701:00
|
|
#04701:00
|
|
#04701:00
|
|
#04701:00
|
|
#04701:00
|
|
#04701:7B7C7B7V7C7B7V7C7B7C7B7V7C7B7V7C
|
|
#04701:00
|
|
#04701:00
|
|
#04701:00
|
|
#04701:00
|
|
#04701:00
|
|
#04701:00
|
|
#04701:6K6L6K6M6N6O0000
|
|
#04701:00
|
|
#04701:5J5K5J5K005L005M
|
|
#04706:030405060708090A0B0C0D0E0F0G0H0I030405060708090A0B0C0D0E0F0G0H0I
|
|
#04711:04040404
|
|
#04712:00000003000002000200020000000200
|
|
#04713:000200010000022L
|
|
#04714:02030000000300002O002P0000030000
|
|
#04715:00000100000000030000010000000003
|
|
#04718:36380000020000000000000300000100
|
|
#04719:0000000000000000000300002Q000000
|
|
|
|
#04801:00
|
|
#04801:00
|
|
#04801:00
|
|
#04801:00
|
|
#04801:00
|
|
#04801:00
|
|
#04801:000K000K
|
|
#04801:00
|
|
#04801:00
|
|
#04801:0000000100000000
|
|
#04801:00000000000000000203020300030003
|
|
#04801:00
|
|
#04801:00
|
|
#04801:7F7G7F7X7G7F7X7G7F7G7F7X7G7F7X7G
|
|
#04801:00
|
|
#04801:00
|
|
#04801:00
|
|
#04801:00
|
|
#04801:00
|
|
#04801:00
|
|
#04801:6P6Q6R6S6T6U6V6W
|
|
#04801:00
|
|
#04801:5N5O5N5O005P005Q
|
|
#04806:030405060708090A0B0C0D0E0F0G0H0I030405060708090A0B0C0D0E0F0G0H0I
|
|
#04811:04040400
|
|
#04812:3900000300003J000000010004000100
|
|
#04813:000300000200020000003N0000000000
|
|
#04814:00000000003I00003L00000002000200
|
|
#04815:000001000000003K0000003O00000000
|
|
#04818:0000020000030000003M00003A003A00
|
|
#04819:020000003U0000030000000000000000
|
|
|
|
#04901:0002
|
|
#04901:00
|
|
#04901:00
|
|
#04901:00
|
|
#04901:00
|
|
#04901:00
|
|
#04901:000K000K
|
|
#04901:00
|
|
#04901:00
|
|
#04901:0001000100010001
|
|
#04901:00000000000000000000000000000003
|
|
#04901:00
|
|
#04901:00
|
|
#04901:7F7G7F7X7G7F7X7G7F7G7F7X7G7F7X7G
|
|
#04901:00
|
|
#04901:00
|
|
#04901:00
|
|
#04901:00
|
|
#04901:00
|
|
#04901:00
|
|
#04901:6X6Y6Z70
|
|
#04901:00
|
|
#04901:5N5O5N5O005P005Q
|
|
#04901:00
|
|
#04901:00
|
|
#04901:00
|
|
#04901:00
|
|
#04901:00
|
|
#04901:00
|
|
#04901:00
|
|
#04901:008O
|
|
#04906:030405060708090A0B0C0D0E0F0G0H0I030405060708090A0B0C0D0E0F0G0H0I
|
|
#04911:0400040004000402
|
|
#04912:0000000000030003000000030003003J
|
|
#04913:000202023R02023L
|
|
#04914:00030003003R003N0003003L003N0000
|
|
#04915:023R3T3P003N3P00
|
|
#04918:003T003P00000000003P000000000000
|
|
#04919:3V
|
|
|
|
#05001:00
|
|
#05001:00
|
|
#05001:00
|
|
#05001:00
|
|
#05001:00
|
|
#05001:00
|
|
#05001:000K0000
|
|
#05001:00
|
|
#05001:00
|
|
#05001:00
|
|
#05001:00
|
|
#05001:00
|
|
#05001:00
|
|
#05001:7H7I7H7Y7I7H7Y7I7H7I7H7Y7I7H7Y7I
|
|
#05001:00
|
|
#05001:00
|
|
#05001:00
|
|
#05001:00
|
|
#05001:00
|
|
#05001:00
|
|
#05001:7172717200730074
|
|
#05001:00
|
|
#05001:5R5S5R5T005U005V
|
|
#05006:030405060708090A0B0C0D0E0F0G0H0I030405060708090A0B0C0D0E0F0G0H0I
|
|
#05011:0400040004000402
|
|
#05012:00030000000000000000000300030003
|
|
#05013:0002003000020000
|
|
#05014:2Z00000300000000000300000K000000
|
|
#05015:0000020102010001
|
|
#05018:02000000000300030000000031000000
|
|
#05019:0001000200000200
|
|
|
|
#05101:00000204
|
|
#05101:0202020000000000
|
|
#05101:00
|
|
#05101:00
|
|
#05101:00
|
|
#05101:00
|
|
#05101:000K000K
|
|
#05101:00
|
|
#05101:00
|
|
#05101:0000000100010001
|
|
#05101:00
|
|
#05101:00
|
|
#05101:00
|
|
#05101:7H7I7H7Y7I7H7Y7I7H7I7H7Y7I7H7Y7I
|
|
#05101:00
|
|
#05101:00
|
|
#05101:00
|
|
#05101:00
|
|
#05101:00
|
|
#05101:00
|
|
#05101:7172717200730000
|
|
#05101:00
|
|
#05101:5R5S5R5T005U005V
|
|
#05106:030405060708090A0B0C0D0E0F0G0H0I030405060708090A0B0C0D0E0F0G0H0I
|
|
#05111:00030003000300030003000300000000
|
|
#05112:0000000000020075
|
|
#05113:0400000004007402
|
|
#05114:000001000000020000002L0000030000
|
|
#05115:2R042Q00
|
|
#05118:00002S0000002O000000000002000003
|
|
#05119:002P0000
|
|
|
|
#05201:00
|
|
#05201:00
|
|
#05201:00
|
|
#05201:00
|
|
#05201:00040404
|
|
#05201:00
|
|
#05201:00
|
|
#05201:0F0F0F0F0F0F0F0F
|
|
#05201:000G000G000G000G000G000G000G000G
|
|
#05201:0000000000010001
|
|
#05201:00
|
|
#05201:00
|
|
#05201:00
|
|
#05201:7F7G7F7X7G7F7X7G7F7G7F7X7G7F7X7G
|
|
#05201:00
|
|
#05201:00
|
|
#05201:00
|
|
#05201:00
|
|
#05201:00
|
|
#05201:00
|
|
#05201:0077
|
|
#05201:00
|
|
#05201:5O5U5S5T005U005V
|
|
#05206:030405060708090A0B0C0D0E0F0G0H0I030405060708090A0B0C0D0E0F0G0H0I
|
|
#05211:040000000200000002002R0000030000
|
|
#05212:0003000000002P000000000002000000
|
|
#05213:00000003000002000003000300000000
|
|
#05214:32000100000300030000000000000200
|
|
#05215:7600000000000100000002003F000003
|
|
#05218:000002000000000000000000003G0000
|
|
#05219:02002S002S00003H
|
|
|
|
#05301:00
|
|
#05301:00
|
|
#05301:00
|
|
#05301:0I000M0J00000H00
|
|
#05301:0400040004000407
|
|
#05301:00
|
|
#05301:00
|
|
#05301:00
|
|
#05301:00
|
|
#05301:0001000100010001
|
|
#05301:0202020202020202
|
|
#05301:00
|
|
#05301:00
|
|
#05301:7J7K7J7Z7K7J7Z7K7L7M7L807M7L807M
|
|
#05301:00
|
|
#05301:00
|
|
#05301:00
|
|
#05301:00
|
|
#05301:00
|
|
#05301:00
|
|
#05301:7879
|
|
#05301:00
|
|
#05301:5W5X5Y5Z0060005Y
|
|
#05301:00
|
|
#05301:00
|
|
#05301:008J
|
|
#05301:00
|
|
#05301:00
|
|
#05301:00
|
|
#05301:0000000000000000005I000000000000
|
|
#05301:0000008I
|
|
#05306:030405060708090A0B0C0D0E0F0G0H0I030405060708090A0B0C0D0E0F0G0H0I
|
|
#05311:0F0F0F0F0F0F0F0F
|
|
#05312:3B
|
|
#05313:003C003B000000003D00000000000000
|
|
#05314:00030003000300030003000300030003
|
|
#05318:000G000G000G000G000G000G000G000G
|
|
#05319:0000000000000000003E003D00000000
|
|
|
|
#05401:00
|
|
#05401:00
|
|
#05401:00
|
|
#05401:00
|
|
#05401:00
|
|
#05401:00
|
|
#05401:00
|
|
#05401:00
|
|
#05401:00
|
|
#05401:00
|
|
#05401:00
|
|
#05401:00
|
|
#05401:00
|
|
#05401:00
|
|
#05401:00
|
|
#05401:00
|
|
#05401:00
|
|
#05401:00
|
|
#05401:00
|
|
#05401:00
|
|
#05401:7A
|
|
#05401:00
|
|
#05401:00
|
|
#05401:00
|
|
#05401:00
|
|
#05401:89898989
|
|
#05401:00
|
|
#05401:00
|
|
#05401:00
|
|
#05401:00
|
|
#05401:00
|
|
#05401:0Q
|
|
#05403:5C
|
|
#05406:030405060708090A0B0C0D0E0F0G0H0I030405060708090A0B0C0D0E0F0G0H0I
|
|
#05411:08
|
|
#05416:0C
|
|
#05418:000D
|
|
|
|
#05501:00
|
|
#05501:00
|
|
#05501:00
|
|
#05501:00
|
|
#05501:00
|
|
#05501:00
|
|
#05501:00
|
|
#05501:00
|
|
#05501:00
|
|
#05501:00
|
|
#05501:00
|
|
#05501:00
|
|
#05501:00
|
|
#05501:00
|
|
#05501:00
|
|
#05501:00
|
|
#05501:00
|
|
#05501:00
|
|
#05501:00
|
|
#05501:00
|
|
#05501:00
|
|
#05501:00
|
|
#05501:00
|
|
#05501:00
|
|
#05501:00
|
|
#05501:8A8A8A8A
|
|
#05506:030405060708090A0B0C0D0E0F0G0H0I030405060708090A0B0C0D0E0F0G0H0I
|
|
|
|
#05601:00
|
|
#05601:00
|
|
#05601:00
|
|
#05601:00
|
|
#05601:00
|
|
#05601:00
|
|
#05601:00
|
|
#05601:00
|
|
#05601:00
|
|
#05601:00
|
|
#05601:00
|
|
#05601:00
|
|
#05601:00
|
|
#05601:00
|
|
#05601:00
|
|
#05601:00
|
|
#05601:00
|
|
#05601:00
|
|
#05601:00
|
|
#05601:00
|
|
#05601:00
|
|
#05601:00
|
|
#05601:00
|
|
#05601:00
|
|
#05601:00
|
|
#05601:8B8B8B8B
|
|
#05606:030405060708090A0B0C0D0E0F0G0H0I030405060708090A0B0C0D0E0F0G0H0I
|
|
#05611:000D
|
|
|
|
#05701:00
|
|
#05701:00
|
|
#05701:00
|
|
#05701:00
|
|
#05701:00
|
|
#05701:00
|
|
#05701:00
|
|
#05701:00
|
|
#05701:00
|
|
#05701:00
|
|
#05701:00
|
|
#05701:00
|
|
#05701:00
|
|
#05701:00
|
|
#05701:00
|
|
#05701:00
|
|
#05701:00
|
|
#05701:00
|
|
#05701:00
|
|
#05701:00
|
|
#05701:00
|
|
#05701:00
|
|
#05701:00
|
|
#05701:00
|
|
#05701:008D
|
|
#05701:8C8C8C8C
|
|
#05701:00
|
|
#05701:00
|
|
#05701:00
|
|
#05701:00
|
|
#05701:00
|
|
#05701:8H
|
|
#05706:030405060708090A0B0C0D0E0F0G0H0I030405060708090A0B0C0D0E0F0G0H0I
|
|
#05716:0000000000000000000B000000000000
|
|
|
|
#05801:04000004040000040004000404000000
|
|
#05801:00
|
|
#05801:000L000L
|
|
#05801:00
|
|
#05801:00
|
|
#05801:00
|
|
#05801:00
|
|
#05801:00
|
|
#05801:0009000900090009
|
|
#05801:00
|
|
#05801:00
|
|
#05801:0E0E0E0E0E0E0E0E
|
|
#05806:030405060708090A0B0C0D0E0F0G0H0I030405060708090A0B0C0D0E0F0G0H0I
|
|
#05815:89898989
|
|
#05816:0C
|
|
#05819:85858585
|
|
|
|
#05901:04000004040000040004000404000000
|
|
#05901:00
|
|
#05901:000L000L
|
|
#05901:00
|
|
#05901:00
|
|
#05901:00
|
|
#05901:00
|
|
#05901:00
|
|
#05901:000000000900000000000000090000000000000009000000000000000F0G0F00
|
|
#05901:00
|
|
#05901:00
|
|
#05901:0E0E0E0E0E0E0E0E
|
|
#05906:030405060708090A0B0C0D0E0F0G0H0I030405060708090A0B0C0D0E0F0G0H0I
|
|
#05912:8A8A8A8A
|
|
#05914:86868686
|
|
|
|
#06001:04000004040000040004000400000000
|
|
#06001:0000000L
|
|
#06001:000L0000
|
|
#06001:00
|
|
#06001:00
|
|
#06001:00
|
|
#06001:00
|
|
#06001:000A000A000A000A000A000A000A000A
|
|
#06001:0909090909090909
|
|
#06001:00
|
|
#06001:00
|
|
#06001:000E0E0E0E0E0E0E
|
|
#06001:00
|
|
#06001:00000004
|
|
#06001:00000000000000000000000000060000
|
|
#06001:0000000000000000000000000000000000000000000000000000000500000000
|
|
#06001:0000000000000004
|
|
#06006:030405060708090A0B0C0D0E0F0G0H0I030405060708090A0B0C0D0E0F0G0H0I
|
|
#06015:8B8B8B87
|
|
#06016:0H
|
|
#06018:8787878B
|
|
|
|
#06101:04000004040000040004000404000000
|
|
#06101:00
|
|
#06101:000L000L
|
|
#06101:00
|
|
#06101:00
|
|
#06101:00
|
|
#06101:00
|
|
#06101:00
|
|
#06101:00
|
|
#06101:00
|
|
#06101:00
|
|
#06101:0E0E0E0E0E0E0E0E
|
|
#06106:030405060708090A0B0C0D0E0F0G0H0I030405060708090A0B0C0D0E0F0G0H0I
|
|
#06111:000G000G000G000G000G000G000G000G000G000G000G000G000G000G000G000G
|
|
#06115:8C8C8C8C
|
|
#06118:0F0F0F0F0F0F0F0F0F0F0F0F0F0F0F0F
|
|
#06119:88888888
|
|
|
|
#06201:00
|
|
#06201:00
|
|
#06201:00
|
|
#06201:08
|
|
#06201:00
|
|
#06201:00
|
|
#06201:00
|
|
#06201:00
|
|
#06201:00
|
|
#06201:00
|
|
#06201:00
|
|
#06201:00
|
|
#06201:00
|
|
#06201:000000007C7B00000000000000000000
|
|
#06201:00
|
|
#06201:00
|
|
#06201:00
|
|
#06201:00
|
|
#06201:00
|
|
#06201:00
|
|
#06201:00
|
|
#06201:00
|
|
#06201:00
|
|
#06201:00
|
|
#06201:00
|
|
#06201:00
|
|
#06201:00
|
|
#06201:00
|
|
#06201:00
|
|
#06201:00
|
|
#06201:00
|
|
#06201:29
|
|
#06203:B8
|
|
#06206:030405060708090A0B0C0D0E0F0G0H0I030405060708090A0B0C0D0E0F0G0H0I
|
|
#06211:00000000000000000000007V00000042
|
|
#06212:007B0000007B4040
|
|
#06213:007C007V00005152007C003Z003Z007C
|
|
#06214:7B4000007B417C7V
|
|
#06215:003Z003Z00007V7C003Y0000007B0000
|
|
#06216:0C
|
|
#06218:0041
|
|
#06219:3Y00000000004Z500000000000000000
|
|
|
|
#06301:00
|
|
#06301:00
|
|
#06301:00
|
|
#06301:00
|
|
#06301:00
|
|
#06301:00
|
|
#06301:00
|
|
#06301:00
|
|
#06301:00
|
|
#06301:00
|
|
#06301:00
|
|
#06301:00
|
|
#06301:00
|
|
#06301:0000000000007X000000007X7G7F7X7G
|
|
#06306:030405060708090A0B0C0D0E0F0G0H0I030405060708090A0B0C0D0E0F0G0H0I
|
|
#06311:00000000000000007F007F0000480000
|
|
#06312:4300000000000000550056000055000000000000000000000000000000000000
|
|
#06313:00400000000000000040000000470000
|
|
#06314:7F003Z007G7F007G0000000046004600
|
|
#06315:007G007X00000000007G000000000000
|
|
#06318:000000007F000000530054000053000000000000000000004500000000000000
|
|
#06319:0000003Y000000003Z003Z0000004500
|
|
|
|
#06401:00
|
|
#06401:00
|
|
#06401:00
|
|
#06401:00
|
|
#06401:00
|
|
#06401:00
|
|
#06401:00
|
|
#06401:00
|
|
#06401:00
|
|
#06401:00
|
|
#06401:00
|
|
#06401:00
|
|
#06401:00
|
|
#06401:0000000000000000000000007I7H7Y7I
|
|
#06406:030405060708090A0B0C0D0E0F0G0H0I030405060708090A0B0C0D0E0F0G0H0I
|
|
#06411:4C0000007I004F00007I000000005700
|
|
#06412:007I0000000000004G007H0000480000
|
|
#06413:000000004E00000000004E0000007I000000000000007Y000000000000580000
|
|
#06414:7H000048000000007H00480000000059
|
|
#06415:00004D00000000004D0000007Y0000000000460000000000460000000000005A
|
|
#06418:00007H000000004G0000000000000000
|
|
#06419:0000007Y007H00000000004700000000
|
|
|
|
#06501:00
|
|
#06501:00
|
|
#06501:00
|
|
#06501:00
|
|
#06501:00
|
|
#06501:00
|
|
#06501:00
|
|
#06501:00
|
|
#06501:00
|
|
#06501:00
|
|
#06501:00
|
|
#06501:00
|
|
#06501:00
|
|
#06501:7N7O7N817O7N817O7P7Q7P827Q00827Q
|
|
#06501:00
|
|
#06501:00
|
|
#06501:00
|
|
#06501:00
|
|
#06501:00
|
|
#06501:00
|
|
#06501:00
|
|
#06501:00
|
|
#06501:00
|
|
#06501:00
|
|
#06501:00
|
|
#06501:00
|
|
#06501:0000000000000049
|
|
#06501:00000000000000000000000000460000
|
|
#06501:00
|
|
#06501:00
|
|
#06501:37
|
|
#06506:030405060708090A0B0C0D0E0F0G0H0I030405060708090A0B0C0D0E0F0G0H0I
|
|
#06511:4H0000000000000000000000007P0000
|
|
#06512:00460000450000000000000043000000
|
|
#06513:3Z004600004D00004200000000000042
|
|
#06514:004E000043004D00004800003Z004A00
|
|
#06515:00004E00004I000040004H0000000046
|
|
#06518:420000004J004I00004H00004L000000
|
|
#06519:00000000000000004K00480000420000
|
|
|
|
#06601:00
|
|
#06601:007C0000
|
|
#06601:00
|
|
#06601:00
|
|
#06601:00
|
|
#06601:00
|
|
#06601:00
|
|
#06601:00
|
|
#06601:00
|
|
#06601:00
|
|
#06601:00
|
|
#06601:00
|
|
#06601:00
|
|
#06601:00000000000000007B7C7B7V7C007V7C
|
|
#06606:030405060708090A0B0C0D0E0F0G0H0I030405060708090A0B0C0D0E0F0G0H0I
|
|
#06611:007C00000000007C0000000000470000
|
|
#06612:7B46007V00000045
|
|
#06613:0000007V007B00000040000000000042
|
|
#06614:000000004500000000000000007B0000
|
|
#06615:00000047004200003Z00000040000000
|
|
#06618:45007B00000043000000003Z00000000
|
|
#06619:00470000000000400000410000000000
|
|
|
|
#06701:00
|
|
#06701:00
|
|
#06701:00
|
|
#06701:00
|
|
#06701:00
|
|
#06701:00
|
|
#06701:00
|
|
#06701:00
|
|
#06701:00
|
|
#06701:00
|
|
#06701:00
|
|
#06701:00
|
|
#06701:00
|
|
#06701:007M7L807M7L807M0000000000000000
|
|
#06706:030405060708090A0B0C0D0E0F0G0H0I030405060708090A0B0C0D0E0F0G0H0I
|
|
#06711:00420000000000004N00000000000000
|
|
#06712:7L003Z007L4P0000
|
|
#06713:000043000041000000007L004R00007M
|
|
#06714:4300000000000000004O00007M004T00
|
|
#06715:0000004000003Y00007M004Q00008000
|
|
#06718:000000000000000000000080004S0000
|
|
#06719:000000000000004L00000000007L004U
|
|
|
|
#06801:00
|
|
#06801:00
|
|
#06801:00
|
|
#06801:00
|
|
#06801:00
|
|
#06801:00
|
|
#06801:00
|
|
#06801:00
|
|
#06801:00
|
|
#06801:00
|
|
#06801:00
|
|
#06801:00
|
|
#06801:00
|
|
#06801:00007D007E00007E0000000000000000
|
|
#06806:030405060708090A0B0C0D0E0F0G0H0I030405060708090A0B0C0D0E0F0G0H0I
|
|
#06811:430000007D00007W
|
|
#06812:003Z004B003Z4B0000410000004L0041
|
|
#06813:000000003Y3Y4N3Y
|
|
#06814:007E007W007D7W00007E004L007D007E
|
|
#06815:7D000000007D7E00
|
|
#06818:003X003Y003X3Y000000007W00000000
|
|
|
|
#06906:030405060708090A0B0C0D0E0F0G0H0I030405060708090A0B0C0D0E0F0G0H0I
|
|
#06911:000000007S0000003Y000000007T0000
|
|
#06912:00000000007R000000004N0000000000
|
|
#06913:3Y0000003Y0000007T0000004P00007U
|
|
#06914:004L0083004L007S004L004O00008400
|
|
#06915:7R007R000000830000007T007U00004S
|
|
#06916:00000000000B0000
|
|
#06918:007S004L0000004L007U0000004Q0000
|
|
#06919:00004N0000004N000000008400004T00
|
|
|
|
#07001:00
|
|
#07001:00
|
|
#07001:00
|
|
#07001:00
|
|
#07001:00
|
|
#07001:00
|
|
#07001:00
|
|
#07001:00
|
|
#07001:00
|
|
#07001:0001000100010001
|
|
#07001:02030203020302030203020302000200
|
|
#07001:00
|
|
#07001:00
|
|
#07001:7B7C7B7V7C7B7V7C7B7C7B7V7C7B7V7C
|
|
#07001:00
|
|
#07001:00
|
|
#07001:00
|
|
#07001:00
|
|
#07001:2A2B2C2D2E2B2F2B
|
|
#07001:8F8K8F008F8K8F008F8K8F008F8K0000
|
|
#07001:000000000000008E
|
|
#07001:00
|
|
#07001:00
|
|
#07001:00
|
|
#07001:00
|
|
#07001:00
|
|
#07001:00
|
|
#07001:00
|
|
#07001:00
|
|
#07001:00
|
|
#07001:00
|
|
#07001:0R
|
|
#07006:030405060708090A0B0C0D0E0F0G0H0I030405060708090A0B0C0D0E0F0G0H0I
|
|
#07011:04040404
|
|
#07012:4540004045431R3Y
|
|
#07013:0000411R00003Z1T
|
|
#07014:0000003Z0000003Z00001S0000410000
|
|
#07015:003Z0000003Z001S0000004000000003
|
|
#07016:0C
|
|
#07018:1R0000001R000000001R000000030000
|
|
#07019:00001T000K000000004200000K00004L
|
|
|
|
#07101:00
|
|
#07101:00
|
|
#07101:00
|
|
#07101:00
|
|
#07101:00
|
|
#07101:00
|
|
#07101:00
|
|
#07101:00
|
|
#07101:00
|
|
#07101:0001000100010001
|
|
#07101:02000203020302030203020302030200
|
|
#07101:00
|
|
#07101:00
|
|
#07101:7F7G7F7X7G7F7X7G7F7G7F7X7G7F7X7G
|
|
#07101:00
|
|
#07101:00
|
|
#07101:00
|
|
#07101:00
|
|
#07101:2A2B2C2D2E2B2F2B
|
|
#07101:8F008K008F0000008F008K008G8L8G8L8F0000008K0000008F008K0000000000
|
|
#07101:000000000000008E
|
|
#07106:030405060708090A0B0C0D0E0F0G0H0I030405060708090A0B0C0D0E0F0G0H0I
|
|
#07111:04040404
|
|
#07112:004100001O0000004V004E0000450003
|
|
#07113:3Y000040000040000000000047000000
|
|
#07114:00001Q003Y00001P00001P001O004200
|
|
#07115:000300000K001O00004G000000001Q00
|
|
#07118:1O003Z00000000420000004800000000
|
|
#07119:0000000000410000001O00000K000040
|
|
|
|
#07201:00
|
|
#07201:00
|
|
#07201:00
|
|
#07201:00
|
|
#07201:00
|
|
#07201:00
|
|
#07201:000K000K
|
|
#07201:00
|
|
#07201:00
|
|
#07201:0001000000010001
|
|
#07201:02030203020302030203020002000003
|
|
#07201:00
|
|
#07201:00
|
|
#07201:7H7I7H7Y7I7H7Y7I7H7I7H7Y7I7H7Y7I
|
|
#07201:00
|
|
#07201:00
|
|
#07201:1L1N1L0000001L1N
|
|
#07201:00
|
|
#07201:2A2B2C2D00002F2B
|
|
#07201:8F8K8F008F8K8F008F8K8F008F8K0000
|
|
#07201:000000000000008E
|
|
#07206:030405060708090A0B0C0D0E0F0G0H0I030405060708090A0B0C0D0E0F0G0H0I
|
|
#07211:04040404
|
|
#07212:00005H00005G0000000000001L000000000000003Y0000000000000000000000
|
|
#07213:5G000000002K00420000004L005B0000
|
|
#07214:00000000000000003Z0000000100000000001L00000000004P00005C00000000
|
|
#07215:00005F00005E00000000000000003Z00000000002B000000000000005D000000
|
|
#07218:5E000000002Q00002E00000300030000
|
|
#07219:000000003Y00001M00001M0000000200
|
|
|
|
#07301:04040000
|
|
#07301:0004
|
|
#07301:00
|
|
#07301:00
|
|
#07301:00
|
|
#07301:00
|
|
#07301:000K000K
|
|
#07301:00
|
|
#07301:00
|
|
#07301:0000000000000001
|
|
#07301:02000003020000030200000300000000
|
|
#07301:00
|
|
#07301:00
|
|
#07301:7N7O7N817O00817O7P007P827Q7P827Q
|
|
#07301:00
|
|
#07301:00
|
|
#07301:1U001W001U001U1V001O1P001O001Q00
|
|
#07301:00
|
|
#07301:2A2B2C2D2E2B2F2B
|
|
#07301:8F0000008F0000008F008K008G8L8G8L8F0000008K0000008F008K0000000000
|
|
#07301:000000000000008E
|
|
#07301:00
|
|
#07301:00
|
|
#07301:00
|
|
#07301:00
|
|
#07301:00
|
|
#07301:0046004I004H0000
|
|
#07301:004E0000004D00000048000000000000
|
|
#07306:030405060708090A0B0C0D0E0F0G0H0I030405060708090A0B0C0D0E0F0G0H0I
|
|
#07311:0046000045004D000000000004000200
|
|
#07312:42000100000300004200480000000049
|
|
#07313:008K0000430001000003000000003W00
|
|
#07314:4H004E00007N00004000010000030000
|
|
#07315:000300004J000200007Q000002000003
|
|
#07318:3Z000200004I00004K000200004K0000
|
|
#07319:0000000000000000004H00004L000000
|
|
|
|
#07401:00
|
|
#07401:00
|
|
#07401:00
|
|
#07401:00
|
|
#07401:00040404
|
|
#07401:00
|
|
#07401:000K000K
|
|
#07401:00
|
|
#07401:00
|
|
#07401:0001000000010001
|
|
#07401:00
|
|
#07401:00
|
|
#07401:00
|
|
#07401:7B7C7B7V7C7B7V7C7B7C7B7V7C7B7V7C
|
|
#07401:00
|
|
#07401:00
|
|
#07401:1R001T001R001R1S001R1S001R001T00
|
|
#07401:00
|
|
#07401:2A2B2C2D2E2B2F2B
|
|
#07401:8F8K8F008F8K8F008F8K8F008F8K0000
|
|
#07401:000000000000008E
|
|
#07406:030405060708090A0B0C0D0E0F0G0H0I030405060708090A0B0C0D0E0F0G0H0I
|
|
#07411:04004600000000000200000300470000
|
|
#07412:00000047000001003Z00000002004500
|
|
#07413:00470000450000030000000040000000
|
|
#07414:45000003004200000040000000030042
|
|
#07415:00000000020043000003003Z00000000
|
|
#07418:02000200000300400000410000000200
|
|
#07419:00030000000002000000020000000003
|
|
|
|
#07501:00
|
|
#07501:00
|
|
#07501:00
|
|
#07501:00
|
|
#07501:04040404
|
|
#07501:00
|
|
#07501:000K000K
|
|
#07501:00
|
|
#07501:00
|
|
#07501:0001000100010001
|
|
#07501:00
|
|
#07501:00
|
|
#07501:00
|
|
#07501:7L7M7L807M7L807M7L7M7L807M7L807M
|
|
#07501:00
|
|
#07501:00
|
|
#07501:1X001Z001X001X1Y001X1Y001X001Z00
|
|
#07501:00
|
|
#07501:2A2B2C2D2E2B2F2B
|
|
#07501:8F008K008F0000008F008K008G8L8G8L8F0000008K0000008F008K0000000000
|
|
#07501:000000000000008E
|
|
#07506:030405060708090A0B0C0D0E0F0G0H0I030405060708090A0B0C0D0E0F0G0H0I
|
|
#07511:004200003Z0000000000000300030000
|
|
#07512:00030000004100004N00020002000000
|
|
#07513:0200430000003Y00004O000000000200
|
|
#07514:000000400000004L00004P00004S0003
|
|
#07515:00000200000300030000004Q00004T00
|
|
#07518:4300000002000000020000004R00004U
|
|
#07519:00000003000002000003000000000000
|
|
|
|
#07601:00
|
|
#07601:00
|
|
#07601:00
|
|
#07601:00
|
|
#07601:04040404
|
|
#07601:00
|
|
#07601:000K000K
|
|
#07601:00
|
|
#07601:00
|
|
#07601:0001000100010001
|
|
#07601:02030203020302030203020302030203
|
|
#07601:00
|
|
#07601:00
|
|
#07601:7D7E7D7W7E7D7W7E7D7E7D7W7E7D7W7E
|
|
#07601:00
|
|
#07601:00
|
|
#07601:20002200200020002120002120002200
|
|
#07601:00
|
|
#07601:2A2B2C2D2E2B2F2B
|
|
#07601:8F8K8F008F8K8F008F8K8F008F8K0000
|
|
#07601:000000000000008E
|
|
#07606:030405060708090A0B0C0D0E0F0G0H0I030405060708090A0B0C0D0E0F0G0H0I
|
|
#07611:0000433Y
|
|
#07612:450000000000000000400000004L0000
|
|
#07613:000000004B3Z4N4N
|
|
#07614:003Z004B003Z4B0000000041004O004O
|
|
#07615:43000000000000000041000000004P00
|
|
#07618:000000000000000000003Y000000004Q
|
|
#07619:003X003Y003X3Y000000004L00000000
|
|
|
|
#07701:00
|
|
#07701:00
|
|
#07701:00
|
|
#07701:00
|
|
#07701:0000040000000407
|
|
#07701:00
|
|
#07701:0000000K
|
|
#07701:00
|
|
#07701:00
|
|
#07701:0000000000000001
|
|
#07701:00
|
|
#07701:00
|
|
#07701:00
|
|
#07701:7R7S7R837S00837S7T007T847U7T847U
|
|
#07701:00
|
|
#07701:00
|
|
#07701:23002500230023240026270026002800
|
|
#07701:00
|
|
#07701:2A2B2C2D2E2B2F2B
|
|
#07701:8F008K008F0000008F008K008G8L8G8L8F0000008K0000008F008K0000000000
|
|
#07701:000000000000008E
|
|
#07706:030405060708090A0B0C0D0E0F0G0H0I030405060708090A0B0C0D0E0F0G0H0I
|
|
#07711:00004X0000000100007U004X00000200
|
|
#07712:0000000300030000040001000003004K
|
|
#07713:04014P02004P024X
|
|
#07714:004P004R007R004P0003000300000003
|
|
#07715:020002000K004R0002000200004Y0000
|
|
#07716:0I000M0J00000H00
|
|
#07718:00030000004X0003004R000000000000
|
|
#07719:4R024X4S
|
|
|
|
#07801:00
|
|
#07801:00
|
|
#07801:00
|
|
#07801:00
|
|
#07801:00
|
|
#07801:00
|
|
#07801:00
|
|
#07801:00
|
|
#07801:00
|
|
#07801:00
|
|
#07801:02030203020302030203020302030203
|
|
#07801:00
|
|
#07801:00
|
|
#07801:7B7C7B7V7C7B7V7C7B7C7B7V7C7B7V7C
|
|
#07801:00
|
|
#07801:00
|
|
#07801:1R001T001R001R1S001R1S001R001T00
|
|
#07801:00
|
|
#07801:00
|
|
#07801:8F8K8F008F8K8F008F8K8F008F8K0000
|
|
#07806:030405060708090A0B0C0D0E0F0G0H0I030405060708090A0B0C0D0E0F0G0H0I
|
|
#07811:04040404
|
|
#07812:000141012E012F01
|
|
#07813:2A00003Z00002D0045002B000041004L
|
|
#07814:00002B00003Z00000000004000002B00
|
|
#07815:003Z00000K00003Z000000000K000000
|
|
#07816:0C
|
|
#07818:4500400000004000004200003Z003Y00
|
|
#07819:00002C000043008E
|
|
|
|
#07901:00
|
|
#07901:00
|
|
#07901:00
|
|
#07901:00
|
|
#07901:00
|
|
#07901:00
|
|
#07901:00
|
|
#07901:00
|
|
#07901:00
|
|
#07901:00
|
|
#07901:02030203020302030203020302030203
|
|
#07901:00
|
|
#07901:00
|
|
#07901:7F7G7F7X7G7F7X7G7F7G7F7X7G7F7X7G
|
|
#07901:00
|
|
#07901:00
|
|
#07901:1O001Q001O001O1P001O1P001O001Q00
|
|
#07901:00
|
|
#07901:00
|
|
#07901:8F008K008F0000008F008K008G8L8G8L8F0000008K0000008F008K0000000000
|
|
#07906:030405060708090A0B0C0D0E0F0G0H0I030405060708090A0B0C0D0E0F0G0H0I
|
|
#07911:0400040004000001
|
|
#07912:000100014V010442
|
|
#07913:003Z3Y40002B478E
|
|
#07914:3Y0000400000004200004E000K000040
|
|
#07915:004100000K002D000000000000450000
|
|
#07918:00002B0000410000004G00002F000000
|
|
#07919:2A0000002C0000002E00004800002B00
|
|
|
|
#08001:000000000000008E
|
|
#08001:00
|
|
#08001:00
|
|
#08001:00
|
|
#08001:00
|
|
#08001:00
|
|
#08001:00
|
|
#08001:00
|
|
#08001:00
|
|
#08001:00
|
|
#08001:02030200020302030203020302030200
|
|
#08001:00
|
|
#08001:00
|
|
#08001:7H7I7H7Y7I7H7Y7I7H7I7H7Y7I7H7Y7I
|
|
#08001:00
|
|
#08001:00
|
|
#08001:1L001N001L001L1M001L1M001L001N00
|
|
#08001:00
|
|
#08001:00
|
|
#08001:8F8K8F008F8K8F008F8K8F008F8K0000
|
|
#08001:00
|
|
#08001:00
|
|
#08001:00
|
|
#08001:00
|
|
#08001:5G005H00005G00003Z002K000000420000000000000000000000000000000000
|
|
#08006:030405060708090A0B0C0D0E0F0G0H0I030405060708090A0B0C0D0E0F0G0H0I
|
|
#08011:00040404
|
|
#08012:00000100002Q010000000100005B0003
|
|
#08013:042B000000002F01
|
|
#08014:00005F00000000003Y00000000003Z00000000003Y0000004P00005C00000000
|
|
#08015:2A005E000K0000000000004L00005D00
|
|
#08018:0000000300002D0000002B000K000000
|
|
#08019:5E002C002E00002B
|
|
|
|
#08101:00
|
|
#08101:00
|
|
#08101:00
|
|
#08101:00
|
|
#08101:04040404
|
|
#08101:00
|
|
#08101:000K000K
|
|
#08101:00
|
|
#08101:00
|
|
#08101:0001000100010001
|
|
#08101:02030203020302030203020302030203
|
|
#08101:00
|
|
#08101:00
|
|
#08101:7N7O7N817O7N817O7P7Q7P827Q7P827Q
|
|
#08101:00
|
|
#08101:00
|
|
#08101:1U001W001U001U1V001O1P001O001Q00
|
|
#08101:00
|
|
#08101:2A2B2C2D2E2B2F2B
|
|
#08101:8F008K008F0000008F008K008G8L8G8L8F0000008K0000008F008K0000000000
|
|
#08101:000000000000008E
|
|
#08106:030405060708090A0B0C0D0E0F0G0H0I030405060708090A0B0C0D0E0F0G0H0I
|
|
#08111:4C000000000000000000003X00003Z00
|
|
#08112:004G00004600000000004L0000000040
|
|
#08113:4E004E0000450000004O0040003Y0045
|
|
#08114:00480000420042004P003Z0000004200
|
|
#08115:0000004800400040003X000000440000
|
|
#08118:0046003Z4L003W00
|
|
#08119:000000450000003X000000004L000000
|
|
|
|
#08201:0001000000010000
|
|
#08201:000K0000
|
|
#08201:0000000K
|
|
#08201:00
|
|
#08201:04040404
|
|
#08201:00
|
|
#08201:00
|
|
#08201:00
|
|
#08201:00
|
|
#08201:00
|
|
#08201:02030203020302030203020302030203
|
|
#08201:00
|
|
#08201:00
|
|
#08201:7B7C7B7V7C7B7V7C7B7C7B7V7C7B7V7C
|
|
#08201:00
|
|
#08201:00
|
|
#08201:00
|
|
#08201:00
|
|
#08201:00
|
|
#08201:8F8K8F008F8K8F008F8K8F008F8K0000
|
|
#08201:000000000000008E
|
|
#08206:030405060708090A0B0C0D0E0F0G0H0I030405060708090A0B0C0D0E0F0G0H0I
|
|
#08211:004000001R001R00001R00001R001T00
|
|
#08212:1R0000003Y002D0000001S00004Q0000
|
|
#08213:00001T000041004L0000004O0000004Q
|
|
#08214:2A00004100003Y004N0000002F002B00
|
|
#08215:00002C002E2B0000
|
|
#08218:3Z002B0000000100004L00004P004S00
|
|
#08219:00003Z000000001S00004N0000000100
|
|
|
|
#08301:00010K0000010000
|
|
#08301:00
|
|
#08301:00
|
|
#08301:00
|
|
#08301:04040404
|
|
#08301:00
|
|
#08301:00
|
|
#08301:00
|
|
#08301:00
|
|
#08301:00
|
|
#08301:02030203020302030203020302030203
|
|
#08301:00
|
|
#08301:00
|
|
#08301:7L7M7L807M7L807M7L7M7L807M7L807M
|
|
#08301:00
|
|
#08301:00
|
|
#08301:00
|
|
#08301:00
|
|
#08301:00
|
|
#08301:8F008K008F0000008F008K008G8L8G8L8F0000008K0000008F008K0000000000
|
|
#08301:000000000000008E
|
|
#08306:030405060708090A0B0C0D0E0F0G0H0I030405060708090A0B0C0D0E0F0G0H0I
|
|
#08311:00001Z004Q00003Y00004P004P000000
|
|
#08312:1X0000001X001X00001X00001X004P00
|
|
#08313:004P002D2E002F1Z
|
|
#08314:00002B00004P00002R00004W004Q0000
|
|
#08315:2A002C4O001Y002B
|
|
#08318:004Q004O0000001Y000000000K00004O
|
|
#08319:4R000001002B0001
|
|
|
|
#08401:00
|
|
#08401:00
|
|
#08401:00
|
|
#08401:00
|
|
#08401:04040404
|
|
#08401:00
|
|
#08401:00
|
|
#08401:00
|
|
#08401:00
|
|
#08401:0001000100010001
|
|
#08401:02030203020302030203020302030203
|
|
#08401:00
|
|
#08401:00
|
|
#08401:7D7E7D7W7E7D7W7E7D7E7D7W7E7D7W7E
|
|
#08401:00
|
|
#08401:20002200200020210020210020002200
|
|
#08401:00
|
|
#08401:00
|
|
#08401:2A2B2C2D2E2B2F2B
|
|
#08401:8F8K8F008F8K8F008F8K8F008F8K0000
|
|
#08401:000000000000008E
|
|
#08401:00
|
|
#08401:00
|
|
#08401:00000000000000004B413Y4L4N4O4P4Q
|
|
#08406:030405060708090A0B0C0D0E0F0G0H0I030405060708090A0B0C0D0E0F0G0H0I
|
|
#08411:43000000003X000043003Z0000000000
|
|
#08412:003X003Y00003Y0000400041004L0000
|
|
#08413:45000000003Z0000000000003Y004N00
|
|
#08414:003Z004B00004B00000000000000004O
|
|
#08415:000G000G000G000G000G000G000G000G
|
|
#08419:0F0F0F0F0F0F0F0F
|
|
|
|
#08501:000000000000000000000000008M0000
|
|
#08501:00
|
|
#08501:07070707
|
|
#08501:00
|
|
#08501:00
|
|
#08501:00
|
|
#08501:00
|
|
#08501:00
|
|
#08501:00
|
|
#08501:0001000100010001
|
|
#08501:02030203020302030203020302030203
|
|
#08501:00
|
|
#08501:00
|
|
#08501:7R7S7R837S7R837S7T7U7T847U7T847U
|
|
#08501:00
|
|
#08501:00
|
|
#08501:00
|
|
#08501:00
|
|
#08501:2A2B2C2D2E2B2F2B
|
|
#08501:8F008K008F0000008F008K008G8L8G8L8F0000008K0000008F008K0000000000
|
|
#08501:000000000000008E
|
|
#08506:030405060708090A0B0C0D0E0F0G0H0I030405060708090A0B0C0D0E0F0G0H0I
|
|
#08511:0G0G0G0G0G0G0G0G
|
|
#08512:000F000F000F000F000F000F000F000F
|
|
#08513:23002500230023000026000000002800
|
|
#08514:0000000000000024000027002600004K
|
|
#08515:00004X00004X00004X0000004S004X00
|
|
#08516:0I000I0J00000H00
|
|
#08518:004P00004P00004P004R004X004Y0000
|
|
#08519:4R00004R00004R0000004P0000000000
|
|
|
|
#08601:1500000Y00000000
|
|
#08601:007C0000000015000000000000000000
|
|
#08601:00
|
|
#08601:00
|
|
#08601:00
|
|
#08601:00
|
|
#08601:00
|
|
#08601:0Y00000Y
|
|
#08601:00000015
|
|
#08601:00
|
|
#08601:00
|
|
#08601:00
|
|
#08601:00
|
|
#08601:7B00000000007B7C000000007B7C0000
|
|
#08606:030405060708090A0B0C0D0E0F0G0H0I030405060708090A0B0C0D0E0F0G0H0I
|
|
#08611:0400000400000400
|
|
#08612:00480000000000000000000045000000
|
|
#08613:4G004600000040000000004000000000
|
|
#08614:0000004700000000000000003Z000000
|
|
#08615:000000004500003Z00003Z00004M0045
|
|
#08616:0I00000I00000J00
|
|
#08618:00000000000000000041000000000000
|
|
#08619:00000000004300003Y000000003W003Z
|
|
|
|
#08701:0D
|
|
#08701:00
|
|
#08701:00
|
|
#08701:00
|
|
#08701:00
|
|
#08701:00
|
|
#08701:00
|
|
#08701:0Y00000Y00000Y00
|
|
#08701:1500001500001500
|
|
#08701:00
|
|
#08701:00
|
|
#08701:00
|
|
#08701:00
|
|
#08701:7B7C000000007B7C000000007B7C0000
|
|
#08706:030405060708090A0B0C0D0E0F0G0H0I030405060708090A0B0C0D0E0F0G0H0I
|
|
#08711:0400000400000400
|
|
#08712:4G450000
|
|
#08713:00480000000000000000004000000000
|
|
#08714:000000000043000000003Z00004M0045
|
|
#08715:00004600000040000041000045000000
|
|
#08716:0I00000I00000J00
|
|
#08718:000000000000003Z00000000003W003Z
|
|
#08719:00000047000000003Y0000003Z000000
|
|
|
|
#08801:8N
|
|
#08801:00
|
|
#08801:00
|
|
#08801:00
|
|
#08801:00000007
|
|
#08801:00
|
|
#08801:00
|
|
#08801:0Y00000Y00000Y00
|
|
#08801:1500001500000000
|
|
#08801:00
|
|
#08801:00
|
|
#08801:00
|
|
#08801:00
|
|
#08801:7B7C000000007B7C000000007B7C0000
|
|
#08801:00
|
|
#08801:00
|
|
#08801:00
|
|
#08801:00
|
|
#08801:00
|
|
#08801:00
|
|
#08801:00
|
|
#08801:00
|
|
#08801:0000000000000000000000003Z4B003Z
|
|
#08806:030405060708090A0B0C0D0E0F0G0H0I030405060708090A0B0C0D0E0F0G0H0I
|
|
#08811:0400000400004500
|
|
#08812:000000000000000000000047004M0045
|
|
#08813:00000000000000400000450000000000
|
|
#08814:0000004100003Z000040000015000000
|
|
#08815:00003Y00004100003Z00000000000000
|
|
#08816:0I00000000000I00005I00000J000000
|
|
#08818:004L00003Y00000000000000003X003Y
|
|
#08819:4N00003Y
|
|
|
|
#08906:030405060708090A0B0C0D0E0F0G0H0I030405060708090A0B0C0D0E0F0G0H0I
|
|
#08911:08
|
|
#08913:2H
|
|
#08915:2L
|
|
#08916:0C
|
|
#08919:2O
|
|
|