7484 lines
135 KiB
Plaintext
7484 lines
135 KiB
Plaintext
|
|
*---------------------- HEADER FIELD
|
|
|
|
#PLAYER 1
|
|
#GENRE Cyber art
|
|
#TITLE "Flanker-E"
|
|
#ARTIST Lemi.
|
|
#BPM 200
|
|
#PLAYLEVEL 24
|
|
#RANK 3
|
|
|
|
#SUBTITLE -Xe+-
|
|
#SUBARTIST BGA:raii / obj:LindBlum / Clodsire
|
|
|
|
#DIFFICULTY 5
|
|
#TOTAL 750
|
|
#LNTYPE 1
|
|
|
|
#WAV01 b_shake_v127l16o5c.wav
|
|
#WAV02 b_shake_v127l16o5cp.wav
|
|
#WAV03 b_shake_v127l16o5d.wav
|
|
#WAV04 b_shake_v127l16o5dp.wav
|
|
#WAV05 b_shake_v127l16o5e.wav
|
|
#WAV06 b_shake_v127l16o5f.wav
|
|
#WAV07 b_shake_v127l16o5fp.wav
|
|
#WAV08 b_shake_v127l16o5g.wav
|
|
#WAV09 b_shake_v127l16o5gp.wav
|
|
#WAV0A b_shake_v127l16o5a.wav
|
|
#WAV0B b_shake_v127l16o5ap.wav
|
|
#WAV0C b_shake_v127l16o5b.wav
|
|
#WAV0D b_shake_v127l16o6c.wav
|
|
#WAV0E b_shake_v127l16o6cp.wav
|
|
#WAV0F b_shake_v127l16o6d.wav
|
|
#WAV0G b_shake_v127l16o6dp.wav
|
|
#WAV0H b_hihat1_v127l8o5c.wav
|
|
#WAV0I b_hihat1_v127l16o5cp.wav
|
|
#WAV0J b_hihat1_v127l16o5d.wav
|
|
#WAV0K b_hihat1_v127l8o5dp.wav
|
|
#WAV0L b_hihat1_v127l16o5e.wav
|
|
#WAV0M b_hihat1_v127l16o5f.wav
|
|
#WAV0N b_hihat1_v127l8o5fp.wav
|
|
#WAV0O b_hihat1_v127l16o5g.wav
|
|
#WAV0P b_hihat1_v127l16o5gp.wav
|
|
#WAV0Q b_hihat1_v127l8o5a.wav
|
|
#WAV0R b_hihat1_v127l16o5ap.wav
|
|
#WAV0S b_hihat1_v127l16o5b.wav
|
|
#WAV0T b_hihat1_v127l8o6c.wav
|
|
#WAV0U b_hihat1_v127l16o6cp.wav
|
|
#WAV0V b_hihat1_v127l16o6d.wav
|
|
#WAV0W b_hihat1_v127l8o6dp.wav
|
|
#WAV0X b_hihat1_v127l16o6e.wav
|
|
#WAV0Y b_hihat1_v127l16o6f.wav
|
|
#WAV0Z b_hihat1_v127l8o6fp.wav
|
|
#WAV10 b_hihat1_v127l16o6g.wav
|
|
#WAV11 b_hihat1_v127l16o6gp.wav
|
|
#WAV12 b_hihat1_v127l8o6a.wav
|
|
#WAV13 b_hihat1_v127l16o6ap.wav
|
|
#WAV14 b_hihat1_v127l16o6b.wav
|
|
#WAV15 b_hihat2_v100l8o5c.wav
|
|
#WAV16 b_hihat2_v127l8o5c.wav
|
|
#WAV17 b_clap_v127l4o5c.wav
|
|
#WAV18 b_break1_v127l8o5c.wav
|
|
#WAV19 b_break1_v127l8o5cp.wav
|
|
#WAV1A b_break1_v127l8o5d.wav
|
|
#WAV1B b_break1_v127l16o5dp.wav
|
|
#WAV1C b_break1_v127l16o5e.wav
|
|
#WAV1D b_break1_v127l8o5f.wav
|
|
#WAV1E b_break1_v127l8o5fp.wav
|
|
#WAV1F b_break1_v127l8o5g.wav
|
|
#WAV1G b_break1_v127l8o5gp.wav
|
|
#WAV1H b_break1_v127l8o5a.wav
|
|
#WAV1I b_break1_v127l8o5ap.wav
|
|
#WAV1J b_break1_v127l8o5b.wav
|
|
#WAV1K b_break1_v127l16o6c.wav
|
|
#WAV1L b_break1_v127l16o6cp.wav
|
|
#WAV1M b_break1_v127l16o6d.wav
|
|
#WAV1N b_break1_v127l16o6dp.wav
|
|
#WAV1O b_break1_v127l8o6e.wav
|
|
#WAV1P b_break1_v127l8o6f.wav
|
|
#WAV1Q b_break1_v127l8o6fp.wav
|
|
#WAV1R b_break1_v127l8o6g.wav
|
|
#WAV1S b_break1_v127l8o6gp.wav
|
|
#WAV1T b_break1_v127l8o6a.wav
|
|
#WAV1U b_break1_v127l16o6ap.wav
|
|
#WAV1V b_break1_v127l16o6b.wav
|
|
#WAV1W b_break1_v127l8o7c.wav
|
|
#WAV1X b_break1_v127l8o7cp.wav
|
|
#WAV1Y b_break1_v127l8o7d.wav
|
|
#WAV1Z b_break1_v127l8o7dp.wav
|
|
#WAV20 b_break1_v127l8o7e.wav
|
|
#WAV21 b_break1_v127l8o7f.wav
|
|
#WAV22 b_break1_v127l16o7fp.wav
|
|
#WAV23 b_break1_v127l16o7g.wav
|
|
#WAV24 b_break1_v127l16o7gp.wav
|
|
#WAV25 b_break1_v127l16o7a.wav
|
|
#WAV26 b_break1_v127l16o7ap.wav
|
|
#WAV27 b_break1_v127l16o7b.wav
|
|
#WAV28 b_break1_v127l8o8c.wav
|
|
#WAV29 b_break1_v127l8o8cp.wav
|
|
#WAV2A b_break1_v127l16o8d.wav
|
|
#WAV2B b_break1_v127l16o8dp.wav
|
|
#WAV2C b_kick_v127l32o5c.wav
|
|
#WAV2D b_kick_v127l16o5c.wav
|
|
#WAV2E b_kick_v127l8o5c.wav
|
|
#WAV2F b_kick_v127l6o5c.wav
|
|
#WAV2G b_kick_v127l16-3o5c.wav
|
|
#WAV2H b_kick_v127l4o5c.wav
|
|
#WAV2I b_sweep1_v127l1-4o5c.wav
|
|
#WAV2J b_sweep1_v127l1-8o5c.wav
|
|
#WAV2K b_snare1_v127l64o5c.wav
|
|
#WAV2L b_snare1_v127l16o5c.wav
|
|
#WAV2M b_snare1_v127l16-3o5c.wav
|
|
#WAV2N b_snare1_v127l4o5c.wav
|
|
#WAV2O b_snare1_v127l16-5o5c.wav
|
|
#WAV2P b_snare1_v127l8-3o5c.wav
|
|
#WAV2Q b_snare2_v127l16o5c.wav
|
|
#WAV2R b_snare2_v127l16-3o5c.wav
|
|
#WAV2S b_snare2_v127l4o5c.wav
|
|
#WAV2T b_snare2_v127l2o5c.wav
|
|
#WAV2U b_crash1_v127l64-3o5c.wav
|
|
#WAV2V b_crash1_v127l16o5c.wav
|
|
#WAV2W b_crash1_v127l32-3o5c.wav
|
|
#WAV2X b_crash1_v127l8o5c.wav
|
|
#WAV2Y b_crash1_v127l16-3o5c.wav
|
|
#WAV2Z b_crash1_v127l4o5c.wav
|
|
#WAV30 b_crash1_v127l16-5o5c.wav
|
|
#WAV31 b_crash1_v127l8-3o5c.wav
|
|
#WAV32 b_crash1_v127l2o5c.wav
|
|
#WAV33 b_crash1_v127l4-3o5c.wav
|
|
#WAV34 b_crash1_v127l8-7o5c.wav
|
|
#WAV35 b_fill1_v127l16o5c.wav
|
|
#WAV36 b_fill1_v127l16o5cp.wav
|
|
#WAV37 b_fill1_v127l16o5d.wav
|
|
#WAV38 b_fill1_v127l16o5dp.wav
|
|
#WAV39 b_fill1_v127l8o5e.wav
|
|
#WAV3A b_fill1_v127l8o5f.wav
|
|
#WAV3B b_fill2_v127l16o5c.wav
|
|
#WAV3C b_fill2_v127l16o5cp.wav
|
|
#WAV3D b_fill2_v127l16o5d.wav
|
|
#WAV3E b_fill2_v127l16o5dp.wav
|
|
#WAV3F b_fill2_v127l16o5e.wav
|
|
#WAV3G b_fill2_v127l16o5f.wav
|
|
#WAV3H b_fill2_v127l8o5fp.wav
|
|
#WAV3I b_slomo1_v127l8o5c.wav
|
|
#WAV3J b_slomo1_v127l8o5cp.wav
|
|
#WAV3K b_slomo1_v127l4o5d.wav
|
|
#WAV3L b_slomo1_v127l4o5dp.wav
|
|
#WAV3M b_slomo1_v127l8o5e.wav
|
|
#WAV3N b_slomo1_v127l8o5f.wav
|
|
#WAV3O b_slomo1_v127l4o5fp.wav
|
|
#WAV3P b_slomo1_v127l8o5g.wav
|
|
#WAV3Q b_slomo1_v127l8o5gp.wav
|
|
#WAV3R b_slomo1_v127l4o5a.wav
|
|
#WAV3S b_slomo1_v127l8o5ap.wav
|
|
#WAV3T b_slomo1_v127l8o5b.wav
|
|
#WAV3U b_slomo1_v127l8o6c.wav
|
|
#WAV3V b_slomo1_v127l8o6cp.wav
|
|
#WAV3W b_slomo1_v127l8o6d.wav
|
|
#WAV3X b_slomo1_v127l8o6dp.wav
|
|
#WAV3Y b_slomo1_v127l4o6e.wav
|
|
#WAV3Z b_slomo1_v127l8o6f.wav
|
|
#WAV40 b_slomo1_v127l8o6fp.wav
|
|
#WAV41 b_slomo1_v127l4o6g.wav
|
|
#WAV42 b_slomo1_v127l8o6gp.wav
|
|
#WAV43 b_slomo1_v127l8o6a.wav
|
|
#WAV44 b_slomo1_v127l4o6ap.wav
|
|
#WAV45 b_slomo1_v127l8o6b.wav
|
|
#WAV46 b_slomo1_v127l8o7c.wav
|
|
#WAV47 b_impact1_v127l2-3o5b.wav
|
|
#WAV48 b_impact1_v127l1-2o5b.wav
|
|
#WAV49 b_impact2_v127l4o5a.wav
|
|
#WAV4A b_impact2_v127l8-3o5a.wav
|
|
#WAV4B b_impact3_v127l1o5g.wav
|
|
#WAV4C b_impact4_v127l1-4o5f.wav
|
|
#WAV4D b_sweep2_v127l1-12o5e.wav
|
|
#WAV4E b_fill3_v127l16o5c.wav
|
|
#WAV4F b_fill3_v127l16o5cp.wav
|
|
#WAV4G b_fill3_v127l8o5d.wav
|
|
#WAV4H b_fill3_v127l16o5dp.wav
|
|
#WAV4I b_fill3_v127l16o5e.wav
|
|
#WAV4J b_fill3_v127l16o5f.wav
|
|
#WAV4K b_fill3_v127l16o5fp.wav
|
|
#WAV4L b_fill3_v127l16o5g.wav
|
|
#WAV4M b_fill3_v127l16o5gp.wav
|
|
#WAV4N b_fill3_v127l16o5a.wav
|
|
#WAV4O b_fill3_v127l16o5ap.wav
|
|
#WAV4P b_fill3_v127l4o5b.wav
|
|
#WAV4Q b_break2_v127l16o5c.wav
|
|
#WAV4R b_break2_v127l16o5cp.wav
|
|
#WAV4S b_break2_v127l8o5d.wav
|
|
#WAV4T b_break2_v127l8o5dp.wav
|
|
#WAV4U b_break2_v127l16o5e.wav
|
|
#WAV4V b_break2_v127l16o5f.wav
|
|
#WAV4W b_break2_v127l16o5fp.wav
|
|
#WAV4X b_break2_v127l16o5g.wav
|
|
#WAV4Y b_break2_v127l16o5gp.wav
|
|
#WAV4Z b_break2_v127l16o5a.wav
|
|
#WAV50 b_break2_v127l8o5ap.wav
|
|
#WAV51 b_break2_v127l16o5b.wav
|
|
#WAV52 b_break2_v127l16o6c.wav
|
|
#WAV53 b_break2_v127l16o6cp.wav
|
|
#WAV54 b_break2_v127l16o6d.wav
|
|
#WAV55 b_break2_v127l8o6dp.wav
|
|
#WAV56 b_break2_v127l8o6e.wav
|
|
#WAV57 b_break2_v127l16o6f.wav
|
|
#WAV58 b_break2_v127l16o6fp.wav
|
|
#WAV59 b_break2_v127l16o6g.wav
|
|
#WAV5A b_break2_v127l16o6gp.wav
|
|
#WAV5B b_break2_v127l8o6a.wav
|
|
#WAV5C b_break2_v127l8o6ap.wav
|
|
#WAV5D b_break2_v127l8o6b.wav
|
|
#WAV5E b_break2_v127l16o7c.wav
|
|
#WAV5F b_break2_v127l16o7cp.wav
|
|
#WAV5G b_break2_v127l16o7d.wav
|
|
#WAV5H b_break2_v127l16o7dp.wav
|
|
#WAV5I b_break2_v127l8o7e.wav
|
|
#WAV5J b_break2_v127l16o7f.wav
|
|
#WAV5K b_break2_v127l16o7fp.wav
|
|
#WAV5L b_break2_v127l16o7g.wav
|
|
#WAV5M b_break2_v127l16o7gp.wav
|
|
#WAV5N b_break2_v127l4o7a.wav
|
|
#WAV5O b_break2_v127l8o7ap.wav
|
|
#WAV5P b_sweep3_v127l1-5o5d.wav
|
|
#WAV5Q b_impact5_v127l4-21o5c.wav
|
|
#WAV5R b_breath1_v127l32-11o5b.wav
|
|
#WAV5S b_impact6_v127l1-4o5c.wav
|
|
#WAV5T b_sweep4_v127l1-8o5c.wav
|
|
#WAV5U b_Sylenth1 12_v127l1o3fp.wav
|
|
#WAV5V b_Sylenth1 12_v127l8-7o3gp.wav
|
|
#WAV5W b_Sylenth1 12_v127l1o3gp.wav
|
|
#WAV5X b_Sylenth1 12_v127l8-3o3a.wav
|
|
#WAV5Y b_Sylenth1 12_v127l1o3a.wav
|
|
#WAV5Z b_Sylenth1 12_v127l8-3o3ap.wav
|
|
#WAV60 b_Sylenth1 12_v127l1o3b.wav
|
|
#WAV61 b_Sylenth1 12_v127l1o4cp.wav
|
|
#WAV62 b_basspad_v127l1o3fp.wav
|
|
#WAV63 b_basspad_v127l1o3g.wav
|
|
#WAV64 b_basspad_v127l8-7o3gp.wav
|
|
#WAV65 b_basspad_v127l1o3gp.wav
|
|
#WAV66 b_basspad_v127l8-3o3a.wav
|
|
#WAV67 b_basspad_v127l1o3a.wav
|
|
#WAV68 b_basspad_v127l8-3o3ap.wav
|
|
#WAV69 b_basspad_v127l1o3b.wav
|
|
#WAV6A b_basspad_v127l1o4cp.wav
|
|
#WAV6B b_cello1_v100l8o3a.wav
|
|
#WAV6C b_cello1_v100l8-3o3a.wav
|
|
#WAV6D b_cello1_v100l8o4cp.wav
|
|
#WAV6E b_cello1_v100l4o4cp.wav
|
|
#WAV6F b_cello1_v100l8o4d.wav
|
|
#WAV6G b_cello1_v100l4o4d.wav
|
|
#WAV6H b_cello1_v100l8-3o4d.wav
|
|
#WAV6I b_cello1_v118l4o4d.wav
|
|
#WAV6J b_cello1_v100l8-7o4dp.wav
|
|
#WAV6K b_cello1_v100l8o4e.wav
|
|
#WAV6L b_cello1_v100l4o4e.wav
|
|
#WAV6M b_cello1_v100l2o4e.wav
|
|
#WAV6N b_cello1_v100l32-3o4fp.wav
|
|
#WAV6O b_cello1_v100l8o4fp.wav
|
|
#WAV6P b_cello1_v100l4o4fp.wav
|
|
#WAV6Q b_cello1_v100l8-3o4fp.wav
|
|
#WAV6R b_cello1_v100l4-3o4fp.wav
|
|
#WAV6S b_cello1_v100l8o4g.wav
|
|
#WAV6T b_cello1_v100l4o4g.wav
|
|
#WAV6U b_cello1_v100l4-3o4g.wav
|
|
#WAV6V b_cello1_v100l2o4gp.wav
|
|
#WAV6W b_cello1_v100l1o4gp.wav
|
|
#WAV6X b_cello1_v100l8o4a.wav
|
|
#WAV6Y b_cello1_v100l4o4a.wav
|
|
#WAV6Z b_cello1_v100l8-3o4a.wav
|
|
#WAV70 b_cello1_v100l2o4a.wav
|
|
#WAV71 b_cello1_v100l8-5o4a.wav
|
|
#WAV72 b_cello1_v100l8o4b.wav
|
|
#WAV73 b_cello1_v100l4o4b.wav
|
|
#WAV74 b_cello1_v100l8-3o4b.wav
|
|
#WAV75 b_cello1_v100l2o4b.wav
|
|
#WAV76 b_cello1_v100l4-3o4b.wav
|
|
#WAV77 b_cello1_v100l1o4b.wav
|
|
#WAV78 b_cello1_v100l8o5c.wav
|
|
#WAV79 b_cello1_v100l32-3o5cp.wav
|
|
#WAV7A b_cello1_v100l8o5cp.wav
|
|
#WAV7B b_cello1_v100l2o5cp.wav
|
|
#WAV7C b_cello1_v100l8o5d.wav
|
|
#WAV7D b_cello1_v100l4o5d.wav
|
|
#WAV7E b_cello1_v100l2o5d.wav
|
|
#WAV7F b_cello1_v100l8o5dp.wav
|
|
#WAV7G b_cello1_v100l8o5e.wav
|
|
#WAV7H b_cello1_v100l4o5e.wav
|
|
#WAV7I b_cello1_v100l2o5e.wav
|
|
#WAV7J b_cello1_v100l4o5fp.wav
|
|
#WAV7K b_cello1_v100l4o5g.wav
|
|
#WAV7L b_cello1_v100l4o5a.wav
|
|
#WAV7M b_Vl_v100l16o5e.wav
|
|
#WAV7N b_Vl_v100l16o5fp.wav
|
|
#WAV7O b_Vl_v127l16o5fp.wav
|
|
#WAV7P b_Vl_v100l16o5g.wav
|
|
#WAV7Q b_Vl_v127l4o5g.wav
|
|
#WAV7R b_Vl_v127l8o5gp.wav
|
|
#WAV7S b_Vl_v100l16o5a.wav
|
|
#WAV7T b_Vl_v127l8o5a.wav
|
|
#WAV7U b_Vl_v127l4o5a.wav
|
|
#WAV7V b_Vl_v127l16-5o5a.wav
|
|
#WAV7W b_Vl_v100l16o5b.wav
|
|
#WAV7X b_Vl_v127l16o5b.wav
|
|
#WAV7Y b_Vl_v127l32-3o5b.wav
|
|
#WAV7Z b_Vl_v127l8o5b.wav
|
|
#WAV80 b_Vl_v127l4o5b.wav
|
|
#WAV81 b_Vl_v127l8-5o5b.wav
|
|
#WAV82 b_Vl_v127l8-9o5b.wav
|
|
#WAV83 b_Vl_v127l4o6c.wav
|
|
#WAV84 b_Vl_v127l32-3o6cp.wav
|
|
#WAV85 b_Vl_v127l8o6cp.wav
|
|
#WAV86 b_Vl_v100l16o6d.wav
|
|
#WAV87 b_Vl_v127l32-3o6d.wav
|
|
#WAV88 b_Vl_v127l32-3o6dp.wav
|
|
#WAV89 b_Vl_v127l8-3o6dp.wav
|
|
#WAV8A b_Vl_v100l16o6e.wav
|
|
#WAV8B b_Vl_v127l32-3o6e.wav
|
|
#WAV8C b_Vl_v127l8o6e.wav
|
|
#WAV8D b_Vl_v127l4o6e.wav
|
|
#WAV8E b_Vl_v127l16-5o6e.wav
|
|
#WAV8F b_Vl_v127l8-3o6e.wav
|
|
#WAV8G b_Vl_v100l16o6fp.wav
|
|
#WAV8H b_Vl_v127l32-3o6fp.wav
|
|
#WAV8I b_Vl_v127l8o6fp.wav
|
|
#WAV8J b_Vl_v127l4o6fp.wav
|
|
#WAV8K b_Vl_v127l32-3o6g.wav
|
|
#WAV8L b_Vl_v127l16-3o6g.wav
|
|
#WAV8M b_Vl_v127l4o6g.wav
|
|
#WAV8N b_Vl_v127l8-3o6g.wav
|
|
#WAV8O b_Vl_v127l8-7o6g.wav
|
|
#WAV8P b_Vl_v127l4o6gp.wav
|
|
#WAV8Q b_Vl_v127l8-7o6gp.wav
|
|
#WAV8R b_Vl_v127l32-3o6a.wav
|
|
#WAV8S b_Vl_v127l8o6a.wav
|
|
#WAV8T b_Vl_v127l16-3o6a.wav
|
|
#WAV8U b_Vl_v127l4o6a.wav
|
|
#WAV8V b_Vl_v127l8-3o6a.wav
|
|
#WAV8W b_Vl_v127l1o6a.wav
|
|
#WAV8X b_Vl_v127l32-3o6b.wav
|
|
#WAV8Y b_Vl_v127l1o6b.wav
|
|
#WAV8Z b_Vl_v127l8-3o7c.wav
|
|
#WAV90 b_Vl_v127l32-3o7d.wav
|
|
#WAV91 b_Vl_v127l16-3o7d.wav
|
|
#WAV92 b_Vl_v127l8-3o7d.wav
|
|
#WAV93 b_Vl_v127l32-3o7e.wav
|
|
#WAV94 b_Vl_v127l8-11o7fp.wav
|
|
#WAV95 b_Vl_v127l32-3o7g.wav
|
|
#WAV96 b_Vl (D)_v100l4o4b.wav
|
|
#WAV97 b_Vl (D)_v100l4o5c.wav
|
|
#WAV98 b_Vl (D)_v100l16-5o5c.wav
|
|
#WAV99 b_Vl (D)_v100l32-3o5d.wav
|
|
#WAV9A b_Vl (D)_v100l8o5d.wav
|
|
#WAV9B b_Vl (D)_v100l8-9o5d.wav
|
|
#WAV9C b_Vl (D)_v100l32-3o5e.wav
|
|
#WAV9D b_Vl (D)_v100l4o5e.wav
|
|
#WAV9E b_Vl (D)_v100l32-3o5g.wav
|
|
#WAV9F b_Vl (D)_v100l32-3o5a.wav
|
|
#WAV9G b_Vl (D)_v100l16-3o5a.wav
|
|
#WAV9H b_Vl (D)_v100l4o5a.wav
|
|
#WAV9I b_Vl (D)_v100l32-3o5b.wav
|
|
#WAV9J b_Vl (D)_v100l16-3o5b.wav
|
|
#WAV9K b_Vl (D)_v100l8-3o5b.wav
|
|
#WAV9L b_Vl (D)_v100l32-3o6d.wav
|
|
#WAV9M b_Vl (D)_v100l8o6d.wav
|
|
#WAV9N b_Vl (D)_v100l16-3o6d.wav
|
|
#WAV9O b_Vl (D)_v100l4o6d.wav
|
|
#WAV9P b_Vl (D)_v100l1o6d.wav
|
|
#WAV9Q b_Vl (D)_v100l8-3o6dp.wav
|
|
#WAV9R b_Vl (D)_v100l32-3o6e.wav
|
|
#WAV9S b_Vl (D)_v100l8-3o6e.wav
|
|
#WAV9T b_Vl (D)_v100l8-7o6e.wav
|
|
#WAV9U b_Vl (D)_v100l1o6e.wav
|
|
#WAV9V b_Vl (D)_v100l8-3o6fp.wav
|
|
#WAV9W b_Vl (D)_v100l32-3o6g.wav
|
|
#WAV9X b_Vl (D)_v100l8-11o6a.wav
|
|
#WAV9Y b_Vl (D)_v100l32-3o6b.wav
|
|
#WAV9Z b_perc_v100l16o5c.wav
|
|
#WAVA0 b_perc_v127l8o6g.wav
|
|
#WAVA1 b_perc_v100l8o7d.wav
|
|
#WAVA2 b_perc_v127l16o7d.wav
|
|
#WAVA3 b_perc_v127l8o7d.wav
|
|
#WAVA4 b_sqlead1_v100l32-3o4cp.wav
|
|
#WAVA5 b_sqlead1_v100l32-3o4e.wav
|
|
#WAVA6 b_sqlead1_v100l32-3o4fp.wav
|
|
#WAVA7 b_sqlead1_v100l32-3o4gp.wav
|
|
#WAVA8 b_sqlead1_v100l32-3o4b.wav
|
|
#WAVA9 b_sqlead1_v100l32-3o5cp.wav
|
|
#WAVAA b_sqlead1_v100l32-3o5dp.wav
|
|
#WAVAB b_sqlead1_v100l32-3o5e.wav
|
|
#WAVAC b_sqlead2_v100l8o4a.wav
|
|
#WAVAD b_sqlead2_v100l8o4b.wav
|
|
#WAVAE b_sqlead2_v100l8o5d.wav
|
|
#WAVAF b_sqlead2_v100l8o5e.wav
|
|
#WAVAG b_sqlead2_v100l8o5fp.wav
|
|
#WAVAH b_sqlead2_v100l8o5a.wav
|
|
#WAVAI b_sqlead2_v100l8o5b.wav
|
|
#WAVAJ b_sqlead2_v100l8o6cp.wav
|
|
#WAVAK b_sqlead3_v100l8o5fp.wav
|
|
#WAVAL b_sqlead3_v100l8o5gp.wav
|
|
#WAVAM b_sqlead3_v100l8o5a.wav
|
|
#WAVAN b_sqlead3_v100l8o5b.wav
|
|
#WAVAO b_sqlead3_v100l8o6cp.wav
|
|
#WAVAP b_sqlead3_v100l8o6dp.wav
|
|
#WAVAQ b_sqlead3_v100l8o6e.wav
|
|
#WAVAR b_sqlead3_v100l8o6fp.wav
|
|
#WAVAS b_sqlead3_v100l8o6gp.wav
|
|
#WAVAT b_sqlead3_v100l8o6a.wav
|
|
#WAVAU b_sqlead3_v100l8o6b.wav
|
|
#WAVAV b_sqlead3_v100l8o7cp.wav
|
|
#WAVAW b_sqlead3_v100l8o7dp.wav
|
|
#WAVAX b_Cb1_v127l16o3e.wav
|
|
#WAVAY b_Cb1_v127l16o3fp.wav
|
|
#WAVAZ b_Cb1_v127l16o3g.wav
|
|
#WAVB0 b_Cb1_v127l16o3gp.wav
|
|
#WAVB1 b_Cb1_v127l16o3a.wav
|
|
#WAVB2 b_Cb1_v127l16o3ap.wav
|
|
#WAVB3 b_Cb1_v127l16o3b.wav
|
|
#WAVB4 b_Cb1_v127l16o4c.wav
|
|
#WAVB5 b_Cb1_v127l16o4cp.wav
|
|
#WAVB6 b_Cb1_v127l16o4d.wav
|
|
#WAVB7 b_Cb1_v127l16o4dp.wav
|
|
#WAVB8 b_Cb1_v127l16o4e.wav
|
|
#WAVB9 b_Cb2_v127l16o3e.wav
|
|
#WAVBA b_Cb2_v127l16o3fp.wav
|
|
#WAVBB b_Cb2_v127l16o3g.wav
|
|
#WAVBC b_Cb2_v127l16o3gp.wav
|
|
#WAVBD b_Cb2_v127l16o3a.wav
|
|
#WAVBE b_Cb2_v127l16o3ap.wav
|
|
#WAVBF b_Cb2_v127l16o3b.wav
|
|
#WAVBG b_Cb2_v127l16o4c.wav
|
|
#WAVBH b_Cb2_v127l16o4cp.wav
|
|
#WAVBI b_Cb2_v127l16o4d.wav
|
|
#WAVBJ b_Cb2_v127l16o4dp.wav
|
|
#WAVBK b_Cb2_v127l16o4e.wav
|
|
#WAVBL b_Cb2_v127l16o4fp.wav
|
|
#WAVBM b_Cb2_v127l16o4g.wav
|
|
#WAVBN b_Cb2_v127l16o4gp.wav
|
|
#WAVBO b_Cb2_v127l16o4a.wav
|
|
#WAVBP b_Cb2_v127l16o4b.wav
|
|
#WAVBQ b_basspiano2_v100l2-7o3e.wav
|
|
#WAVBR b_basspiano_v127l1-2o2e.wav
|
|
#WAVBS b_basspiano_v100l1-2o2fp.wav
|
|
#WAVBT b_basspiano_v100l1o2g.wav
|
|
#WAVBU b_basspiano_v100l2o2a.wav
|
|
#WAVBV b_basspiano_v100l1o2a.wav
|
|
#WAVBW b_basspiano_v127l1o2a.wav
|
|
#WAVBX b_basspiano_v127l1-2o2a.wav
|
|
#WAVBY b_basspiano_v100l2-3o2b.wav
|
|
#WAVBZ b_basspiano_v100l1-2o2b.wav
|
|
#WAVC0 b_basspiano_v100l1-4o2b.wav
|
|
#WAVC1 b_basspiano_v127l1o2b.wav
|
|
#WAVC2 b_basspiano_v127l1-2o2b.wav
|
|
#WAVC3 b_basspiano_v127l1-4o2b.wav
|
|
#WAVC4 b_basspiano_v127l1o3c.wav
|
|
#WAVC5 b_basspiano_v127l1-2o3cp.wav
|
|
#WAVC6 b_basspiano_v127l1o3d.wav
|
|
#WAVC7 b_basspiano_v127l1o3dp.wav
|
|
#WAVC8 b_basspiano_v127l1o3e.wav
|
|
#WAVC9 b_basspiano_v127l1-2o3e.wav
|
|
#WAVCA b_basspiano_v127l1o3g.wav
|
|
#WAVCB b_pianochord_v100l24o3fp.wav
|
|
#WAVCC b_pianochord_v100l12o3fp.wav
|
|
#WAVCD b_pianochord_v100l16o3g.wav
|
|
#WAVCE b_pianochord_v100l1-2o4e.wav
|
|
#WAVCF b_pianochord_v100l1o4fp.wav
|
|
#WAVCG b_pianochord_v100l1-2o4fp.wav
|
|
#WAVCH b_pianochord_v100l1-2o4g.wav
|
|
#WAVCI b_pianochord_v100l16o4a.wav
|
|
#WAVCJ b_pianochord_v100l16-3o4a.wav
|
|
#WAVCK b_pianochord_v100l1o4a.wav
|
|
#WAVCL b_pianochord_v100l1-2o4a.wav
|
|
#WAVCM b_pianochord_v100l24o4b.wav
|
|
#WAVCN b_pianochord_v100l16o4b.wav
|
|
#WAVCO b_pianochord_v100l12o4b.wav
|
|
#WAVCP b_pianochord_v100l8o4b.wav
|
|
#WAVCQ b_pianochord_v100l16-3o4b.wav
|
|
#WAVCR b_pianochord_v100l1-2o4b.wav
|
|
#WAVCS b_pianochord_v100l16o5c.wav
|
|
#WAVCT b_pianochord_v100l24o5cp.wav
|
|
#WAVCU b_pianochord_v100l16o5cp.wav
|
|
#WAVCV b_pianochord_v100l12o5cp.wav
|
|
#WAVCW b_pianochord_v100l16-3o5cp.wav
|
|
#WAVCX b_pianochord_v100l16-5o5cp.wav
|
|
#WAVCY b_pianochord_v100l16-7o5cp.wav
|
|
#WAVCZ b_pianochord_v100l1o5cp.wav
|
|
#WAVD0 b_pianochord_v100l1-2o5cp.wav
|
|
#WAVD1 b_pianochord_v100l16o5d.wav
|
|
#WAVD2 b_pianochord_v100l8o5d.wav
|
|
#WAVD3 b_pianochord_v100l16-3o5d.wav
|
|
#WAVD4 b_pianochord_v100l1-2o5d.wav
|
|
#WAVD5 b_pianochord_v100l16o5dp.wav
|
|
#WAVD6 b_pianochord_v100l16-3o5dp.wav
|
|
#WAVD7 b_pianochord_v100l16-5o5dp.wav
|
|
#WAVD8 b_pianochord_v100l8-7o5dp.wav
|
|
#WAVD9 b_pianochord_v100l24o5e.wav
|
|
#WAVDA b_pianochord_v100l16o5e.wav
|
|
#WAVDB b_pianochord_v100l12o5e.wav
|
|
#WAVDC b_pianochord_v100l8o5e.wav
|
|
#WAVDD b_pianochord_v100l4o5e.wav
|
|
#WAVDE b_pianochord_v100l16-5o5e.wav
|
|
#WAVDF b_pianochord_v100l8-3o5e.wav
|
|
#WAVDG b_pianochord_v100l16-7o5e.wav
|
|
#WAVDH b_pianochord_v100l1o5e.wav
|
|
#WAVDI b_pianochord_v100l1-2o5e.wav
|
|
#WAVDJ b_pianochord_v100l16o5fp.wav
|
|
#WAVDK b_pianochord_v100l16-3o5fp.wav
|
|
#WAVDL b_pianochord_v100l16-5o5fp.wav
|
|
#WAVDM b_pianochord_v100l8-3o5fp.wav
|
|
#WAVDN b_pianochord_v100l1-2o5fp.wav
|
|
#WAVDO b_pianochord_v100l16o5g.wav
|
|
#WAVDP b_pianochord_v100l8o5g.wav
|
|
#WAVDQ b_pianochord_v100l16-3o5g.wav
|
|
#WAVDR b_pianochord_v100l8o5gp.wav
|
|
#WAVDS b_pianochord_v100l4o5gp.wav
|
|
#WAVDT b_pianochord_v100l16-5o5gp.wav
|
|
#WAVDU b_pianochord_v100l8-7o5gp.wav
|
|
#WAVDV b_pianochord_v100l24o5a.wav
|
|
#WAVDW b_pianochord_v100l16o5a.wav
|
|
#WAVDX b_pianochord_v100l12o5a.wav
|
|
#WAVDY b_pianochord_v100l16-5o5a.wav
|
|
#WAVDZ b_pianochord_v100l16o5b.wav
|
|
#WAVE0 b_pianochord_v100l8o5b.wav
|
|
#WAVE1 b_pianochord_v100l16-3o5b.wav
|
|
#WAVE2 b_pianochord_v100l16-5o5b.wav
|
|
#WAVE3 b_pianochord_v100l16-7o5b.wav
|
|
#WAVE4 b_pianochord_v100l8-7o6c.wav
|
|
#WAVE5 b_pianochord_v100l8o6cp.wav
|
|
#WAVE6 b_pianochord_v100l4o6cp.wav
|
|
#WAVE7 b_pianochord_v100l8-3o6cp.wav
|
|
#WAVE8 b_pianochord_v100l16-5o6dp.wav
|
|
#WAVE9 b_pianochord_v100l8o6e.wav
|
|
#WAVEA b_pianochord_v100l16-5o6e.wav
|
|
#WAVEB b_pianochord_v100l8o6gp.wav
|
|
#WAVEC b_pianochord_v100l8o6a.wav
|
|
#WAVED b_plack_v127l8-3o7b.wav
|
|
#WAVEE b_plack_v127l8-5o8cp.wav
|
|
#WAVEF b_plack_v127l8-3o8dp.wav
|
|
#WAVEG b_plack_v127l4o8e.wav
|
|
#WAVEH b_plack_v127l8-3o8e.wav
|
|
#WAVEI b_plack_v127l8-3o8fp.wav
|
|
#WAVEJ b_plack_v127l2o8fp.wav
|
|
#WAVEK b_plack_v127l4-7o8fp.wav
|
|
#WAVEL b_plack_v127l4-5o8gp.wav
|
|
#WAVEM b_plack_v127l8-15o8gp.wav
|
|
#WAVEN b_piano2_v127l8-3o6b.wav
|
|
#WAVEO b_piano2_v127l8-5o7cp.wav
|
|
#WAVEP b_piano2_v127l8-3o7dp.wav
|
|
#WAVEQ b_piano2_v127l4o7e.wav
|
|
#WAVER b_piano2_v127l8-3o7e.wav
|
|
#WAVES b_piano2_v127l8-3o7fp.wav
|
|
#WAVET b_piano2_v127l2o7fp.wav
|
|
#WAVEU b_piano2_v127l4-7o7fp.wav
|
|
#WAVEV b_piano2_v127l4-5o7gp.wav
|
|
#WAVEW b_piano2_v127l8-15o7gp.wav
|
|
#WAVEX b_piano3_v100l16o6d.wav
|
|
#WAVEY b_piano3_v100l16o6fp.wav
|
|
#WAVEZ b_piano3_v100l8o6fp.wav
|
|
#WAVF0 b_piano3_v100l16o6g.wav
|
|
#WAVF1 b_piano3_v100l8o6g.wav
|
|
#WAVF2 b_piano3_v100l16o6a.wav
|
|
#WAVF3 b_piano3_v100l8o6a.wav
|
|
#WAVF4 b_piano3_v100l16o6b.wav
|
|
#WAVF5 b_piano3_v100l16o7d.wav
|
|
#WAVF6 b_piano3_v100l8o7d.wav
|
|
#WAVF7 b_piano3_v100l16o7dp.wav
|
|
#WAVF8 b_piano3_v100l16o7e.wav
|
|
#WAVF9 b_piano3_v100l16o7fp.wav
|
|
#WAVFA b_piano3_v100l32-3o7fp.wav
|
|
#WAVFB b_piano3_v100l8o7fp.wav
|
|
#WAVFC b_piano3_v100l32-3o7g.wav
|
|
#WAVFD b_piano3_v100l8o7g.wav
|
|
#WAVFE b_piano3_v100l16o7gp.wav
|
|
#WAVFF b_piano3_v100l32-3o7a.wav
|
|
#WAVFG b_piano3_v100l16o7b.wav
|
|
#WAVFH b_piano3_v100l16o8cp.wav
|
|
#WAVFI b_piano3_v100l32-3o8d.wav
|
|
#WAVFJ b_piano3_v100l16o8dp.wav
|
|
#WAVFK b_piano3_v100l16o8e.wav
|
|
#WAVFL b_piano3_v100l16o8fp.wav
|
|
#WAVFM b_piano3_v100l32-3o8fp.wav
|
|
#WAVFN b_piano3_v100l32-3o8g.wav
|
|
#WAVFO b_plack2_v100l16o6d.wav
|
|
#WAVFP b_plack2_v100l16o6fp.wav
|
|
#WAVFQ b_plack2_v100l8o6fp.wav
|
|
#WAVFR b_plack2_v100l16o6g.wav
|
|
#WAVFS b_plack2_v100l8o6g.wav
|
|
#WAVFT b_plack2_v100l16o6a.wav
|
|
#WAVFU b_plack2_v100l8o6a.wav
|
|
#WAVFV b_plack2_v100l16o6b.wav
|
|
#WAVFW b_plack2_v100l16o7d.wav
|
|
#WAVFX b_plack2_v100l8o7d.wav
|
|
#WAVFY b_plack2_v100l16o7dp.wav
|
|
#WAVFZ b_plack2_v100l16o7e.wav
|
|
#WAVG0 b_plack2_v100l16o7fp.wav
|
|
#WAVG1 b_plack2_v100l32-3o7fp.wav
|
|
#WAVG2 b_plack2_v100l8o7fp.wav
|
|
#WAVG3 b_plack2_v100l32-3o7g.wav
|
|
#WAVG4 b_plack2_v100l8o7g.wav
|
|
#WAVG5 b_plack2_v100l16o7gp.wav
|
|
#WAVG6 b_plack2_v100l32-3o7a.wav
|
|
#WAVG7 b_plack2_v100l16o7b.wav
|
|
#WAVG8 b_plack2_v100l16o8cp.wav
|
|
#WAVG9 b_plack2_v100l32-3o8d.wav
|
|
#WAVGA b_plack2_v100l16o8dp.wav
|
|
#WAVGB b_plack2_v100l16o8e.wav
|
|
#WAVGC b_plack2_v100l16o8fp.wav
|
|
#WAVGD b_plack2_v100l32-3o8fp.wav
|
|
#WAVGE b_plack2_v100l32-3o8g.wav
|
|
#WAVGF b_choir1_v127l8-3o5b.wav
|
|
#WAVGG b_choir1_v127l32-13o5b.wav
|
|
#WAVGH b_choir1_v127l8-5o6cp.wav
|
|
#WAVGI b_choir1_v127l32-21o6cp.wav
|
|
#WAVGJ b_choir1_v127l8-3o6dp.wav
|
|
#WAVGK b_choir1_v127l32-13o6dp.wav
|
|
#WAVGL b_choir1_v127l4o6e.wav
|
|
#WAVGM b_choir1_v127l32-9o6e.wav
|
|
#WAVGN b_choir1_v127l8-3o6e.wav
|
|
#WAVGO b_choir1_v127l32-13o6e.wav
|
|
#WAVGP b_choir1_v127l8-3o6fp.wav
|
|
#WAVGQ b_choir1_v127l32-13o6fp.wav
|
|
#WAVGR b_choir1_v127l32-17o6fp.wav
|
|
#WAVGS b_choir1_v127l4-7o6fp.wav
|
|
#WAVGT b_choir1_v127l32-41o6gp.wav
|
|
#WAVGU b_choir1_v127l8-15o6gp.wav
|
|
#WAVGV b_choir2_v127l8-3o4b.wav
|
|
#WAVGW b_choir2_v127l32-13o4b.wav
|
|
#WAVGX b_choir2_v127l8-5o5cp.wav
|
|
#WAVGY b_choir2_v127l32-21o5cp.wav
|
|
#WAVGZ b_choir2_v127l32o5dp.wav
|
|
#WAVH0 b_choir2_v127l8-3o5dp.wav
|
|
#WAVH1 b_choir2_v127l32-13o5dp.wav
|
|
#WAVH2 b_choir2_v127l8-15o5dp.wav
|
|
#WAVH3 b_choir2_v127l4o5e.wav
|
|
#WAVH4 b_choir2_v127l32-9o5e.wav
|
|
#WAVH5 b_choir2_v127l8-3o5e.wav
|
|
#WAVH6 b_choir2_v127l32-13o5e.wav
|
|
#WAVH7 b_choir2_v127l8-5o5e.wav
|
|
#WAVH8 b_choir2_v127l32-21o5e.wav
|
|
#WAVH9 b_choir2_v127l8-3o5fp.wav
|
|
#WAVHA b_choir2_v127l32-13o5fp.wav
|
|
#WAVHB b_choir2_v127l32-17o5fp.wav
|
|
#WAVHC b_choir2_v127l4-7o5fp.wav
|
|
#WAVHD b_choir2_v127l4o5gp.wav
|
|
#WAVHE b_choir2_v127l32-9o5gp.wav
|
|
#WAVHF b_choir2_v127l8-3o5gp.wav
|
|
#WAVHG b_choir2_v127l32-13o5gp.wav
|
|
#WAVHH b_choir2_v127l32-41o5gp.wav
|
|
#WAVHI b_choir2_v127l8-15o5gp.wav
|
|
#WAVHJ b_choir2_v127l8-3o5b.wav
|
|
#WAVHK b_choir2_v127l32-13o5b.wav
|
|
#WAVHL b_choir2_v127l32-17o5b.wav
|
|
#WAVHM b_choir2_v127l32-41o5b.wav
|
|
#WAVHN b_choir2_v127l4-7o5b.wav
|
|
#WAVHO b_plack3_v100l64-3o7cp.wav
|
|
#WAVHP b_plack3_v100l64-3o7dp.wav
|
|
#WAVHQ b_plack3_v100l64-3o7e.wav
|
|
#WAVHR b_plack3_v100l64-3o7b.wav
|
|
#WAVHS b_plack3_v100l64-3o8dp.wav
|
|
#WAVHT b_plack3_v100l64-3o8e.wav
|
|
#WAVHU b_plack4_v100l64-3o8cp.wav
|
|
#WAVHV b_plack4_v100l64-3o8dp.wav
|
|
#WAVHW b_plack4_v100l64-3o8e.wav
|
|
#WAVHX b_plack4_v100l64-3o8b.wav
|
|
#WAVHY b_plack4_v100l64-3o9dp.wav
|
|
#WAVHZ b_plack4_v100l64-3o9e.wav
|
|
#WAVI0 b_arp1_v100l16o4a.wav
|
|
#WAVI1 b_arp1_v100l16o4b.wav
|
|
#WAVI2 b_arp1_v100l16o5d.wav
|
|
#WAVI3 b_arp1_v100l16o5dp.wav
|
|
#WAVI4 b_arp1_v100l16o5e.wav
|
|
#WAVI5 b_arp1_v100l16o5fp.wav
|
|
#WAVI6 b_arp1_v100l16o5g.wav
|
|
#WAVI7 b_arp1_v100l16o5gp.wav
|
|
#WAVI8 b_arp1_v100l16o5a.wav
|
|
#WAVI9 b_arp1_v100l16o5b.wav
|
|
#WAVIA b_arp1_v100l16o6cp.wav
|
|
#WAVIB b_arp1_v100l16o6d.wav
|
|
#WAVIC b_arp1_v100l16o6dp.wav
|
|
#WAVID b_arp1_v100l16o6e.wav
|
|
#WAVIE b_arp1_v100l16o6fp.wav
|
|
#WAVIF b_arp1_v100l16o6g.wav
|
|
#WAVIG b_arp1_v100l16o6gp.wav
|
|
#WAVIH b_arp1_v100l16o6a.wav
|
|
#WAVII b_arp1_v100l16o6b.wav
|
|
#WAVIJ b_arp1_v100l16o7cp.wav
|
|
#WAVIK b_arp1_v100l16o7d.wav
|
|
#WAVIL b_arp1_v100l16o7dp.wav
|
|
#WAVIM b_arp1_v100l16o7e.wav
|
|
#WAVIN b_arp1_v100l16o7fp.wav
|
|
#WAVIO b_arp1_v100l16o7g.wav
|
|
#WAVIP b_arp1_v100l16o7gp.wav
|
|
#WAVIQ b_arp1_v100l16o7b.wav
|
|
#WAVIR b_arp1_v100l16o8cp.wav
|
|
#WAVIS b_arp1_v100l16o8dp.wav
|
|
#WAVIT b_arp1_v100l16o8e.wav
|
|
#WAVIU b_wobble1_v100l64-3o5cp.wav
|
|
#WAVIV b_wobble1_v100l8o5cp.wav
|
|
#WAVIW b_wobble1_v100l32-5o5cp.wav
|
|
#WAVIX b_wobble1_v100l32-7o5cp.wav
|
|
#WAVIY b_sonar_v100l2o6fp.wav
|
|
#WAVIZ b_lead1_v100l16o5fp.wav
|
|
#WAVJ0 b_lead1_v100l16o5b.wav
|
|
#WAVJ1 b_lead1_v100l16o6dp.wav
|
|
#WAVJ2 b_lead1_v100l16o6e.wav
|
|
#WAVJ3 b_lead1_v100l16o6fp.wav
|
|
#WAVJ4 b_lead1_v100l16o6b.wav
|
|
#WAVJ5 b_lead1_v100l16o7dp.wav
|
|
#WAVJ6 b_lead1_v100l16o7e.wav
|
|
#WAVJ7 b_lead1_v100l16o7fp.wav
|
|
#WAVJ8 b_lead1_v100l16o7b.wav
|
|
#WAVJ9 b_lead1_v100l16o8dp.wav
|
|
#WAVJA b_lead1_v100l16o8e.wav
|
|
#WAVJB b_lead1_v100l16o8fp.wav
|
|
#WAVJC b_lead1_v100l16o8b.wav
|
|
#WAVJD b_lead1_v100l16o9dp.wav
|
|
#WAVJE b_lead1_v100l16o9e.wav
|
|
#WAVJF b_piano1_v100l4o5e.wav
|
|
#WAVJG b_piano1_v100l4o5fp.wav
|
|
#WAVJH b_piano1_v100l8o5gp.wav
|
|
#WAVJI b_piano1_v100l4o5gp.wav
|
|
#WAVJJ b_piano1_v100l8-9o5gp.wav
|
|
#WAVJK b_piano1_v100l4o5a.wav
|
|
#WAVJL b_piano1_v100l8o5b.wav
|
|
#WAVJM b_piano1_v100l4o5b.wav
|
|
#WAVJN b_piano1_v100l8-9o5b.wav
|
|
#WAVJO b_piano1_v100l4o6cp.wav
|
|
#WAVJP b_piano1_v100l4o6dp.wav
|
|
#WAVJQ b_piano1_v100l16o6e.wav
|
|
#WAVJR b_piano1_v100l8o6e.wav
|
|
#WAVJS b_piano1_v100l4o6e.wav
|
|
#WAVJT b_piano1_v100l8-3o6e.wav
|
|
#WAVJU b_piano1_v100l16o6fp.wav
|
|
#WAVJV b_piano1_v100l8o6fp.wav
|
|
#WAVJW b_piano1_v100l16-3o6fp.wav
|
|
#WAVJX b_piano1_v100l4o6fp.wav
|
|
#WAVJY b_piano1_v100l16o6g.wav
|
|
#WAVJZ b_piano1_v100l4o6g.wav
|
|
#WAVK0 b_piano1_v100l8o6gp.wav
|
|
#WAVK1 b_piano1_v100l16-3o6gp.wav
|
|
#WAVK2 b_piano1_v100l4o6gp.wav
|
|
#WAVK3 b_piano1_v100l8-3o6gp.wav
|
|
#WAVK4 b_piano1_v100l4-3o6gp.wav
|
|
#WAVK5 b_piano1_v100l8-9o6gp.wav
|
|
#WAVK6 b_piano1_v100l16o6a.wav
|
|
#WAVK7 b_piano1_v100l8o6a.wav
|
|
#WAVK8 b_piano1_v100l4o6a.wav
|
|
#WAVK9 b_piano1_v100l16-5o6a.wav
|
|
#WAVKA b_piano1_v100l16o6b.wav
|
|
#WAVKB b_piano1_v100l32-3o6b.wav
|
|
#WAVKC b_piano1_v100l8o6b.wav
|
|
#WAVKD b_piano1_v100l16-3o6b.wav
|
|
#WAVKE b_piano1_v100l4o6b.wav
|
|
#WAVKF b_piano1_v100l8-3o6b.wav
|
|
#WAVKG b_piano1_v100l8-9o6b.wav
|
|
#WAVKH b_piano1_v100l4o7c.wav
|
|
#WAVKI b_piano1_v100l8o7cp.wav
|
|
#WAVKJ b_piano1_v100l16-3o7cp.wav
|
|
#WAVKK b_piano1_v100l4o7cp.wav
|
|
#WAVKL b_piano1_v100l4-3o7cp.wav
|
|
#WAVKM b_piano1_v100l16o7d.wav
|
|
#WAVKN b_piano1_v100l32-3o7d.wav
|
|
#WAVKO b_piano1_v100l4o7dp.wav
|
|
#WAVKP b_piano1_v100l8-9o7dp.wav
|
|
#WAVKQ b_piano1_v100l16o7e.wav
|
|
#WAVKR b_piano1_v100l32-3o7e.wav
|
|
#WAVKS b_piano1_v100l8o7e.wav
|
|
#WAVKT b_piano1_v100l4o7e.wav
|
|
#WAVKU b_piano1_v100l8-3o7e.wav
|
|
#WAVKV b_piano1_v100l16o7fp.wav
|
|
#WAVKW b_piano1_v100l32-3o7fp.wav
|
|
#WAVKX b_piano1_v100l8o7fp.wav
|
|
#WAVKY b_piano1_v100l16-3o7fp.wav
|
|
#WAVKZ b_piano1_v100l4o7fp.wav
|
|
#WAVL0 b_piano1_v100l32-3o7g.wav
|
|
#WAVL1 b_piano1_v100l16-3o7g.wav
|
|
#WAVL2 b_piano1_v100l4o7g.wav
|
|
#WAVL3 b_piano1_v100l8-3o7g.wav
|
|
#WAVL4 b_piano1_v100l8-5o7g.wav
|
|
#WAVL5 b_piano1_v100l16-3o7gp.wav
|
|
#WAVL6 b_piano1_v100l4o7gp.wav
|
|
#WAVL7 b_piano1_v100l8-3o7gp.wav
|
|
#WAVL8 b_piano1_v100l4-3o7gp.wav
|
|
#WAVL9 b_piano1_v100l8-9o7gp.wav
|
|
#WAVLA b_piano1_v100l32-3o7a.wav
|
|
#WAVLB b_piano1_v100l8o7a.wav
|
|
#WAVLC b_piano1_v100l16-3o7a.wav
|
|
#WAVLD b_piano1_v100l4o7a.wav
|
|
#WAVLE b_piano1_v100l8-3o7a.wav
|
|
#WAVLF b_piano1_v100l1o7a.wav
|
|
#WAVLG b_piano1_v100l32-3o7b.wav
|
|
#WAVLH b_piano1_v100l4o7b.wav
|
|
#WAVLI b_piano1_v100l1o7b.wav
|
|
#WAVLJ b_piano1_v100l8-3o8c.wav
|
|
#WAVLK b_piano1_v100l32-3o8d.wav
|
|
#WAVLL b_piano1_v100l16-3o8d.wav
|
|
#WAVLM b_piano1_v100l8-3o8d.wav
|
|
#WAVLN b_piano1_v100l32-3o8e.wav
|
|
#WAVLO b_piano1_v100l8-11o8fp.wav
|
|
#WAVLP b_piano1_v100l32-3o8g.wav
|
|
#WAVLQ b_choir3_v127l4-7o4a.wav
|
|
#WAVLR b_choir3_v127l4-7o4b.wav
|
|
#WAVLS b_choir3_v127l8-15o4b.wav
|
|
#WAVLT b_choir3_v127l4-7o5cp.wav
|
|
#WAVLU b_choir3_v127l2-3o5e.wav
|
|
#WAVLV b_choir3_v127l4-7o5e.wav
|
|
#WAVLW b_choir3_v127l8-9o5gp.wav
|
|
#WAVLX b_choir3_v127l8-11o5gp.wav
|
|
#WAVLY b_choir3_v127l4-7o5gp.wav
|
|
#WAVLZ b_choir3_v127l8-5o5b.wav
|
|
#WAVM0 b_choir3_v127l2o6cp.wav
|
|
#WAVM1 b_choir3_v127l1o6dp.wav
|
|
#WAVM2 b_choir3_v127l8-15o6dp.wav
|
|
#WAVM3 b_lead2_v100l16o4dp.wav
|
|
#WAVM4 b_lead2_v100l16o4e.wav
|
|
#WAVM5 b_lead2_v100l64-3o4gp.wav
|
|
#WAVM6 b_lead2_v100l16o4gp.wav
|
|
#WAVM7 b_lead2_v100l64-7o4b.wav
|
|
#WAVM8 b_lead2_v100l8o4b.wav
|
|
#WAVM9 b_lead2_v100l16o5cp.wav
|
|
#WAVMA b_lead2_v100l64-7o5cp.wav
|
|
#WAVMB b_lead2_v100l16o5dp.wav
|
|
#WAVMC b_lead2_v100l64-7o5dp.wav
|
|
#WAVMD b_lead2_v100l16o5e.wav
|
|
#WAVME b_lead2_v100l64-7o5e.wav
|
|
#WAVMF b_lead2_v100l16o5fp.wav
|
|
#WAVMG b_lead2_v100l64-7o5fp.wav
|
|
#WAVMH b_lead2_v100l64-3o5gp.wav
|
|
#WAVMI b_lead2_v100l16o5gp.wav
|
|
#WAVMJ b_lead2_v100l64-7o5gp.wav
|
|
#WAVMK b_lead2_v100l64-3o5b.wav
|
|
#WAVML b_lead2_v100l16o5b.wav
|
|
#WAVMM b_lead2_v100l32-3o5b.wav
|
|
#WAVMN b_lead2_v100l64-7o5b.wav
|
|
#WAVMO b_lead2_v100l8o5b.wav
|
|
#WAVMP b_lead2_v100l4o5b.wav
|
|
#WAVMQ b_lead2_v100l64-3o6cp.wav
|
|
#WAVMR b_lead2_v100l16o6cp.wav
|
|
#WAVMS b_lead2_v100l64-7o6cp.wav
|
|
#WAVMT b_lead2_v100l64-3o6dp.wav
|
|
#WAVMU b_lead2_v100l16o6dp.wav
|
|
#WAVMV b_lead2_v100l32-3o6dp.wav
|
|
#WAVMW b_lead2_v100l64-7o6dp.wav
|
|
#WAVMX b_lead2_v100l16o6e.wav
|
|
#WAVMY b_lead2_v100l64-7o6e.wav
|
|
#WAVMZ b_lead2_v100l16o6fp.wav
|
|
#WAVN0 b_lead2_v100l64-7o6fp.wav
|
|
#WAVN1 b_lead2_v100l64-3o6gp.wav
|
|
#WAVN2 b_lead2_v100l16o6gp.wav
|
|
#WAVN3 b_lead2_v100l64-3o6b.wav
|
|
#WAVN4 b_lead2_v100l16o6b.wav
|
|
#WAVN5 b_lead2_v100l32-3o6b.wav
|
|
#WAVN6 b_lead2_v100l64-7o6b.wav
|
|
#WAVN7 b_lead2_v100l4o6b.wav
|
|
#WAVN8 b_lead2_v100l64-3o7cp.wav
|
|
#WAVN9 b_lead2_v100l16o7cp.wav
|
|
#WAVNA b_lead2_v100l64-3o7dp.wav
|
|
#WAVNB b_lead2_v100l16o7dp.wav
|
|
#WAVNC b_lead2_v100l32-3o7dp.wav
|
|
#WAVND b_lead2_v100l64-7o7dp.wav
|
|
#WAVNE b_lead2_v100l16o7e.wav
|
|
#WAVNF b_lead2_v100l64-7o7e.wav
|
|
#WAVNG b_lead2_v100l64-7o7fp.wav
|
|
#WAVNH b_lead2_v100l16o7gp.wav
|
|
#WAVNI b_lead3_v100l16o6e.wav
|
|
#WAVNJ b_lead3_v100l4o6e.wav
|
|
#WAVNK b_lead3_v100l16o6fp.wav
|
|
#WAVNL b_lead3_v100l4o6fp.wav
|
|
#WAVNM b_lead3_v100l8-3o6fp.wav
|
|
#WAVNN b_lead3_v100l16o6g.wav
|
|
#WAVNO b_lead3_v100l4o6g.wav
|
|
#WAVNP b_lead3_v100l8o6gp.wav
|
|
#WAVNQ b_lead3_v100l8-7o6gp.wav
|
|
#WAVNR b_lead3_v100l16o6a.wav
|
|
#WAVNS b_lead3_v100l4o6a.wav
|
|
#WAVNT b_lead3_v100l16-5o6a.wav
|
|
#WAVNU b_lead3_v100l16o6b.wav
|
|
#WAVNV b_lead3_v100l32-3o6b.wav
|
|
#WAVNW b_lead3_v100l8o6b.wav
|
|
#WAVNX b_lead3_v100l4o6b.wav
|
|
#WAVNY b_lead3_v100l8-9o6b.wav
|
|
#WAVNZ b_lead3_v100l4o7c.wav
|
|
#WAVO0 b_lead3_v100l16o7d.wav
|
|
#WAVO1 b_lead3_v100l32-3o7d.wav
|
|
#WAVO2 b_lead3_v100l4o7dp.wav
|
|
#WAVO3 b_lead3_v100l16o7e.wav
|
|
#WAVO4 b_lead3_v100l32-3o7e.wav
|
|
#WAVO5 b_lead3_v100l8o7e.wav
|
|
#WAVO6 b_lead3_v100l4o7e.wav
|
|
#WAVO7 b_lead3_v100l8-3o7e.wav
|
|
#WAVO8 b_lead3_v100l16o7fp.wav
|
|
#WAVO9 b_lead3_v100l32-3o7fp.wav
|
|
#WAVOA b_lead3_v100l8o7fp.wav
|
|
#WAVOB b_lead3_v100l4o7fp.wav
|
|
#WAVOC b_lead3_v100l32-3o7g.wav
|
|
#WAVOD b_lead3_v100l16-3o7g.wav
|
|
#WAVOE b_lead3_v100l4o7g.wav
|
|
#WAVOF b_lead3_v100l8-3o7g.wav
|
|
#WAVOG b_lead3_v100l8-5o7g.wav
|
|
#WAVOH b_lead3_v100l4o7gp.wav
|
|
#WAVOI b_lead3_v100l8-3o7gp.wav
|
|
#WAVOJ b_lead3_v100l4-3o7gp.wav
|
|
#WAVOK b_lead3_v100l8-9o7gp.wav
|
|
#WAVOL b_lead3_v100l32-3o7a.wav
|
|
#WAVOM b_lead3_v100l8o7a.wav
|
|
#WAVON b_lead3_v100l16-3o7a.wav
|
|
#WAVOO b_lead3_v100l4o7a.wav
|
|
#WAVOP b_lead3_v100l8-3o7a.wav
|
|
#WAVOQ b_lead3_v100l1o7a.wav
|
|
#WAVOR b_lead3_v100l32-3o7b.wav
|
|
#WAVOS b_lead3_v100l4o7b.wav
|
|
#WAVOT b_lead3_v100l1o7b.wav
|
|
#WAVOU b_lead3_v100l8-3o8c.wav
|
|
#WAVOV b_lead3_v100l32-3o8d.wav
|
|
#WAVOW b_lead3_v100l16-3o8d.wav
|
|
#WAVOX b_lead3_v100l8-3o8d.wav
|
|
#WAVOY b_lead3_v100l32-3o8e.wav
|
|
#WAVOZ b_lead3_v100l8-11o8fp.wav
|
|
#WAVP0 b_lead3_v100l32-3o8g.wav
|
|
#WAVP1 b_wobble_v100l2o3fp.wav
|
|
#WAVP2 b_wobble_v100l2o3g.wav
|
|
#WAVP3 b_wobble_v100l2o3a.wav
|
|
#WAVP4 b_wobble_v100l2o3b.wav
|
|
#WAVP5 b_c_piano_v100l32-3o5b.wav
|
|
#WAVP6 b_c_piano_v100l32-3o6fp.wav
|
|
#WAVP7 b_c_piano_v100l32-3o6b.wav
|
|
#WAVP8 b_c_piano_v100l32-3o7cp.wav
|
|
#WAVP9 b_c_piano_v100l32-3o7d.wav
|
|
#WAVPA b_c_piano_v100l32-3o7fp.wav
|
|
#WAVPB b_c_piano_v100l32-3o7a.wav
|
|
#WAVPC b_c_piano_v100l32-3o7b.wav
|
|
#WAVPD b_c_piano_v100l32-3o8cp.wav
|
|
#WAVPE b_c_piano_v100l32-3o8d.wav
|
|
#WAVPF b_lead4_v100l16o4fp.wav
|
|
#WAVPG b_lead4_v100l16o4b.wav
|
|
#WAVPH b_lead4_v100l8o4b.wav
|
|
#WAVPI b_lead4_v100l16o5cp.wav
|
|
#WAVPJ b_lead4_v100l16o5d.wav
|
|
#WAVPK b_lead4_v100l16o5e.wav
|
|
#WAVPL b_lead4_v100l16o5fp.wav
|
|
#WAVPM b_lead4_v100l16o5a.wav
|
|
#WAVPN b_lead4_v100l8o5a.wav
|
|
#WAVPO b_lead4_v100l16o5b.wav
|
|
#WAVPP b_lead4_v100l8o5b.wav
|
|
#WAVPQ b_lead4_v100l16o6cp.wav
|
|
#WAVPR b_lead4_v100l8o6cp.wav
|
|
#WAVPS b_lead4_v100l16o6d.wav
|
|
#WAVPT b_lead4_v100l8o6d.wav
|
|
#WAVPU b_lead4_v100l16o6e.wav
|
|
#WAVPV b_lead4_v100l8o6e.wav
|
|
#WAVPW b_lead4_v100l16o6fp.wav
|
|
#WAVPX b_lead4_v100l8o6fp.wav
|
|
#WAVPY b_lead4_v100l8o6g.wav
|
|
#WAVPZ b_lead4_v100l16o6a.wav
|
|
#WAVQ0 b_lead4_v100l8o6a.wav
|
|
#WAVQ1 b_lead4_v100l16o6b.wav
|
|
#WAVQ2 b_lead4_v100l8o6b.wav
|
|
#WAVQ3 b_lead4_v100l16o7cp.wav
|
|
#WAVQ4 b_lead4_v100l8o7cp.wav
|
|
#WAVQ5 b_lead4_v100l16o7d.wav
|
|
#WAVQ6 b_lead4_v100l8o7d.wav
|
|
#WAVQ7 b_lead5_v100l16o5fp.wav
|
|
#WAVQ8 b_lead5_v100l16o5b.wav
|
|
#WAVQ9 b_lead5_v100l8o5b.wav
|
|
#WAVQA b_lead5_v100l16o6cp.wav
|
|
#WAVQB b_lead5_v100l16o6d.wav
|
|
#WAVQC b_lead5_v100l16o6e.wav
|
|
#WAVQD b_lead5_v100l16o6fp.wav
|
|
#WAVQE b_lead5_v100l16o6a.wav
|
|
#WAVQF b_lead5_v100l8o6a.wav
|
|
#WAVQG b_lead5_v100l16o6b.wav
|
|
#WAVQH b_lead5_v100l8o6b.wav
|
|
#WAVQI b_lead5_v100l16o7cp.wav
|
|
#WAVQJ b_lead5_v100l8o7cp.wav
|
|
#WAVQK b_lead5_v100l16o7d.wav
|
|
#WAVQL b_lead5_v100l8o7d.wav
|
|
#WAVQM b_lead5_v100l16o7e.wav
|
|
#WAVQN b_lead5_v100l8o7e.wav
|
|
#WAVQO b_lead5_v100l16o7fp.wav
|
|
#WAVQP b_lead5_v100l8o7fp.wav
|
|
#WAVQQ b_lead5_v100l8o7g.wav
|
|
#WAVQR b_lead5_v100l16o7a.wav
|
|
#WAVQS b_lead5_v100l8o7a.wav
|
|
#WAVQT b_lead5_v100l16o7b.wav
|
|
#WAVQU b_lead5_v100l8o7b.wav
|
|
#WAVQV b_lead5_v100l16o8cp.wav
|
|
#WAVQW b_lead5_v100l8o8cp.wav
|
|
#WAVQX b_lead5_v100l16o8d.wav
|
|
#WAVQY b_lead5_v100l8o8d.wav
|
|
#WAVQZ b_arp2_v100l16o4cp.wav
|
|
#WAVR0 b_arp2_v100l16o4d.wav
|
|
#WAVR1 b_arp2_v100l16o4fp.wav
|
|
#WAVR2 b_arp2_v100l16o4g.wav
|
|
#WAVR3 b_arp2_v100l16o5cp.wav
|
|
#WAVR4 b_arp2_v100l16o5d.wav
|
|
#WAVR5 b_arp2_v100l16o5fp.wav
|
|
#WAVR6 b_arp2_v100l16o5g.wav
|
|
#WAVR7 b_arp2_v100l16o6cp.wav
|
|
#WAVR8 b_arp2_v100l16o6d.wav
|
|
#WAVR9 b_arp2_v100l16o6fp.wav
|
|
#WAVRA b_arp2_v100l16o6g.wav
|
|
#WAVRB b_arp2_v100l32o6a.wav
|
|
#WAVRC b_arp2_v100l16o7cp.wav
|
|
#WAVRD b_arp2_v100l16o7d.wav
|
|
#WAVRE b_arp2_v100l16o7g.wav
|
|
#WAVRF b_arp2_v100l32o7a.wav
|
|
#WAVRG b_lead6_v100l16o5b.wav
|
|
#WAVRH b_lead6_v100l16o6d.wav
|
|
#WAVRI b_lead6_v100l8o6d.wav
|
|
#WAVRJ b_lead6_v100l8o6e.wav
|
|
#WAVRK b_lead6_v100l16o6fp.wav
|
|
#WAVRL b_lead6_v100l8-17o6fp.wav
|
|
#WAVRM b_lead6_v100l4o6a.wav
|
|
#WAVRN b_lead6_v100l16o6b.wav
|
|
#WAVRO b_lead6_v100l4o6b.wav
|
|
#WAVRP b_lead6_v100l8o7cp.wav
|
|
#WAVRQ b_lead6_v100l4o7cp.wav
|
|
#WAVRR b_lead6_v100l8-3o7cp.wav
|
|
#WAVRS b_lead6_v100l8o7d.wav
|
|
#WAVRT b_lead6_v100l4o7d.wav
|
|
#WAVRU b_lead6_v100l1o7d.wav
|
|
#WAVRV b_lead6_v100l8o7e.wav
|
|
#WAVRW b_lead6_v100l4o7e.wav
|
|
#WAVRX b_lead6_v100l8o7fp.wav
|
|
#WAVRY b_lead6_v100l2o7fp.wav
|
|
#WAVRZ b_lead6_v100l8-17o7fp.wav
|
|
#WAVS0 b_lead6_v100l8o7g.wav
|
|
#WAVS1 b_ststr1_v127l16o5e.wav
|
|
#WAVS2 b_ststr1_v127l16o5fp.wav
|
|
#WAVS3 b_ststr1_v127l16o5a.wav
|
|
#WAVS4 b_ststr1_v127l16o5b.wav
|
|
#WAVS5 b_ststr1_v127l16o6cp.wav
|
|
#WAVS6 b_ststr1_v127l16o6d.wav
|
|
#WAVS7 b_ststr1_v127l16o6e.wav
|
|
#WAVS8 b_ststr1_v127l16o6fp.wav
|
|
#WAVS9 b_ststr2_v127l16o6e.wav
|
|
#WAVSA b_ststr2_v127l16o6fp.wav
|
|
#WAVSB b_ststr2_v127l16o6a.wav
|
|
#WAVSC b_ststr2_v127l16o6b.wav
|
|
#WAVSD b_ststr2_v127l16o7cp.wav
|
|
#WAVSE b_ststr2_v127l16o7d.wav
|
|
#WAVSF b_ststr2_v127l16o7e.wav
|
|
#WAVSG b_ststr2_v127l16o7fp.wav
|
|
#WAVSI su-35bmsbgm1.wav
|
|
#WAVSJ su-35bmsbgm2.wav
|
|
#WAVSK su-35bmsbgm3.wav
|
|
|
|
|
|
*---------------------- EXPANSION FIELD
|
|
#BMPSM bga.wmv
|
|
|
|
|
|
|
|
*---------------------- MAIN DATA FIELD
|
|
|
|
|
|
|
|
#00101:00
|
|
#00101:00
|
|
#00101:00
|
|
#00101:00
|
|
#00101:00
|
|
#00101:00
|
|
#00101:00
|
|
#00101:00
|
|
#00101:00
|
|
#00101:00
|
|
#00101:00
|
|
#00101:00
|
|
#00101:00
|
|
#00101:00
|
|
#00101:00
|
|
#00101:00
|
|
#00101:00
|
|
#00101:00
|
|
#00101:00
|
|
#00101:00
|
|
#00101:00
|
|
#00101:00
|
|
#00101:00000000005R0000
|
|
#00101:00
|
|
#00101:00
|
|
#00101:00
|
|
#00101:00
|
|
#00101:00
|
|
#00101:00
|
|
#00101:00
|
|
#00101:00
|
|
#00101:00
|
|
#00101:00
|
|
#00101:00
|
|
#00101:00
|
|
#00101:00
|
|
#00101:00
|
|
#00101:00
|
|
#00101:00
|
|
#00101:00
|
|
#00101:00
|
|
#00101:00
|
|
#00101:00
|
|
#00101:00
|
|
#00101:00
|
|
#00101:00
|
|
#00101:00
|
|
#00101:00
|
|
#00101:00
|
|
#00101:00
|
|
#00101:00
|
|
#00101:00
|
|
#00101:00
|
|
#00101:00
|
|
#00101:00
|
|
#00101:00
|
|
#00101:00
|
|
#00101:00
|
|
#00101:00
|
|
#00101:00
|
|
#00101:00
|
|
#00101:00
|
|
#00101:00
|
|
#00101:00
|
|
#00101:00
|
|
#00101:00
|
|
#00101:00
|
|
#00101:00
|
|
#00101:00
|
|
#00101:00
|
|
#00101:00
|
|
#00101:00
|
|
#00101:00
|
|
#00101:00
|
|
#00101:00
|
|
#00101:00
|
|
#00101:00
|
|
#00101:00
|
|
#00101:00
|
|
#00101:00
|
|
#00101:00
|
|
#00101:00
|
|
#00101:00
|
|
#00101:00
|
|
#00101:00
|
|
#00101:00
|
|
#00101:00
|
|
#00101:00
|
|
#00101:00
|
|
#00101:SI
|
|
#00104:SM
|
|
|
|
#00201:00
|
|
#00201:00
|
|
#00201:00
|
|
#00201:00
|
|
#00201:00
|
|
#00201:00
|
|
#00201:00
|
|
#00201:00
|
|
#00201:00
|
|
#00201:00
|
|
#00201:00
|
|
#00201:00
|
|
#00201:00
|
|
#00201:00
|
|
#00201:00
|
|
#00201:00
|
|
#00201:00
|
|
#00201:00
|
|
#00201:00
|
|
#00201:00
|
|
#00201:00
|
|
#00201:00
|
|
#00201:00
|
|
#00201:00
|
|
#00201:00
|
|
#00201:00
|
|
#00201:00
|
|
#00201:00
|
|
#00201:00
|
|
#00201:00
|
|
#00201:00
|
|
#00201:00
|
|
#00201:00
|
|
#00201:00
|
|
#00201:00
|
|
#00201:00
|
|
#00201:00
|
|
#00201:BF0000BF0000BF00
|
|
#00201:BL0000BL0000BL00
|
|
#00201:00
|
|
#00201:C0
|
|
#00211:00S200000000S100
|
|
#00212:0000S400000000S3
|
|
#00213:0000000000S30000
|
|
#00214:00S5
|
|
#00215:S40000S600000000
|
|
#00216:5Q
|
|
#00218:B30000B30000B300
|
|
|
|
#00301:00
|
|
#00301:00
|
|
#00301:00
|
|
#00301:00
|
|
#00301:00
|
|
#00301:00
|
|
#00301:00
|
|
#00301:00
|
|
#00301:00
|
|
#00301:00
|
|
#00301:00
|
|
#00301:00
|
|
#00301:00
|
|
#00301:00
|
|
#00301:00
|
|
#00301:00
|
|
#00301:00
|
|
#00301:00
|
|
#00301:00
|
|
#00301:00
|
|
#00301:00
|
|
#00301:00
|
|
#00301:00
|
|
#00301:00
|
|
#00301:00
|
|
#00301:00
|
|
#00301:00
|
|
#00301:00
|
|
#00301:00
|
|
#00301:00
|
|
#00301:00
|
|
#00301:00
|
|
#00301:00
|
|
#00301:00
|
|
#00301:00
|
|
#00301:00
|
|
#00301:00
|
|
#00301:00BF0000BF00BF00
|
|
#00301:00BL0000BL00BL00
|
|
#00311:00S20000S5000000
|
|
#00312:000000S1
|
|
#00313:000000S600S20000
|
|
#00314:00000000000000S3
|
|
#00315:S4S40000
|
|
#00318:00B30000B300B300
|
|
|
|
#00401:00
|
|
#00401:00
|
|
#00401:00
|
|
#00401:00
|
|
#00401:00
|
|
#00401:00
|
|
#00401:00
|
|
#00401:00
|
|
#00401:00
|
|
#00401:00
|
|
#00401:00
|
|
#00401:00
|
|
#00401:00
|
|
#00401:00
|
|
#00401:00
|
|
#00401:00
|
|
#00401:00
|
|
#00401:00
|
|
#00401:00
|
|
#00401:00
|
|
#00401:00
|
|
#00401:00
|
|
#00401:00
|
|
#00401:00
|
|
#00401:00
|
|
#00401:00
|
|
#00401:00
|
|
#00401:00
|
|
#00401:00
|
|
#00401:00
|
|
#00401:00
|
|
#00401:00
|
|
#00401:00
|
|
#00401:00
|
|
#00401:00
|
|
#00401:00
|
|
#00401:00
|
|
#00401:BF0000BF0000BF00
|
|
#00401:BL0000BL0000BL00
|
|
#00411:00S200000000S100
|
|
#00412:00S40000
|
|
#00413:0000000000S300S3
|
|
#00414:00S5
|
|
#00415:S40000S600000000
|
|
#00418:B30000B30000B300
|
|
|
|
#00501:00
|
|
#00501:00
|
|
#00501:00
|
|
#00501:00
|
|
#00501:00
|
|
#00501:00
|
|
#00501:00
|
|
#00501:00
|
|
#00501:00
|
|
#00501:00
|
|
#00501:00
|
|
#00501:00
|
|
#00501:00
|
|
#00501:00
|
|
#00501:00
|
|
#00501:00
|
|
#00501:00
|
|
#00501:00
|
|
#00501:00
|
|
#00501:00
|
|
#00501:00
|
|
#00501:00
|
|
#00501:00
|
|
#00501:00
|
|
#00501:00
|
|
#00501:00
|
|
#00501:00
|
|
#00501:00
|
|
#00501:00
|
|
#00501:00
|
|
#00501:00
|
|
#00501:00
|
|
#00501:00
|
|
#00501:00
|
|
#00501:00
|
|
#00501:00
|
|
#00501:00
|
|
#00501:00BF00BF00BF0000
|
|
#00501:00BL00BL00BL0000
|
|
#00511:00000000000000S3
|
|
#00512:00S2S200
|
|
#00513:000000S5
|
|
#00514:00S700S600S60000
|
|
#00518:00B300B300B30000
|
|
#00519:S8
|
|
|
|
#00601:00
|
|
#00601:00
|
|
#00601:00
|
|
#00601:00
|
|
#00601:00
|
|
#00601:BY
|
|
#00601:00
|
|
#00601:00
|
|
#00601:00
|
|
#00601:00
|
|
#00601:00
|
|
#00601:00
|
|
#00601:00
|
|
#00601:00
|
|
#00601:00
|
|
#00601:00
|
|
#00601:00
|
|
#00601:00
|
|
#00601:00
|
|
#00601:00
|
|
#00601:00
|
|
#00601:00
|
|
#00601:00
|
|
#00601:00
|
|
#00601:00
|
|
#00601:00
|
|
#00601:00
|
|
#00601:00
|
|
#00601:00
|
|
#00601:00
|
|
#00601:00
|
|
#00601:00
|
|
#00601:00
|
|
#00601:00
|
|
#00601:00
|
|
#00601:00
|
|
#00601:00
|
|
#00601:BF0000BF0000BF00
|
|
#00601:BL0000BL0000BL00
|
|
#00611:00S200000000S100
|
|
#00612:00S40000
|
|
#00613:0000000000S30000
|
|
#00614:00000000S50000S3
|
|
#00615:S40000S600000000
|
|
#00618:B30000B30000B300
|
|
|
|
#00701:00
|
|
#00701:00
|
|
#00701:00
|
|
#00701:00
|
|
#00701:00
|
|
#00701:00
|
|
#00701:00
|
|
#00701:00
|
|
#00701:00
|
|
#00701:00
|
|
#00701:00
|
|
#00701:00
|
|
#00701:00
|
|
#00701:00
|
|
#00701:00
|
|
#00701:00
|
|
#00701:00
|
|
#00701:00
|
|
#00701:00
|
|
#00701:00
|
|
#00701:00
|
|
#00701:00
|
|
#00701:00
|
|
#00701:00
|
|
#00701:00
|
|
#00701:00
|
|
#00701:00
|
|
#00701:00
|
|
#00701:00
|
|
#00701:00
|
|
#00701:00
|
|
#00701:00
|
|
#00701:00
|
|
#00701:00
|
|
#00701:00
|
|
#00701:00
|
|
#00701:00
|
|
#00701:00BF0000BD00BD00
|
|
#00701:00BL0000BK00BK00
|
|
#00701:00
|
|
#00701:00BU
|
|
#00711:00S200000000S100
|
|
#00712:00S4B1B1
|
|
#00713:0000000000S200S3
|
|
#00714:00S5
|
|
#00715:S40000S600000000
|
|
#00718:00B3000000000000
|
|
|
|
#00801:00
|
|
#00801:00
|
|
#00801:00
|
|
#00801:00
|
|
#00801:00
|
|
#00801:00
|
|
#00801:00
|
|
#00801:BT
|
|
#00801:00
|
|
#00801:00
|
|
#00801:00
|
|
#00801:00
|
|
#00801:00
|
|
#00801:00
|
|
#00801:00
|
|
#00801:00
|
|
#00801:00
|
|
#00801:00
|
|
#00801:00
|
|
#00801:00
|
|
#00801:00
|
|
#00801:00
|
|
#00801:00
|
|
#00801:00
|
|
#00801:00
|
|
#00801:00
|
|
#00801:00
|
|
#00801:00
|
|
#00801:00
|
|
#00801:00
|
|
#00801:00
|
|
#00801:00
|
|
#00801:00
|
|
#00801:00
|
|
#00801:00
|
|
#00801:00
|
|
#00801:00
|
|
#00801:BB0000BB0000BB00
|
|
#00801:BI0000BI0000BI00
|
|
#00811:AZ0000AZ0000AZ00
|
|
#00812:00S2000000000000
|
|
#00813:000000S1
|
|
#00814:0000000000S30000
|
|
#00815:S400S400000000S3
|
|
#00818:00S5
|
|
#00819:000000S600000000
|
|
|
|
#00901:00
|
|
#00901:00
|
|
#00901:00
|
|
#00901:00
|
|
#00901:00
|
|
#00901:00
|
|
#00901:00
|
|
#00901:BV
|
|
#00901:00
|
|
#00901:00
|
|
#00901:00
|
|
#00901:00
|
|
#00901:00
|
|
#00901:00
|
|
#00901:00
|
|
#00901:00
|
|
#00901:00
|
|
#00901:00
|
|
#00901:00
|
|
#00901:00
|
|
#00901:00
|
|
#00901:00
|
|
#00901:00
|
|
#00901:00
|
|
#00901:00
|
|
#00901:00
|
|
#00901:00
|
|
#00901:00
|
|
#00901:00
|
|
#00901:00
|
|
#00901:00
|
|
#00901:00
|
|
#00901:00
|
|
#00901:00
|
|
#00901:00
|
|
#00901:00
|
|
#00901:00
|
|
#00901:BD0000BD00BDBD00
|
|
#00901:BK0000BK00BKBK00
|
|
#00901:00
|
|
#00901:00
|
|
#00901:00
|
|
#00901:00
|
|
#00901:00
|
|
#00901:00
|
|
#00901:00
|
|
#00901:00
|
|
#00901:00
|
|
#00901:00
|
|
#00901:00
|
|
#00901:00
|
|
#00901:00
|
|
#00901:00
|
|
#00901:00
|
|
#00901:00
|
|
#00901:00
|
|
#00901:00
|
|
#00901:00
|
|
#00901:00
|
|
#00901:00
|
|
#00901:00
|
|
#00901:00
|
|
#00901:00
|
|
#00901:00
|
|
#00901:00
|
|
#00901:00
|
|
#00901:00
|
|
#00901:00
|
|
#00901:00
|
|
#00901:00
|
|
#00901:00
|
|
#00901:00
|
|
#00901:00
|
|
#00901:00
|
|
#00901:00
|
|
#00901:00
|
|
#00901:00
|
|
#00901:00
|
|
#00901:00
|
|
#00901:000000000000SASB
|
|
#00911:00S2S200
|
|
#00912:000000S600S600S3
|
|
#00914:B10000B100B1B100
|
|
#00918:00S700000000S500
|
|
#00919:S8
|
|
|
|
#01001:00
|
|
#01001:00
|
|
#01001:00
|
|
#01001:00
|
|
#01001:00
|
|
#01001:00
|
|
#01001:00
|
|
#01001:00
|
|
#01001:00
|
|
#01001:00
|
|
#01001:00
|
|
#01001:00
|
|
#01001:00
|
|
#01001:00
|
|
#01001:00
|
|
#01001:00
|
|
#01001:00
|
|
#01001:00
|
|
#01001:00
|
|
#01001:00
|
|
#01001:00
|
|
#01001:00
|
|
#01001:00
|
|
#01001:00
|
|
#01001:00
|
|
#01001:00
|
|
#01001:00
|
|
#01001:00
|
|
#01001:00
|
|
#01001:00
|
|
#01001:00
|
|
#01001:00
|
|
#01001:00
|
|
#01001:00
|
|
#01001:00
|
|
#01001:00
|
|
#01001:00
|
|
#01001:00
|
|
#01001:BL0000BL0000BL00
|
|
#01001:00
|
|
#01001:BZ
|
|
#01011:2H00002H00002H00
|
|
#01012:00SA00000000B3S3
|
|
#01013:B300S4B300S3S100
|
|
#01014:BFS200S6S50000SB
|
|
#01015:SCSC00S9
|
|
#01016:2Z00002Z00002Z00
|
|
#01018:000000SE00SB0000
|
|
#01019:S40000BFSD00BF00
|
|
|
|
#01101:00
|
|
#01101:00
|
|
#01101:00
|
|
#01101:00
|
|
#01101:00
|
|
#01101:00
|
|
#01101:00
|
|
#01101:00
|
|
#01101:00
|
|
#01101:00
|
|
#01101:00
|
|
#01101:00
|
|
#01101:00
|
|
#01101:00
|
|
#01101:00
|
|
#01101:00
|
|
#01101:00
|
|
#01101:00
|
|
#01101:00
|
|
#01101:00
|
|
#01101:00
|
|
#01101:00
|
|
#01101:00
|
|
#01101:00
|
|
#01101:00
|
|
#01101:00
|
|
#01101:00
|
|
#01101:00
|
|
#01101:00
|
|
#01101:00
|
|
#01101:00
|
|
#01101:00
|
|
#01101:00
|
|
#01101:00
|
|
#01101:00
|
|
#01101:00
|
|
#01101:00
|
|
#01101:00
|
|
#01101:00BL0000BL00BL00
|
|
#01111:002H00002H002H00
|
|
#01112:00S20000S500B300
|
|
#01113:SC00SC0000S2S100
|
|
#01114:00SA00S6BF0000S3
|
|
#01115:00S4SDS9
|
|
#01116:002Z00002Y002Y00
|
|
#01118:S4B300SE00SA00SB
|
|
#01119:00BF0000B300BF00
|
|
|
|
#01201:00
|
|
#01201:00
|
|
#01201:00
|
|
#01201:00
|
|
#01201:00
|
|
#01201:00
|
|
#01201:00
|
|
#01201:00
|
|
#01201:00
|
|
#01201:00
|
|
#01201:00
|
|
#01201:00
|
|
#01201:00
|
|
#01201:00
|
|
#01201:00
|
|
#01201:00
|
|
#01201:00
|
|
#01201:00
|
|
#01201:00
|
|
#01201:00
|
|
#01201:00
|
|
#01201:00
|
|
#01201:00
|
|
#01201:00
|
|
#01201:00
|
|
#01201:00
|
|
#01201:00
|
|
#01201:00
|
|
#01201:00
|
|
#01201:00
|
|
#01201:00
|
|
#01201:00
|
|
#01201:00
|
|
#01201:00
|
|
#01201:00
|
|
#01201:00
|
|
#01201:00
|
|
#01201:00
|
|
#01201:BL0000BL0000BL00
|
|
#01201:00
|
|
#01201:BZ
|
|
#01211:2H00002H00002H00
|
|
#01212:00SA00B30000S1S3
|
|
#01213:B300000000S3B300
|
|
#01214:00S2S400S50000SB
|
|
#01215:SC0000S60000S900
|
|
#01216:2Z00002Z00002Z00
|
|
#01218:BF00SCSE00SB0000
|
|
#01219:S40000BFSD00BF00
|
|
|
|
#01301:00
|
|
#01301:00
|
|
#01301:00
|
|
#01301:00
|
|
#01301:00
|
|
#01301:00
|
|
#01301:00
|
|
#01301:00
|
|
#01301:00
|
|
#01301:00
|
|
#01301:00
|
|
#01301:00
|
|
#01301:00
|
|
#01301:00
|
|
#01301:00
|
|
#01301:00
|
|
#01301:00
|
|
#01301:00
|
|
#01301:00
|
|
#01301:00
|
|
#01301:00
|
|
#01301:00
|
|
#01301:00
|
|
#01301:00
|
|
#01301:00
|
|
#01301:00
|
|
#01301:00
|
|
#01301:00
|
|
#01301:00
|
|
#01301:00
|
|
#01301:00
|
|
#01301:00
|
|
#01301:00
|
|
#01301:00
|
|
#01301:00
|
|
#01301:00
|
|
#01301:00
|
|
#01301:00
|
|
#01301:00BL00BL00BL0000
|
|
#01311:002H002H002E2D2D
|
|
#01312:00B300B3SA000000
|
|
#01313:00000000S20000000000B300002D002D
|
|
#01314:00S700BFS200S5S3
|
|
#01315:SG00SAS600SE00SB
|
|
#01316:002Y002Y00300000
|
|
#01318:00SF000000BFSD00
|
|
#01319:S8BF00SE00S60000
|
|
|
|
#01401:0002000400060008000A000C000E000G
|
|
#01401:00000I0J00000L0M00000O0P00000R0S
|
|
#01401:00170017
|
|
#01401:0016001600160016
|
|
#01401:00
|
|
#01401:000000000000001C0000000000000000
|
|
#01401:00
|
|
#01401:00
|
|
#01401:00
|
|
#01401:00
|
|
#01401:00
|
|
#01401:00
|
|
#01401:00
|
|
#01401:00
|
|
#01401:00
|
|
#01401:00
|
|
#01401:00
|
|
#01401:00
|
|
#01401:00
|
|
#01401:00
|
|
#01401:00
|
|
#01401:00
|
|
#01401:00
|
|
#01401:00
|
|
#01401:00
|
|
#01401:00
|
|
#01401:00
|
|
#01401:00
|
|
#01401:00
|
|
#01401:00
|
|
#01401:00
|
|
#01401:00
|
|
#01401:00
|
|
#01401:00
|
|
#01401:00
|
|
#01401:00
|
|
#01401:AY0000AY0000AY00
|
|
#01401:BA0000BA0000BA00
|
|
#01401:BH0000BH0000BH00
|
|
#01401:00
|
|
#01401:BS
|
|
#01411:2G002G072G002G0F
|
|
#01412:1819001B0N0BS100
|
|
#01413:00S4S50D
|
|
#01414:0HSA1A001D1E0Q1G
|
|
#01415:S400SCS6SDS300S3
|
|
#01416:34
|
|
#01418:SC030KSE00SBS9SB
|
|
#01419:01S2050009001F00
|
|
|
|
#01501:0002000400060008000A000C000E000G
|
|
#01501:00000U0V00000X0Y0Z00101100001314
|
|
#01501:00
|
|
#01501:0016171600161716
|
|
#01501:00
|
|
#01501:000000000000001L001N000000000000
|
|
#01501:00
|
|
#01501:00
|
|
#01501:00
|
|
#01501:00
|
|
#01501:00
|
|
#01501:00
|
|
#01501:00
|
|
#01501:00
|
|
#01501:00
|
|
#01501:00
|
|
#01501:00
|
|
#01501:00
|
|
#01501:00
|
|
#01501:00
|
|
#01501:00
|
|
#01501:00
|
|
#01501:00
|
|
#01501:00
|
|
#01501:00
|
|
#01501:00
|
|
#01501:00
|
|
#01501:00
|
|
#01501:00
|
|
#01501:00
|
|
#01501:00
|
|
#01501:00
|
|
#01501:00
|
|
#01501:00
|
|
#01501:00
|
|
#01501:00
|
|
#01501:00AY0000AY00AY00
|
|
#01501:00BA0000BA00BA00
|
|
#01501:00BH0000BH00BH00
|
|
#01511:2G2G2G2G
|
|
#01512:S4S20W1KS500S1S3
|
|
#01513:1H0005SE00S2001Q
|
|
#01514:001I1J001M1O1P00
|
|
#01515:SC00S40700SA12SB
|
|
#01518:0TSASC00SD00S900
|
|
#01519:010300S6090B0D0F
|
|
|
|
#01601:0002000400060008000A000C000E000G
|
|
#01601:00000I0J00000L0M00000O0P00000R0S
|
|
#01601:00
|
|
#01601:0016171600161716
|
|
#01601:00
|
|
#01601:000000000000001V0000000000000000
|
|
#01601:00
|
|
#01601:00
|
|
#01601:00
|
|
#01601:00
|
|
#01601:00
|
|
#01601:00
|
|
#01601:00
|
|
#01601:00
|
|
#01601:00
|
|
#01601:00
|
|
#01601:00
|
|
#01601:00
|
|
#01601:00
|
|
#01601:00
|
|
#01601:00
|
|
#01601:00
|
|
#01601:00
|
|
#01601:00
|
|
#01601:00
|
|
#01601:00
|
|
#01601:00
|
|
#01601:00
|
|
#01601:00
|
|
#01601:00
|
|
#01601:00
|
|
#01601:00
|
|
#01601:00
|
|
#01601:00
|
|
#01601:00
|
|
#01601:00
|
|
#01601:AZ0000AZ0000AZ00
|
|
#01601:BB0000BB0000BB00
|
|
#01601:BI0000BI0000BI00
|
|
#01601:00
|
|
#01601:BT
|
|
#01611:2G1S2G002GSB2G00
|
|
#01612:S4001T1U1W001Y1Z
|
|
#01613:0HS2S400S51X0QS3
|
|
#01614:1RSA00000900S1SB
|
|
#01615:0100SCS600S3S900
|
|
#01618:SC000KSESD000D00
|
|
#01619:000305070N0B000F
|
|
|
|
#01701:000200040006000800000B000D000F00
|
|
#01701:00000U0V00000X0Y0Z00101112001314
|
|
#01701:0016001600160016
|
|
#01701:00170017
|
|
#01701:00000000000000002627000000002A2B
|
|
#01701:00000000002300250000000000000000
|
|
#01701:00
|
|
#01701:0000000000000000000000000000000G
|
|
#01701:00
|
|
#01701:00
|
|
#01701:00
|
|
#01701:00
|
|
#01701:00
|
|
#01701:00
|
|
#01701:00
|
|
#01701:00
|
|
#01701:00
|
|
#01701:00
|
|
#01701:00
|
|
#01701:00
|
|
#01701:00
|
|
#01701:00
|
|
#01701:00
|
|
#01701:00
|
|
#01701:00
|
|
#01701:00
|
|
#01701:00
|
|
#01701:00
|
|
#01701:00
|
|
#01701:00
|
|
#01701:00
|
|
#01701:00
|
|
#01701:00
|
|
#01701:00
|
|
#01701:00
|
|
#01701:00
|
|
#01701:B10000B10000B100
|
|
#01701:BD0000BD0000BD00
|
|
#01701:BK0000BK0000BK00
|
|
#01701:00
|
|
#01701:BV
|
|
#01711:2E2E2E2E2D2DSDS3
|
|
#01712:0TS700S6SA28292D
|
|
#01713:20000000S2000000002D00002D000000
|
|
#01714:0000210022002400000A002D0000SB00
|
|
#01715:S8000300SA0000000900000C002D0000
|
|
#01718:SG00SF000W00SE000000S600000E0000
|
|
#01719:0100000005000700S200SE00S500002D
|
|
|
|
#01801:0102030405060708090A0B0C0D0E0F0G
|
|
#01801:0H000I0J0K000L0M0N000O0P0Q000R0S
|
|
#01801:00
|
|
#01801:00
|
|
#01801:00
|
|
#01801:5P
|
|
#01801:00
|
|
#01801:00
|
|
#01801:00
|
|
#01801:00
|
|
#01801:00
|
|
#01801:00
|
|
#01801:00
|
|
#01801:00
|
|
#01801:00
|
|
#01801:00
|
|
#01801:00
|
|
#01801:00
|
|
#01801:00
|
|
#01801:4Q4R4S004T004U4V4W4X4Y4Z50005152
|
|
#01801:00
|
|
#01801:00
|
|
#01801:00
|
|
#01801:00
|
|
#01801:00
|
|
#01801:00
|
|
#01801:00
|
|
#01801:00
|
|
#01801:00
|
|
#01801:00
|
|
#01801:00
|
|
#01801:00
|
|
#01801:00
|
|
#01801:00
|
|
#01801:00
|
|
#01801:00
|
|
#01801:00
|
|
#01801:00
|
|
#01801:00
|
|
#01801:00
|
|
#01801:00
|
|
#01801:0000CICJ00CICQ00
|
|
#01811:2GZZCUCWZZ2GR0ZZ
|
|
#01812:CJ00ZZ00DJ00DK0000R500ZZ00R20000
|
|
#01813:00R10000R700ZZ00ZZ0000R10000R400
|
|
#01814:DK00R3001700ZZ00R700CU00D30000R6
|
|
#01815:CW00ZZ0000R90000ZZ00R3002O00ZZ00
|
|
#01816:34
|
|
#01818:QZZZ00R500ZZ00R90000ZZ001700ZZ00
|
|
#01819:00ZZ2ORCZZDJDQZZ
|
|
|
|
#01901:0102030405060708090A0B0C0D0E0F0G
|
|
#01901:0T000U0V0W000X0Y0Z00101112001314
|
|
#01901:00
|
|
#01901:00
|
|
#01901:00
|
|
#01901:00
|
|
#01901:00
|
|
#01901:00
|
|
#01901:00
|
|
#01901:00
|
|
#01901:00
|
|
#01901:00
|
|
#01901:00
|
|
#01901:00
|
|
#01901:00
|
|
#01901:00
|
|
#01901:00
|
|
#01901:00
|
|
#01901:00
|
|
#01901:4Q4R4S004T004U4V4W4X4Y4Z50005152
|
|
#01901:00
|
|
#01901:00
|
|
#01901:00
|
|
#01901:00
|
|
#01901:00
|
|
#01901:00
|
|
#01901:00
|
|
#01901:00
|
|
#01901:00
|
|
#01901:00
|
|
#01901:00
|
|
#01901:00
|
|
#01901:00
|
|
#01901:00
|
|
#01901:00
|
|
#01901:00
|
|
#01901:00
|
|
#01901:00
|
|
#01901:00
|
|
#01901:00
|
|
#01901:00
|
|
#01901:CNCQ00CNCS00CQ00
|
|
#01911:ZZ2G17D1ZZ2GDQZZ
|
|
#01912:D100D300ZZ0000R20000ZZ00R600ZZ00
|
|
#01913:DO00DQ00ZZ00R40000R600ZZ00R800ZZ
|
|
#01914:0000ZZ0000R60000D100R8001700ZZ00
|
|
#01915:R8ZZ0000R800ZZ00RA0000RA0000RA00
|
|
#01918:00RA00RA0000DO00ZZ00ZZ00D30000RD
|
|
#01919:ZZRD2OZZDWZZ2OZZ
|
|
|
|
#02001:0102030405060708090A0B0C0D0E0F0G
|
|
#02001:0H000I0J0K000L0M0N000O0P0Q000R0S
|
|
#02001:00
|
|
#02001:00
|
|
#02001:00
|
|
#02001:00
|
|
#02001:00
|
|
#02001:00
|
|
#02001:00
|
|
#02001:00
|
|
#02001:00
|
|
#02001:00
|
|
#02001:00
|
|
#02001:00
|
|
#02001:00
|
|
#02001:00
|
|
#02001:00
|
|
#02001:00
|
|
#02001:00
|
|
#02001:5354550056005758595A5B005C005D00
|
|
#02001:00
|
|
#02001:00
|
|
#02001:00
|
|
#02001:00
|
|
#02001:00
|
|
#02001:00
|
|
#02001:00
|
|
#02001:00
|
|
#02001:00
|
|
#02001:00
|
|
#02001:00
|
|
#02001:00
|
|
#02001:00
|
|
#02001:00
|
|
#02001:00
|
|
#02001:00
|
|
#02001:00
|
|
#02001:00
|
|
#02001:00
|
|
#02001:00
|
|
#02001:00
|
|
#02001:CJ00CICJ00CICQ00
|
|
#02011:2GZZCUCWZZ2G17ZZ
|
|
#02012:CWZZ00R500ZZ0000ZZ0000R10000ZZ00
|
|
#02013:00R10000DJ00DK00ZZ00R300R200ZZ00
|
|
#02014:DK00ZZ00R700ZZ0000R500ZZ00R40000
|
|
#02015:ZZR317ZZR7ZZ2OR6
|
|
#02018:0000ZZ0000R900R90000CU00D30000R8
|
|
#02019:QZZZ2ORCZZDJDQZZ
|
|
|
|
#02101:0102030405060708090A0B0C0D0E0F0G
|
|
#02101:0T000U0V0W000X0Y0Z00101112001314
|
|
#02101:00
|
|
#02101:00
|
|
#02101:00
|
|
#02101:00
|
|
#02101:00
|
|
#02101:00
|
|
#02101:00
|
|
#02101:00
|
|
#02101:00
|
|
#02101:00
|
|
#02101:00
|
|
#02101:00
|
|
#02101:00
|
|
#02101:00
|
|
#02101:00
|
|
#02101:00
|
|
#02101:00
|
|
#02101:5E5F5G5H5I005J5K5L5M5N0000005O00
|
|
#02101:00
|
|
#02101:00
|
|
#02101:00
|
|
#02101:00
|
|
#02101:00
|
|
#02101:00
|
|
#02101:00
|
|
#02101:00
|
|
#02101:00
|
|
#02101:00
|
|
#02101:00
|
|
#02101:00
|
|
#02101:00
|
|
#02101:00
|
|
#02101:00
|
|
#02101:00
|
|
#02101:00
|
|
#02101:00
|
|
#02101:00
|
|
#02101:00
|
|
#02101:00
|
|
#02101:CN00CQ000000CN00CS000000CP00D1DA
|
|
#02111:2GZZ000017002G00ZZ002G001700ZZ00
|
|
#02112:D100D300ZZ0000R40000ZZ002O00ZZ00
|
|
#02113:00ZZ00002O00R600D10000RA0000ZZ00
|
|
#02114:RA00DQ0000R800ZZ00R60000R600ZZ00
|
|
#02115:ZZ00ZZ00RA00DO00ZZ00R80000R80000
|
|
#02118:00RD00RD0000ZZ00RA00ZZ00D200RA00
|
|
#02119:DO00RE00ZZ00D100DW00ZZ00DP0000RD
|
|
|
|
#02201:010200000506000800000B0C000E0000
|
|
#02201:0H000I0J0K00000M0N000O0P0Q000R0S
|
|
#02201:00
|
|
#02201:00
|
|
#02201:00
|
|
#02201:00
|
|
#02201:00
|
|
#02201:00
|
|
#02201:00
|
|
#02201:00
|
|
#02201:00
|
|
#02201:00
|
|
#02201:00
|
|
#02201:00
|
|
#02201:00
|
|
#02201:00
|
|
#02201:00
|
|
#02201:00
|
|
#02201:00
|
|
#02201:4Q4R4S004T004U4V4W4X4Y4Z50005152
|
|
#02201:00
|
|
#02201:00
|
|
#02201:00
|
|
#02201:00
|
|
#02201:00
|
|
#02201:00
|
|
#02201:00
|
|
#02201:00
|
|
#02201:00
|
|
#02201:00
|
|
#02201:00
|
|
#02201:00
|
|
#02201:00
|
|
#02201:00
|
|
#02201:00
|
|
#02201:00
|
|
#02201:00
|
|
#02201:00
|
|
#02201:00
|
|
#02201:00
|
|
#02201:00
|
|
#02201:CJ00CICJ00CICQ00
|
|
#02211:2GZZCUCWZZ2G170F
|
|
#02212:00R10000DJ00DK00000A0000R000ZZ00
|
|
#02213:ZZ00R3002O000L00R70000R100R200R6
|
|
#02214:CWZZ00R500000700ZZ00R3000D00ZZ00
|
|
#02215:DK000300R70000R900R50000D300ZZ00
|
|
#02216:34
|
|
#02218:QZ00000400R900000900CU002O00R400
|
|
#02219:0000ZZ001700RC00ZZ00DJ00DQ00000G
|
|
|
|
#02301:0100030405060000000A00000D0E0000
|
|
#02301:0T000U0V0W00000Y0Z00101112001314
|
|
#02301:00
|
|
#02301:00
|
|
#02301:00
|
|
#02301:00
|
|
#02301:00
|
|
#02301:00
|
|
#02301:00
|
|
#02301:00
|
|
#02301:00
|
|
#02301:00
|
|
#02301:00
|
|
#02301:00
|
|
#02301:00
|
|
#02301:00
|
|
#02301:00
|
|
#02301:00
|
|
#02301:00
|
|
#02301:4Q4R4S004T004U4V4W4X4Y4Z50005152
|
|
#02301:00
|
|
#02301:00
|
|
#02301:00
|
|
#02301:00
|
|
#02301:00
|
|
#02301:00
|
|
#02301:00
|
|
#02301:00
|
|
#02301:00
|
|
#02301:00
|
|
#02301:00
|
|
#02301:00
|
|
#02301:00
|
|
#02301:00
|
|
#02301:00
|
|
#02301:00
|
|
#02301:00
|
|
#02301:00
|
|
#02301:00
|
|
#02301:00
|
|
#02301:00
|
|
#02301:CNCQ00CNCS00CQ00
|
|
#02311:ZZ2GZZD1092G2OZZ
|
|
#02312:D100D300ZZ0000R2000000R400000F00
|
|
#02313:000200002O00R400R400ZZ00R600000G
|
|
#02314:DO00DQ0000R6000800R6000C00R80000
|
|
#02315:R8ZZR80XZZR8D3RA
|
|
#02318:ZZRA00RA0000DO00D1000B00170000RD
|
|
#02319:00RD1707DWZZDQZZ
|
|
|
|
#02401:0002000405000008000A000C0D0E0F00
|
|
#02401:0H000I0J0K000L0M0N000O0P0Q000R0S
|
|
#02401:00
|
|
#02401:00
|
|
#02401:00
|
|
#02401:00
|
|
#02401:00
|
|
#02401:00
|
|
#02401:00
|
|
#02401:00
|
|
#02401:00
|
|
#02401:00
|
|
#02401:00
|
|
#02401:00
|
|
#02401:00
|
|
#02401:00
|
|
#02401:00
|
|
#02401:00
|
|
#02401:00
|
|
#02401:4Q4R4S004T004U4V4W4X4Y4Z50005152
|
|
#02401:00
|
|
#02401:00
|
|
#02401:00
|
|
#02401:00
|
|
#02401:00
|
|
#02401:00
|
|
#02401:00
|
|
#02401:00
|
|
#02401:00
|
|
#02401:00
|
|
#02401:00
|
|
#02401:00
|
|
#02401:00
|
|
#02401:00
|
|
#02401:00
|
|
#02401:00
|
|
#02401:00
|
|
#02401:00
|
|
#02401:00
|
|
#02401:00
|
|
#02401:00
|
|
#02401:CJ00CICJ00CICDCD
|
|
#02401:000000000000CNCN
|
|
#02411:2GZZ2O2GZZ2G172E
|
|
#02412:CW00030000R30000090000R10000D100
|
|
#02413:0000ZZ00R500R50000R30000D100R400
|
|
#02414:R70000R7000600R70000CU00R400000G
|
|
#02415:0100R900CU00CW00ZZ00R50000R60000
|
|
#02416:33
|
|
#02418:00RC000017000700R9000B002O0000R8
|
|
#02419:DKZZ0000DJ00DK00ZZ00DJ00DO00DO00
|
|
|
|
#02501:00
|
|
#02501:00
|
|
#02501:00
|
|
#02501:00
|
|
#02501:00
|
|
#02501:00
|
|
#02501:2F2F2F2F2F2F
|
|
#02501:00
|
|
#02501:00
|
|
#02501:00
|
|
#02501:00
|
|
#02501:00
|
|
#02501:00
|
|
#02501:00
|
|
#02501:00
|
|
#02501:00
|
|
#02501:00
|
|
#02501:00
|
|
#02501:00
|
|
#02501:00
|
|
#02501:00
|
|
#02501:000000000000000000000000POPQPSPU
|
|
#02501:000000000000000000000000QGQIQKQM
|
|
#02501:00
|
|
#02501:RB0000RB0000RB00
|
|
#02501:00RF000000000000000000RF00RF000000000000000000RF00RF000000000000
|
|
#02501:00RB000000RB00RB000000RB00RB0000
|
|
#02501:000000RF0000000000RF0000000000RF0000000000RF0000000000RF00000000
|
|
#02501:00RBRB00RBRB00RB
|
|
#02501:0000000000RF00RF000000000000000000RF00RF000000000000000000RF00RF
|
|
#02501:000000RB0000000000RB0000000000RB
|
|
#02501:00
|
|
#02501:00
|
|
#02501:00
|
|
#02501:00
|
|
#02501:00
|
|
#02501:00
|
|
#02501:00
|
|
#02501:00
|
|
#02501:00
|
|
#02501:00
|
|
#02501:00
|
|
#02501:CO00CO00CMCMCO00CO00CO00
|
|
#02511:2X002X002V2V2X002X002X00
|
|
#02513:CV00CV00CTCTCV00CV00CV00
|
|
#02514:CC00CC00CBCBCC00CC00CC00
|
|
#02515:DB00DB00D9D9DB00DB00DB00
|
|
#02519:DX00DX00DVDVDX00DX00DX00
|
|
|
|
#02601:0002030405000008090A000C000E000G
|
|
#02601:00
|
|
#02601:0016001600160016
|
|
#02601:00170017
|
|
#02601:180019001A001B1C00001E001F001G00
|
|
#02601:00
|
|
#02601:000000000K000L0M0000000P00000R00
|
|
#02601:4D
|
|
#02601:00
|
|
#02601:00
|
|
#02601:00
|
|
#02601:00
|
|
#02601:00
|
|
#02601:00
|
|
#02601:00
|
|
#02601:00
|
|
#02601:00
|
|
#02601:00
|
|
#02601:00
|
|
#02601:00
|
|
#02601:00
|
|
#02601:00
|
|
#02601:00
|
|
#02601:00
|
|
#02601:00
|
|
#02601:00
|
|
#02601:00
|
|
#02601:00
|
|
#02601:00
|
|
#02601:00
|
|
#02601:00
|
|
#02601:00
|
|
#02601:00
|
|
#02601:00
|
|
#02601:ADAGAFAD00ADAGAF
|
|
#02601:00
|
|
#02601:00
|
|
#02601:00
|
|
#02601:00
|
|
#02601:00
|
|
#02601:00
|
|
#02601:CR
|
|
#02601:D4
|
|
#02601:DN
|
|
#02611:2GZZ2GZZ2G002GZZ
|
|
#02612:0000Q80000PG00001D00QH000000Q800
|
|
#02613:01000I00ZZQ80000PH00ZZ000D00000S
|
|
#02614:QP00PG00ZZ00PN0000000O00QP0000PP
|
|
#02615:ZZ0000PP00ZZ07000000PP000000PG00
|
|
#02616:33
|
|
#02618:PX00000J0000QF000N000000PX000F00
|
|
#02619:0H0000QH00060000Q9000B000Q00ZZQH
|
|
|
|
#02701:01000004000600080000000C000E000G
|
|
#02701:00
|
|
#02701:0000001600160016
|
|
#02701:00170017
|
|
#02701:1H001I001J001K1L1M1N1O001P001Q00
|
|
#02701:00
|
|
#02701:0T000U0V0000000Y0Z00101100000014
|
|
#02701:00
|
|
#02701:00
|
|
#02701:00
|
|
#02701:00
|
|
#02701:00
|
|
#02701:00
|
|
#02701:00
|
|
#02701:00
|
|
#02701:00
|
|
#02701:00
|
|
#02701:00
|
|
#02701:00
|
|
#02701:00
|
|
#02701:00
|
|
#02701:00
|
|
#02701:00
|
|
#02701:00
|
|
#02701:00
|
|
#02701:00
|
|
#02701:00
|
|
#02701:00
|
|
#02701:00
|
|
#02701:00
|
|
#02701:00
|
|
#02701:00
|
|
#02701:00
|
|
#02701:00
|
|
#02701:AD00ADAGAFACAHAE
|
|
#02711:2G162G002G0B2G00
|
|
#02712:00PG0000PH00ZZ00000AZZ000000QF00
|
|
#02713:00Q800000500QH0000PL00001200PN00
|
|
#02714:00PN0W00PQPT000F
|
|
#02715:ZZQF00PP09ZZQSZZ
|
|
#02718:00020000Q9000X00ZZQD0000Q0001300
|
|
#02719:00030007QIQL0D00
|
|
|
|
#02801:00020000050000080000000C000E0F0G
|
|
#02801:00
|
|
#02801:0016001600160016
|
|
#02801:00170017
|
|
#02801:1R001S001T001U1V1W001X001Y001Z00
|
|
#02801:00
|
|
#02801:00000I0J0K000L0M0N000O0P0Q000R0S
|
|
#02801:00
|
|
#02801:00
|
|
#02801:00
|
|
#02801:00
|
|
#02801:00
|
|
#02801:00
|
|
#02801:00
|
|
#02801:00
|
|
#02801:00
|
|
#02801:00
|
|
#02801:00
|
|
#02801:000000000000P5P6
|
|
#02801:000000000000P6P9
|
|
#02801:000000000000P7PA
|
|
#02801:00
|
|
#02801:00
|
|
#02801:00
|
|
#02801:00
|
|
#02801:00
|
|
#02801:00
|
|
#02801:00
|
|
#02801:00
|
|
#02801:00
|
|
#02801:00
|
|
#02801:00
|
|
#02801:00
|
|
#02801:00
|
|
#02801:AFACAHAF00AFACAH
|
|
#02801:00
|
|
#02801:00
|
|
#02801:00
|
|
#02801:00
|
|
#02801:00
|
|
#02801:00
|
|
#02801:CL
|
|
#02801:D0
|
|
#02801:DI
|
|
#02811:2GQ82GZZ2GZZ2GZZ
|
|
#02812:0000030000PG0000000AZZ0000RH0000
|
|
#02813:0000PGZZ00Q80000PG000B000000PN00
|
|
#02814:QN0000040000PR00ZZPL0000PR00QF00
|
|
#02815:PV0000PT00000700Q800QL00RG00RK00
|
|
#02818:0H000000ZZ00QJ0000QD00000DZZ00RN
|
|
#02819:010000QL000600000900PT00QJ00ZZ00
|
|
|
|
#02901:0002000400060708000A000C0D0E0F0G
|
|
#02901:010003000500000009000B0012001314
|
|
#02901:0016001600160016
|
|
#02901:00170017
|
|
#02901:20002100222324252627280029002A2B
|
|
#02901:00
|
|
#02901:0T000U0V0W0000000Z00101100000000
|
|
#02901:00
|
|
#02901:00
|
|
#02901:00
|
|
#02901:00
|
|
#02901:00
|
|
#02901:00
|
|
#02901:00
|
|
#02901:00
|
|
#02901:00
|
|
#02901:00
|
|
#02901:000000000000PDP6
|
|
#02901:000000000000P8P9
|
|
#02901:00
|
|
#02901:00000000000000PA
|
|
#02901:00
|
|
#02901:00
|
|
#02901:00
|
|
#02901:RT00RPRM00RIRJRL
|
|
#02901:00
|
|
#02901:00
|
|
#02901:00
|
|
#02901:00
|
|
#02901:00
|
|
#02901:00
|
|
#02901:00
|
|
#02901:00
|
|
#02901:00
|
|
#02901:AF00AFACAJAFAHAC
|
|
#02911:2E2E2G002GP92E2E
|
|
#02912:PC0000000000ZZ00P6000000POZZ00PU
|
|
#02913:ZZ000000P6000X000000PC0000PQ0000
|
|
#02914:P7P80000PAZZZZQK
|
|
#02915:0000ZZ00P900ZZ0Y0000ZZ00QG0000QM
|
|
#02918:0000PB00000000ZZZZ00PE0000QI0000
|
|
#02919:PAPDPAZZP900PBPS
|
|
|
|
#03001:0002000005000008000A000C000E0000
|
|
#03001:00
|
|
#03001:0016001600160016
|
|
#03001:00170017
|
|
#03001:180019001A001B1C1D001E001F001G00
|
|
#03001:00
|
|
#03001:00000I0J0K000L0M0000000P00000R0S
|
|
#03001:00
|
|
#03001:00
|
|
#03001:00
|
|
#03001:00
|
|
#03001:00
|
|
#03001:00
|
|
#03001:00
|
|
#03001:00
|
|
#03001:00
|
|
#03001:00
|
|
#03001:00
|
|
#03001:00
|
|
#03001:00
|
|
#03001:00
|
|
#03001:00
|
|
#03001:00
|
|
#03001:00
|
|
#03001:00
|
|
#03001:00
|
|
#03001:00
|
|
#03001:00
|
|
#03001:00
|
|
#03001:00
|
|
#03001:00
|
|
#03001:00
|
|
#03001:00
|
|
#03001:00
|
|
#03001:ADAGAFAD00ADAGAF
|
|
#03001:00
|
|
#03001:00
|
|
#03001:00
|
|
#03001:00
|
|
#03001:00
|
|
#03001:00
|
|
#03001:CR
|
|
#03001:D4
|
|
#03001:DN
|
|
#03011:2GZZ2GZZ2G002G0F
|
|
#03012:0000PG0000Q80000Q9000O000000PG00
|
|
#03013:QP0000PP0000QF000000PP000D0000PP
|
|
#03014:0H00ZZ0400PG0000PH00ZZ00PX00000G
|
|
#03015:00Q8ZZPN00QH0QQ8
|
|
#03016:33
|
|
#03018:PX0000QH0006000009000000QP00ZZ00
|
|
#03019:01000300ZZ0007000N000B000000ZZQH
|
|
|
|
#03101:01000004000600080000000C000E000G
|
|
#03101:00
|
|
#03101:0016001600160016
|
|
#03101:00170017
|
|
#03101:1H001I001J001K1L1M1N1O001P001Q00
|
|
#03101:00
|
|
#03101:0T000U0V0000000Y0Z00101100000000
|
|
#03101:00000000000000000000000000000014
|
|
#03101:00
|
|
#03101:00
|
|
#03101:00
|
|
#03101:00
|
|
#03101:00
|
|
#03101:00
|
|
#03101:00
|
|
#03101:00
|
|
#03101:00
|
|
#03101:00
|
|
#03101:00
|
|
#03101:00
|
|
#03101:00
|
|
#03101:00
|
|
#03101:00
|
|
#03101:00
|
|
#03101:00
|
|
#03101:00
|
|
#03101:00
|
|
#03101:00
|
|
#03101:00
|
|
#03101:00
|
|
#03101:00
|
|
#03101:00
|
|
#03101:00
|
|
#03101:00
|
|
#03101:AD00ADAGAFACAHAE
|
|
#03111:2GZZ2G002GZZ2G00
|
|
#03112:ZZ00QF000000070000QD0000Q0000F00
|
|
#03113:0000PN000W00ZZ00ZZPL0000QS000000
|
|
#03114:00020000PH000000QI00QL0000001300
|
|
#03115:00Q800000500PP00000AZZ001200QY00
|
|
#03118:00PG0000Q9000X00PQ00PT000D00ZZ00
|
|
#03119:000300QH090B00Q6
|
|
|
|
#03201:0002000005000008000A0B000D0E0F00
|
|
#03201:000000000000000000000O0P0Q000R0S
|
|
#03201:0016001600160016
|
|
#03201:00170017
|
|
#03201:1R001S001T001U1V1W001X001Y001Z00
|
|
#03201:00
|
|
#03201:00
|
|
#03201:00000I000K000L0M0N00000000000000
|
|
#03201:00
|
|
#03201:00
|
|
#03201:00
|
|
#03201:00
|
|
#03201:00
|
|
#03201:00
|
|
#03201:00
|
|
#03201:00
|
|
#03201:00
|
|
#03201:00
|
|
#03201:000000000000P5P6
|
|
#03201:000000000000P6P9
|
|
#03201:000000000000P7PA
|
|
#03201:00
|
|
#03201:00
|
|
#03201:00
|
|
#03201:00
|
|
#03201:00
|
|
#03201:00
|
|
#03201:00
|
|
#03201:00
|
|
#03201:00
|
|
#03201:00
|
|
#03201:00
|
|
#03201:00
|
|
#03201:00
|
|
#03201:AFACAHAF00AFACAH
|
|
#03201:00
|
|
#03201:00
|
|
#03201:00
|
|
#03201:00
|
|
#03201:00
|
|
#03201:00
|
|
#03201:CL
|
|
#03201:D0
|
|
#03201:DI
|
|
#03211:2G0003002G00ZZ002GZZ00002G00ZZ00
|
|
#03212:0000PG0000PG0000PG0000PG0000PS00
|
|
#03213:Q40000Q00000PV0000PT0000PL0000PL
|
|
#03214:0100Q80000060000Q80000ZZ00PO00QD
|
|
#03215:0000000J00Q8000000ZZ00Q8ZZ00QK00
|
|
#03216:33
|
|
#03218:QW00ZZQS0000QN0000QL0000QD00ZZ00
|
|
#03219:0H000004000007000900000C00QG000G
|
|
|
|
#03301:0102000405060708090A0B0C000E000G
|
|
#03301:0T000U0V0W000X0Y0Z00101112001314
|
|
#03301:0016001600160016
|
|
#03301:00170017
|
|
#03301:20002100222324252627280000002A2B
|
|
#03301:00
|
|
#03301:00
|
|
#03301:00
|
|
#03301:00
|
|
#03301:00
|
|
#03301:00
|
|
#03301:00
|
|
#03301:00
|
|
#03301:00
|
|
#03301:00
|
|
#03301:00
|
|
#03301:00
|
|
#03301:00
|
|
#03301:P7P8P600P6P9P8P6
|
|
#03301:PAPBP900P9PCPBP9
|
|
#03301:PCPDPA00PAPEPDPA
|
|
#03301:00
|
|
#03301:00
|
|
#03301:00
|
|
#03301:00
|
|
#03301:00
|
|
#03301:00
|
|
#03301:00
|
|
#03301:00
|
|
#03301:00
|
|
#03301:00
|
|
#03301:00
|
|
#03301:00
|
|
#03301:00
|
|
#03301:AF00AFACAJAFAHAC
|
|
#03311:2GZZ2GZZ2E2E2E2E
|
|
#03312:QB00PO00PL0000QD00ZZ00PL0000PV00
|
|
#03313:0000QG0000PW0000QV00Q300Q0000000
|
|
#03314:00QD00QB0000Q10000Q50000QS00ZZ00
|
|
#03315:00PL0000QD0000PL00ZZ00QD0000QN00
|
|
#03318:PJ0000PJ00QO0000Q300QV0029000F00
|
|
#03319:00000300ZZ00QT0000QX00000D000000
|
|
|
|
#03401:0002000400060708000A000C000E000G
|
|
#03401:00000I0J0K000L0M0N00000P00000R0S
|
|
#03401:0016001600160016
|
|
#03401:00170017
|
|
#03401:00
|
|
#03401:00
|
|
#03401:00
|
|
#03401:00
|
|
#03401:00
|
|
#03401:00
|
|
#03401:00
|
|
#03401:00
|
|
#03401:00
|
|
#03401:00
|
|
#03401:00
|
|
#03401:00
|
|
#03401:00
|
|
#03401:00
|
|
#03401:00
|
|
#03401:00
|
|
#03401:00
|
|
#03401:00
|
|
#03401:00
|
|
#03401:00
|
|
#03401:0000RT00RPRO00RM
|
|
#03401:00
|
|
#03401:00
|
|
#03401:00
|
|
#03401:00
|
|
#03401:00
|
|
#03401:00
|
|
#03401:00
|
|
#03401:00
|
|
#03401:00
|
|
#03401:ADAGAFAD00ADAGAF
|
|
#03401:00
|
|
#03401:00
|
|
#03401:00
|
|
#03401:00
|
|
#03401:00
|
|
#03401:00
|
|
#03401:CR
|
|
#03401:D4
|
|
#03401:DN
|
|
#03411:2GZZ2GZZ2G0B2GZZ
|
|
#03412:0HQ81A1BPH001FPG
|
|
#03413:QP001900ZZ00PN001D001E0000000FZZ
|
|
#03414:0100ZZPP0000QF00ZZ000O00PX00Q800
|
|
#03415:000000QH00PG0000Q900PP00QP0000QH
|
|
#03416:33
|
|
#03418:PX00PG0000Q8001C0000QH000Q0000PP
|
|
#03419:180305ZZ09000D1G
|
|
|
|
#03501:0102000400060708090A0B0C000E000G
|
|
#03501:0T00000V0W00000Y0Z00101112001314
|
|
#03501:0016001600160016
|
|
#03501:00170017
|
|
#03501:00
|
|
#03501:00
|
|
#03501:00
|
|
#03501:00
|
|
#03501:00
|
|
#03501:00
|
|
#03501:00
|
|
#03501:00
|
|
#03501:00
|
|
#03501:00
|
|
#03501:00
|
|
#03501:00
|
|
#03501:00
|
|
#03501:00
|
|
#03501:00
|
|
#03501:00
|
|
#03501:00
|
|
#03501:00
|
|
#03501:00
|
|
#03501:00
|
|
#03501:00RMRTRW
|
|
#03501:00
|
|
#03501:00
|
|
#03501:00
|
|
#03501:00
|
|
#03501:00
|
|
#03501:00
|
|
#03501:00
|
|
#03501:00
|
|
#03501:00
|
|
#03501:AD00ADAGAFACAHAE
|
|
#03511:2G032GZZ2G1O2G00
|
|
#03512:ZZ00QF00Q900001L001N00000000PN00
|
|
#03513:00PG00000500PP0000QD00001P000F00
|
|
#03514:00Q80000PH000XZZ00PL00000D00QF00
|
|
#03515:00PN00QHQIZZQ000
|
|
#03518:000U1J00PQPT001Q
|
|
#03519:1H1I001K1MQLQSZZ
|
|
|
|
#03601:0002000405000708000A00000D0E0F0G
|
|
#03601:0H000I0J0K00000M0N000O0P0Q000R0S
|
|
#03601:0016001600160016
|
|
#03601:00170017
|
|
#03601:00
|
|
#03601:00
|
|
#03601:00
|
|
#03601:00
|
|
#03601:00
|
|
#03601:00
|
|
#03601:00
|
|
#03601:00
|
|
#03601:00
|
|
#03601:00
|
|
#03601:00
|
|
#03601:00
|
|
#03601:00
|
|
#03601:00
|
|
#03601:00
|
|
#03601:000000000000P6P9
|
|
#03601:000000000000P7PA
|
|
#03601:00
|
|
#03601:00
|
|
#03601:00
|
|
#03601:RY000000S0RXRVRT
|
|
#03601:00
|
|
#03601:00
|
|
#03601:00
|
|
#03601:00
|
|
#03601:00
|
|
#03601:00
|
|
#03601:00
|
|
#03601:00
|
|
#03601:00
|
|
#03601:AFACAHAF00AFACAH
|
|
#03601:00
|
|
#03601:00
|
|
#03601:00
|
|
#03601:00
|
|
#03601:00
|
|
#03601:00
|
|
#03601:CK
|
|
#03601:CZ
|
|
#03601:DH
|
|
#03611:2G032G0L2GPG2GZZ
|
|
#03612:0000PG000006001V00001XZZ00PG0000
|
|
#03613:QN001S0000Q800001W00Q8001Y00PV00
|
|
#03614:000000PT00PG00000900000C00Q80000
|
|
#03615:PV00ZZQL0000QF00PV0000QL0000QN00
|
|
#03618:1R00Q800ZZ00PN00000000PT0000P600
|
|
#03619:01ZZ1T1UQN0BP51Z
|
|
|
|
#03701:0102030405060708090A000C0D0E000G
|
|
#03701:0T000U0V0W000X0Y0Z00101112001314
|
|
#03701:0016001600160016
|
|
#03701:00170017
|
|
#03701:00000000000000000027000029000000
|
|
#03701:00
|
|
#03701:00
|
|
#03701:00
|
|
#03701:00
|
|
#03701:00
|
|
#03701:00
|
|
#03701:00
|
|
#03701:00
|
|
#03701:00
|
|
#03701:00
|
|
#03701:00
|
|
#03701:00
|
|
#03701:00
|
|
#03701:00
|
|
#03701:PAPBP900P9PCPBP9
|
|
#03701:PCPDPA00PAPEPDPA
|
|
#03701:00
|
|
#03701:00
|
|
#03701:00
|
|
#03701:00RMRQRT
|
|
#03701:00
|
|
#03701:00
|
|
#03701:00
|
|
#03701:00
|
|
#03701:00
|
|
#03701:00
|
|
#03701:00
|
|
#03701:00
|
|
#03701:00
|
|
#03701:AF00AFACAJAFAHAC
|
|
#03701:00
|
|
#03701:00
|
|
#03701:00
|
|
#03701:00
|
|
#03701:00
|
|
#03701:00
|
|
#03701:CF
|
|
#03701:CK
|
|
#03701:CZ
|
|
#03711:2GZZ2GZZ2GP92G0F
|
|
#03712:2000PG0000PG002500QN00ZZ0000PN00
|
|
#03713:0000Q8002200QP0000PV00PG00002A00
|
|
#03714:QP0000PY00Q80000PG0000Q80000QF00
|
|
#03715:P70000QQ0000PX00Q8002800PT00ZZ00
|
|
#03718:PX00P8ZZ00230000P6000B00QL00P600
|
|
#03719:00002100P60024002600ZZ00P800002B
|
|
|
|
#03801:0100000005000708090A000C00000F00
|
|
#03801:0H000I0J0K000L0M0N00000P0Q000R0S
|
|
#03801:0016001600160016
|
|
#03801:1819171B00001700
|
|
#03801:00
|
|
#03801:00
|
|
#03801:00
|
|
#03801:00
|
|
#03801:00
|
|
#03801:00
|
|
#03801:00
|
|
#03801:00
|
|
#03801:00
|
|
#03801:00
|
|
#03801:00
|
|
#03801:00
|
|
#03801:00
|
|
#03801:00
|
|
#03801:00
|
|
#03801:00
|
|
#03801:00
|
|
#03801:00PJ00PO00PO00PW0000000000PO00PO
|
|
#03801:00
|
|
#03801:00
|
|
#03801:RR0000RU00000000
|
|
#03801:00
|
|
#03801:00
|
|
#03801:00
|
|
#03801:00
|
|
#03801:00
|
|
#03801:00
|
|
#03801:00
|
|
#03801:00
|
|
#03801:00
|
|
#03801:ADAGAFAD00ADAGAF
|
|
#03801:00
|
|
#03801:00
|
|
#03801:00
|
|
#03801:00
|
|
#03801:00
|
|
#03801:00
|
|
#03801:CE
|
|
#03801:CH
|
|
#03801:CR
|
|
#03811:2G032GZZ2G0B2G1G
|
|
#03812:Q80000040000PS001DZZ00PX00ZZ000G
|
|
#03813:00QB0000QD00QK00ZZ000O001F00PU00
|
|
#03814:ZZ00QD0000QG0000Q200QG0000QG0000
|
|
#03815:PGZZ00QG0006001C000000QP00ZZ00QG
|
|
#03816:33
|
|
#03818:00020000PL0000QO0000PO000D00QM00
|
|
#03819:0000PL001A00ZZ00QU001E00000E0000
|
|
|
|
#03901:0100030005000708090A0B000D000F00
|
|
#03901:0T000U0V0W000X0Y0Z00101112001314
|
|
#03901:0016001600161P16
|
|
#03901:00001I0017000000000000001700000G
|
|
#03901:00
|
|
#03901:00
|
|
#03901:00
|
|
#03901:00
|
|
#03901:00
|
|
#03901:00
|
|
#03901:00
|
|
#03901:00
|
|
#03901:00
|
|
#03901:00
|
|
#03901:00
|
|
#03901:00
|
|
#03901:00
|
|
#03901:00
|
|
#03901:00
|
|
#03901:00
|
|
#03901:00
|
|
#03901:00PL00PJ00PO00PL00PS00PO00PS00PS
|
|
#03901:00
|
|
#03901:00
|
|
#03901:0000000000RSRVRZ
|
|
#03901:00
|
|
#03901:00
|
|
#03901:00
|
|
#03901:00
|
|
#03901:00
|
|
#03901:00
|
|
#03901:00
|
|
#03901:00
|
|
#03901:00
|
|
#03901:AD00ADAGAFACAHAE
|
|
#03911:2GZZ00002G00ZZ002G001O002G00Q100
|
|
#03912:00QD00QB0000QK00QG00PW00000E0000
|
|
#03913:ZZ00QG001J00PS0000QK00QG00001Q00
|
|
#03914:QB00ZZ00QD00001L0000QO00QD00ZZ00
|
|
#03915:0002000400QG00QD001N00ZZ00QK00QK
|
|
#03918:1H00PO00000600001MZZ000C0000QT00
|
|
#03919:PJZZPL1KPOZZPLZZ
|
|
|
|
#04001:00020304000600080000000C000E0000
|
|
#04001:0H000I0J0K000L0M0N000O0P0000000S
|
|
#04001:0016001600161700
|
|
#04001:000000001700001V0000000000000000
|
|
#04001:000000000000001Z
|
|
#04001:0000000000000000000000QP00000000
|
|
#04001:0000000000000000000000000000000G
|
|
#04001:00
|
|
#04001:00000000000000000000000000POQ3PU
|
|
#04001:00
|
|
#04001:00
|
|
#04001:00
|
|
#04001:00
|
|
#04001:00
|
|
#04001:00
|
|
#04001:00
|
|
#04001:00
|
|
#04001:00
|
|
#04001:00
|
|
#04001:00
|
|
#04001:00
|
|
#04001:00PK00PO00PO00PW0000000000000000
|
|
#04001:00
|
|
#04001:00
|
|
#04001:00
|
|
#04001:00
|
|
#04001:00
|
|
#04001:00
|
|
#04001:00
|
|
#04001:00
|
|
#04001:00
|
|
#04001:00
|
|
#04001:00
|
|
#04001:00
|
|
#04001:AFADAIAG00AFADAI
|
|
#04001:00
|
|
#04001:00
|
|
#04001:00
|
|
#04001:00
|
|
#04001:00
|
|
#04001:00
|
|
#04001:CG
|
|
#04001:CR
|
|
#04001:D0
|
|
#04011:2EZZ2E2E09PO0D2E
|
|
#04012:PG00QD0000QG0000QW000B001Y00QV00
|
|
#04013:01002E00PL0000QO0000QG000Q000F00
|
|
#04014:Q8001S00QD001U00000A00002E000R00
|
|
#04015:0000PL001T00PU001WZZ00PX00001600
|
|
#04016:33
|
|
#04018:00QC00000500QM002E001X0000QG0000
|
|
#04019:1RZZ00QG00000700Q4002E00ZZ0000QM
|
|
|
|
#04101:0102030005060708000A0B0C000E0F0G
|
|
#04101:0T000U0V0W000X0Y0Z00101112001314
|
|
#04101:0016001600160016
|
|
#04101:00170017
|
|
#04101:20002100222324252627280029002A2B
|
|
#04101:00
|
|
#04101:00
|
|
#04101:00
|
|
#04101:00
|
|
#04101:00
|
|
#04101:00
|
|
#04101:00
|
|
#04101:00
|
|
#04101:00
|
|
#04101:00
|
|
#04101:00
|
|
#04101:00
|
|
#04101:00
|
|
#04101:00
|
|
#04101:00
|
|
#04101:00
|
|
#04101:00
|
|
#04101:00
|
|
#04101:00
|
|
#04101:00
|
|
#04101:00
|
|
#04101:00
|
|
#04101:00
|
|
#04101:00
|
|
#04101:00
|
|
#04101:00
|
|
#04101:00
|
|
#04101:00
|
|
#04101:00
|
|
#04101:AG00AFADAJAFAIAC
|
|
#04111:2E2E2E2E2E2E2D2D
|
|
#04112:PF0000QI0000PI00QV00ZZ000D0000PM
|
|
#04113:00PI00ZZ00QD0000Q3ZZ00PZ002D00QE
|
|
#04114:ZZ00PL00QO0000Q70000Q30000QK002D
|
|
#04115:Q70000PQ0000QA0000Q500QR00PS0000
|
|
#04116:33
|
|
#04118:ZZQA000400PL00000900QV00PU00QI00
|
|
#04119:0000QD00PW0000PF00QX0000QM00PQ00
|
|
|
|
#04201:00
|
|
#04201:00
|
|
#04201:00
|
|
#04201:00
|
|
#04201:00
|
|
#04201:00
|
|
#04201:00
|
|
#04201:00
|
|
#04201:00
|
|
#04201:00
|
|
#04201:00003K003L00003N
|
|
#04201:00
|
|
#04201:00
|
|
#04201:003J000048003M00
|
|
#04201:00
|
|
#04201:00
|
|
#04201:00
|
|
#04201:00
|
|
#04201:00
|
|
#04201:00
|
|
#04201:00
|
|
#04201:00
|
|
#04201:00
|
|
#04201:00
|
|
#04201:00
|
|
#04201:00
|
|
#04201:69
|
|
#04201:00
|
|
#04201:00
|
|
#04201:00
|
|
#04201:00
|
|
#04201:00
|
|
#04201:00
|
|
#04201:00
|
|
#04201:00
|
|
#04201:00
|
|
#04201:00
|
|
#04201:00
|
|
#04201:00
|
|
#04201:00
|
|
#04201:00
|
|
#04201:00
|
|
#04201:00
|
|
#04201:00
|
|
#04201:00
|
|
#04201:00
|
|
#04201:00
|
|
#04201:00
|
|
#04201:00
|
|
#04201:00
|
|
#04201:00
|
|
#04201:00
|
|
#04201:00
|
|
#04201:00
|
|
#04201:00
|
|
#04201:00
|
|
#04201:00
|
|
#04201:00
|
|
#04201:00
|
|
#04201:00
|
|
#04201:00
|
|
#04201:00
|
|
#04201:00
|
|
#04201:00
|
|
#04201:00
|
|
#04201:00
|
|
#04201:00
|
|
#04201:00
|
|
#04201:00
|
|
#04201:00
|
|
#04201:00P1
|
|
#04201:00
|
|
#04201:00
|
|
#04201:00
|
|
#04201:00
|
|
#04201:00
|
|
#04201:00
|
|
#04201:00
|
|
#04201:00
|
|
#04201:00
|
|
#04201:00
|
|
#04201:00
|
|
#04201:00
|
|
#04201:00
|
|
#04201:00
|
|
#04201:00
|
|
#04201:00
|
|
#04201:00
|
|
#04201:00
|
|
#04201:SJ
|
|
#04211:AKAK
|
|
#04212:0000006C00000000
|
|
#04213:00006D0000AN0000
|
|
#04214:00AN0000000000AM
|
|
#04215:6I0000AN0000AQ00
|
|
#04216:5Q
|
|
#04218:ZZAR0000
|
|
#04219:ZZ
|
|
|
|
#04301:00
|
|
#04301:00
|
|
#04301:00
|
|
#04301:00
|
|
#04301:00
|
|
#04301:00
|
|
#04301:00
|
|
#04301:00
|
|
#04301:00
|
|
#04301:00
|
|
#04301:3O003P003R003S3T
|
|
#04301:00
|
|
#04301:00
|
|
#04301:0000003Q00000000
|
|
#04301:00
|
|
#04301:00
|
|
#04301:00
|
|
#04301:00
|
|
#04301:00
|
|
#04301:00
|
|
#04301:00
|
|
#04301:00
|
|
#04301:00
|
|
#04301:00
|
|
#04301:00
|
|
#04301:00
|
|
#04301:63
|
|
#04301:00
|
|
#04301:00
|
|
#04301:00
|
|
#04301:00
|
|
#04301:00
|
|
#04301:00
|
|
#04301:00
|
|
#04301:00
|
|
#04301:00
|
|
#04301:00
|
|
#04301:00
|
|
#04301:00
|
|
#04301:00
|
|
#04301:00
|
|
#04301:00
|
|
#04301:00
|
|
#04301:00
|
|
#04301:00
|
|
#04301:00
|
|
#04301:00
|
|
#04301:00
|
|
#04301:00
|
|
#04301:00
|
|
#04301:00
|
|
#04301:00
|
|
#04301:00
|
|
#04301:00
|
|
#04301:00
|
|
#04301:00
|
|
#04301:00
|
|
#04301:00
|
|
#04301:00
|
|
#04301:00
|
|
#04301:00
|
|
#04301:00
|
|
#04301:00
|
|
#04301:00
|
|
#04301:00
|
|
#04301:00
|
|
#04301:00
|
|
#04301:00
|
|
#04301:00
|
|
#04301:00
|
|
#04301:00P2
|
|
#04311:00AK
|
|
#04312:0000006B00AN0000
|
|
#04313:AK6D006F
|
|
#04314:00000000000000AQ
|
|
#04315:00AN00AN006B0000
|
|
#04318:00AR00AT
|
|
#04319:6G0000000000006K
|
|
|
|
#04401:00
|
|
#04401:00
|
|
#04401:00
|
|
#04401:00
|
|
#04401:00
|
|
#04401:00
|
|
#04401:00
|
|
#04401:00
|
|
#04401:00
|
|
#04401:00
|
|
#04401:3U003W003Y000040
|
|
#04401:00
|
|
#04401:003V003X00000000
|
|
#04401:0000483Z
|
|
#04401:00
|
|
#04401:00
|
|
#04401:00
|
|
#04401:00
|
|
#04401:00
|
|
#04401:00
|
|
#04401:00
|
|
#04401:00
|
|
#04401:00
|
|
#04401:00
|
|
#04401:00
|
|
#04401:00
|
|
#04401:67
|
|
#04401:00
|
|
#04401:00
|
|
#04401:00
|
|
#04401:00
|
|
#04401:00
|
|
#04401:00
|
|
#04401:00
|
|
#04401:00
|
|
#04401:00
|
|
#04401:00
|
|
#04401:00
|
|
#04401:00
|
|
#04401:00
|
|
#04401:00
|
|
#04401:00
|
|
#04401:00
|
|
#04401:00
|
|
#04401:00
|
|
#04401:00
|
|
#04401:00
|
|
#04401:00
|
|
#04401:00
|
|
#04401:00
|
|
#04401:00
|
|
#04401:00
|
|
#04401:00
|
|
#04401:00
|
|
#04401:00
|
|
#04401:00
|
|
#04401:00
|
|
#04401:00
|
|
#04401:00
|
|
#04401:00
|
|
#04401:00
|
|
#04401:00
|
|
#04401:00
|
|
#04401:00
|
|
#04401:00
|
|
#04401:00
|
|
#04401:00
|
|
#04401:00
|
|
#04401:00
|
|
#04401:00
|
|
#04401:00P3
|
|
#04411:00AK
|
|
#04412:AK0000AN00000000
|
|
#04413:0000AR0000AN00AM
|
|
#04414:00AN00000000AQ00
|
|
#04415:6P000000006L006L
|
|
#04418:0000006P00000000
|
|
#04419:006S0000
|
|
|
|
#04501:00
|
|
#04501:00
|
|
#04501:00
|
|
#04501:00
|
|
#04501:00
|
|
#04501:00
|
|
#04501:00
|
|
#04501:00
|
|
#04501:00
|
|
#04501:00
|
|
#04501:4100420044004546
|
|
#04501:00
|
|
#04501:0000004300000000
|
|
#04501:00
|
|
#04501:00
|
|
#04501:00
|
|
#04501:00
|
|
#04501:00
|
|
#04501:00
|
|
#04501:00
|
|
#04501:00
|
|
#04501:00
|
|
#04501:00
|
|
#04501:00
|
|
#04501:00
|
|
#04501:00
|
|
#04501:00
|
|
#04501:69
|
|
#04501:00
|
|
#04501:00
|
|
#04501:00
|
|
#04501:00
|
|
#04501:00
|
|
#04501:00
|
|
#04501:00
|
|
#04501:00
|
|
#04501:00
|
|
#04501:00
|
|
#04501:00
|
|
#04501:00
|
|
#04501:00
|
|
#04501:00
|
|
#04501:00
|
|
#04501:00
|
|
#04501:00
|
|
#04501:00
|
|
#04501:00
|
|
#04501:00
|
|
#04501:00
|
|
#04501:00
|
|
#04501:00
|
|
#04501:00
|
|
#04501:00
|
|
#04501:00
|
|
#04501:00
|
|
#04501:00
|
|
#04501:00
|
|
#04501:00
|
|
#04501:00
|
|
#04501:00
|
|
#04501:00
|
|
#04501:00
|
|
#04501:00
|
|
#04501:00
|
|
#04501:00
|
|
#04501:00
|
|
#04501:00
|
|
#04501:00
|
|
#04501:00
|
|
#04501:00
|
|
#04501:00P4
|
|
#04511:006F000000000000
|
|
#04512:AK6KAK00
|
|
#04513:0000006P00006E00
|
|
#04514:00AN000000000000
|
|
#04515:0000AR0000AT0000
|
|
#04518:000000AN000000AQ
|
|
#04519:000000AU
|
|
|
|
#04601:00
|
|
#04601:00
|
|
#04601:00
|
|
#04601:00
|
|
#04601:00
|
|
#04601:00
|
|
#04601:00
|
|
#04601:00
|
|
#04601:00
|
|
#04601:00
|
|
#04601:3I003K003L00003N
|
|
#04601:00
|
|
#04601:003J000000003M00
|
|
#04601:0048
|
|
#04601:00
|
|
#04601:00
|
|
#04601:00
|
|
#04601:00
|
|
#04601:00
|
|
#04601:00
|
|
#04601:00
|
|
#04601:00
|
|
#04601:00
|
|
#04601:00
|
|
#04601:00
|
|
#04601:00
|
|
#04601:62
|
|
#04601:00
|
|
#04601:00
|
|
#04601:00
|
|
#04601:00
|
|
#04601:00
|
|
#04601:00
|
|
#04601:00
|
|
#04601:00
|
|
#04601:00
|
|
#04601:00
|
|
#04601:00
|
|
#04601:00
|
|
#04601:00
|
|
#04601:00
|
|
#04601:00
|
|
#04601:00
|
|
#04601:00
|
|
#04601:00
|
|
#04601:00
|
|
#04601:00
|
|
#04601:00
|
|
#04601:00
|
|
#04601:00
|
|
#04601:00
|
|
#04601:00
|
|
#04601:00
|
|
#04601:00
|
|
#04601:00
|
|
#04601:00
|
|
#04601:00
|
|
#04601:00
|
|
#04601:00
|
|
#04601:00
|
|
#04601:00
|
|
#04601:00
|
|
#04601:00
|
|
#04601:00
|
|
#04601:00
|
|
#04601:00
|
|
#04601:00
|
|
#04601:00
|
|
#04601:00
|
|
#04601:00
|
|
#04601:00P1
|
|
#04611:00AK
|
|
#04612:0000006C00000000
|
|
#04613:00006D0000AN0000
|
|
#04614:AK000000000000AM
|
|
#04615:00AN00AN0000AQ00
|
|
#04618:00AR0000
|
|
#04619:6G
|
|
|
|
#04701:00
|
|
#04701:00
|
|
#04701:00
|
|
#04701:00
|
|
#04701:00
|
|
#04701:00
|
|
#04701:00
|
|
#04701:00
|
|
#04701:00
|
|
#04701:00
|
|
#04701:3O003P003R003S3T
|
|
#04701:00
|
|
#04701:0000003Q00000000
|
|
#04701:00
|
|
#04701:00
|
|
#04701:00
|
|
#04701:00
|
|
#04701:00
|
|
#04701:00
|
|
#04701:00
|
|
#04701:00
|
|
#04701:00
|
|
#04701:00
|
|
#04701:00
|
|
#04701:00
|
|
#04701:00
|
|
#04701:63
|
|
#04701:00
|
|
#04701:00
|
|
#04701:00
|
|
#04701:00
|
|
#04701:00
|
|
#04701:00
|
|
#04701:00
|
|
#04701:00
|
|
#04701:00
|
|
#04701:00
|
|
#04701:00
|
|
#04701:00
|
|
#04701:00
|
|
#04701:00
|
|
#04701:00
|
|
#04701:00
|
|
#04701:00
|
|
#04701:00
|
|
#04701:00
|
|
#04701:00
|
|
#04701:00
|
|
#04701:00
|
|
#04701:00
|
|
#04701:00
|
|
#04701:00
|
|
#04701:00
|
|
#04701:00
|
|
#04701:00
|
|
#04701:00
|
|
#04701:00
|
|
#04701:00
|
|
#04701:00
|
|
#04701:00
|
|
#04701:00
|
|
#04701:00
|
|
#04701:00
|
|
#04701:00
|
|
#04701:00
|
|
#04701:00
|
|
#04701:00
|
|
#04701:00
|
|
#04701:00
|
|
#04701:00
|
|
#04701:00P2
|
|
#04711:00006K0000AN0000
|
|
#04712:AK00AK6F
|
|
#04713:00AN00AN00000000
|
|
#04714:000000000000006M
|
|
#04715:00AR00AT
|
|
#04718:6G
|
|
#04719:0000006P000000AQ
|
|
|
|
#04801:00
|
|
#04801:00
|
|
#04801:00
|
|
#04801:00
|
|
#04801:00
|
|
#04801:00
|
|
#04801:00
|
|
#04801:00
|
|
#04801:00
|
|
#04801:00
|
|
#04801:3U003W003Y000040
|
|
#04801:00
|
|
#04801:003V003X00003Z00
|
|
#04801:0047
|
|
#04801:00
|
|
#04801:00
|
|
#04801:00
|
|
#04801:00
|
|
#04801:00
|
|
#04801:00
|
|
#04801:00
|
|
#04801:00
|
|
#04801:00
|
|
#04801:00
|
|
#04801:00
|
|
#04801:00
|
|
#04801:67
|
|
#04801:00
|
|
#04801:00
|
|
#04801:00
|
|
#04801:00
|
|
#04801:00
|
|
#04801:00
|
|
#04801:00
|
|
#04801:00
|
|
#04801:00
|
|
#04801:00
|
|
#04801:00
|
|
#04801:00
|
|
#04801:00
|
|
#04801:00
|
|
#04801:00
|
|
#04801:00
|
|
#04801:00
|
|
#04801:00
|
|
#04801:00
|
|
#04801:00
|
|
#04801:00
|
|
#04801:00
|
|
#04801:00
|
|
#04801:00
|
|
#04801:00
|
|
#04801:00
|
|
#04801:00
|
|
#04801:00
|
|
#04801:00
|
|
#04801:00
|
|
#04801:00
|
|
#04801:00
|
|
#04801:00
|
|
#04801:00
|
|
#04801:00
|
|
#04801:00
|
|
#04801:00
|
|
#04801:00
|
|
#04801:00
|
|
#04801:00
|
|
#04801:00
|
|
#04801:00
|
|
#04801:00
|
|
#04801:00P3
|
|
#04811:00AK
|
|
#04812:00000000000000AM
|
|
#04813:AK0000AN0000AQ00
|
|
#04814:00AN000000AN0000
|
|
#04815:0000AR000000006X
|
|
#04818:0000007A
|
|
#04819:00000000007C0000
|
|
|
|
#04901:00
|
|
#04901:00
|
|
#04901:00
|
|
#04901:00
|
|
#04901:00
|
|
#04901:00
|
|
#04901:00
|
|
#04901:00
|
|
#04901:00
|
|
#04901:00
|
|
#04901:4100424344004546
|
|
#04901:00
|
|
#04901:00
|
|
#04901:00
|
|
#04901:00
|
|
#04901:00
|
|
#04901:00
|
|
#04901:00
|
|
#04901:00
|
|
#04901:00
|
|
#04901:00
|
|
#04901:00
|
|
#04901:00
|
|
#04901:00
|
|
#04901:00
|
|
#04901:00
|
|
#04901:69
|
|
#04901:00
|
|
#04901:00
|
|
#04901:00
|
|
#04901:00
|
|
#04901:00
|
|
#04901:00
|
|
#04901:00
|
|
#04901:00
|
|
#04901:00
|
|
#04901:00
|
|
#04901:00
|
|
#04901:00
|
|
#04901:00
|
|
#04901:00
|
|
#04901:00
|
|
#04901:00
|
|
#04901:00
|
|
#04901:00
|
|
#04901:00
|
|
#04901:00
|
|
#04901:00
|
|
#04901:00
|
|
#04901:00
|
|
#04901:00
|
|
#04901:00
|
|
#04901:00
|
|
#04901:00
|
|
#04901:00
|
|
#04901:00
|
|
#04901:00
|
|
#04901:00
|
|
#04901:00
|
|
#04901:00
|
|
#04901:00
|
|
#04901:00
|
|
#04901:00
|
|
#04901:00
|
|
#04901:00
|
|
#04901:00
|
|
#04901:00
|
|
#04901:00
|
|
#04901:00
|
|
#04901:00
|
|
#04901:00P4
|
|
#04911:AK
|
|
#04912:00AN0000AK000000
|
|
#04913:0000AR00000000AQ
|
|
#04914:6K0000AN00000000
|
|
#04915:006F000000AT007O
|
|
#04918:000000006K000000000000000000007X
|
|
#04919:0000006Q0000AU00
|
|
|
|
#05001:00
|
|
#05001:00
|
|
#05001:00
|
|
#05001:00
|
|
#05001:00
|
|
#05001:00
|
|
#05001:00
|
|
#05001:00
|
|
#05001:00
|
|
#05001:00
|
|
#05001:00
|
|
#05001:00
|
|
#05001:00
|
|
#05001:00
|
|
#05001:0000004B004A0000
|
|
#05001:00
|
|
#05001:00
|
|
#05001:00
|
|
#05001:00
|
|
#05001:00
|
|
#05001:00
|
|
#05001:00
|
|
#05001:00
|
|
#05001:00
|
|
#05001:00
|
|
#05001:61
|
|
#05001:6A
|
|
#05001:6W
|
|
#05001:00
|
|
#05001:00
|
|
#05001:9Z009Z9Z9Z009Z0000009Z009Z9Z9Z00
|
|
#05001:A000A1A000A0A1A1
|
|
#05001:00
|
|
#05001:00
|
|
#05001:00
|
|
#05001:ALAOASAOALAOARAN
|
|
#05001:B5B5
|
|
#05001:BHBH
|
|
#05001:BNBN
|
|
#05001:00
|
|
#05001:00
|
|
#05001:0000DT0000DT0000
|
|
#05001:0000E20000E20000
|
|
#05001:0000EA0000EA0000
|
|
#05011:A30000A300A30000
|
|
#05012:0000000000000081
|
|
#05014:00000085
|
|
#05015:0000008900000000
|
|
#05016:4C
|
|
#05019:8F
|
|
|
|
#05101:00
|
|
#05101:00
|
|
#05101:6Q00007400007G00
|
|
#05101:00
|
|
#05101:00
|
|
#05101:00
|
|
#05101:00
|
|
#05101:00
|
|
#05101:00
|
|
#05101:00
|
|
#05101:00
|
|
#05101:00
|
|
#05101:00
|
|
#05101:00
|
|
#05101:4A000000004A0000
|
|
#05101:0000004B00000000
|
|
#05101:00
|
|
#05101:00
|
|
#05101:00
|
|
#05101:00
|
|
#05101:00
|
|
#05101:00
|
|
#05101:00
|
|
#05101:00
|
|
#05101:00
|
|
#05101:60
|
|
#05101:69
|
|
#05101:000000000000007F
|
|
#05101:00
|
|
#05101:00
|
|
#05101:9Z0000009Z009Z9Z9Z009Z9Z9Z009Z9Z
|
|
#05101:A0000000A100A0000000A000A100A2A2
|
|
#05101:00
|
|
#05101:00
|
|
#05101:00
|
|
#05101:ALAOASAOALAOAUAR
|
|
#05101:B3B3
|
|
#05101:BFBF
|
|
#05101:BLBL
|
|
#05101:00
|
|
#05101:00
|
|
#05101:DL0000D70000D600
|
|
#05101:E20000DL0000DK00
|
|
#05101:E80000E20000E100
|
|
#05111:A30000A300A30000
|
|
#05112:0000007Z
|
|
#05113:000000000000008C
|
|
|
|
#05201:00
|
|
#05201:00
|
|
#05201:00
|
|
#05201:00
|
|
#05201:00
|
|
#05201:00
|
|
#05201:00
|
|
#05201:00
|
|
#05201:00
|
|
#05201:00
|
|
#05201:00
|
|
#05201:00
|
|
#05201:00
|
|
#05201:00
|
|
#05201:4A000000004A0000
|
|
#05201:0000004B00000000
|
|
#05201:00
|
|
#05201:00
|
|
#05201:00
|
|
#05201:00
|
|
#05201:00
|
|
#05201:00
|
|
#05201:00
|
|
#05201:00
|
|
#05201:00
|
|
#05201:5Y
|
|
#05201:67
|
|
#05201:0000000000000075
|
|
#05201:00
|
|
#05201:00
|
|
#05201:9Z009Z9Z9Z009Z0000009Z009Z9Z9Z00
|
|
#05201:A000A1A000A0A1A1
|
|
#05201:00
|
|
#05201:00
|
|
#05201:00
|
|
#05201:ALAOASAOALAOARAN
|
|
#05201:B1B1
|
|
#05201:BDBD
|
|
#05201:BKBK
|
|
#05201:00
|
|
#05201:00
|
|
#05201:DFCY
|
|
#05201:DMDG
|
|
#05201:E7E3
|
|
#05211:A30000A300A30000
|
|
#05212:000000000000008J
|
|
#05213:00000000008B8B00
|
|
#05214:7979797979000000
|
|
#05215:0000000000797900
|
|
#05218:8H8H8H8H8I000000
|
|
|
|
#05301:00
|
|
#05301:00
|
|
#05301:00
|
|
#05301:00
|
|
#05301:00
|
|
#05301:00
|
|
#05301:00
|
|
#05301:00
|
|
#05301:00
|
|
#05301:00
|
|
#05301:00
|
|
#05301:00
|
|
#05301:00
|
|
#05301:00
|
|
#05301:4A00004A00004900
|
|
#05301:00
|
|
#05301:00
|
|
#05301:00
|
|
#05301:00
|
|
#05301:00
|
|
#05301:00
|
|
#05301:00
|
|
#05301:00
|
|
#05301:00
|
|
#05301:00
|
|
#05301:5W
|
|
#05301:65
|
|
#05301:0000007H00007300
|
|
#05301:00
|
|
#05301:00
|
|
#05301:9Z0000009Z009Z9Z9Z009Z9Z9Z009Z9Z
|
|
#05301:A0000000A100A0000000A100A000A2A2
|
|
#05301:00
|
|
#05301:00
|
|
#05301:00
|
|
#05301:ALAOASAOALAUAVAR
|
|
#05301:B0B0
|
|
#05301:BCBC
|
|
#05301:BJBJ
|
|
#05301:00
|
|
#05301:00
|
|
#05301:DL0000ECEBE9E0DR
|
|
#05301:E2
|
|
#05301:E8
|
|
#05311:A30000A30000A300
|
|
#05312:000000000000007R
|
|
#05313:0000007T
|
|
#05314:0000008D00000000
|
|
#05319:008P000000000000
|
|
|
|
#05401:00
|
|
#05401:00
|
|
#05401:00
|
|
#05401:00
|
|
#05401:00
|
|
#05401:00
|
|
#05401:00
|
|
#05401:00
|
|
#05401:00
|
|
#05401:00
|
|
#05401:00
|
|
#05401:00
|
|
#05401:00
|
|
#05401:00
|
|
#05401:4A000000004A0000
|
|
#05401:0000004B00000000
|
|
#05401:00
|
|
#05401:00
|
|
#05401:00
|
|
#05401:00
|
|
#05401:00
|
|
#05401:00
|
|
#05401:00
|
|
#05401:00
|
|
#05401:00
|
|
#05401:5U
|
|
#05401:62
|
|
#05401:7B70
|
|
#05401:00
|
|
#05401:00
|
|
#05401:9Z009Z9Z9Z009Z0000009Z009Z9Z9Z00
|
|
#05401:A000A1A000A0A1A1
|
|
#05401:00
|
|
#05401:00
|
|
#05401:00
|
|
#05401:AKAOARAOAKAOARAN
|
|
#05401:AYAY
|
|
#05401:BABA
|
|
#05401:BHBH
|
|
#05401:00
|
|
#05401:00
|
|
#05401:CU00CX0000CX0000
|
|
#05401:DA00DE0000DE0000
|
|
#05401:DW00DY0000DY0000
|
|
#05411:A30000A300A30000
|
|
#05413:7T7T0000
|
|
#05414:0000007U
|
|
#05415:0000008E00000000
|
|
|
|
#05501:00
|
|
#05501:00
|
|
#05501:00
|
|
#05501:00
|
|
#05501:00
|
|
#05501:00
|
|
#05501:00
|
|
#05501:00
|
|
#05501:00
|
|
#05501:00
|
|
#05501:00
|
|
#05501:00
|
|
#05501:00
|
|
#05501:00
|
|
#05501:4A000000004A0000
|
|
#05501:0000004B00000000
|
|
#05501:00
|
|
#05501:00
|
|
#05501:00
|
|
#05501:00
|
|
#05501:00
|
|
#05501:00
|
|
#05501:00
|
|
#05501:00
|
|
#05501:00
|
|
#05501:5W
|
|
#05501:65
|
|
#05501:6V6M
|
|
#05501:00
|
|
#05501:00
|
|
#05501:9Z0000009Z009Z9Z9Z009Z9Z9Z009Z9Z
|
|
#05501:A0000000A100A0000000A000A100A2A2
|
|
#05501:00
|
|
#05501:00
|
|
#05501:00
|
|
#05501:ALAOASAOALAOAUAR
|
|
#05501:B0B0
|
|
#05501:BCBC
|
|
#05501:BJBJ
|
|
#05501:00
|
|
#05501:00
|
|
#05501:D500D70000D70000
|
|
#05501:DJ00DL0000DL0000
|
|
#05501:DZ00E20000E20000
|
|
#05511:A30000A300A30000
|
|
#05512:00000080
|
|
#05518:7Z7Z0000
|
|
#05519:0000008J00000000
|
|
|
|
#05601:00
|
|
#05601:00
|
|
#05601:00
|
|
#05601:00
|
|
#05601:00
|
|
#05601:00
|
|
#05601:00
|
|
#05601:00
|
|
#05601:00
|
|
#05601:00
|
|
#05601:00
|
|
#05601:00
|
|
#05601:00
|
|
#05601:00
|
|
#05601:4A000000004A0000
|
|
#05601:0000004B00000000
|
|
#05601:00
|
|
#05601:00
|
|
#05601:00
|
|
#05601:00
|
|
#05601:00
|
|
#05601:00
|
|
#05601:00
|
|
#05601:00
|
|
#05601:00
|
|
#05601:5X00005Z0000005V
|
|
#05601:6600006800000064
|
|
#05601:6P00006N006N006J
|
|
#05601:00
|
|
#05601:00
|
|
#05601:9Z009Z9Z9Z009Z0000009Z009Z9Z9Z00
|
|
#05601:A000A1A000A0A1A1
|
|
#05601:00
|
|
#05601:00
|
|
#05601:00
|
|
#05601:ALAOAPASAOAPASAW
|
|
#05601:B1B2
|
|
#05601:BDBE
|
|
#05601:BKBK
|
|
#05601:00
|
|
#05601:00
|
|
#05601:DD0000DC00DC00D8
|
|
#05601:DS0000DR00DR00DU
|
|
#05601:E60000E500E500E4
|
|
#05611:A30000A300A30000
|
|
#05613:84
|
|
#05614:00880000
|
|
#05615:0000008B00000000
|
|
#05618:00000000008H0000
|
|
#05619:000000000000008Q
|
|
|
|
#05701:00
|
|
#05701:00
|
|
#05701:00
|
|
#05701:00
|
|
#05701:00
|
|
#05701:00
|
|
#05701:00
|
|
#05701:00
|
|
#05701:004F0000000000000000000000000000
|
|
#05701:00
|
|
#05701:00
|
|
#05701:00
|
|
#05701:00
|
|
#05701:00
|
|
#05701:00
|
|
#05701:00
|
|
#05701:00
|
|
#05701:00
|
|
#05701:00
|
|
#05701:00
|
|
#05701:00
|
|
#05701:00
|
|
#05701:00
|
|
#05701:00
|
|
#05701:00
|
|
#05701:00
|
|
#05701:00
|
|
#05701:00
|
|
#05701:00
|
|
#05701:00
|
|
#05701:9Z9Z9Z009Z009Z9Z9Z9Z9Z0000000000
|
|
#05701:A0000000A100A000A2A2A20000000000
|
|
#05701:A30000A300000000
|
|
#05701:00
|
|
#05701:00
|
|
#05701:00
|
|
#05701:B0
|
|
#05701:BC
|
|
#05701:BJ
|
|
#05711:4E004G00000000000000004O00000000
|
|
#05713:00000000004N0000
|
|
#05714:00000000004I00000000000000000000
|
|
#05715:0000000000000000004M000000000000
|
|
#05716:0000004P
|
|
#05718:000000004H004J4K0000000000000000
|
|
#05719:004L
|
|
|
|
#05801:01020004050607080000000C0000000G
|
|
#05801:0000030J0K000L0M0N000O0P0Q000R0S
|
|
#05801:000015000000150000001500000E1500
|
|
#05801:0000000017000000000A000017000000
|
|
#05801:180019001A001B1C1D001E001F001G00
|
|
#05801:00
|
|
#05801:2J
|
|
#05801:00
|
|
#05801:00
|
|
#05801:00
|
|
#05801:00
|
|
#05801:00
|
|
#05801:00
|
|
#05801:00
|
|
#05801:00
|
|
#05801:00
|
|
#05801:00
|
|
#05801:00
|
|
#05801:00
|
|
#05801:00
|
|
#05801:00
|
|
#05801:00
|
|
#05801:00
|
|
#05801:00
|
|
#05801:00
|
|
#05801:00
|
|
#05801:00
|
|
#05801:00
|
|
#05801:00
|
|
#05801:00
|
|
#05801:00
|
|
#05801:00
|
|
#05801:00
|
|
#05801:A9A700A7A600A8A6
|
|
#05801:00
|
|
#05801:00
|
|
#05801:0000B10000B10000
|
|
#05801:0000BD0000BD0000
|
|
#05801:0000BK0000BK0000
|
|
#05801:00
|
|
#05801:00
|
|
#05801:00
|
|
#05801:00
|
|
#05801:00
|
|
#05801:00
|
|
#05801:00
|
|
#05801:00
|
|
#05801:00
|
|
#05801:00
|
|
#05801:00
|
|
#05801:00
|
|
#05801:00
|
|
#05801:00
|
|
#05801:00
|
|
#05801:00
|
|
#05801:00
|
|
#05801:00
|
|
#05801:00
|
|
#05801:00
|
|
#05801:00
|
|
#05801:00
|
|
#05801:00
|
|
#05801:00
|
|
#05801:00
|
|
#05801:00
|
|
#05801:00
|
|
#05801:00
|
|
#05801:00
|
|
#05801:00
|
|
#05801:O600NWNX00O600OB
|
|
#05811:2GZZ2GZZ090B2GZZ
|
|
#05812:0H000I00JL00JM0000IJ00ZZ00IJ00IE
|
|
#05813:KT00ZZ00KC00KE002G0000IA00000F00
|
|
#05814:00IA0000JR00JS00ZZ00KT00IG00KE00
|
|
#05815:I700IG0000IP0000IN00K200ZZ00JX00
|
|
#05816:33
|
|
#05818:K2ZZ00IJ00ZZ00IP0000JS000D00IG00
|
|
#05819:JSZZINIRZZIGZZKZ
|
|
|
|
#05901:0002000405060000090A000C0D000000
|
|
#05901:0T000U0V0W000X0Y0Z00101112001314
|
|
#05901:0015001500150015
|
|
#05901:00170017
|
|
#05901:1H001I001J001K1L1M1N1O001P001Q00
|
|
#05901:00
|
|
#05901:00
|
|
#05901:00
|
|
#05901:00
|
|
#05901:00
|
|
#05901:00
|
|
#05901:00
|
|
#05901:00
|
|
#05901:00
|
|
#05901:00
|
|
#05901:00
|
|
#05901:00
|
|
#05901:00
|
|
#05901:00
|
|
#05901:00
|
|
#05901:00
|
|
#05901:00
|
|
#05901:00
|
|
#05901:00
|
|
#05901:00
|
|
#05901:00
|
|
#05901:00
|
|
#05901:00
|
|
#05901:00
|
|
#05901:00
|
|
#05901:00
|
|
#05901:00
|
|
#05901:00
|
|
#05901:00A6A500A4A5A7A4
|
|
#05901:00
|
|
#05901:00
|
|
#05901:B30000B30000B3B3
|
|
#05901:BF0000BF0000BFBF
|
|
#05901:BL0000BL0000BLBL
|
|
#05901:00
|
|
#05901:00
|
|
#05901:00
|
|
#05901:00
|
|
#05901:00
|
|
#05901:00
|
|
#05901:00
|
|
#05901:00
|
|
#05901:00
|
|
#05901:00
|
|
#05901:00
|
|
#05901:00
|
|
#05901:00
|
|
#05901:00
|
|
#05901:00
|
|
#05901:00
|
|
#05901:00
|
|
#05901:00
|
|
#05901:00
|
|
#05901:00
|
|
#05901:00
|
|
#05901:00
|
|
#05901:00
|
|
#05901:00
|
|
#05901:00
|
|
#05901:00
|
|
#05901:00
|
|
#05901:00
|
|
#05901:00
|
|
#05901:00
|
|
#05901:00NWNW00NWO5OB00
|
|
#05911:2G032G072G0B2G0F
|
|
#05912:0000KC00JL00ZZ00KC00KS00JX00000G
|
|
#05913:ZZ00JV00IN0000080000JR00KZ0000IN
|
|
#05914:ZZ00JL00KC0000IQ00IM0000KE00II00
|
|
#05915:00IE0000JV00IT00JV0000IE000E0000
|
|
#05918:I90000IM0000ZZ00JL00K00000IM0000
|
|
#05919:0100II0000IQ0000IN00II00II00ZZ00
|
|
|
|
#06001:010200040506000800000B0C0000000G
|
|
#06001:0H000I0J0K000L0M0N000O0P0Q000R0S
|
|
#06001:0015001500150015
|
|
#06001:00170017
|
|
#06001:1R001S001T001U1V1W001X001Y001Z00
|
|
#06001:00
|
|
#06001:00
|
|
#06001:00
|
|
#06001:00
|
|
#06001:00
|
|
#06001:00
|
|
#06001:00
|
|
#06001:00
|
|
#06001:00
|
|
#06001:00
|
|
#06001:00
|
|
#06001:00
|
|
#06001:00
|
|
#06001:00
|
|
#06001:00
|
|
#06001:00
|
|
#06001:00
|
|
#06001:00
|
|
#06001:00
|
|
#06001:00
|
|
#06001:00
|
|
#06001:00
|
|
#06001:00
|
|
#06001:00
|
|
#06001:00
|
|
#06001:00
|
|
#06001:00
|
|
#06001:00
|
|
#06001:A9A700A7A600A8A6
|
|
#06001:00
|
|
#06001:00
|
|
#06001:0000B50000B50000
|
|
#06001:0000BH0000BH0000
|
|
#06001:0000BN0000BN0000
|
|
#06001:00
|
|
#06001:00
|
|
#06001:00
|
|
#06001:00
|
|
#06001:00
|
|
#06001:00
|
|
#06001:00
|
|
#06001:00
|
|
#06001:00
|
|
#06001:00
|
|
#06001:00
|
|
#06001:00
|
|
#06001:00
|
|
#06001:00
|
|
#06001:00
|
|
#06001:00
|
|
#06001:00
|
|
#06001:00
|
|
#06001:00
|
|
#06001:00
|
|
#06001:00
|
|
#06001:00
|
|
#06001:00
|
|
#06001:00
|
|
#06001:00
|
|
#06001:00
|
|
#06001:00
|
|
#06001:00
|
|
#06001:00
|
|
#06001:00
|
|
#06001:OB00OAOB00OH00OP
|
|
#06011:2GZZ00IJ0000JW002G00ZZ002G000F00
|
|
#06012:00IA00002G00KY00000A00IA0000LD00
|
|
#06013:0000IG00KX0000IP00IJ00000D00KK00
|
|
#06014:KY00ZZ0000IP00000900L500ZZ00K800
|
|
#06015:JW000300KC00KD00ZZ00KJ00000E00IL
|
|
#06018:I7ZZJV07ZZK1ICIJ
|
|
#06019:KD00ZZ00IN00IR00IN00IG0000IG0000
|
|
|
|
#06101:0000000405060008090A000C0D0E000G
|
|
#06101:0T000U0V0W000X0Y0Z00101112001314
|
|
#06101:0015001500150015
|
|
#06101:00170017
|
|
#06101:20002100222324252627280029002A2B
|
|
#06101:00
|
|
#06101:00
|
|
#06101:00
|
|
#06101:00
|
|
#06101:00
|
|
#06101:00
|
|
#06101:00
|
|
#06101:00
|
|
#06101:00
|
|
#06101:00
|
|
#06101:00
|
|
#06101:00
|
|
#06101:00
|
|
#06101:00
|
|
#06101:00
|
|
#06101:00
|
|
#06101:00
|
|
#06101:00
|
|
#06101:00
|
|
#06101:00
|
|
#06101:00
|
|
#06101:00
|
|
#06101:00
|
|
#06101:00
|
|
#06101:00
|
|
#06101:00
|
|
#06101:00
|
|
#06101:00
|
|
#06101:00A6A800A6ABAAA8
|
|
#06101:00
|
|
#06101:00
|
|
#06101:B00000B00000B0B0
|
|
#06101:BC0000BC0000BCBC
|
|
#06101:BJ0000BJ0000BJBJ
|
|
#06101:00
|
|
#06101:00
|
|
#06101:00
|
|
#06101:00
|
|
#06101:00
|
|
#06101:00
|
|
#06101:00
|
|
#06101:00
|
|
#06101:00
|
|
#06101:00
|
|
#06101:00
|
|
#06101:00
|
|
#06101:00
|
|
#06101:00
|
|
#06101:00
|
|
#06101:00
|
|
#06101:00
|
|
#06101:00
|
|
#06101:00
|
|
#06101:00
|
|
#06101:00
|
|
#06101:00
|
|
#06101:00
|
|
#06101:00
|
|
#06101:00
|
|
#06101:00
|
|
#06101:00
|
|
#06101:00
|
|
#06101:00
|
|
#06101:00
|
|
#06101:00OHOBO6
|
|
#06111:2GZZ2GZZ2GZZ2E2E
|
|
#06112:000200IE0000070000IE0000JS000F00
|
|
#06113:ZZ00II0000IG0000KZ000B00KT00ZZ00
|
|
#06114:0100ZZ00L600ZZ00JX00ZZ00K20000IL
|
|
#06115:00000300KE00IM00KE00ID0000IA0000
|
|
#06118:00IL0000K20000IL00ZZ00IG0000IE00
|
|
#06119:IMZZIDZZIIZZI7ZZ
|
|
|
|
#06201:01020004050600080000000C0000000G
|
|
#06201:0H000I0J0K000L0M0N000O0P0Q00000S
|
|
#06201:0015001500150015
|
|
#06201:00170017
|
|
#06201:180019001A001B1C1D001E001F001G00
|
|
#06201:00
|
|
#06201:00
|
|
#06201:00
|
|
#06201:00
|
|
#06201:00
|
|
#06201:00
|
|
#06201:00
|
|
#06201:00
|
|
#06201:00
|
|
#06201:00
|
|
#06201:00
|
|
#06201:00
|
|
#06201:00
|
|
#06201:00
|
|
#06201:00
|
|
#06201:00
|
|
#06201:00
|
|
#06201:00
|
|
#06201:00
|
|
#06201:00
|
|
#06201:00
|
|
#06201:00
|
|
#06201:00
|
|
#06201:00
|
|
#06201:00
|
|
#06201:00
|
|
#06201:00
|
|
#06201:00
|
|
#06201:A9A700A7A600A8A6
|
|
#06201:00
|
|
#06201:00
|
|
#06201:0000B10000B10000
|
|
#06201:0000BD0000BD0000
|
|
#06201:0000BK0000BK0000
|
|
#06201:00
|
|
#06201:00
|
|
#06201:00
|
|
#06201:00
|
|
#06201:00
|
|
#06201:00
|
|
#06201:00
|
|
#06201:00
|
|
#06201:00
|
|
#06201:00
|
|
#06201:00
|
|
#06201:00
|
|
#06201:00
|
|
#06201:00
|
|
#06201:00
|
|
#06201:00
|
|
#06201:00
|
|
#06201:00
|
|
#06201:00
|
|
#06201:00
|
|
#06201:00
|
|
#06201:00
|
|
#06201:00
|
|
#06201:00
|
|
#06201:00
|
|
#06201:00
|
|
#06201:00
|
|
#06201:00
|
|
#06201:00
|
|
#06201:00
|
|
#06201:O200O5O700000000
|
|
#06211:2GZZ2G072GZZ2GIG
|
|
#06212:JPZZ00IJ0000K300ZZ000B00ZZ0000IE
|
|
#06213:KO00ZZ00KS00KU0000IJ00ZZ00IJ0000
|
|
#06214:0000IG0000IP0000IN00ZZ00IG000R00
|
|
#06215:JX00ZZ00K00000IP0000IG00000E0000
|
|
#06216:33
|
|
#06218:00IA0000IN00JT00000A00IA00000F00
|
|
#06219:I703JRIR09ZZ0DZZ
|
|
|
|
#06301:0102000005060008000A00000D0E0000
|
|
#06301:0T000U0V0W000X0Y0Z00101112001314
|
|
#06301:0015001500150015
|
|
#06301:00170017
|
|
#06301:1H001I001J001K1L1M1N1O001P001Q00
|
|
#06301:00
|
|
#06301:00
|
|
#06301:00
|
|
#06301:00
|
|
#06301:00
|
|
#06301:00
|
|
#06301:00
|
|
#06301:00
|
|
#06301:00
|
|
#06301:00
|
|
#06301:00
|
|
#06301:00
|
|
#06301:00
|
|
#06301:00
|
|
#06301:00
|
|
#06301:00
|
|
#06301:00
|
|
#06301:00
|
|
#06301:00
|
|
#06301:00
|
|
#06301:00
|
|
#06301:00
|
|
#06301:00
|
|
#06301:00
|
|
#06301:00
|
|
#06301:00
|
|
#06301:00
|
|
#06301:00
|
|
#06301:00A6A500A4A5A7A4
|
|
#06301:00
|
|
#06301:00
|
|
#06301:B30000B30000B3B3
|
|
#06301:BF0000BF0000BFBF
|
|
#06301:BL0000BL0000BLBL
|
|
#06301:00
|
|
#06301:00
|
|
#06301:00
|
|
#06301:00
|
|
#06301:00
|
|
#06301:00
|
|
#06301:00
|
|
#06301:00
|
|
#06301:00
|
|
#06301:00
|
|
#06301:00
|
|
#06301:00
|
|
#06301:00
|
|
#06301:00
|
|
#06301:00
|
|
#06301:00
|
|
#06301:00
|
|
#06301:00
|
|
#06301:00
|
|
#06301:00
|
|
#06301:00
|
|
#06301:00
|
|
#06301:00
|
|
#06301:00
|
|
#06301:00
|
|
#06301:00
|
|
#06301:00
|
|
#06301:00
|
|
#06301:00
|
|
#06301:00
|
|
#06301:NS00NPNM0000NJ00
|
|
#06311:2GZZ2G072GZZ2G0F
|
|
#06312:00000300JH00JG00ZZ0000IE00ZZ000G
|
|
#06313:JK0000IM0000JX000900II00JS00ZZ00
|
|
#06314:K800ZZ00K00000IQ00ZZ000C00IM0000
|
|
#06315:JO00II00JL00JK0000IM0000JI00II00
|
|
#06318:I900000400IQ0000IN00ZZ00JF00ZZ00
|
|
#06319:00IE0000IN00IT00ZZ000B00II0000IN
|
|
|
|
#06401:010003000506000809000B000D0E0000
|
|
#06401:0H000I0J0K000L0M0N000O0P0Q000R0S
|
|
#06401:0015001500150015
|
|
#06401:00170017
|
|
#06401:1R001S001T001U1V1W001X001Y001Z00
|
|
#06401:00
|
|
#06401:00
|
|
#06401:00
|
|
#06401:00
|
|
#06401:00
|
|
#06401:00
|
|
#06401:00
|
|
#06401:00
|
|
#06401:0000JLJN00000000
|
|
#06401:00
|
|
#06401:0000000000N300NA0000000000000000
|
|
#06401:00
|
|
#06401:00
|
|
#06401:00
|
|
#06401:0000K0K500000000
|
|
#06401:00
|
|
#06401:00
|
|
#06401:00
|
|
#06401:00
|
|
#06401:JG00JHJJ00000000
|
|
#06401:00
|
|
#06401:00
|
|
#06401:00
|
|
#06401:00
|
|
#06401:0000000000000000MY0000MW0000MN00
|
|
#06401:N7000000N100N800NF0000ND0000N600
|
|
#06401:00
|
|
#06401:NL00NPNQ00000000
|
|
#06401:A9A700A7A600A8A6
|
|
#06401:00
|
|
#06401:00
|
|
#06401:0000B50000B50000
|
|
#06401:0000BH0000BH0000
|
|
#06401:0000BN0000BN0000
|
|
#06411:2GZZ2GZZ2GZZ2GZZ
|
|
#06412:00IA00ZZ00IP0000MS00IG0000M5000G
|
|
#06413:I7ZZMHIRINZZICMG
|
|
#06414:JX00IG0000MK00IP0000M500ZZ00IJ00
|
|
#06415:MPZZ00IJ0000MQ0000IJ00IA00000F00
|
|
#06416:34
|
|
#06418:JK00ZZ00IN0000MT00ZZ000C00ZZ00IL
|
|
#06419:0002000400000700000A00MN00IG0000
|
|
|
|
#06501:01000300050607000900000C0D0E0F0G
|
|
#06501:0T000U0V0W000X0Y0Z00001112001314
|
|
#06501:0015001500150015
|
|
#06501:00170017
|
|
#06501:20002100222324252627280029002A2B
|
|
#06501:00
|
|
#06501:00
|
|
#06501:00000000000000000000000000ICI900
|
|
#06501:00
|
|
#06501:31002Y2Y
|
|
#06501:00
|
|
#06501:00
|
|
#06501:00
|
|
#06501:00
|
|
#06501:00
|
|
#06501:00
|
|
#06501:00
|
|
#06501:00
|
|
#06501:00
|
|
#06501:00
|
|
#06501:00
|
|
#06501:00
|
|
#06501:00
|
|
#06501:00
|
|
#06501:00
|
|
#06501:00
|
|
#06501:00
|
|
#06501:00
|
|
#06501:00
|
|
#06501:MG0000ME0000MG00MN0000ME0000MC00
|
|
#06501:N000M5MY0000N000N600M5MY0000MW00
|
|
#06501:00
|
|
#06501:00
|
|
#06501:00A6A800A6ABAAA8
|
|
#06501:00
|
|
#06501:00
|
|
#06501:AX0000AX0000AXAX
|
|
#06501:B90000B90000B9B9
|
|
#06501:BF0000BF0000BFBF
|
|
#06501:0000000000000000FKFJFGF9F8F7F4EY
|
|
#06501:0000000000000000GBGAG7G0FZFYFVFP
|
|
#06511:2E002E002G00000800IL00002D002D00
|
|
#06512:000200MA00M500IL00ZZ00MA0000ZZ00
|
|
#06513:ZZ0000IE0000MC00000A00IE002D00I5
|
|
#06514:00IL000400ZZ0000MG00II00ZZ00ZZ00
|
|
#06515:IM00ZZ0000IG0000IM00ZZ0000M5002D
|
|
#06518:00ZZ0000ID00IJ002G000B00ZZ00ZZ00
|
|
#06519:MCIIZZZZZZ10IDM7
|
|
|
|
#06601:0100030005000700090A000C00000F00
|
|
#06601:0H000I0J0K000L0M0N000O0P0Q000R0S
|
|
#06601:0015001500150015
|
|
#06601:00170017
|
|
#06601:180019001A001B1C1D001E001F001G00
|
|
#06601:00
|
|
#06601:00
|
|
#06601:00
|
|
#06601:NF0000ND0000N60000MY0000NF0000ND
|
|
#06601:34
|
|
#06601:00
|
|
#06601:00
|
|
#06601:00
|
|
#06601:00
|
|
#06601:00
|
|
#06601:00
|
|
#06601:00
|
|
#06601:00
|
|
#06601:00
|
|
#06601:00
|
|
#06601:00
|
|
#06601:00
|
|
#06601:00
|
|
#06601:00
|
|
#06601:JS00JLJM00JS00JX
|
|
#06601:K200JRJS00K200KE
|
|
#06601:KT00KCKE00KT00KZ
|
|
#06601:00
|
|
#06601:00
|
|
#06601:MY0000MW0000MN0000ME0000MY0000MW
|
|
#06601:00
|
|
#06601:00
|
|
#06601:O600NWNX00O600OB
|
|
#06601:A9A700A7A600A8A6
|
|
#06601:00
|
|
#06601:00
|
|
#06601:0000B10000B10000
|
|
#06601:0000BD0000BD0000
|
|
#06601:0000BK0000BK0000
|
|
#06611:2G00ZZ002G00MJ0000IJ00002G00ZZ00
|
|
#06612:MS00IG00ZZ0000080000IG000D0000IE
|
|
#06613:0000M50000M500002G000B0000IJ000G
|
|
#06614:00020000IN00ZZ00IN0000M50000M500
|
|
#06615:00ZZ00MN0000IR0000MA0000MS0000MN
|
|
#06616:5T
|
|
#06618:00IA000400IP00IP00ZZ00IA000E0000
|
|
#06619:I7ZZ00IJ00060000M500ZZ00IG00IG00
|
|
|
|
#06701:0002000005000008090A0B0C0D0E000G
|
|
#06701:0T000U0V0W000X0Y0Z00101112001314
|
|
#06701:0015001500150015
|
|
#06701:00170017
|
|
#06701:1H001I001J001K1L1M1N1O001P001Q00
|
|
#06701:00
|
|
#06701:00
|
|
#06701:00
|
|
#06701:0000N60000MY0000MR00MX00MU00MZ00
|
|
#06701:00
|
|
#06701:00
|
|
#06701:00
|
|
#06701:00
|
|
#06701:00
|
|
#06701:00
|
|
#06701:00
|
|
#06701:00
|
|
#06701:00
|
|
#06701:00
|
|
#06701:00
|
|
#06701:00
|
|
#06701:00
|
|
#06701:00
|
|
#06701:00
|
|
#06701:00JLJL00JLJRJX00
|
|
#06701:00JVJV00JVK0KE00
|
|
#06701:00KCKC00KCKSKZ00
|
|
#06701:00
|
|
#06701:00
|
|
#06701:0000MN0000ME00N200MU00MZ00MX00N2
|
|
#06701:00
|
|
#06701:00
|
|
#06701:00NWNW00NWO5OB00
|
|
#06701:00A6A500A4A5A7A4
|
|
#06701:00
|
|
#06701:00
|
|
#06701:B30000B30000B3B3
|
|
#06701:BF0000BF0000BFBF
|
|
#06701:BL0000BL0000BLBL
|
|
#06711:2GZZ2GZZ2GZZMBZZ
|
|
#06712:0000030000IQ0000IN0000MF0000MF00
|
|
#06713:0000II00IN0000MI00IM00002G0000MI
|
|
#06714:0100MJ0000MA0000M900II0000MD00IN
|
|
#06715:00M50000M5000700ZZ0000IE00000F00
|
|
#06718:I90000IM0000IT0000MB0000II00II00
|
|
#06719:00IE0004000600IQ0000MD0000IM0000
|
|
|
|
#06801:0000030005060000090A000C00000F00
|
|
#06801:0H000I0J0K000L0M0N000O0P0Q000R0S
|
|
#06801:0015001500150015
|
|
#06801:00170017
|
|
#06801:1R001S001T001U1V1W001X001Y001Z00
|
|
#06801:00
|
|
#06801:00
|
|
#06801:00
|
|
#06801:NF0000ND0000N60000MY0000N000N600
|
|
#06801:00
|
|
#06801:00
|
|
#06801:00
|
|
#06801:00
|
|
#06801:00
|
|
#06801:00
|
|
#06801:00
|
|
#06801:00
|
|
#06801:00
|
|
#06801:00
|
|
#06801:00
|
|
#06801:00
|
|
#06801:00
|
|
#06801:00
|
|
#06801:00
|
|
#06801:JX00JVJX00KE00K3
|
|
#06801:KE00KCKE00KO00KF
|
|
#06801:KZ00KXKZ00LH00L7
|
|
#06801:00
|
|
#06801:00
|
|
#06801:MY0000MW0000MN0000ME0000MG00MJ00
|
|
#06801:00000000000000MN
|
|
#06801:00
|
|
#06801:OB00OAOB00OS00OI
|
|
#06801:A9A700A7A600A8A6
|
|
#06801:00
|
|
#06801:00
|
|
#06801:0000B50000B50000
|
|
#06801:0000BH0000BH0000
|
|
#06801:0000BN0000BN0000
|
|
#06811:2G00IG002G00ZZ002G00ZZ002G00000G
|
|
#06812:ZZIA00ZZ00M50000IN0000M5000E0000
|
|
#06813:00020000IN00000800IJ00IA0000M500
|
|
#06814:00ZZ00MN0000IR0000MA0000MC00ZZ00
|
|
#06815:MS0000IJ00IP00IP00000B000D0000IL
|
|
#06818:01M5ZZMJM5ZZICIJ
|
|
#06819:I700000400000700ZZ00IG0000IG00ZZ
|
|
|
|
#06901:0100030000060000000A0B0C000E0F0G
|
|
#06901:0T000U0V0W000X0Y0Z00101112001314
|
|
#06901:0015001500150015
|
|
#06901:00170017
|
|
#06901:20002100222324252627280029002A2B
|
|
#06901:00
|
|
#06901:00
|
|
#06901:00
|
|
#06901:NF0000NG0000N600NB00NB00N200MO00
|
|
#06901:00
|
|
#06901:00
|
|
#06901:00
|
|
#06901:00
|
|
#06901:00
|
|
#06901:00
|
|
#06901:00
|
|
#06901:00
|
|
#06901:00
|
|
#06901:00
|
|
#06901:00
|
|
#06901:00
|
|
#06901:00
|
|
#06901:00
|
|
#06901:00
|
|
#06901:00000000JVJRJS00
|
|
#06901:00000000KCK0K200
|
|
#06901:00000000KXKSKT00
|
|
#06901:00
|
|
#06901:00
|
|
#06901:MY0000N00000MN0000NE00N400MZ0000
|
|
#06901:00
|
|
#06901:00
|
|
#06901:00000000OAO5O600
|
|
#06901:00A6A800A6ABAAA8
|
|
#06901:00
|
|
#06901:00
|
|
#06901:B00000B00000B0B0
|
|
#06901:BC0000BC0000BCBC
|
|
#06901:BJ0000BJ0000BJBJ
|
|
#06911:00II2GZZ2GZZI72D
|
|
#06912:2G0000IE0000070000IE0000MI00ZZ00
|
|
#06913:MS00ZZ00050000IL00MX00ML00MF002D
|
|
#06914:IM00M50000IG00080000MU002E00ZZ00
|
|
#06915:00ZZ00MW0000MJ00090000IG0000M800
|
|
#06918:0002000400M50000MU00ID0000IA00IL
|
|
#06919:00IL0000ID00IM00II00ZZ000D00IE00
|
|
|
|
#07001:0000000000000000000000000D0E0F0G
|
|
#07001:0H00000J0K00000M0N00000P0Q000R0S
|
|
#07001:0015001500150015
|
|
#07001:00170017
|
|
#07001:180019001A001B1C1D001E001F001G00
|
|
#07001:00
|
|
#07001:00
|
|
#07001:00
|
|
#07001:KO
|
|
#07001:JX
|
|
#07001:00
|
|
#07001:0000K0K300000000
|
|
#07001:0000KSKU0000F8FE
|
|
#07001:00
|
|
#07001:00
|
|
#07001:00
|
|
#07001:00
|
|
#07001:00
|
|
#07001:00
|
|
#07001:00
|
|
#07001:00
|
|
#07001:00
|
|
#07001:00
|
|
#07001:I7IAIGIRIPINIJIGIAI7IAIGIRIPINIJ
|
|
#07001:JP00JRJT00000000
|
|
#07001:00
|
|
#07001:00
|
|
#07001:00
|
|
#07001:00
|
|
#07001:MDMIMRMDMIMRMXMIN500NENC00N4MZMR
|
|
#07001:00
|
|
#07001:00
|
|
#07001:O200O5O700000000
|
|
#07001:A9A700A7A600A8A6
|
|
#07001:00
|
|
#07001:00
|
|
#07001:0000AY0000AY0000
|
|
#07001:0000BA0000BA0000
|
|
#07001:0000BH0000BH0000
|
|
#07001:00000000000000000000000000F900FG
|
|
#07011:2G0I2GZZ2GZZ2GZZ
|
|
#07012:M40000M40000MD00ZZ00MX00FZ00MF00
|
|
#07013:00ZZ000400M90000MM0000MV00ZZ00G7
|
|
#07014:0100M900ZZ000700000A00ZZ00G000ZZ
|
|
#07015:00020000050000M600000B0000ML0000
|
|
#07016:34
|
|
#07018:000003000006000800ZZ000C0000G500
|
|
#07019:ZZM60000M6000L0009000O00ZZ0000M9
|
|
|
|
#07101:0102000405060708090A0B0C0D0E0F00
|
|
#07101:0T000U0V0W000X0Y0Z00101112001314
|
|
#07101:0015001500150015
|
|
#07101:00170017
|
|
#07101:1H001I001J001K1L1M1N1O001P001Q00
|
|
#07101:00
|
|
#07101:00
|
|
#07101:00
|
|
#07101:00
|
|
#07101:00
|
|
#07101:00
|
|
#07101:00
|
|
#07101:FHFKFHFEF9FEFGF8
|
|
#07101:00
|
|
#07101:00
|
|
#07101:00
|
|
#07101:00
|
|
#07101:00
|
|
#07101:00
|
|
#07101:00
|
|
#07101:00
|
|
#07101:00
|
|
#07101:00
|
|
#07101:IGIAI7IAIGIRIPINIJIGIAI7IPINIGIA
|
|
#07101:000000JM
|
|
#07101:000000JP
|
|
#07101:000000KE
|
|
#07101:00
|
|
#07101:00
|
|
#07101:MDMIMRMDMIMRMXMIMRMXN2MRMXN2NEMX
|
|
#07101:00
|
|
#07101:00
|
|
#07101:000000NX
|
|
#07101:00A6A500A4A5A7A4
|
|
#07101:00
|
|
#07101:00
|
|
#07101:AY0000AY0000AYAY
|
|
#07101:BA0000BA0000BABA
|
|
#07101:BH0000BH0000BHBH
|
|
#07101:00FJ00FJ00FG00F800F800F800000000
|
|
#07111:2GZZ2GZZ2GZZ2GZZ
|
|
#07112:M4000300ZZ0000FZ00MD00ZZ0000FZ00
|
|
#07113:00ZZ0000M600G50000FZ00M900ZZ000G
|
|
#07114:00M600M400G70000G00000FZ0000MX00
|
|
#07115:G800M900G80000M60000G50000MI00ZZ
|
|
#07118:00GA00GA0000MD00ZZ00MI00G70000MD
|
|
#07119:0000GB0000M90000M9000000MD00ZZ00
|
|
|
|
#07201:0002000405000708000A0B0C000E0F0G
|
|
#07201:0H000I0J0K000L0M0N000O0P0Q000R0S
|
|
#07201:0015001500150015
|
|
#07201:00170017
|
|
#07201:1R001S001T001U1V1W001X001Y001Z00
|
|
#07201:00
|
|
#07201:2E2E2E2E2E2E2E2E
|
|
#07201:00
|
|
#07201:00
|
|
#07201:00
|
|
#07201:00
|
|
#07201:00
|
|
#07201:FGFJF8FGFJF9F8FG
|
|
#07201:00
|
|
#07201:00
|
|
#07201:00
|
|
#07201:00
|
|
#07201:00
|
|
#07201:00
|
|
#07201:00
|
|
#07201:00
|
|
#07201:00
|
|
#07201:00
|
|
#07201:I7IAIGISIPIJIGICIAI7IAIGISIPIJIG
|
|
#07201:K40000000000K7K5
|
|
#07201:KL0000000000KIKP
|
|
#07201:L80000000000LBL9
|
|
#07201:00
|
|
#07201:00
|
|
#07201:MUN2N9MUN2N9NBN2N9MUN2N9N2MRMIMB
|
|
#07201:00
|
|
#07201:00
|
|
#07201:OJ0000000000OMOK
|
|
#07201:A9A700A7A600A8A6
|
|
#07201:00
|
|
#07201:00
|
|
#07201:0000B00000B00000
|
|
#07201:0000BC0000BC0000
|
|
#07201:0000BJ0000BJ0000
|
|
#07201:00FK00FG00FE00FK00FG00FE00FE00FH
|
|
#07211:MB00MR00000600000900ZZ00FZ00ZZ00
|
|
#07212:ZZMI0000FZ0000MI0000G00000G50000
|
|
#07213:00ZZ00G700G500ZZ00G700G50000G700
|
|
#07214:G700GA00ZZ00G700GA00ZZ00MI0000G8
|
|
#07215:00GB0000MI0000GB0000MI0000M900ZZ
|
|
#07218:00ZZ00MB00MR00ZZ00MB00MR0000M600
|
|
#07219:01000300ZZ00MU00MR00ZZ000D0000M3
|
|
|
|
#07301:00
|
|
#07301:0T000U0V0W000X0Y0Z00101112001314
|
|
#07301:0015001500150015
|
|
#07301:00170017
|
|
#07301:20002100222324252627280029002A2B
|
|
#07301:00
|
|
#07301:00
|
|
#07301:00
|
|
#07301:00
|
|
#07301:FLFJFKFGFJFEFGF9
|
|
#07301:00
|
|
#07301:00
|
|
#07301:00
|
|
#07301:00
|
|
#07301:00
|
|
#07301:00
|
|
#07301:00
|
|
#07301:00
|
|
#07301:00
|
|
#07301:0000000000000000000A000C000E0000
|
|
#07301:0000000D
|
|
#07301:0002000400060008000000000000000G
|
|
#07301:000000000000000F
|
|
#07301:00
|
|
#07301:00
|
|
#07301:00
|
|
#07301:00
|
|
#07301:00
|
|
#07301:M6MBMIMIMRMUMIMBMIMLMUMIMFMUN2MF
|
|
#07301:MIMUN2N2N9NBN2MUN2N4NBN2MZNBNHMZ
|
|
#07301:00
|
|
#07301:00
|
|
#07301:00
|
|
#07301:00A6A800A6ABAAA8
|
|
#07301:00
|
|
#07301:00
|
|
#07301:B00000B00000B0B0
|
|
#07301:BC0000BC0000BCBC
|
|
#07301:BJ0000BJ0000BJBJ
|
|
#07301:00FK00FG00FJ00F900FG00F900FE00F7
|
|
#07301:GCGBGAG7GBGAG7G0GAG7G5G0G7G5G0FY
|
|
#07311:2D2DZZZZ2D2DZZ2D
|
|
#07312:ICI72D2DZZZZ2DZZ
|
|
#07313:002D0000IG00IP00IP000B00ZZ00I700
|
|
#07314:00IA002D00IS00000900IG00IG0000I3
|
|
#07315:00ZZ00ZZ002D002D00ZZ002D002D0000
|
|
#07318:010000IA00ZZ00IJ002D00IC00ZZ002D
|
|
#07319:000003000500070000IL00ZZ00IC0000
|
|
|
|
#07401:0000000405060708000A0000000E0000
|
|
#07401:00
|
|
#07401:00
|
|
#07401:00
|
|
#07401:00
|
|
#07401:00
|
|
#07401:00
|
|
#07401:00
|
|
#07401:00
|
|
#07401:00
|
|
#07401:00
|
|
#07401:00
|
|
#07401:00
|
|
#07401:00
|
|
#07401:00
|
|
#07401:00
|
|
#07401:00
|
|
#07401:00EH0000
|
|
#07401:00ER0000
|
|
#07401:00
|
|
#07401:00
|
|
#07401:0000GO0000GK0000
|
|
#07401:0000H60000H10000
|
|
#07401:0000HG0000HA0000
|
|
#07401:00
|
|
#07401:00
|
|
#07401:00
|
|
#07401:00
|
|
#07401:00
|
|
#07401:00
|
|
#07401:LY
|
|
#07401:00
|
|
#07401:00
|
|
#07401:00
|
|
#07401:00
|
|
#07401:00
|
|
#07401:00
|
|
#07401:00000000BH0000BH
|
|
#07401:00000000BN0000BN
|
|
#07401:00
|
|
#07401:00
|
|
#07401:00
|
|
#07401:00
|
|
#07401:00
|
|
#07401:00
|
|
#07401:00
|
|
#07401:00
|
|
#07401:00
|
|
#07401:00
|
|
#07401:00
|
|
#07401:00
|
|
#07401:00
|
|
#07401:00
|
|
#07401:00
|
|
#07401:00
|
|
#07401:00
|
|
#07401:00
|
|
#07401:00
|
|
#07401:00
|
|
#07401:00
|
|
#07401:00
|
|
#07401:00
|
|
#07401:00
|
|
#07401:00
|
|
#07401:00
|
|
#07401:00
|
|
#07401:00
|
|
#07401:00
|
|
#07401:00
|
|
#07401:00
|
|
#07401:00
|
|
#07401:00
|
|
#07401:00
|
|
#07401:00
|
|
#07401:00
|
|
#07401:00
|
|
#07401:00
|
|
#07401:00
|
|
#07401:00
|
|
#07401:00
|
|
#07401:00
|
|
#07401:00
|
|
#07401:00
|
|
#07401:00
|
|
#07401:00
|
|
#07401:00
|
|
#07401:00
|
|
#07401:00
|
|
#07401:00
|
|
#07401:SK
|
|
#07411:2E002G00000000002G00002G00002E00
|
|
#07412:C500ZZ0000000000B500EF00ZZ00000G
|
|
#07413:LT00353700EP0D00
|
|
#07414:00020000000000002X00002X00002X00
|
|
#07415:2W0003000036003800000B00ZZ000F00
|
|
#07416:5S
|
|
#07418:00ZZ00000000000039003A002O00ZZ00
|
|
#07419:01002W00000000000900000C0000B500
|
|
|
|
#07501:00000004000600000000000000000000
|
|
#07501:00
|
|
#07501:0000000000000000090A0B0C0D0E0F0G
|
|
#07501:00
|
|
#07501:00
|
|
#07501:00
|
|
#07501:00
|
|
#07501:00
|
|
#07501:00
|
|
#07501:00
|
|
#07501:00
|
|
#07501:00
|
|
#07501:00
|
|
#07501:00
|
|
#07501:00
|
|
#07501:00
|
|
#07501:00
|
|
#07501:00
|
|
#07501:00
|
|
#07501:00
|
|
#07501:00
|
|
#07501:GG0000GI00000000
|
|
#07501:GW0000GY00000000
|
|
#07501:GZ0000H800000000
|
|
#07501:00
|
|
#07501:00
|
|
#07501:0000000000000000HUHUHVHVHWHWHXHX
|
|
#07501:00
|
|
#07501:00
|
|
#07501:00
|
|
#07501:00
|
|
#07501:00
|
|
#07501:00
|
|
#07501:00
|
|
#07501:00
|
|
#07501:00
|
|
#07501:0000B50000B50000
|
|
#07501:0000BH0000BH0000
|
|
#07501:0000BN0000BN0000
|
|
#07511:2E2G002H00002G00
|
|
#07512:0002000005000000HOHO002D0000002O
|
|
#07513:EN00ZZ00000007000000ZZ00HQHQ0000
|
|
#07514:2XZZ002XZZ0000ZZ
|
|
#07515:002M0000000000080000HPHP00000000
|
|
#07518:010000002N00EE002L0000002X00HRHR
|
|
#07519:ED0003000000EO00002O000000002L00
|
|
|
|
#07601:00
|
|
#07601:01020300000000000000000000000000
|
|
#07601:00
|
|
#07601:00
|
|
#07601:00
|
|
#07601:00
|
|
#07601:00
|
|
#07601:00
|
|
#07601:00
|
|
#07601:00
|
|
#07601:00
|
|
#07601:00
|
|
#07601:00
|
|
#07601:00
|
|
#07601:00
|
|
#07601:00
|
|
#07601:00
|
|
#07601:00
|
|
#07601:00
|
|
#07601:00
|
|
#07601:00
|
|
#07601:0000000000GK0000
|
|
#07601:0000H60000H10000
|
|
#07601:0000HG0000HA0000
|
|
#07601:00
|
|
#07601:00
|
|
#07601:00
|
|
#07601:00
|
|
#07601:00
|
|
#07601:LQ
|
|
#07601:LY
|
|
#07601:00
|
|
#07601:00
|
|
#07601:00
|
|
#07601:00
|
|
#07601:00
|
|
#07601:00000000B10000B1
|
|
#07601:00000000BD0000BD
|
|
#07601:00000000BK0000BK
|
|
#07611:2D2D2G0005002G0000002E002G000000
|
|
#07612:00000000ER00ZZ00000A000C00000F00
|
|
#07613:ZZ0000000006000009002W00000E0000
|
|
#07614:2X00000400ZZ00080000EF0000002L2O
|
|
#07615:00000000EH0000002L2O00002W00ZZ00
|
|
#07618:00000000GO00070000000B00ZZ00000G
|
|
#07619:BX002NZZZZEP0D00
|
|
|
|
#07701:000000040000070000000000000E0000
|
|
#07701:0000000005060000000A000000000000
|
|
#07701:00
|
|
#07701:00
|
|
#07701:00
|
|
#07701:00
|
|
#07701:00
|
|
#07701:00
|
|
#07701:00
|
|
#07701:00
|
|
#07701:00
|
|
#07701:00
|
|
#07701:00
|
|
#07701:00
|
|
#07701:00
|
|
#07701:00
|
|
#07701:00
|
|
#07701:00
|
|
#07701:00
|
|
#07701:00
|
|
#07701:00
|
|
#07701:GG
|
|
#07701:GW
|
|
#07701:GZ0000H800000000
|
|
#07701:00
|
|
#07701:00
|
|
#07701:00
|
|
#07701:00
|
|
#07701:00
|
|
#07701:00
|
|
#07701:00
|
|
#07701:00
|
|
#07701:00
|
|
#07701:00
|
|
#07701:00
|
|
#07701:00
|
|
#07701:00B10000
|
|
#07701:00BD0000
|
|
#07701:0000BKGY00BK0000
|
|
#07711:2E002G0000002D002G00002G00002E00
|
|
#07712:EN00ZZ000000EE002N00B1000D00000G
|
|
#07713:010000002L2M00080000000C00000000
|
|
#07714:000200000000GI00ZZ000B0000000F00
|
|
#07715:ED00ZZ00ZZ00002D0000ZZ002M00ZZ00
|
|
#07718:000003000000EO000900BD000000002P
|
|
#07719:2W002W0000002W002X00002X00002W00
|
|
|
|
#07801:0000000405060708000000000D0E0000
|
|
#07801:00
|
|
#07801:00
|
|
#07801:00
|
|
#07801:00
|
|
#07801:00
|
|
#07801:00
|
|
#07801:00
|
|
#07801:00
|
|
#07801:00
|
|
#07801:00
|
|
#07801:00
|
|
#07801:00
|
|
#07801:00
|
|
#07801:00
|
|
#07801:5T
|
|
#07801:00
|
|
#07801:00EH0000
|
|
#07801:0000ER0000EP0000
|
|
#07801:00
|
|
#07801:00
|
|
#07801:0000GO0000GK0000
|
|
#07801:0000H60000H10000
|
|
#07801:0000HG0000HA0000
|
|
#07801:00
|
|
#07801:00
|
|
#07801:00
|
|
#07801:00
|
|
#07801:00
|
|
#07801:LV
|
|
#07801:LX
|
|
#07801:00
|
|
#07801:00
|
|
#07801:00
|
|
#07801:00
|
|
#07801:00
|
|
#07801:00B8
|
|
#07801:00BK
|
|
#07801:00000000BP0000BP
|
|
#07811:2E002G00000000002G00002G00002E00
|
|
#07812:0000030000000000000A000C0000ZZ00
|
|
#07813:C900ZZ00003C003E003G00002O00B800
|
|
#07814:0100ZZ00000000000900002X0000BK00
|
|
#07815:000200003B003D003F000B00ZZ00000G
|
|
#07818:00ZZ000000000000ZZ003H0000000F00
|
|
#07819:2W2W00002XEF002X
|
|
|
|
#07901:00000000000000080000000000000000
|
|
#07901:00000004000000000000000000000000
|
|
#07901:0002000000000000090A0B0C0D0E0F0G
|
|
#07901:00
|
|
#07901:00
|
|
#07901:00
|
|
#07901:00
|
|
#07901:00
|
|
#07901:00
|
|
#07901:00
|
|
#07901:00
|
|
#07901:00
|
|
#07901:00
|
|
#07901:00
|
|
#07901:00
|
|
#07901:00
|
|
#07901:00
|
|
#07901:000000EG
|
|
#07901:000000EQ
|
|
#07901:00
|
|
#07901:00
|
|
#07901:GG0000GQ0000GM00
|
|
#07901:GW0000HA0000H400
|
|
#07901:H60000HK0000HE00
|
|
#07901:00
|
|
#07901:00
|
|
#07901:0000000000000000HUHUHVHVHWHWHXHX
|
|
#07901:00
|
|
#07901:00
|
|
#07901:000000LZ00000000
|
|
#07901:00
|
|
#07901:00
|
|
#07901:00
|
|
#07901:00
|
|
#07901:00
|
|
#07901:00
|
|
#07901:0000B80000B80000
|
|
#07901:0000BK0000BK0000
|
|
#07901:0000BP0000BP0000
|
|
#07911:2E002G00ZZ002H002L00002D00000000
|
|
#07912:0100ZZ00ZZ00ES00002O00002G002L00
|
|
#07913:ED00ZZ00000600000000HPHP00000000
|
|
#07914:002M000005000700ZZ0000000000HRHR
|
|
#07915:0000030000ZZ00000000ZZ002X00ZZ00
|
|
#07918:EN00ZZ002N00EI00HOHO0000ZZ00002N
|
|
#07919:2X00ZZ0000002X0000000000HQHQ0000
|
|
|
|
#08001:00
|
|
#08001:00
|
|
#08001:00
|
|
#08001:00
|
|
#08001:00
|
|
#08001:00
|
|
#08001:00
|
|
#08001:00
|
|
#08001:00
|
|
#08001:00
|
|
#08001:00
|
|
#08001:00
|
|
#08001:00
|
|
#08001:00
|
|
#08001:00
|
|
#08001:00
|
|
#08001:00
|
|
#08001:00
|
|
#08001:ET
|
|
#08001:00
|
|
#08001:00
|
|
#08001:GR0000GT
|
|
#08001:HB0000HH
|
|
#08001:HL0000HM
|
|
#08001:00
|
|
#08001:00
|
|
#08001:00
|
|
#08001:00
|
|
#08001:00
|
|
#08001:LR0000M1
|
|
#08001:M0
|
|
#08001:00
|
|
#08001:00
|
|
#08001:00
|
|
#08001:00
|
|
#08001:00
|
|
#08001:00
|
|
#08001:00
|
|
#08001:00BL0000
|
|
#08001:00
|
|
#08001:C2
|
|
#08011:EJ00002G00002G00B300ZZ002G00BF00
|
|
#08012:2G00ZZ000500ZZ00BL00ZZ00EL00002G
|
|
#08013:2X00002X000600ZZ000A00ZZ000E000G
|
|
#08014:0003B32XZZ0BEVB3
|
|
#08015:00020000BF0007000900000C0000BL00
|
|
#08016:002T
|
|
#08018:00ZZ000400ZZ000800ZZ00002X00002X
|
|
#08019:01ZZ00002P00ZZ00BF00ZZ000D000F00
|
|
|
|
#08101:0000000000000000000000000D0E0F0G
|
|
#08101:00
|
|
#08101:00000000000000080000000000000000
|
|
#08101:0002000000000000000000002E000000
|
|
#08101:00
|
|
#08101:00
|
|
#08101:00
|
|
#08101:00
|
|
#08101:00
|
|
#08101:0000000000002U2U00002W002W002W00
|
|
#08101:00
|
|
#08101:00000000000000000000000000002D2D
|
|
#08101:00
|
|
#08101:002X000000000000
|
|
#08101:00
|
|
#08101:JE00JCJBJAJ9J8J7J6J5J4J300000000
|
|
#08101:00
|
|
#08101:00
|
|
#08101:00
|
|
#08101:00
|
|
#08101:00
|
|
#08101:00
|
|
#08101:00
|
|
#08101:00
|
|
#08101:00
|
|
#08101:00
|
|
#08101:00
|
|
#08101:00
|
|
#08101:00
|
|
#08101:00
|
|
#08101:00
|
|
#08101:00
|
|
#08101:00
|
|
#08101:00
|
|
#08101:00
|
|
#08101:00
|
|
#08101:0000B30000B300B3
|
|
#08101:0000BF0000BF00BF
|
|
#08101:0000BL0000BL00BL
|
|
#08111:0100000000000000000000000400000000000000000000000700000000000000ZZ000000000000002E000000000000002K0000000000002K0000000000002K00
|
|
#08112:00000000000000002G00000000000000ZZ00000000000000000000002G00000000000000ZZ00000000000000IZ00000000002K0000000000002K000000000000
|
|
#08113:00000000JD00000000000000ZZ00000000000000J500000000000000J30000000000000000000000J000000000000000000000002K0000000000002K00000000
|
|
#08114:2P0000000000000000000000J7000000000000000600000000000000ZZ00000000000000J1000000000000000C0000000000000000002K0000000000002K0000
|
|
#08115:ZZ00000000000000J800000000000000ZZ00000000000000J400000000000000J2000000000000000B00000000000000002K0000000000002K0000000000002K
|
|
#08116:002S2T00
|
|
#08118:00000000J9000000000000000000000005000000000000002D00000000000000000000000A00000000000000ZZ0000000000002K0000000000002K0000000000
|
|
#08119:JA000000000000000300000000000000J600000000000000ZZ000000000000000900000000000000ZZ0000000000000000000000002K0000000000002K000000
|
|
|
|
#08201:000000040000000000000000000E0000
|
|
#08201:00
|
|
#08201:01
|
|
#08201:00
|
|
#08201:C5
|
|
#08201:00
|
|
#08201:0000000000000000000A000000000000
|
|
#08201:00
|
|
#08201:00
|
|
#08201:00
|
|
#08201:00
|
|
#08201:00
|
|
#08201:00
|
|
#08201:00
|
|
#08201:00
|
|
#08201:00
|
|
#08201:00
|
|
#08201:00EH0000
|
|
#08201:00ER0000
|
|
#08201:00
|
|
#08201:00
|
|
#08201:0000GN0000GJ0000
|
|
#08201:0000H50000H00000
|
|
#08201:0000HF0000H90000
|
|
#08201:00
|
|
#08201:00
|
|
#08201:00
|
|
#08201:00
|
|
#08201:00
|
|
#08201:00
|
|
#08201:LY
|
|
#08201:00
|
|
#08201:00
|
|
#08201:00
|
|
#08201:00
|
|
#08201:00
|
|
#08201:00
|
|
#08201:00BH
|
|
#08201:00000000BN0000BN
|
|
#08211:00002G00000000002G00002G00002E00
|
|
#08212:2E000507B5EFZZBH
|
|
#08213:2WZZ00IU090B2OB5
|
|
#08214:0002000000000000IW0000IW0000IV00
|
|
#08215:00000300000000IU0000000C00000F00
|
|
#08218:LT002W00000600080000EP000D00000G
|
|
#08219:0000IX00000000002X00002X00002X00
|
|
|
|
#08301:0000000000000008090A0B0C0D0E0F0G
|
|
#08301:00020004000000000000000000000000
|
|
#08301:00
|
|
#08301:00
|
|
#08301:0000002X
|
|
#08301:00
|
|
#08301:00
|
|
#08301:00
|
|
#08301:00
|
|
#08301:00
|
|
#08301:00
|
|
#08301:00
|
|
#08301:00
|
|
#08301:00
|
|
#08301:00
|
|
#08301:00
|
|
#08301:00
|
|
#08301:00
|
|
#08301:00
|
|
#08301:00
|
|
#08301:00
|
|
#08301:GF0000GH00000000
|
|
#08301:GV0000GX00000000
|
|
#08301:H00000H700000000
|
|
#08301:00
|
|
#08301:00
|
|
#08301:00
|
|
#08301:00
|
|
#08301:00
|
|
#08301:00
|
|
#08301:00
|
|
#08301:00
|
|
#08301:00
|
|
#08301:00
|
|
#08301:00
|
|
#08301:00
|
|
#08301:0000000000B50000
|
|
#08301:0000000000BH0000
|
|
#08301:0000BN0000BN0000
|
|
#08311:2E002G00ZZ002H00ZZ00002D0000HX00
|
|
#08312:0100000005000700HW00HZ0000HY0000
|
|
#08313:002M00000006000000HW00HZ0000HRHR
|
|
#08314:EN00ZZ00B500EE000000HTHT00ZZ00HX
|
|
#08315:ED00ZZ00BH00EO00HQ00ZZ00HSHS0000
|
|
#08318:000003002N00ZZ0000HQ0000HY00002O
|
|
#08319:2X00ZZ0000002X002L2O00002G002L00
|
|
|
|
#08401:000000000000000800000000000E0000
|
|
#08401:00
|
|
#08401:01020300000000000000000000000000
|
|
#08401:00
|
|
#08401:00
|
|
#08401:00
|
|
#08401:00
|
|
#08401:00
|
|
#08401:00
|
|
#08401:00
|
|
#08401:00
|
|
#08401:00
|
|
#08401:00
|
|
#08401:00
|
|
#08401:00
|
|
#08401:00
|
|
#08401:00
|
|
#08401:00
|
|
#08401:00
|
|
#08401:00
|
|
#08401:00
|
|
#08401:0000000000GJ0000
|
|
#08401:0000H50000H00000
|
|
#08401:0000HF0000H90000
|
|
#08401:00
|
|
#08401:00
|
|
#08401:00
|
|
#08401:00
|
|
#08401:00
|
|
#08401:00
|
|
#08401:LY
|
|
#08401:00
|
|
#08401:00
|
|
#08401:00
|
|
#08401:00
|
|
#08401:00
|
|
#08401:00000000B10000B1
|
|
#08401:00000000BD0000BD
|
|
#08401:00000000BK0000BK
|
|
#08401:00
|
|
#08401:BX
|
|
#08411:2D2D2G00GN002G0000002E002G000000
|
|
#08412:ZZ00ERZZ00EFZZ00
|
|
#08413:00000004000600002L2O00ZZ0000000G
|
|
#08414:000000ZZ00ZZ0000ZZ000B000D002L2O
|
|
#08415:LQ00000005000700000A000C00000F00
|
|
#08418:0000EHZZ092W2W00
|
|
#08419:2X002NZZ00EPZZZZ
|
|
|
|
#08501:00000000000600000000000000000000
|
|
#08501:00
|
|
#08501:00
|
|
#08501:00
|
|
#08501:00
|
|
#08501:00
|
|
#08501:00
|
|
#08501:00
|
|
#08501:00
|
|
#08501:00
|
|
#08501:00
|
|
#08501:00
|
|
#08501:00
|
|
#08501:00
|
|
#08501:00
|
|
#08501:00
|
|
#08501:00
|
|
#08501:00
|
|
#08501:00
|
|
#08501:00
|
|
#08501:00
|
|
#08501:GF0000GH00000000
|
|
#08501:GV0000GX00000000
|
|
#08501:H00000H700000000
|
|
#08501:00
|
|
#08501:00
|
|
#08501:00
|
|
#08501:00
|
|
#08501:00
|
|
#08501:00
|
|
#08501:00
|
|
#08501:00
|
|
#08501:00
|
|
#08501:00
|
|
#08501:00
|
|
#08501:00
|
|
#08501:0000B10000B10000
|
|
#08501:0000BD0000BD0000
|
|
#08501:0000BK0000BK0000
|
|
#08511:2E002G0000002D002G00002G00002E00
|
|
#08512:EN0000040000EE00000A00ZZ00ZZ00ZZ
|
|
#08513:000003000000EO00ZZ00ZZ002M00002L
|
|
#08514:00020000ZZ00002D002M000C00000F00
|
|
#08515:0100ZZ002L2N000800000B00000E00ZZ
|
|
#08518:ED00ZZ0005002W002X00002X00002W00
|
|
#08519:2W002W00000007000900ZZ000D00000G
|
|
|
|
#08601:000000000000000000000000000E0000
|
|
#08601:00
|
|
#08601:00
|
|
#08601:00
|
|
#08601:00
|
|
#08601:00
|
|
#08601:00
|
|
#08601:00
|
|
#08601:00LU0000
|
|
#08601:00
|
|
#08601:00LW0000
|
|
#08601:00
|
|
#08601:00EH0000
|
|
#08601:00
|
|
#08601:00ER0000
|
|
#08601:00
|
|
#08601:00
|
|
#08601:00
|
|
#08601:00
|
|
#08601:00
|
|
#08601:00
|
|
#08601:0000GN0000GJ0000
|
|
#08601:0000H50000H00000
|
|
#08601:0000HF0000H90000
|
|
#08601:00
|
|
#08601:00
|
|
#08601:00
|
|
#08601:00
|
|
#08601:00
|
|
#08601:00
|
|
#08601:00
|
|
#08601:00
|
|
#08601:00
|
|
#08601:00
|
|
#08601:00
|
|
#08601:00
|
|
#08601:00
|
|
#08601:00
|
|
#08601:00000000BP0000BP
|
|
#08601:00
|
|
#08601:BR
|
|
#08611:00000000000000002GZZ002G00002E00
|
|
#08612:00000000B8EPZZB8
|
|
#08613:0000000000000000BK000B000D00000G
|
|
#08614:0000000000000000000A00ZZ000000ZZ
|
|
#08615:00000000000000000900000C0000BK00
|
|
#08618:00000000ZZEF2O0F
|
|
#08619:00000000000000002X00002X00002X00
|
|
#08656:IY000000000000IY0000000000000000
|
|
|
|
#08701:0000000405060008090A0B0C0D0E0F0G
|
|
#08701:00
|
|
#08701:00
|
|
#08701:00
|
|
#08701:00
|
|
#08701:00
|
|
#08701:00
|
|
#08701:00
|
|
#08701:00
|
|
#08701:00
|
|
#08701:00
|
|
#08701:00
|
|
#08701:00
|
|
#08701:0000002X
|
|
#08701:00
|
|
#08701:00
|
|
#08701:00
|
|
#08701:000000EG
|
|
#08701:000000EQ
|
|
#08701:00
|
|
#08701:00
|
|
#08701:GF0000GP0000GL00
|
|
#08701:GV0000H90000H300
|
|
#08701:H50000HJ0000HD00
|
|
#08701:00
|
|
#08701:00
|
|
#08701:00
|
|
#08701:00
|
|
#08701:00
|
|
#08701:000000LZ00000000
|
|
#08701:00
|
|
#08701:00
|
|
#08701:00
|
|
#08701:00
|
|
#08701:00
|
|
#08701:00
|
|
#08701:0000B80000B80000
|
|
#08701:0000BK0000BK0000
|
|
#08701:0000BP0000BP0000
|
|
#08711:2E002G0000002H00HW00002D00ZZ0000
|
|
#08712:EN00ZZ000000ES0000HW00HZ0000HRHR
|
|
#08713:0002000000002X00002O00002G00HX00
|
|
#08714:002M00000000EI002L00ZZ00HSHS0000
|
|
#08715:ED00ZZ002N000000ZZ00HTHT000000HX
|
|
#08718:01ZZ0007ZZHZHY2L
|
|
#08719:2X00030000000000HQHQ000000HY002N
|
|
|
|
#08801:0000000000000000000A0B0C00000000
|
|
#08801:00
|
|
#08801:00
|
|
#08801:00
|
|
#08801:00
|
|
#08801:00
|
|
#08801:00
|
|
#08801:00
|
|
#08801:00
|
|
#08801:00
|
|
#08801:00
|
|
#08801:00
|
|
#08801:00
|
|
#08801:00
|
|
#08801:00
|
|
#08801:00
|
|
#08801:00
|
|
#08801:00
|
|
#08801:EU
|
|
#08801:00
|
|
#08801:00
|
|
#08801:GS
|
|
#08801:HC
|
|
#08801:HN
|
|
#08801:00
|
|
#08801:00
|
|
#08801:00
|
|
#08801:00
|
|
#08801:00
|
|
#08801:LR
|
|
#08801:M0
|
|
#08801:00
|
|
#08801:00
|
|
#08801:00
|
|
#08801:00
|
|
#08801:00
|
|
#08801:00000000000000B3
|
|
#08801:0000BL00000000BF
|
|
#08801:00000000000000BL
|
|
#08801:00
|
|
#08801:C3
|
|
#08811:2G00002G00002G00B30000002G000000
|
|
#08812:0000ZZ000500ZZ00000000000000002G
|
|
#08813:EK0000040006000009000000M100000G
|
|
#08814:0100ZZ002P00000800000000000E0000
|
|
#08815:00020000B3002X00ZZ0000002X00002X
|
|
#08816:002T
|
|
#08818:2X00002X00ZZ0000BF00000000000F00
|
|
#08819:0003BF07BL000D00
|
|
|
|
#08901:010203040006070809000B0C0D0E0F0G
|
|
#08901:00
|
|
#08901:000000000000000000000000000000000000000000000000000000000000000000000000000000000000000000000000002K002K002K002K002K002K002K002K
|
|
#08901:00
|
|
#08901:00
|
|
#08901:00000000000000000000000000002D2D
|
|
#08901:002X000000000000
|
|
#08901:00
|
|
#08901:00
|
|
#08901:0000000000002U2U00002W002W002W00
|
|
#08901:00
|
|
#08901:00
|
|
#08901:00
|
|
#08901:00
|
|
#08901:00
|
|
#08901:00
|
|
#08901:00
|
|
#08901:00
|
|
#08901:00
|
|
#08901:00
|
|
#08901:00
|
|
#08901:00
|
|
#08901:00
|
|
#08901:00
|
|
#08901:00
|
|
#08901:00
|
|
#08901:00
|
|
#08901:00
|
|
#08901:00
|
|
#08901:00
|
|
#08901:00
|
|
#08901:00
|
|
#08901:00
|
|
#08901:00
|
|
#08901:00
|
|
#08901:00
|
|
#08901:0000B30000B300B3
|
|
#08901:0000BF0000BF00BF
|
|
#08901:0000BL0000BL00BL
|
|
#08911:2PZZ00J700002D2G000A00002E000000
|
|
#08912:00000000J8000000050000000000J3000000ZZ000000IZ000000002K00000000
|
|
#08913:00J900ZZ00J500J70000J000ZZ002K00
|
|
#08914:JA0000000000JB000000J9000000ZZ000000J5000000J30000000000002K0000
|
|
#08915:00000000JC000000ZZ000000J4000000J2000000J400000000002K000000002K
|
|
#08916:002S2T00
|
|
#08918:0000JD0000000000J6000000J80000000000J1000000ZZ00002K000000002K00
|
|
#08919:JE2GJAZZJ62E2K00
|
|
|
|
#09001:00
|
|
#09001:00
|
|
#09001:01
|
|
#09001:00
|
|
#09001:00
|
|
#09001:00
|
|
#09001:00
|
|
#09001:00
|
|
#09001:00
|
|
#09001:00
|
|
#09001:00
|
|
#09001:00
|
|
#09001:00
|
|
#09001:00
|
|
#09001:00
|
|
#09001:00
|
|
#09001:00
|
|
#09001:00
|
|
#09001:00
|
|
#09001:00
|
|
#09001:00
|
|
#09001:00
|
|
#09001:00
|
|
#09001:00
|
|
#09001:00
|
|
#09001:00
|
|
#09001:00
|
|
#09001:00
|
|
#09001:00
|
|
#09001:00
|
|
#09001:00
|
|
#09001:00
|
|
#09001:00
|
|
#09001:00
|
|
#09001:00
|
|
#09001:00
|
|
#09001:000000B300000000
|
|
#09001:00BF00BF0000BF00
|
|
#09001:00BL00BL0000BL00
|
|
#09001:00
|
|
#09001:00
|
|
#09001:00
|
|
#09001:00
|
|
#09001:00
|
|
#09001:00
|
|
#09001:00
|
|
#09001:EM
|
|
#09001:EW
|
|
#09001:00
|
|
#09001:00
|
|
#09001:GU
|
|
#09001:H2
|
|
#09001:HI
|
|
#09001:00
|
|
#09001:00
|
|
#09001:00
|
|
#09001:00
|
|
#09001:00
|
|
#09001:00
|
|
#09001:00
|
|
#09001:00
|
|
#09001:00
|
|
#09001:00
|
|
#09001:LS
|
|
#09001:M2
|
|
#09011:2G00ZZ0000060000ZZ00ZZ002W002W00
|
|
#09012:0002002G00ZZ000800ZZ00002E000F00
|
|
#09013:ZZ00002R00002G0009000B002Q00002T
|
|
#09014:2X00000400002R00002R000C002Q0000
|
|
#09015:00ZZ002X00000700000A00ZZ000E000G
|
|
#09018:0000B300ZZ002X00002G0000B3002E00
|
|
#09019:2R0003000500ZZ00002X00000D002Q00
|
|
|
|
#09101:000003000500070009000B0C0D0E000G
|
|
#09101:000000000000000F
|
|
#09101:00
|
|
#09101:00
|
|
#09101:0000000000000000000A000000000000
|
|
#09101:00
|
|
#09101:0000000000000000007N007S0086008G
|
|
#09101:00
|
|
#09101:00
|
|
#09101:34
|
|
#09101:00
|
|
#09101:00
|
|
#09101:00
|
|
#09101:00
|
|
#09101:00
|
|
#09101:00
|
|
#09101:00
|
|
#09101:00
|
|
#09101:00
|
|
#09101:00
|
|
#09101:0000000000000000I9IEIIINIEIIINIQ
|
|
#09101:00
|
|
#09101:00
|
|
#09101:00
|
|
#09101:00
|
|
#09101:00
|
|
#09101:00
|
|
#09101:00
|
|
#09101:00
|
|
#09101:00
|
|
#09101:00
|
|
#09101:00
|
|
#09101:00
|
|
#09101:00
|
|
#09101:00
|
|
#09101:00
|
|
#09101:00B30000B300B300
|
|
#09101:00BF0000BF00BF00
|
|
#09101:00BL0000BL00BL00
|
|
#09101:00
|
|
#09101:00
|
|
#09101:00
|
|
#09101:00
|
|
#09101:00
|
|
#09101:00
|
|
#09101:00
|
|
#09101:00
|
|
#09101:00
|
|
#09101:00
|
|
#09101:00
|
|
#09101:00
|
|
#09101:00
|
|
#09101:00
|
|
#09101:00
|
|
#09101:00
|
|
#09101:00
|
|
#09101:00
|
|
#09101:00
|
|
#09101:00
|
|
#09101:00
|
|
#09101:0000000000000000JQJUJYK6KAKMKQKV
|
|
#09101:00
|
|
#09101:00
|
|
#09101:00
|
|
#09101:00
|
|
#09101:00
|
|
#09101:00
|
|
#09101:00
|
|
#09101:00
|
|
#09101:0000000000000000NINKNNNRNUO0O3O8
|
|
#09111:2D2D2DIEZZZZ7W2C
|
|
#09112:00002D000000ZZ000000060000000800000000007P0000002C000000002C0000
|
|
#09113:0000I50000002D000000ZZ00000000007M0000002C000000002C000000002C00
|
|
#09114:I10000000000IE0000002D00000000002C000000002C000000002C000000002C
|
|
#09115:00000000I90000000000I9000000II00002C000000002C000000002C00000000
|
|
#09118:0000020000000000I500000000002D0000002C000000002C00000000ZZ000000
|
|
#09119:0100000000000400000000002D0000000000002C00000000ZZ0000008A000000
|
|
|
|
#09201:0102030405060708090A0B0C000E0F0G
|
|
#09201:0H000I0J0K000L0M0N000O0P0Q000R0S
|
|
#09201:0015001500150015
|
|
#09201:00170017
|
|
#09201:180019001A001B1C00001E001F001G00
|
|
#09201:00
|
|
#09201:2J
|
|
#09201:00
|
|
#09201:00
|
|
#09201:00
|
|
#09201:00
|
|
#09201:00
|
|
#09201:I1I4I9IDIHIIIMIIIHIDI9I4I9IDI9I8
|
|
#09201:00
|
|
#09201:00
|
|
#09201:00
|
|
#09201:00
|
|
#09201:00
|
|
#09201:00
|
|
#09201:00
|
|
#09201:00
|
|
#09201:00
|
|
#09201:00
|
|
#09201:00
|
|
#09201:00
|
|
#09201:00
|
|
#09201:00
|
|
#09201:00760000
|
|
#09201:00
|
|
#09201:9I9E9E9E009J009O
|
|
#09201:00
|
|
#09201:00
|
|
#09201:00
|
|
#09201:00
|
|
#09201:00
|
|
#09201:00
|
|
#09201:0000B40000B40000
|
|
#09201:0000BG0000BG0000
|
|
#09201:0000BM0000BM0000
|
|
#09201:00
|
|
#09201:C4
|
|
#09211:8K2G2G2G
|
|
#09212:L08700O1008L008U
|
|
#09213:0000870000OD0000
|
|
#09214:00KNKNKN00000D00
|
|
#09215:OC0000001D0000LD
|
|
#09216:34
|
|
#09218:00O1O18700L100OO
|
|
#09219:2G
|
|
|
|
#09301:0002030405060008090A0B0C0D0E0F0G
|
|
#09301:0T000U0V0W000X0Y0Z00101112001314
|
|
#09301:0015001500150015
|
|
#09301:00170017
|
|
#09301:1H001I001J001K1L1M1N1O001P001Q00
|
|
#09301:00
|
|
#09301:00
|
|
#09301:00
|
|
#09301:00
|
|
#09301:00
|
|
#09301:00
|
|
#09301:00
|
|
#09301:I2I8IBIFIHIKIOIKIHIFIBI8IBIFIBIH
|
|
#09301:00
|
|
#09301:00
|
|
#09301:00
|
|
#09301:00
|
|
#09301:00
|
|
#09301:00
|
|
#09301:00
|
|
#09301:00
|
|
#09301:00
|
|
#09301:00
|
|
#09301:00
|
|
#09301:00
|
|
#09301:00
|
|
#09301:00
|
|
#09301:6Z00006H00006T00
|
|
#09301:00
|
|
#09301:009F9F009F9I9N00
|
|
#09301:00
|
|
#09301:00
|
|
#09301:00
|
|
#09301:00
|
|
#09301:00
|
|
#09301:00
|
|
#09301:B60000B60000B6B6
|
|
#09301:BI0000BI0000BIBI
|
|
#09301:BO0000BO0000BOBO
|
|
#09301:00
|
|
#09301:C6
|
|
#09311:2G002G002G002E2E
|
|
#09312:0087KN00KN000000
|
|
#09313:00KNO100O18K0000
|
|
#09314:0000000000L00000
|
|
#09315:00O1870000OCON00
|
|
#09318:0000878T
|
|
#09319:010000070000LC00
|
|
|
|
#09401:0102030405060708000A0B0C000E0F0G
|
|
#09401:0H000I0J0K000L0M0N000O0P0Q000R0S
|
|
#09401:0015001500150015
|
|
#09401:00170017
|
|
#09401:1R001S001T001U1V1W001X001Y001Z00
|
|
#09401:00
|
|
#09401:00
|
|
#09401:00
|
|
#09401:00
|
|
#09401:00
|
|
#09401:00
|
|
#09401:00
|
|
#09401:I1I4I9IDIHIIIMIIIHIDI9I4I5I9IDIE
|
|
#09401:00
|
|
#09401:00
|
|
#09401:00
|
|
#09401:00
|
|
#09401:00
|
|
#09401:00
|
|
#09401:00
|
|
#09401:00
|
|
#09401:00
|
|
#09401:00
|
|
#09401:00
|
|
#09401:00
|
|
#09401:00
|
|
#09401:00
|
|
#09401:6R00006G
|
|
#09401:00
|
|
#09401:9L9L9L9M009R009S
|
|
#09401:00
|
|
#09401:00
|
|
#09401:00
|
|
#09401:00
|
|
#09401:00
|
|
#09401:00
|
|
#09401:0000B80000B80000
|
|
#09401:0000BK0000BK0000
|
|
#09401:0000BP0000BP0000
|
|
#09401:00
|
|
#09401:C8
|
|
#09411:2G2G2G2G
|
|
#09412:8R0000LB008X0000
|
|
#09413:008R000000OR0000
|
|
#09414:00008R0000LG008Z
|
|
#09415:OLLAOL8S000000LJ
|
|
#09418:LAOLLAOM000000OU
|
|
#09419:0000090D
|
|
|
|
#09501:00020004050600080000000000000000
|
|
#09501:0T000U0V0W000X0Y0Z00101112001314
|
|
#09501:0015001500150015
|
|
#09501:00170017
|
|
#09501:20002100222324252627280029002A2B
|
|
#09501:00
|
|
#09501:00
|
|
#09501:00
|
|
#09501:00
|
|
#09501:00
|
|
#09501:000000008R8K8L00
|
|
#09501:00
|
|
#09501:IFIEIBI8I6I9IFIE0000000000000000
|
|
#09501:00
|
|
#09501:00
|
|
#09501:00
|
|
#09501:00
|
|
#09501:00
|
|
#09501:00
|
|
#09501:00
|
|
#09501:00
|
|
#09501:00
|
|
#09501:00
|
|
#09501:00000000LAL0L100
|
|
#09501:00000000OLOCOD00
|
|
#09501:00
|
|
#09501:00
|
|
#09501:6K6O6U0000000000
|
|
#09501:00
|
|
#09501:00009L009L9I9J00
|
|
#09501:00
|
|
#09501:00
|
|
#09501:00
|
|
#09501:00
|
|
#09501:00
|
|
#09501:00
|
|
#09501:B30000B30000B3B3
|
|
#09501:BF0000BF0000BFBF
|
|
#09501:BL0000BL0000BLBL
|
|
#09501:00
|
|
#09501:C1
|
|
#09511:2E002E002G0000002DZZ00002D002D00
|
|
#09512:00008X00IB2D0D0F
|
|
#09513:01000000LG0000000900I600I10000IE
|
|
#09514:0000030000000000ZZ000B00000E000G
|
|
#09515:00000000OR000000000A002D002D002D
|
|
#09518:0000000000000000002D000C00I40000
|
|
#09519:000000000000070000I800I90000I800
|
|
|
|
#09601:0102030405060708090A0B0C0D0E0F0G
|
|
#09601:0H000I0J0K000L0M0N000O0P0Q000R0S
|
|
#09601:0000001500000000
|
|
#09601:00170017
|
|
#09601:180019001A001B1C1D001E001F001G00
|
|
#09601:00
|
|
#09601:00
|
|
#09601:00
|
|
#09601:I1I4I9IDIHIIIMIIIHIDI9I4I9IDI9I8
|
|
#09601:00
|
|
#09601:00
|
|
#09601:00
|
|
#09601:00
|
|
#09601:00
|
|
#09601:00
|
|
#09601:00
|
|
#09601:00
|
|
#09601:00
|
|
#09601:00
|
|
#09601:00
|
|
#09601:00
|
|
#09601:00
|
|
#09601:00
|
|
#09601:00
|
|
#09601:00
|
|
#09601:00
|
|
#09601:00
|
|
#09601:6Y
|
|
#09601:00
|
|
#09601:9H009I9K00000000
|
|
#09601:00
|
|
#09601:00
|
|
#09601:00
|
|
#09601:00
|
|
#09601:00
|
|
#09601:00
|
|
#09601:0000B40000B40000
|
|
#09601:0000BG0000BG0000
|
|
#09601:0000BM0000BM0000
|
|
#09601:00
|
|
#09601:C4
|
|
#09611:2G002G002G002E2E
|
|
#09612:8J000000006S0000
|
|
#09613:001500006X006X00
|
|
#09614:0000OCL300000076
|
|
#09615:0000L0OF00000000
|
|
#09616:34
|
|
#09618:KZ
|
|
#09619:OB008K8N00150015
|
|
|
|
#09701:0102030405060708090A0B0C0D0E0F0G
|
|
#09701:0T000U0V0W000X0Y0Z00101112001314
|
|
#09701:0000000000000015
|
|
#09701:00170017
|
|
#09701:1H001I001J001K1L1M1N1O001P001Q00
|
|
#09701:00
|
|
#09701:00
|
|
#09701:00
|
|
#09701:I2I8IBIFIHIKIOIKIHIFIBI8IBIFIBIH
|
|
#09701:00
|
|
#09701:00
|
|
#09701:00
|
|
#09701:00
|
|
#09701:00
|
|
#09701:00
|
|
#09701:00
|
|
#09701:00
|
|
#09701:00
|
|
#09701:00
|
|
#09701:00
|
|
#09701:00
|
|
#09701:00
|
|
#09701:00
|
|
#09701:00
|
|
#09701:00
|
|
#09701:00
|
|
#09701:00
|
|
#09701:0000006P
|
|
#09701:00
|
|
#09701:9D009A9800009600
|
|
#09701:00
|
|
#09701:00
|
|
#09701:00
|
|
#09701:00
|
|
#09701:00
|
|
#09701:00
|
|
#09701:B60000B60000B6B6
|
|
#09701:BI0000BI0000BIBI
|
|
#09701:BO0000BO0000BOBO
|
|
#09701:00
|
|
#09701:C6
|
|
#09711:2G002G002G002E2E
|
|
#09712:0015007V00000000
|
|
#09713:00007ZK90000JZ00
|
|
#09714:00KC007Q
|
|
#09715:NZ0000NT0000NO00
|
|
#09718:KH
|
|
#09719:8300NW1500150000
|
|
|
|
#09801:0102030405060708090A0B0C0D0E0F0G
|
|
#09801:0H000I0J0K000L0M0N000O0P0Q000R0S
|
|
#09801:0015001500150015
|
|
#09801:00170017
|
|
#09801:1R001S001T001U1V1W001X001Y001Z00
|
|
#09801:2G2G2G2G
|
|
#09801:00
|
|
#09801:0032
|
|
#09801:00
|
|
#09801:0000000000000000000000000000000000FN0000000000FM0000000000000000
|
|
#09801:00
|
|
#09801:00
|
|
#09801:7U007Y8200007K00
|
|
#09801:00
|
|
#09801:00
|
|
#09801:00
|
|
#09801:00
|
|
#09801:EX00EY00F000F200F400F500F800F900FD0000000000FB0000000000F6FI0000
|
|
#09801:FO00FP00FR00FT00FV00FW00FZ00G000G4GE00000000G2GD00000000FXG90000
|
|
#09801:00
|
|
#09801:00
|
|
#09801:00
|
|
#09801:00
|
|
#09801:K800KBKG00000000
|
|
#09801:NS00NVNY00000000
|
|
#09801:00
|
|
#09801:00
|
|
#09801:6L006F6G00000000
|
|
#09801:00
|
|
#09801:9700999B00000000
|
|
#09801:00
|
|
#09801:00
|
|
#09801:00
|
|
#09801:00
|
|
#09801:00
|
|
#09801:00
|
|
#09801:0000B80000B80000
|
|
#09801:0000BK0000BK0000
|
|
#09801:0000BP0000BP0000
|
|
#09801:00
|
|
#09801:C8
|
|
#09811:2L002L00ZZ00ZZ00IH00I90000I900IE
|
|
#09812:ZZZZ2L2LZZZZI5ID
|
|
#09813:002L002L0000ZZ002L002L00ZZ00ZZ00
|
|
#09814:ZZI400ZZ002L002L0000ZZ002L002L00
|
|
#09815:00ZZ00ID00II00ZZ002L002L0000ZZ00
|
|
#09816:32
|
|
#09818:I100I90000ZZ00II00ZZ00I4002L002L
|
|
#09819:ZZ00ZZ00IH00IM0000ID00ZZ00ZZ0000
|
|
|
|
#09901:0002000400060008000A0B000D00000G
|
|
#09901:0T000U0V0W000X0Y0Z00101112001314
|
|
#09901:0015001500150015
|
|
#09901:00170017
|
|
#09901:20002100222324252627280029002A2B
|
|
#09901:2E002E002E002E002E002D2D2E002D2D
|
|
#09901:00
|
|
#09901:32002Z2Z
|
|
#09901:00
|
|
#09901:00000000000000000000000000FF000000000000000000000000000000000000
|
|
#09901:00
|
|
#09901:00
|
|
#09901:7J7D6T6Y
|
|
#09901:00
|
|
#09901:00
|
|
#09901:00
|
|
#09901:00
|
|
#09901:F3FF00000000F1FC00000000F3000000F6FI00000000F1FC00000000EZFA0000
|
|
#09901:FUG600000000FSG300000000FUG60000FXG900000000FSG300000000FQG10000
|
|
#09901:00
|
|
#09901:00
|
|
#09901:00
|
|
#09901:00
|
|
#09901:00
|
|
#09901:00
|
|
#09901:00
|
|
#09901:00
|
|
#09901:00
|
|
#09901:00
|
|
#09901:00
|
|
#09901:00
|
|
#09901:00
|
|
#09901:00
|
|
#09901:00
|
|
#09901:00
|
|
#09901:00
|
|
#09901:AZ0000AZ0000AZAZ
|
|
#09901:BB0000BB0000BBBB
|
|
#09901:BI0000BI0000BIBI
|
|
#09901:00
|
|
#09901:CA
|
|
#09911:002L2L2L2LZZ2LZZ
|
|
#09912:2L00002L0000ID00IF00IB00I6000F00
|
|
#09913:00IE00ZZ00I9002L00002L00ZZ00I200
|
|
#09914:ZZ00IB00I600ZZ00002L00ZZ00I50000
|
|
#09915:IF0000I80000070000IE002L000E002L
|
|
#09918:002L00ZZ002L00IE00ZZ00I8002L00I0
|
|
#09919:010003000500ZZ000900000C00002L00
|
|
|
|
#10001:00
|
|
#10001:0H000I0J0K000L0M0N000O0P0Q000R0S
|
|
#10001:0015001500150015
|
|
#10001:00170017
|
|
#10001:180019001A001B1C1D001E001F001G00
|
|
#10001:00050000
|
|
#10001:00
|
|
#10001:00
|
|
#10001:00
|
|
#10001:00
|
|
#10001:00
|
|
#10001:00
|
|
#10001:00
|
|
#10001:00
|
|
#10001:00
|
|
#10001:00
|
|
#10001:00
|
|
#10001:00
|
|
#10001:00
|
|
#10001:00
|
|
#10001:00
|
|
#10001:00
|
|
#10001:00
|
|
#10001:00
|
|
#10001:00
|
|
#10001:00
|
|
#10001:00
|
|
#10001:77
|
|
#10001:00
|
|
#10001:9I9E9E9E009J009O
|
|
#10001:00
|
|
#10001:00
|
|
#10001:00
|
|
#10001:00
|
|
#10001:00
|
|
#10001:00
|
|
#10001:0000B40000B40000
|
|
#10001:0000BG0000BG0000
|
|
#10001:0000BM0000BM0000
|
|
#10001:00
|
|
#10001:C4
|
|
#10001:00
|
|
#10001:00
|
|
#10001:00
|
|
#10001:00
|
|
#10001:00
|
|
#10001:00
|
|
#10001:00
|
|
#10001:00
|
|
#10001:00
|
|
#10001:00
|
|
#10001:00
|
|
#10001:00
|
|
#10001:00
|
|
#10001:00
|
|
#10001:00
|
|
#10001:00
|
|
#10001:00
|
|
#10001:00
|
|
#10001:00
|
|
#10001:L0KNKNKN00L100LD
|
|
#10001:00
|
|
#10001:00
|
|
#10001:00
|
|
#10001:00
|
|
#10001:00
|
|
#10001:00
|
|
#10001:00
|
|
#10001:00
|
|
#10001:OCO1O1O100OD00OO
|
|
#10011:2G0087002G0000II00008L002G00ZZ00
|
|
#10012:8KZZ00ID00008700IH00000C00008U00
|
|
#10013:00I400ZZ0000IM00000A0000I90000I8
|
|
#10014:I100ZZ00IH00000800ID00ZZ000E000G
|
|
#10015:00020004000600002G0000I400ID0000
|
|
#10016:34
|
|
#10018:0000030000II000009000B00ZZ000F00
|
|
#10019:01I98707ZZI90DI9
|
|
|
|
#10101:00
|
|
#10101:0T000U0V0W000X0Y0Z00101112001314
|
|
#10101:0015001500150015
|
|
#10101:00170017
|
|
#10101:1H001I001J001K1L1M1N1O001P001Q00
|
|
#10101:00
|
|
#10101:0009
|
|
#10101:00050000
|
|
#10101:00
|
|
#10101:00
|
|
#10101:00
|
|
#10101:00
|
|
#10101:00
|
|
#10101:00
|
|
#10101:00
|
|
#10101:00
|
|
#10101:00
|
|
#10101:00
|
|
#10101:00
|
|
#10101:00
|
|
#10101:00
|
|
#10101:00
|
|
#10101:00
|
|
#10101:00
|
|
#10101:00
|
|
#10101:00
|
|
#10101:00
|
|
#10101:6Z00006H00006T00
|
|
#10101:00
|
|
#10101:009F9F009F9I9N00
|
|
#10101:00
|
|
#10101:00
|
|
#10101:00
|
|
#10101:00
|
|
#10101:00
|
|
#10101:00
|
|
#10101:B60000B60000B6B6
|
|
#10101:BI0000BI0000BIBI
|
|
#10101:BO0000BO0000BOBO
|
|
#10101:00
|
|
#10101:C6
|
|
#10101:00
|
|
#10101:00
|
|
#10101:00
|
|
#10101:00
|
|
#10101:00
|
|
#10101:00
|
|
#10101:00
|
|
#10101:00
|
|
#10101:00
|
|
#10101:00
|
|
#10101:00
|
|
#10101:00
|
|
#10101:00
|
|
#10101:00
|
|
#10101:00
|
|
#10101:00
|
|
#10101:00
|
|
#10101:00
|
|
#10101:00
|
|
#10101:00KNKN00KNL0LC00
|
|
#10101:00
|
|
#10101:00
|
|
#10101:00
|
|
#10101:00
|
|
#10101:00
|
|
#10101:00
|
|
#10101:00
|
|
#10101:00
|
|
#10101:00O1O100O1OCON00
|
|
#10111:2G872GZZ2GIB2E2E
|
|
#10112:000200ZZ00IK00ZZ00008K00IB0000IH
|
|
#10113:00ZZ00IF00000700IH00000C000E00ZZ
|
|
#10114:00000300IH000008000A00000D00000G
|
|
#10115:I200IB00000600ZZ00IF00I800000F00
|
|
#10118:0100000400ZZ00IK00000B0000IF0000
|
|
#10119:00I800008700IO008700ZZ008T00IB00
|
|
|
|
#10201:00
|
|
#10201:0H000I0J0K000L0M0N000O0P0Q000R0S
|
|
#10201:0015001500150015
|
|
#10201:00170017
|
|
#10201:1R001S001T001U1V1W001X001Y001Z00
|
|
#10201:00
|
|
#10201:0109
|
|
#10201:00
|
|
#10201:00
|
|
#10201:00
|
|
#10201:00
|
|
#10201:00
|
|
#10201:00
|
|
#10201:00
|
|
#10201:00
|
|
#10201:00
|
|
#10201:00
|
|
#10201:00
|
|
#10201:00
|
|
#10201:00
|
|
#10201:00
|
|
#10201:00
|
|
#10201:00
|
|
#10201:00
|
|
#10201:00
|
|
#10201:00
|
|
#10201:00
|
|
#10201:6R
|
|
#10201:00
|
|
#10201:9Q9V
|
|
#10201:00
|
|
#10201:00
|
|
#10201:00
|
|
#10201:00
|
|
#10201:00
|
|
#10201:00
|
|
#10201:0000B70000B70000
|
|
#10201:0000BJ0000BJ0000
|
|
#10201:0000BP0000BP0000
|
|
#10201:00
|
|
#10201:C7
|
|
#10201:00
|
|
#10201:00
|
|
#10201:00
|
|
#10201:00
|
|
#10201:00
|
|
#10201:00
|
|
#10201:00
|
|
#10201:00
|
|
#10201:00
|
|
#10201:00
|
|
#10201:00
|
|
#10201:00
|
|
#10201:00
|
|
#10201:00
|
|
#10201:00
|
|
#10201:00
|
|
#10201:00
|
|
#10201:00
|
|
#10201:00
|
|
#10201:LELM
|
|
#10201:00
|
|
#10201:00
|
|
#10201:00
|
|
#10201:00
|
|
#10201:00
|
|
#10201:00
|
|
#10201:00
|
|
#10201:00
|
|
#10201:OPOX
|
|
#10211:2GZZ2GZZ2GZZ2GZZ
|
|
#10212:00ZZ000400II0000920000I100I9000G
|
|
#10213:00020000IH000700000A000C00ZZ00IH
|
|
#10214:000003000500000800000B00000E0000
|
|
#10215:00I500ZZ0000IN0000IE00000D000F00
|
|
#10216:34
|
|
#10218:I100I90000060000IH00ZZ00I500ZZ00
|
|
#10219:8VZZ00IE00ZZ00II0000I900ZZ00IE00
|
|
|
|
#10301:00
|
|
#10301:0T000U0V0W000X0Y0Z00101112001314
|
|
#10301:0015001500150015
|
|
#10301:00170017
|
|
#10301:20002100222324252627280029002A2B
|
|
#10301:00
|
|
#10301:01050000
|
|
#10301:00
|
|
#10301:00
|
|
#10301:00
|
|
#10301:00
|
|
#10301:00
|
|
#10301:00
|
|
#10301:00
|
|
#10301:00
|
|
#10301:00
|
|
#10301:00
|
|
#10301:00
|
|
#10301:00
|
|
#10301:00
|
|
#10301:00
|
|
#10301:00
|
|
#10301:00
|
|
#10301:00
|
|
#10301:00
|
|
#10301:00
|
|
#10301:00
|
|
#10301:76
|
|
#10301:00
|
|
#10301:9R9I9R9L009O0000
|
|
#10301:00
|
|
#10301:00
|
|
#10301:00
|
|
#10301:00
|
|
#10301:00
|
|
#10301:00
|
|
#10301:B80000B80000B8B8
|
|
#10301:BK0000BK0000BKBK
|
|
#10301:BP0000BP0000BPBP
|
|
#10301:00
|
|
#10301:C8
|
|
#10301:00
|
|
#10301:00
|
|
#10301:00
|
|
#10301:00
|
|
#10301:00
|
|
#10301:00
|
|
#10301:00
|
|
#10301:00
|
|
#10301:00
|
|
#10301:00
|
|
#10301:00
|
|
#10301:00
|
|
#10301:00
|
|
#10301:00
|
|
#10301:00
|
|
#10301:00
|
|
#10301:00
|
|
#10301:00
|
|
#10301:00
|
|
#10301:LGKRLGLA00L20000
|
|
#10301:00
|
|
#10301:00
|
|
#10301:00
|
|
#10301:00
|
|
#10301:00
|
|
#10301:00
|
|
#10301:00
|
|
#10301:00
|
|
#10301:ORO4OROL00OE0000
|
|
#10311:2G008B002G0000I600008M002E002E00
|
|
#10312:0000ID00IF008R00000A002D00ZZ00I1
|
|
#10313:0000030000ID0000ID0000I400I60000
|
|
#10314:II0000040006000009000B00000E00ZZ
|
|
#10315:00IF00008X0000080000I6000D00000G
|
|
#10316:34
|
|
#10318:8X0000I90000I90000I9000C0000I400
|
|
#10319:000200ZZ000007002G00ZZ00I9000F00
|
|
|
|
#10401:00
|
|
#10401:00
|
|
#10401:00
|
|
#10401:00
|
|
#10401:180019001A001B1C1D001E001F001G00
|
|
#10401:00
|
|
#10401:00
|
|
#10401:00
|
|
#10401:00
|
|
#10401:2X00002X00002X00
|
|
#10401:00
|
|
#10401:00
|
|
#10401:8J
|
|
#10401:00008K8O00000000
|
|
#10401:00
|
|
#10401:00
|
|
#10401:00
|
|
#10401:00
|
|
#10401:00
|
|
#10401:00
|
|
#10401:00
|
|
#10401:00
|
|
#10401:00
|
|
#10401:00
|
|
#10401:00
|
|
#10401:00
|
|
#10401:7500000078726X6S
|
|
#10401:00
|
|
#10401:9O009R9T00000000
|
|
#10401:00
|
|
#10401:00
|
|
#10401:00
|
|
#10401:00
|
|
#10401:00
|
|
#10401:00
|
|
#10401:0000B10000B10000
|
|
#10401:0000BD0000BD0000
|
|
#10401:0000BK0000BK0000
|
|
#10401:00
|
|
#10401:BW
|
|
#10401:00
|
|
#10401:00
|
|
#10401:00
|
|
#10401:00
|
|
#10401:00
|
|
#10401:00
|
|
#10401:00
|
|
#10401:00
|
|
#10401:00
|
|
#10401:00
|
|
#10401:00
|
|
#10401:00
|
|
#10401:00
|
|
#10401:00
|
|
#10401:00
|
|
#10401:00
|
|
#10401:00
|
|
#10401:00
|
|
#10401:00
|
|
#10401:KZ00L0L400000000
|
|
#10401:00
|
|
#10401:00
|
|
#10401:00
|
|
#10401:00
|
|
#10401:00
|
|
#10401:00
|
|
#10401:00
|
|
#10401:00
|
|
#10401:OB00OCOG00000000
|
|
#10411:2E002E002E002E00ZZ0000I400ZZ0000
|
|
#10412:00ZZ00ZZ00ZZ00ZZ00ID00ZZ00ZZ00ZZ
|
|
#10413:I1ZZ00ID00ZZ00II00ZZ0000I900ZZ00
|
|
#10414:00I40000IH0000ZZ0000I900ZZ0000I8
|
|
#10415:0000I90000II0000IH00ZZ000000I900
|
|
#10416:2I
|
|
#10418:00ZZ00ZZ0000IM0000ZZ00ZZ00ID0000
|
|
#10419:ZZZZZZZZ2E2E2E2E
|
|
|
|
#10501:00
|
|
#10501:00
|
|
#10501:00
|
|
#10501:00
|
|
#10501:000000000000001L001N1O001P001Q00
|
|
#10501:00
|
|
#10501:00
|
|
#10501:00
|
|
#10501:00
|
|
#10501:2X00002X00002X00
|
|
#10501:00
|
|
#10501:00000000008B8K8R
|
|
#10501:00
|
|
#10501:00
|
|
#10501:00
|
|
#10501:00
|
|
#10501:00
|
|
#10501:00
|
|
#10501:00
|
|
#10501:00
|
|
#10501:00
|
|
#10501:00
|
|
#10501:00
|
|
#10501:00
|
|
#10501:00
|
|
#10501:00
|
|
#10501:71
|
|
#10501:00
|
|
#10501:00
|
|
#10501:00
|
|
#10501:00
|
|
#10501:00
|
|
#10501:00
|
|
#10501:00
|
|
#10501:00
|
|
#10501:B30000B30000B3B3
|
|
#10501:BF0000BF0000BFBF
|
|
#10501:BL0000BL0000BLBL
|
|
#10501:00
|
|
#10501:C1
|
|
#10501:00
|
|
#10501:00
|
|
#10501:00
|
|
#10501:00
|
|
#10501:00
|
|
#10501:00
|
|
#10501:00
|
|
#10501:00
|
|
#10501:00
|
|
#10501:00
|
|
#10501:00
|
|
#10501:00
|
|
#10501:00
|
|
#10501:00
|
|
#10501:00
|
|
#10501:00
|
|
#10501:00
|
|
#10501:00
|
|
#10501:00
|
|
#10501:0000000000KRL0LA
|
|
#10501:00
|
|
#10501:00
|
|
#10501:00
|
|
#10501:00
|
|
#10501:00
|
|
#10501:00
|
|
#10501:00
|
|
#10501:00
|
|
#10501:0000000000O4OCOL
|
|
#10511:2E002E002E002E00ZZ0000ZZ00ZZ0000
|
|
#10512:00ZZ00ZZ0000ZZ00IH0000I80000IB00
|
|
#10513:1H001I001J001K00ZZ00IB00IB0000IH
|
|
#10514:00I800ZZ00ZZ00ZZ00IF00ZZ00IF00ZZ
|
|
#10515:ZZIBIHZZ1M9C9E9F
|
|
#10518:I20000IF00IK00IK00ZZ00ZZ00ZZ0000
|
|
#10519:ZZZZZZIO2E2E2E2E
|
|
|
|
#10601:00
|
|
#10601:00
|
|
#10601:00
|
|
#10601:00
|
|
#10601:1R001S001T001U1V1W001X001Y001Z00
|
|
#10601:00
|
|
#10601:00
|
|
#10601:00
|
|
#10601:00
|
|
#10601:2X00002X00002X00
|
|
#10601:00
|
|
#10601:8X8B8X8B8X909391
|
|
#10601:00
|
|
#10601:00
|
|
#10601:00
|
|
#10601:00
|
|
#10601:00
|
|
#10601:00
|
|
#10601:00
|
|
#10601:00
|
|
#10601:00
|
|
#10601:00
|
|
#10601:00
|
|
#10601:00
|
|
#10601:00
|
|
#10601:00
|
|
#10601:757I
|
|
#10601:00
|
|
#10601:9I9C9I9C9I9L9R9N
|
|
#10601:00
|
|
#10601:00
|
|
#10601:00
|
|
#10601:00
|
|
#10601:00
|
|
#10601:00
|
|
#10601:0000B40000B40000
|
|
#10601:0000BG0000BG0000
|
|
#10601:0000BM0000BM0000
|
|
#10601:00
|
|
#10601:C4
|
|
#10601:00
|
|
#10601:00
|
|
#10601:00
|
|
#10601:00
|
|
#10601:00
|
|
#10601:00
|
|
#10601:00
|
|
#10601:00
|
|
#10601:00
|
|
#10601:00
|
|
#10601:00
|
|
#10601:00
|
|
#10601:00
|
|
#10601:00
|
|
#10601:00
|
|
#10601:00
|
|
#10601:00
|
|
#10601:00
|
|
#10601:00
|
|
#10601:LGKRLGKRLGLKLNLL
|
|
#10601:00
|
|
#10601:00
|
|
#10601:00
|
|
#10601:00
|
|
#10601:00
|
|
#10601:00
|
|
#10601:00
|
|
#10601:00
|
|
#10601:ORO4ORO4OROVOYOW
|
|
#10611:2L2L2EZZIHI92D2L
|
|
#10612:ZZZZ00002L002L00ZZ00ZZ00I5002D00
|
|
#10613:00I400ID00ZZ00002L002L002L00ID00
|
|
#10614:002L002L00002E0000ID00I400ZZ002D
|
|
#10615:ZZ002E00002L002L00ZZ00ZZ00I90000
|
|
#10618:I100I90000II00II002L002L002D00IE
|
|
#10619:2E00ZZ00IH00IM002E002E00002L002L
|
|
|
|
#10701:00
|
|
#10701:00
|
|
#10701:00
|
|
#10701:00
|
|
#10701:20002100222324252627280029002A2B
|
|
#10701:00000000000000002G00002G00002E00
|
|
#10701:00
|
|
#10701:00
|
|
#10701:00
|
|
#10701:2X0000002X0000002X00002X00002X00
|
|
#10701:00
|
|
#10701:008T008H00000000
|
|
#10701:00
|
|
#10701:00
|
|
#10701:00
|
|
#10701:00
|
|
#10701:00
|
|
#10701:00
|
|
#10701:00
|
|
#10701:00
|
|
#10701:00
|
|
#10701:00
|
|
#10701:00
|
|
#10701:00
|
|
#10701:00
|
|
#10701:00
|
|
#10701:7E70
|
|
#10701:00
|
|
#10701:009G009L9L9W9Y9X
|
|
#10701:00
|
|
#10701:00
|
|
#10701:00
|
|
#10701:00
|
|
#10701:00
|
|
#10701:00
|
|
#10701:B60000B60000B6B6
|
|
#10701:BI0000BI0000BIBI
|
|
#10701:BO0000BO0000BOBO
|
|
#10701:00
|
|
#10701:C6
|
|
#10701:00
|
|
#10701:00
|
|
#10701:00
|
|
#10701:00
|
|
#10701:00
|
|
#10701:00
|
|
#10701:00
|
|
#10701:00
|
|
#10701:00
|
|
#10701:00
|
|
#10701:00
|
|
#10701:00
|
|
#10701:00
|
|
#10701:00
|
|
#10701:0000000000000000IFIEIBI8I6I5I2I0
|
|
#10701:00
|
|
#10701:00
|
|
#10701:00
|
|
#10701:00
|
|
#10701:00LC00KWL0LKLPLO
|
|
#10701:00
|
|
#10701:00
|
|
#10701:00
|
|
#10701:00
|
|
#10701:00
|
|
#10701:00
|
|
#10701:00
|
|
#10701:00
|
|
#10701:00ON00O9OCOVP0OZ
|
|
#10711:2DZZ2DZZ8K000000
|
|
#10712:002L00I8002L002L0000000000000000
|
|
#10713:2L2D2L2LZZ000000
|
|
#10714:002D002L00I900IE0000900000000000
|
|
#10715:IF2LI6ID00000094
|
|
#10718:00IE002D002D002D0000000000000000
|
|
#10719:00IBZZ2D00009500
|
|
|
|
#10801:00
|
|
#10801:000000000K000L0M0N000O0P0Q000R0S
|
|
#10801:0000001500150015
|
|
#10801:00170017
|
|
#10801:00
|
|
#10801:00
|
|
#10801:002J0000
|
|
#10801:00
|
|
#10801:00
|
|
#10801:00
|
|
#10801:00
|
|
#10801:00
|
|
#10801:00
|
|
#10801:00
|
|
#10801:00
|
|
#10801:00
|
|
#10801:00
|
|
#10801:73
|
|
#10801:00
|
|
#10801:00
|
|
#10801:00
|
|
#10801:00
|
|
#10801:00
|
|
#10801:00
|
|
#10801:00
|
|
#10801:00
|
|
#10801:00
|
|
#10801:00
|
|
#10801:00
|
|
#10801:00
|
|
#10801:00
|
|
#10801:00
|
|
#10801:00
|
|
#10801:00
|
|
#10801:00
|
|
#10801:0000B40000B40000
|
|
#10801:0000BG0000BG0000
|
|
#10801:0000BM0000BM0000
|
|
#10801:00
|
|
#10801:C4
|
|
#10801:00
|
|
#10801:00
|
|
#10801:00
|
|
#10801:00
|
|
#10801:00
|
|
#10801:00
|
|
#10801:00
|
|
#10801:00
|
|
#10801:00
|
|
#10801:00
|
|
#10801:00
|
|
#10801:00
|
|
#10801:00
|
|
#10801:00
|
|
#10801:I1I4I9ID000000000000000000000000
|
|
#10811:00002GZZ2G0B2GZZ
|
|
#10812:00007KZZIHZZI9I9
|
|
#10813:00000000ZZ00IM00000A00007D00000G
|
|
#10814:00000000000600007J00I900000E0000
|
|
#10815:0000000000II000800ZZ00I400ID0000
|
|
#10816:00340000
|
|
#10818:00000000IHZZ00II00ID000C00ZZ00I8
|
|
#10819:0000050709ZZ0D0F
|
|
|
|
#10901:00
|
|
#10901:0T000U0V0W000X0Y0Z00101112001314
|
|
#10901:0015001500150015
|
|
#10901:00170017
|
|
#10901:00
|
|
#10901:00
|
|
#10901:00
|
|
#10901:00
|
|
#10901:00
|
|
#10901:00
|
|
#10901:00
|
|
#10901:00
|
|
#10901:00
|
|
#10901:00
|
|
#10901:00
|
|
#10901:00
|
|
#10901:000000009200008W
|
|
#10901:00
|
|
#10901:000000009V00009U
|
|
#10901:00
|
|
#10901:00
|
|
#10901:00
|
|
#10901:00
|
|
#10901:00
|
|
#10901:00
|
|
#10901:00
|
|
#10901:00
|
|
#10901:00
|
|
#10901:00
|
|
#10901:00
|
|
#10901:00
|
|
#10901:00
|
|
#10901:00
|
|
#10901:00
|
|
#10901:00
|
|
#10901:B60000B60000B6B6
|
|
#10901:BI0000BI0000BIBI
|
|
#10901:BO0000BO0000BOBO
|
|
#10901:00
|
|
#10901:C6
|
|
#10901:00
|
|
#10901:00
|
|
#10901:00
|
|
#10901:00
|
|
#10901:00
|
|
#10901:00
|
|
#10901:00
|
|
#10901:00
|
|
#10901:00
|
|
#10901:00
|
|
#10901:00
|
|
#10901:00
|
|
#10901:00
|
|
#10901:00
|
|
#10901:00
|
|
#10901:00
|
|
#10901:00
|
|
#10901:00
|
|
#10901:00
|
|
#10901:00000000LM0000LF
|
|
#10901:00
|
|
#10901:00
|
|
#10901:00
|
|
#10901:00
|
|
#10901:00
|
|
#10901:00
|
|
#10901:00
|
|
#10901:00
|
|
#10901:00000000OX0000OQ
|
|
#10911:2GZZ2GZZ2GZZ2G0F
|
|
#10912:00I800IF00000700IH00000C000E0000
|
|
#10913:000200007J00IO00000A00I800006X00
|
|
#10914:7K00IB00IH0000IK00IF00006S0000IH
|
|
#10915:I200ZZ00050000080000IB0000IF0000
|
|
#10918:0000030000IK00007D00ZZ00IB00IB00
|
|
#10919:010000040006000009000B000D00000G
|
|
|
|
#11001:00
|
|
#11001:0H000I0J0K000L0M0N000O0P0Q000R0S
|
|
#11001:0015001500150015
|
|
#11001:00170017
|
|
#11001:00
|
|
#11001:00
|
|
#11001:00
|
|
#11001:00
|
|
#11001:00
|
|
#11001:00
|
|
#11001:00
|
|
#11001:00
|
|
#11001:00
|
|
#11001:00
|
|
#11001:00
|
|
#11001:00
|
|
#11001:00
|
|
#11001:00
|
|
#11001:00
|
|
#11001:00
|
|
#11001:00
|
|
#11001:00
|
|
#11001:00
|
|
#11001:00
|
|
#11001:00
|
|
#11001:00
|
|
#11001:00
|
|
#11001:00
|
|
#11001:00
|
|
#11001:00
|
|
#11001:00
|
|
#11001:00
|
|
#11001:00
|
|
#11001:00
|
|
#11001:00
|
|
#11001:0000B80000B80000
|
|
#11001:0000BK0000BK0000
|
|
#11001:0000BP0000BP0000
|
|
#11001:00
|
|
#11001:C8
|
|
#11011:2GZZ2GIM2GZZ2GZZ
|
|
#11012:I1000300050000II000A00I40000ID00
|
|
#11013:7300ZZ00IH0000080000I90000I900IE
|
|
#11014:0000I9007K00ZZ00IH00000C000E0000
|
|
#11015:01ZZ00ID00II00ZZ00ID0000I500ZZ00
|
|
#11018:00I400ZZ000600007J000B007D00000G
|
|
#11019:00020004000007000900ZZ000D000F00
|
|
|
|
#11101:0000000000000000000000000000000G
|
|
#11101:0T000U0V0W000X0Y0Z00101112001314
|
|
#11101:0015001500150015
|
|
#11101:00170017
|
|
#11101:00
|
|
#11101:00
|
|
#11101:00
|
|
#11101:00
|
|
#11101:00
|
|
#11101:00
|
|
#11101:00
|
|
#11101:00
|
|
#11101:00
|
|
#11101:00
|
|
#11101:00
|
|
#11101:00
|
|
#11101:8Y
|
|
#11101:00
|
|
#11101:9P
|
|
#11101:00
|
|
#11101:00
|
|
#11101:00
|
|
#11101:00
|
|
#11101:00
|
|
#11101:00
|
|
#11101:00
|
|
#11101:00
|
|
#11101:00
|
|
#11101:00
|
|
#11101:00
|
|
#11101:00
|
|
#11101:00
|
|
#11101:00
|
|
#11101:00
|
|
#11101:00
|
|
#11101:B30000B30000B3B3
|
|
#11101:BF0000BF0000BFBF
|
|
#11101:BL0000BL0000BLBL
|
|
#11101:00
|
|
#11101:C1
|
|
#11101:00
|
|
#11101:00
|
|
#11101:00
|
|
#11101:00
|
|
#11101:00
|
|
#11101:00
|
|
#11101:00
|
|
#11101:00
|
|
#11101:00
|
|
#11101:00
|
|
#11101:00
|
|
#11101:00
|
|
#11101:00
|
|
#11101:00
|
|
#11101:00
|
|
#11101:00
|
|
#11101:00
|
|
#11101:00
|
|
#11101:00
|
|
#11101:LI
|
|
#11101:00
|
|
#11101:00
|
|
#11101:00
|
|
#11101:00
|
|
#11101:00
|
|
#11101:00
|
|
#11101:00
|
|
#11101:00
|
|
#11101:OT
|
|
#11111:2GZZ2GID2GZZ2GI2
|
|
#11112:00020000I60000IE00ZZ000C00I50000
|
|
#11113:000003007J00000800IE00ZZ000E0000
|
|
#11114:7K00IB0000I900ZZ000A00006S006X00
|
|
#11115:IF0000I800000700IF0000I800000F00
|
|
#11118:00IE00000500ZZ007D00IB00I600ZZ00
|
|
#11119:010000040006000009000B000D0000I0
|
|
|
|
#11201:0002030400060008000A0000000E000G
|
|
#11201:00000I0J00000L0M00000B0P0000000S
|
|
#11201:001500070015000R
|
|
#11201:000K0017
|
|
#11201:000000000000150000000O0C00000000
|
|
#11201:00
|
|
#11201:00
|
|
#11201:00
|
|
#11201:00
|
|
#11201:00
|
|
#11201:00
|
|
#11201:00
|
|
#11201:00
|
|
#11201:00
|
|
#11201:00
|
|
#11201:00
|
|
#11201:00
|
|
#11201:00
|
|
#11201:00
|
|
#11201:00
|
|
#11201:00
|
|
#11201:00
|
|
#11201:00
|
|
#11201:00
|
|
#11201:00
|
|
#11201:00
|
|
#11201:00
|
|
#11201:00
|
|
#11201:00
|
|
#11201:00
|
|
#11201:00
|
|
#11201:00
|
|
#11201:00
|
|
#11201:00
|
|
#11201:00
|
|
#11201:0000B40000B40000
|
|
#11201:0000BG0000BG0000
|
|
#11201:0000BM0000BM0000
|
|
#11201:00
|
|
#11201:C4
|
|
#11211:2GZZ00ID00II00002G00ZZ002G000F00
|
|
#11212:I1ZZ2GZZ09ZZ0QZZ
|
|
#11213:73ZZIHZZIHZZ7D15
|
|
#11214:01ZZ7KIM00I9I9ZZ
|
|
#11215:0HZZ17ZZ7JZZ0DI9
|
|
#11216:34
|
|
#11218:00I400000500ZZ000N0000I400ID00ZZ
|
|
#11219:0000I900000000II00ID0000ZZ0000I8
|
|
|
|
#11301:00
|
|
#11301:0T000U0V0W000X0Y0Z00101112001314
|
|
#11301:0015001500150015
|
|
#11301:00170017
|
|
#11301:0102030405060708090A0B0C0D0E0F0G
|
|
#11301:2G2G2G2G
|
|
#11301:00
|
|
#11301:00
|
|
#11301:00
|
|
#11301:34
|
|
#11301:00
|
|
#11301:00
|
|
#11301:00
|
|
#11301:0000007D
|
|
#11301:00
|
|
#11301:007J
|
|
#11301:007K0000
|
|
#11301:7L
|
|
#11301:00
|
|
#11301:00
|
|
#11301:00
|
|
#11301:00
|
|
#11301:00
|
|
#11301:00
|
|
#11301:00
|
|
#11301:00
|
|
#11301:00
|
|
#11301:00
|
|
#11301:00
|
|
#11301:00
|
|
#11301:00
|
|
#11301:00
|
|
#11301:00
|
|
#11301:00
|
|
#11301:00
|
|
#11301:B60000B60000B6B6
|
|
#11301:BI0000BI0000BIBI
|
|
#11301:BO0000BO0000BOBO
|
|
#11301:00
|
|
#11301:C6
|
|
#11311:ZZ00ZZ00IH002L00ZZ00ZZ00002L00IH
|
|
#11312:2L00IB00ZZ00ZZ002L002L0000IF002L
|
|
#11313:I2002L0000IK002LZZ00ZZ00IB002L00
|
|
#11314:00ZZ00ZZ00ZZ00ZZ00IF002L00ZZ00ZZ
|
|
#11315:002L00IF002L00IK000000002L00IB00
|
|
#11318:00I8002LZZ00ZZ00IH00IB00ZZ00ZZ00
|
|
#11319:000000002L00IO00002L00I8ZZ00ZZ00
|
|
|
|
#11414:00BQ
|
|
|
|
|