Files
admin-fishpot/Flanker-E_hyper.bms
2026-02-21 19:53:39 +09:00

8830 lines
143 KiB
Plaintext

*---------------------- HEADER FIELD
#PLAYER 1
#GENRE Cyber art
#TITLE "Flanker-E"
#ARTIST Lemi.
#BPM 200
#PLAYLEVEL 9
#RANK 3
#SUBTITLE [HYPER]
#SUBARTIST BGA:raii/obj:yozakura4241
#DIFFICULTY 3
#LNTYPE 1
#WAV01 b_shake_v127l16o5c.wav
#WAV02 b_shake_v127l16o5cp.wav
#WAV03 b_shake_v127l16o5d.wav
#WAV04 b_shake_v127l16o5dp.wav
#WAV05 b_shake_v127l16o5e.wav
#WAV06 b_shake_v127l16o5f.wav
#WAV07 b_shake_v127l16o5fp.wav
#WAV08 b_shake_v127l16o5g.wav
#WAV09 b_shake_v127l16o5gp.wav
#WAV0A b_shake_v127l16o5a.wav
#WAV0B b_shake_v127l16o5ap.wav
#WAV0C b_shake_v127l16o5b.wav
#WAV0D b_shake_v127l16o6c.wav
#WAV0E b_shake_v127l16o6cp.wav
#WAV0F b_shake_v127l16o6d.wav
#WAV0G b_shake_v127l16o6dp.wav
#WAV0H b_hihat1_v127l8o5c.wav
#WAV0I b_hihat1_v127l16o5cp.wav
#WAV0J b_hihat1_v127l16o5d.wav
#WAV0K b_hihat1_v127l8o5dp.wav
#WAV0L b_hihat1_v127l16o5e.wav
#WAV0M b_hihat1_v127l16o5f.wav
#WAV0N b_hihat1_v127l8o5fp.wav
#WAV0O b_hihat1_v127l16o5g.wav
#WAV0P b_hihat1_v127l16o5gp.wav
#WAV0Q b_hihat1_v127l8o5a.wav
#WAV0R b_hihat1_v127l16o5ap.wav
#WAV0S b_hihat1_v127l16o5b.wav
#WAV0T b_hihat1_v127l8o6c.wav
#WAV0U b_hihat1_v127l16o6cp.wav
#WAV0V b_hihat1_v127l16o6d.wav
#WAV0W b_hihat1_v127l8o6dp.wav
#WAV0X b_hihat1_v127l16o6e.wav
#WAV0Y b_hihat1_v127l16o6f.wav
#WAV0Z b_hihat1_v127l8o6fp.wav
#WAV10 b_hihat1_v127l16o6g.wav
#WAV11 b_hihat1_v127l16o6gp.wav
#WAV12 b_hihat1_v127l8o6a.wav
#WAV13 b_hihat1_v127l16o6ap.wav
#WAV14 b_hihat1_v127l16o6b.wav
#WAV15 b_hihat2_v100l8o5c.wav
#WAV16 b_hihat2_v127l8o5c.wav
#WAV17 b_clap_v127l4o5c.wav
#WAV18 b_break1_v127l8o5c.wav
#WAV19 b_break1_v127l8o5cp.wav
#WAV1A b_break1_v127l8o5d.wav
#WAV1B b_break1_v127l16o5dp.wav
#WAV1C b_break1_v127l16o5e.wav
#WAV1D b_break1_v127l8o5f.wav
#WAV1E b_break1_v127l8o5fp.wav
#WAV1F b_break1_v127l8o5g.wav
#WAV1G b_break1_v127l8o5gp.wav
#WAV1H b_break1_v127l8o5a.wav
#WAV1I b_break1_v127l8o5ap.wav
#WAV1J b_break1_v127l8o5b.wav
#WAV1K b_break1_v127l16o6c.wav
#WAV1L b_break1_v127l16o6cp.wav
#WAV1M b_break1_v127l16o6d.wav
#WAV1N b_break1_v127l16o6dp.wav
#WAV1O b_break1_v127l8o6e.wav
#WAV1P b_break1_v127l8o6f.wav
#WAV1Q b_break1_v127l8o6fp.wav
#WAV1R b_break1_v127l8o6g.wav
#WAV1S b_break1_v127l8o6gp.wav
#WAV1T b_break1_v127l8o6a.wav
#WAV1U b_break1_v127l16o6ap.wav
#WAV1V b_break1_v127l16o6b.wav
#WAV1W b_break1_v127l8o7c.wav
#WAV1X b_break1_v127l8o7cp.wav
#WAV1Y b_break1_v127l8o7d.wav
#WAV1Z b_break1_v127l8o7dp.wav
#WAV20 b_break1_v127l8o7e.wav
#WAV21 b_break1_v127l8o7f.wav
#WAV22 b_break1_v127l16o7fp.wav
#WAV23 b_break1_v127l16o7g.wav
#WAV24 b_break1_v127l16o7gp.wav
#WAV25 b_break1_v127l16o7a.wav
#WAV26 b_break1_v127l16o7ap.wav
#WAV27 b_break1_v127l16o7b.wav
#WAV28 b_break1_v127l8o8c.wav
#WAV29 b_break1_v127l8o8cp.wav
#WAV2A b_break1_v127l16o8d.wav
#WAV2B b_break1_v127l16o8dp.wav
#WAV2C b_kick_v127l32o5c.wav
#WAV2D b_kick_v127l16o5c.wav
#WAV2E b_kick_v127l8o5c.wav
#WAV2F b_kick_v127l6o5c.wav
#WAV2G b_kick_v127l16-3o5c.wav
#WAV2H b_kick_v127l4o5c.wav
#WAV2I b_sweep1_v127l1-4o5c.wav
#WAV2J b_sweep1_v127l1-8o5c.wav
#WAV2K b_snare1_v127l64o5c.wav
#WAV2L b_snare1_v127l16o5c.wav
#WAV2M b_snare1_v127l16-3o5c.wav
#WAV2N b_snare1_v127l4o5c.wav
#WAV2O b_snare1_v127l16-5o5c.wav
#WAV2P b_snare1_v127l8-3o5c.wav
#WAV2Q b_snare2_v127l16o5c.wav
#WAV2R b_snare2_v127l16-3o5c.wav
#WAV2S b_snare2_v127l4o5c.wav
#WAV2T b_snare2_v127l2o5c.wav
#WAV2U b_crash1_v127l64-3o5c.wav
#WAV2V b_crash1_v127l16o5c.wav
#WAV2W b_crash1_v127l32-3o5c.wav
#WAV2X b_crash1_v127l8o5c.wav
#WAV2Y b_crash1_v127l16-3o5c.wav
#WAV2Z b_crash1_v127l4o5c.wav
#WAV30 b_crash1_v127l16-5o5c.wav
#WAV31 b_crash1_v127l8-3o5c.wav
#WAV32 b_crash1_v127l2o5c.wav
#WAV33 b_crash1_v127l4-3o5c.wav
#WAV34 b_crash1_v127l8-7o5c.wav
#WAV35 b_fill1_v127l16o5c.wav
#WAV36 b_fill1_v127l16o5cp.wav
#WAV37 b_fill1_v127l16o5d.wav
#WAV38 b_fill1_v127l16o5dp.wav
#WAV39 b_fill1_v127l8o5e.wav
#WAV3A b_fill1_v127l8o5f.wav
#WAV3B b_fill2_v127l16o5c.wav
#WAV3C b_fill2_v127l16o5cp.wav
#WAV3D b_fill2_v127l16o5d.wav
#WAV3E b_fill2_v127l16o5dp.wav
#WAV3F b_fill2_v127l16o5e.wav
#WAV3G b_fill2_v127l16o5f.wav
#WAV3H b_fill2_v127l8o5fp.wav
#WAV3I b_slomo1_v127l8o5c.wav
#WAV3J b_slomo1_v127l8o5cp.wav
#WAV3K b_slomo1_v127l4o5d.wav
#WAV3L b_slomo1_v127l4o5dp.wav
#WAV3M b_slomo1_v127l8o5e.wav
#WAV3N b_slomo1_v127l8o5f.wav
#WAV3O b_slomo1_v127l4o5fp.wav
#WAV3P b_slomo1_v127l8o5g.wav
#WAV3Q b_slomo1_v127l8o5gp.wav
#WAV3R b_slomo1_v127l4o5a.wav
#WAV3S b_slomo1_v127l8o5ap.wav
#WAV3T b_slomo1_v127l8o5b.wav
#WAV3U b_slomo1_v127l8o6c.wav
#WAV3V b_slomo1_v127l8o6cp.wav
#WAV3W b_slomo1_v127l8o6d.wav
#WAV3X b_slomo1_v127l8o6dp.wav
#WAV3Y b_slomo1_v127l4o6e.wav
#WAV3Z b_slomo1_v127l8o6f.wav
#WAV40 b_slomo1_v127l8o6fp.wav
#WAV41 b_slomo1_v127l4o6g.wav
#WAV42 b_slomo1_v127l8o6gp.wav
#WAV43 b_slomo1_v127l8o6a.wav
#WAV44 b_slomo1_v127l4o6ap.wav
#WAV45 b_slomo1_v127l8o6b.wav
#WAV46 b_slomo1_v127l8o7c.wav
#WAV47 b_impact1_v127l2-3o5b.wav
#WAV48 b_impact1_v127l1-2o5b.wav
#WAV49 b_impact2_v127l4o5a.wav
#WAV4A b_impact2_v127l8-3o5a.wav
#WAV4B b_impact3_v127l1o5g.wav
#WAV4C b_impact4_v127l1-4o5f.wav
#WAV4D b_sweep2_v127l1-12o5e.wav
#WAV4E b_fill3_v127l16o5c.wav
#WAV4F b_fill3_v127l16o5cp.wav
#WAV4G b_fill3_v127l8o5d.wav
#WAV4H b_fill3_v127l16o5dp.wav
#WAV4I b_fill3_v127l16o5e.wav
#WAV4J b_fill3_v127l16o5f.wav
#WAV4K b_fill3_v127l16o5fp.wav
#WAV4L b_fill3_v127l16o5g.wav
#WAV4M b_fill3_v127l16o5gp.wav
#WAV4N b_fill3_v127l16o5a.wav
#WAV4O b_fill3_v127l16o5ap.wav
#WAV4P b_fill3_v127l4o5b.wav
#WAV4Q b_break2_v127l16o5c.wav
#WAV4R b_break2_v127l16o5cp.wav
#WAV4S b_break2_v127l8o5d.wav
#WAV4T b_break2_v127l8o5dp.wav
#WAV4U b_break2_v127l16o5e.wav
#WAV4V b_break2_v127l16o5f.wav
#WAV4W b_break2_v127l16o5fp.wav
#WAV4X b_break2_v127l16o5g.wav
#WAV4Y b_break2_v127l16o5gp.wav
#WAV4Z b_break2_v127l16o5a.wav
#WAV50 b_break2_v127l8o5ap.wav
#WAV51 b_break2_v127l16o5b.wav
#WAV52 b_break2_v127l16o6c.wav
#WAV53 b_break2_v127l16o6cp.wav
#WAV54 b_break2_v127l16o6d.wav
#WAV55 b_break2_v127l8o6dp.wav
#WAV56 b_break2_v127l8o6e.wav
#WAV57 b_break2_v127l16o6f.wav
#WAV58 b_break2_v127l16o6fp.wav
#WAV59 b_break2_v127l16o6g.wav
#WAV5A b_break2_v127l16o6gp.wav
#WAV5B b_break2_v127l8o6a.wav
#WAV5C b_break2_v127l8o6ap.wav
#WAV5D b_break2_v127l8o6b.wav
#WAV5E b_break2_v127l16o7c.wav
#WAV5F b_break2_v127l16o7cp.wav
#WAV5G b_break2_v127l16o7d.wav
#WAV5H b_break2_v127l16o7dp.wav
#WAV5I b_break2_v127l8o7e.wav
#WAV5J b_break2_v127l16o7f.wav
#WAV5K b_break2_v127l16o7fp.wav
#WAV5L b_break2_v127l16o7g.wav
#WAV5M b_break2_v127l16o7gp.wav
#WAV5N b_break2_v127l4o7a.wav
#WAV5O b_break2_v127l8o7ap.wav
#WAV5P b_sweep3_v127l1-5o5d.wav
#WAV5Q b_impact5_v127l4-21o5c.wav
#WAV5R b_breath1_v127l32-11o5b.wav
#WAV5S b_impact6_v127l1-4o5c.wav
#WAV5T b_sweep4_v127l1-8o5c.wav
#WAV5U b_Sylenth1 12_v127l1o3fp.wav
#WAV5V b_Sylenth1 12_v127l8-7o3gp.wav
#WAV5W b_Sylenth1 12_v127l1o3gp.wav
#WAV5X b_Sylenth1 12_v127l8-3o3a.wav
#WAV5Y b_Sylenth1 12_v127l1o3a.wav
#WAV5Z b_Sylenth1 12_v127l8-3o3ap.wav
#WAV60 b_Sylenth1 12_v127l1o3b.wav
#WAV61 b_Sylenth1 12_v127l1o4cp.wav
#WAV62 b_basspad_v127l1o3fp.wav
#WAV63 b_basspad_v127l1o3g.wav
#WAV64 b_basspad_v127l8-7o3gp.wav
#WAV65 b_basspad_v127l1o3gp.wav
#WAV66 b_basspad_v127l8-3o3a.wav
#WAV67 b_basspad_v127l1o3a.wav
#WAV68 b_basspad_v127l8-3o3ap.wav
#WAV69 b_basspad_v127l1o3b.wav
#WAV6A b_basspad_v127l1o4cp.wav
#WAV6B b_cello1_v100l8o3a.wav
#WAV6C b_cello1_v100l8-3o3a.wav
#WAV6D b_cello1_v100l8o4cp.wav
#WAV6E b_cello1_v100l4o4cp.wav
#WAV6F b_cello1_v100l8o4d.wav
#WAV6G b_cello1_v100l4o4d.wav
#WAV6H b_cello1_v100l8-3o4d.wav
#WAV6I b_cello1_v118l4o4d.wav
#WAV6J b_cello1_v100l8-7o4dp.wav
#WAV6K b_cello1_v100l8o4e.wav
#WAV6L b_cello1_v100l4o4e.wav
#WAV6M b_cello1_v100l2o4e.wav
#WAV6N b_cello1_v100l32-3o4fp.wav
#WAV6O b_cello1_v100l8o4fp.wav
#WAV6P b_cello1_v100l4o4fp.wav
#WAV6Q b_cello1_v100l8-3o4fp.wav
#WAV6R b_cello1_v100l4-3o4fp.wav
#WAV6S b_cello1_v100l8o4g.wav
#WAV6T b_cello1_v100l4o4g.wav
#WAV6U b_cello1_v100l4-3o4g.wav
#WAV6V b_cello1_v100l2o4gp.wav
#WAV6W b_cello1_v100l1o4gp.wav
#WAV6X b_cello1_v100l8o4a.wav
#WAV6Y b_cello1_v100l4o4a.wav
#WAV6Z b_cello1_v100l8-3o4a.wav
#WAV70 b_cello1_v100l2o4a.wav
#WAV71 b_cello1_v100l8-5o4a.wav
#WAV72 b_cello1_v100l8o4b.wav
#WAV73 b_cello1_v100l4o4b.wav
#WAV74 b_cello1_v100l8-3o4b.wav
#WAV75 b_cello1_v100l2o4b.wav
#WAV76 b_cello1_v100l4-3o4b.wav
#WAV77 b_cello1_v100l1o4b.wav
#WAV78 b_cello1_v100l8o5c.wav
#WAV79 b_cello1_v100l32-3o5cp.wav
#WAV7A b_cello1_v100l8o5cp.wav
#WAV7B b_cello1_v100l2o5cp.wav
#WAV7C b_cello1_v100l8o5d.wav
#WAV7D b_cello1_v100l4o5d.wav
#WAV7E b_cello1_v100l2o5d.wav
#WAV7F b_cello1_v100l8o5dp.wav
#WAV7G b_cello1_v100l8o5e.wav
#WAV7H b_cello1_v100l4o5e.wav
#WAV7I b_cello1_v100l2o5e.wav
#WAV7J b_cello1_v100l4o5fp.wav
#WAV7K b_cello1_v100l4o5g.wav
#WAV7L b_cello1_v100l4o5a.wav
#WAV7M b_Vl_v100l16o5e.wav
#WAV7N b_Vl_v100l16o5fp.wav
#WAV7O b_Vl_v127l16o5fp.wav
#WAV7P b_Vl_v100l16o5g.wav
#WAV7Q b_Vl_v127l4o5g.wav
#WAV7R b_Vl_v127l8o5gp.wav
#WAV7S b_Vl_v100l16o5a.wav
#WAV7T b_Vl_v127l8o5a.wav
#WAV7U b_Vl_v127l4o5a.wav
#WAV7V b_Vl_v127l16-5o5a.wav
#WAV7W b_Vl_v100l16o5b.wav
#WAV7X b_Vl_v127l16o5b.wav
#WAV7Y b_Vl_v127l32-3o5b.wav
#WAV7Z b_Vl_v127l8o5b.wav
#WAV80 b_Vl_v127l4o5b.wav
#WAV81 b_Vl_v127l8-5o5b.wav
#WAV82 b_Vl_v127l8-9o5b.wav
#WAV83 b_Vl_v127l4o6c.wav
#WAV84 b_Vl_v127l32-3o6cp.wav
#WAV85 b_Vl_v127l8o6cp.wav
#WAV86 b_Vl_v100l16o6d.wav
#WAV87 b_Vl_v127l32-3o6d.wav
#WAV88 b_Vl_v127l32-3o6dp.wav
#WAV89 b_Vl_v127l8-3o6dp.wav
#WAV8A b_Vl_v100l16o6e.wav
#WAV8B b_Vl_v127l32-3o6e.wav
#WAV8C b_Vl_v127l8o6e.wav
#WAV8D b_Vl_v127l4o6e.wav
#WAV8E b_Vl_v127l16-5o6e.wav
#WAV8F b_Vl_v127l8-3o6e.wav
#WAV8G b_Vl_v100l16o6fp.wav
#WAV8H b_Vl_v127l32-3o6fp.wav
#WAV8I b_Vl_v127l8o6fp.wav
#WAV8J b_Vl_v127l4o6fp.wav
#WAV8K b_Vl_v127l32-3o6g.wav
#WAV8L b_Vl_v127l16-3o6g.wav
#WAV8M b_Vl_v127l4o6g.wav
#WAV8N b_Vl_v127l8-3o6g.wav
#WAV8O b_Vl_v127l8-7o6g.wav
#WAV8P b_Vl_v127l4o6gp.wav
#WAV8Q b_Vl_v127l8-7o6gp.wav
#WAV8R b_Vl_v127l32-3o6a.wav
#WAV8S b_Vl_v127l8o6a.wav
#WAV8T b_Vl_v127l16-3o6a.wav
#WAV8U b_Vl_v127l4o6a.wav
#WAV8V b_Vl_v127l8-3o6a.wav
#WAV8W b_Vl_v127l1o6a.wav
#WAV8X b_Vl_v127l32-3o6b.wav
#WAV8Y b_Vl_v127l1o6b.wav
#WAV8Z b_Vl_v127l8-3o7c.wav
#WAV90 b_Vl_v127l32-3o7d.wav
#WAV91 b_Vl_v127l16-3o7d.wav
#WAV92 b_Vl_v127l8-3o7d.wav
#WAV93 b_Vl_v127l32-3o7e.wav
#WAV94 b_Vl_v127l8-11o7fp.wav
#WAV95 b_Vl_v127l32-3o7g.wav
#WAV96 b_Vl (D)_v100l4o4b.wav
#WAV97 b_Vl (D)_v100l4o5c.wav
#WAV98 b_Vl (D)_v100l16-5o5c.wav
#WAV99 b_Vl (D)_v100l32-3o5d.wav
#WAV9A b_Vl (D)_v100l8o5d.wav
#WAV9B b_Vl (D)_v100l8-9o5d.wav
#WAV9C b_Vl (D)_v100l32-3o5e.wav
#WAV9D b_Vl (D)_v100l4o5e.wav
#WAV9E b_Vl (D)_v100l32-3o5g.wav
#WAV9F b_Vl (D)_v100l32-3o5a.wav
#WAV9G b_Vl (D)_v100l16-3o5a.wav
#WAV9H b_Vl (D)_v100l4o5a.wav
#WAV9I b_Vl (D)_v100l32-3o5b.wav
#WAV9J b_Vl (D)_v100l16-3o5b.wav
#WAV9K b_Vl (D)_v100l8-3o5b.wav
#WAV9L b_Vl (D)_v100l32-3o6d.wav
#WAV9M b_Vl (D)_v100l8o6d.wav
#WAV9N b_Vl (D)_v100l16-3o6d.wav
#WAV9O b_Vl (D)_v100l4o6d.wav
#WAV9P b_Vl (D)_v100l1o6d.wav
#WAV9Q b_Vl (D)_v100l8-3o6dp.wav
#WAV9R b_Vl (D)_v100l32-3o6e.wav
#WAV9S b_Vl (D)_v100l8-3o6e.wav
#WAV9T b_Vl (D)_v100l8-7o6e.wav
#WAV9U b_Vl (D)_v100l1o6e.wav
#WAV9V b_Vl (D)_v100l8-3o6fp.wav
#WAV9W b_Vl (D)_v100l32-3o6g.wav
#WAV9X b_Vl (D)_v100l8-11o6a.wav
#WAV9Y b_Vl (D)_v100l32-3o6b.wav
#WAV9Z b_perc_v100l16o5c.wav
#WAVA0 b_perc_v127l8o6g.wav
#WAVA1 b_perc_v100l8o7d.wav
#WAVA2 b_perc_v127l16o7d.wav
#WAVA3 b_perc_v127l8o7d.wav
#WAVA4 b_sqlead1_v100l32-3o4cp.wav
#WAVA5 b_sqlead1_v100l32-3o4e.wav
#WAVA6 b_sqlead1_v100l32-3o4fp.wav
#WAVA7 b_sqlead1_v100l32-3o4gp.wav
#WAVA8 b_sqlead1_v100l32-3o4b.wav
#WAVA9 b_sqlead1_v100l32-3o5cp.wav
#WAVAA b_sqlead1_v100l32-3o5dp.wav
#WAVAB b_sqlead1_v100l32-3o5e.wav
#WAVAC b_sqlead2_v100l8o4a.wav
#WAVAD b_sqlead2_v100l8o4b.wav
#WAVAE b_sqlead2_v100l8o5d.wav
#WAVAF b_sqlead2_v100l8o5e.wav
#WAVAG b_sqlead2_v100l8o5fp.wav
#WAVAH b_sqlead2_v100l8o5a.wav
#WAVAI b_sqlead2_v100l8o5b.wav
#WAVAJ b_sqlead2_v100l8o6cp.wav
#WAVAK b_sqlead3_v100l8o5fp.wav
#WAVAL b_sqlead3_v100l8o5gp.wav
#WAVAM b_sqlead3_v100l8o5a.wav
#WAVAN b_sqlead3_v100l8o5b.wav
#WAVAO b_sqlead3_v100l8o6cp.wav
#WAVAP b_sqlead3_v100l8o6dp.wav
#WAVAQ b_sqlead3_v100l8o6e.wav
#WAVAR b_sqlead3_v100l8o6fp.wav
#WAVAS b_sqlead3_v100l8o6gp.wav
#WAVAT b_sqlead3_v100l8o6a.wav
#WAVAU b_sqlead3_v100l8o6b.wav
#WAVAV b_sqlead3_v100l8o7cp.wav
#WAVAW b_sqlead3_v100l8o7dp.wav
#WAVAX b_Cb1_v127l16o3e.wav
#WAVAY b_Cb1_v127l16o3fp.wav
#WAVAZ b_Cb1_v127l16o3g.wav
#WAVB0 b_Cb1_v127l16o3gp.wav
#WAVB1 b_Cb1_v127l16o3a.wav
#WAVB2 b_Cb1_v127l16o3ap.wav
#WAVB3 b_Cb1_v127l16o3b.wav
#WAVB4 b_Cb1_v127l16o4c.wav
#WAVB5 b_Cb1_v127l16o4cp.wav
#WAVB6 b_Cb1_v127l16o4d.wav
#WAVB7 b_Cb1_v127l16o4dp.wav
#WAVB8 b_Cb1_v127l16o4e.wav
#WAVB9 b_Cb2_v127l16o3e.wav
#WAVBA b_Cb2_v127l16o3fp.wav
#WAVBB b_Cb2_v127l16o3g.wav
#WAVBC b_Cb2_v127l16o3gp.wav
#WAVBD b_Cb2_v127l16o3a.wav
#WAVBE b_Cb2_v127l16o3ap.wav
#WAVBF b_Cb2_v127l16o3b.wav
#WAVBG b_Cb2_v127l16o4c.wav
#WAVBH b_Cb2_v127l16o4cp.wav
#WAVBI b_Cb2_v127l16o4d.wav
#WAVBJ b_Cb2_v127l16o4dp.wav
#WAVBK b_Cb2_v127l16o4e.wav
#WAVBL b_Cb2_v127l16o4fp.wav
#WAVBM b_Cb2_v127l16o4g.wav
#WAVBN b_Cb2_v127l16o4gp.wav
#WAVBO b_Cb2_v127l16o4a.wav
#WAVBP b_Cb2_v127l16o4b.wav
#WAVBQ b_basspiano2_v100l2-7o3e.wav
#WAVBR b_basspiano_v127l1-2o2e.wav
#WAVBS b_basspiano_v100l1-2o2fp.wav
#WAVBT b_basspiano_v100l1o2g.wav
#WAVBU b_basspiano_v100l2o2a.wav
#WAVBV b_basspiano_v100l1o2a.wav
#WAVBW b_basspiano_v127l1o2a.wav
#WAVBX b_basspiano_v127l1-2o2a.wav
#WAVBY b_basspiano_v100l2-3o2b.wav
#WAVBZ b_basspiano_v100l1-2o2b.wav
#WAVC0 b_basspiano_v100l1-4o2b.wav
#WAVC1 b_basspiano_v127l1o2b.wav
#WAVC2 b_basspiano_v127l1-2o2b.wav
#WAVC3 b_basspiano_v127l1-4o2b.wav
#WAVC4 b_basspiano_v127l1o3c.wav
#WAVC5 b_basspiano_v127l1-2o3cp.wav
#WAVC6 b_basspiano_v127l1o3d.wav
#WAVC7 b_basspiano_v127l1o3dp.wav
#WAVC8 b_basspiano_v127l1o3e.wav
#WAVC9 b_basspiano_v127l1-2o3e.wav
#WAVCA b_basspiano_v127l1o3g.wav
#WAVCB b_pianochord_v100l24o3fp.wav
#WAVCC b_pianochord_v100l12o3fp.wav
#WAVCD b_pianochord_v100l16o3g.wav
#WAVCE b_pianochord_v100l1-2o4e.wav
#WAVCF b_pianochord_v100l1o4fp.wav
#WAVCG b_pianochord_v100l1-2o4fp.wav
#WAVCH b_pianochord_v100l1-2o4g.wav
#WAVCI b_pianochord_v100l16o4a.wav
#WAVCJ b_pianochord_v100l16-3o4a.wav
#WAVCK b_pianochord_v100l1o4a.wav
#WAVCL b_pianochord_v100l1-2o4a.wav
#WAVCM b_pianochord_v100l24o4b.wav
#WAVCN b_pianochord_v100l16o4b.wav
#WAVCO b_pianochord_v100l12o4b.wav
#WAVCP b_pianochord_v100l8o4b.wav
#WAVCQ b_pianochord_v100l16-3o4b.wav
#WAVCR b_pianochord_v100l1-2o4b.wav
#WAVCS b_pianochord_v100l16o5c.wav
#WAVCT b_pianochord_v100l24o5cp.wav
#WAVCU b_pianochord_v100l16o5cp.wav
#WAVCV b_pianochord_v100l12o5cp.wav
#WAVCW b_pianochord_v100l16-3o5cp.wav
#WAVCX b_pianochord_v100l16-5o5cp.wav
#WAVCY b_pianochord_v100l16-7o5cp.wav
#WAVCZ b_pianochord_v100l1o5cp.wav
#WAVD0 b_pianochord_v100l1-2o5cp.wav
#WAVD1 b_pianochord_v100l16o5d.wav
#WAVD2 b_pianochord_v100l8o5d.wav
#WAVD3 b_pianochord_v100l16-3o5d.wav
#WAVD4 b_pianochord_v100l1-2o5d.wav
#WAVD5 b_pianochord_v100l16o5dp.wav
#WAVD6 b_pianochord_v100l16-3o5dp.wav
#WAVD7 b_pianochord_v100l16-5o5dp.wav
#WAVD8 b_pianochord_v100l8-7o5dp.wav
#WAVD9 b_pianochord_v100l24o5e.wav
#WAVDA b_pianochord_v100l16o5e.wav
#WAVDB b_pianochord_v100l12o5e.wav
#WAVDC b_pianochord_v100l8o5e.wav
#WAVDD b_pianochord_v100l4o5e.wav
#WAVDE b_pianochord_v100l16-5o5e.wav
#WAVDF b_pianochord_v100l8-3o5e.wav
#WAVDG b_pianochord_v100l16-7o5e.wav
#WAVDH b_pianochord_v100l1o5e.wav
#WAVDI b_pianochord_v100l1-2o5e.wav
#WAVDJ b_pianochord_v100l16o5fp.wav
#WAVDK b_pianochord_v100l16-3o5fp.wav
#WAVDL b_pianochord_v100l16-5o5fp.wav
#WAVDM b_pianochord_v100l8-3o5fp.wav
#WAVDN b_pianochord_v100l1-2o5fp.wav
#WAVDO b_pianochord_v100l16o5g.wav
#WAVDP b_pianochord_v100l8o5g.wav
#WAVDQ b_pianochord_v100l16-3o5g.wav
#WAVDR b_pianochord_v100l8o5gp.wav
#WAVDS b_pianochord_v100l4o5gp.wav
#WAVDT b_pianochord_v100l16-5o5gp.wav
#WAVDU b_pianochord_v100l8-7o5gp.wav
#WAVDV b_pianochord_v100l24o5a.wav
#WAVDW b_pianochord_v100l16o5a.wav
#WAVDX b_pianochord_v100l12o5a.wav
#WAVDY b_pianochord_v100l16-5o5a.wav
#WAVDZ b_pianochord_v100l16o5b.wav
#WAVE0 b_pianochord_v100l8o5b.wav
#WAVE1 b_pianochord_v100l16-3o5b.wav
#WAVE2 b_pianochord_v100l16-5o5b.wav
#WAVE3 b_pianochord_v100l16-7o5b.wav
#WAVE4 b_pianochord_v100l8-7o6c.wav
#WAVE5 b_pianochord_v100l8o6cp.wav
#WAVE6 b_pianochord_v100l4o6cp.wav
#WAVE7 b_pianochord_v100l8-3o6cp.wav
#WAVE8 b_pianochord_v100l16-5o6dp.wav
#WAVE9 b_pianochord_v100l8o6e.wav
#WAVEA b_pianochord_v100l16-5o6e.wav
#WAVEB b_pianochord_v100l8o6gp.wav
#WAVEC b_pianochord_v100l8o6a.wav
#WAVED b_plack_v127l8-3o7b.wav
#WAVEE b_plack_v127l8-5o8cp.wav
#WAVEF b_plack_v127l8-3o8dp.wav
#WAVEG b_plack_v127l4o8e.wav
#WAVEH b_plack_v127l8-3o8e.wav
#WAVEI b_plack_v127l8-3o8fp.wav
#WAVEJ b_plack_v127l2o8fp.wav
#WAVEK b_plack_v127l4-7o8fp.wav
#WAVEL b_plack_v127l4-5o8gp.wav
#WAVEM b_plack_v127l8-15o8gp.wav
#WAVEN b_piano2_v127l8-3o6b.wav
#WAVEO b_piano2_v127l8-5o7cp.wav
#WAVEP b_piano2_v127l8-3o7dp.wav
#WAVEQ b_piano2_v127l4o7e.wav
#WAVER b_piano2_v127l8-3o7e.wav
#WAVES b_piano2_v127l8-3o7fp.wav
#WAVET b_piano2_v127l2o7fp.wav
#WAVEU b_piano2_v127l4-7o7fp.wav
#WAVEV b_piano2_v127l4-5o7gp.wav
#WAVEW b_piano2_v127l8-15o7gp.wav
#WAVEX b_piano3_v100l16o6d.wav
#WAVEY b_piano3_v100l16o6fp.wav
#WAVEZ b_piano3_v100l8o6fp.wav
#WAVF0 b_piano3_v100l16o6g.wav
#WAVF1 b_piano3_v100l8o6g.wav
#WAVF2 b_piano3_v100l16o6a.wav
#WAVF3 b_piano3_v100l8o6a.wav
#WAVF4 b_piano3_v100l16o6b.wav
#WAVF5 b_piano3_v100l16o7d.wav
#WAVF6 b_piano3_v100l8o7d.wav
#WAVF7 b_piano3_v100l16o7dp.wav
#WAVF8 b_piano3_v100l16o7e.wav
#WAVF9 b_piano3_v100l16o7fp.wav
#WAVFA b_piano3_v100l32-3o7fp.wav
#WAVFB b_piano3_v100l8o7fp.wav
#WAVFC b_piano3_v100l32-3o7g.wav
#WAVFD b_piano3_v100l8o7g.wav
#WAVFE b_piano3_v100l16o7gp.wav
#WAVFF b_piano3_v100l32-3o7a.wav
#WAVFG b_piano3_v100l16o7b.wav
#WAVFH b_piano3_v100l16o8cp.wav
#WAVFI b_piano3_v100l32-3o8d.wav
#WAVFJ b_piano3_v100l16o8dp.wav
#WAVFK b_piano3_v100l16o8e.wav
#WAVFL b_piano3_v100l16o8fp.wav
#WAVFM b_piano3_v100l32-3o8fp.wav
#WAVFN b_piano3_v100l32-3o8g.wav
#WAVFO b_plack2_v100l16o6d.wav
#WAVFP b_plack2_v100l16o6fp.wav
#WAVFQ b_plack2_v100l8o6fp.wav
#WAVFR b_plack2_v100l16o6g.wav
#WAVFS b_plack2_v100l8o6g.wav
#WAVFT b_plack2_v100l16o6a.wav
#WAVFU b_plack2_v100l8o6a.wav
#WAVFV b_plack2_v100l16o6b.wav
#WAVFW b_plack2_v100l16o7d.wav
#WAVFX b_plack2_v100l8o7d.wav
#WAVFY b_plack2_v100l16o7dp.wav
#WAVFZ b_plack2_v100l16o7e.wav
#WAVG0 b_plack2_v100l16o7fp.wav
#WAVG1 b_plack2_v100l32-3o7fp.wav
#WAVG2 b_plack2_v100l8o7fp.wav
#WAVG3 b_plack2_v100l32-3o7g.wav
#WAVG4 b_plack2_v100l8o7g.wav
#WAVG5 b_plack2_v100l16o7gp.wav
#WAVG6 b_plack2_v100l32-3o7a.wav
#WAVG7 b_plack2_v100l16o7b.wav
#WAVG8 b_plack2_v100l16o8cp.wav
#WAVG9 b_plack2_v100l32-3o8d.wav
#WAVGA b_plack2_v100l16o8dp.wav
#WAVGB b_plack2_v100l16o8e.wav
#WAVGC b_plack2_v100l16o8fp.wav
#WAVGD b_plack2_v100l32-3o8fp.wav
#WAVGE b_plack2_v100l32-3o8g.wav
#WAVGF b_choir1_v127l8-3o5b.wav
#WAVGG b_choir1_v127l32-13o5b.wav
#WAVGH b_choir1_v127l8-5o6cp.wav
#WAVGI b_choir1_v127l32-21o6cp.wav
#WAVGJ b_choir1_v127l8-3o6dp.wav
#WAVGK b_choir1_v127l32-13o6dp.wav
#WAVGL b_choir1_v127l4o6e.wav
#WAVGM b_choir1_v127l32-9o6e.wav
#WAVGN b_choir1_v127l8-3o6e.wav
#WAVGO b_choir1_v127l32-13o6e.wav
#WAVGP b_choir1_v127l8-3o6fp.wav
#WAVGQ b_choir1_v127l32-13o6fp.wav
#WAVGR b_choir1_v127l32-17o6fp.wav
#WAVGS b_choir1_v127l4-7o6fp.wav
#WAVGT b_choir1_v127l32-41o6gp.wav
#WAVGU b_choir1_v127l8-15o6gp.wav
#WAVGV b_choir2_v127l8-3o4b.wav
#WAVGW b_choir2_v127l32-13o4b.wav
#WAVGX b_choir2_v127l8-5o5cp.wav
#WAVGY b_choir2_v127l32-21o5cp.wav
#WAVGZ b_choir2_v127l32o5dp.wav
#WAVH0 b_choir2_v127l8-3o5dp.wav
#WAVH1 b_choir2_v127l32-13o5dp.wav
#WAVH2 b_choir2_v127l8-15o5dp.wav
#WAVH3 b_choir2_v127l4o5e.wav
#WAVH4 b_choir2_v127l32-9o5e.wav
#WAVH5 b_choir2_v127l8-3o5e.wav
#WAVH6 b_choir2_v127l32-13o5e.wav
#WAVH7 b_choir2_v127l8-5o5e.wav
#WAVH8 b_choir2_v127l32-21o5e.wav
#WAVH9 b_choir2_v127l8-3o5fp.wav
#WAVHA b_choir2_v127l32-13o5fp.wav
#WAVHB b_choir2_v127l32-17o5fp.wav
#WAVHC b_choir2_v127l4-7o5fp.wav
#WAVHD b_choir2_v127l4o5gp.wav
#WAVHE b_choir2_v127l32-9o5gp.wav
#WAVHF b_choir2_v127l8-3o5gp.wav
#WAVHG b_choir2_v127l32-13o5gp.wav
#WAVHH b_choir2_v127l32-41o5gp.wav
#WAVHI b_choir2_v127l8-15o5gp.wav
#WAVHJ b_choir2_v127l8-3o5b.wav
#WAVHK b_choir2_v127l32-13o5b.wav
#WAVHL b_choir2_v127l32-17o5b.wav
#WAVHM b_choir2_v127l32-41o5b.wav
#WAVHN b_choir2_v127l4-7o5b.wav
#WAVHO b_plack3_v100l64-3o7cp.wav
#WAVHP b_plack3_v100l64-3o7dp.wav
#WAVHQ b_plack3_v100l64-3o7e.wav
#WAVHR b_plack3_v100l64-3o7b.wav
#WAVHS b_plack3_v100l64-3o8dp.wav
#WAVHT b_plack3_v100l64-3o8e.wav
#WAVHU b_plack4_v100l64-3o8cp.wav
#WAVHV b_plack4_v100l64-3o8dp.wav
#WAVHW b_plack4_v100l64-3o8e.wav
#WAVHX b_plack4_v100l64-3o8b.wav
#WAVHY b_plack4_v100l64-3o9dp.wav
#WAVHZ b_plack4_v100l64-3o9e.wav
#WAVI0 b_arp1_v100l16o4a.wav
#WAVI1 b_arp1_v100l16o4b.wav
#WAVI2 b_arp1_v100l16o5d.wav
#WAVI3 b_arp1_v100l16o5dp.wav
#WAVI4 b_arp1_v100l16o5e.wav
#WAVI5 b_arp1_v100l16o5fp.wav
#WAVI6 b_arp1_v100l16o5g.wav
#WAVI7 b_arp1_v100l16o5gp.wav
#WAVI8 b_arp1_v100l16o5a.wav
#WAVI9 b_arp1_v100l16o5b.wav
#WAVIA b_arp1_v100l16o6cp.wav
#WAVIB b_arp1_v100l16o6d.wav
#WAVIC b_arp1_v100l16o6dp.wav
#WAVID b_arp1_v100l16o6e.wav
#WAVIE b_arp1_v100l16o6fp.wav
#WAVIF b_arp1_v100l16o6g.wav
#WAVIG b_arp1_v100l16o6gp.wav
#WAVIH b_arp1_v100l16o6a.wav
#WAVII b_arp1_v100l16o6b.wav
#WAVIJ b_arp1_v100l16o7cp.wav
#WAVIK b_arp1_v100l16o7d.wav
#WAVIL b_arp1_v100l16o7dp.wav
#WAVIM b_arp1_v100l16o7e.wav
#WAVIN b_arp1_v100l16o7fp.wav
#WAVIO b_arp1_v100l16o7g.wav
#WAVIP b_arp1_v100l16o7gp.wav
#WAVIQ b_arp1_v100l16o7b.wav
#WAVIR b_arp1_v100l16o8cp.wav
#WAVIS b_arp1_v100l16o8dp.wav
#WAVIT b_arp1_v100l16o8e.wav
#WAVIU b_wobble1_v100l64-3o5cp.wav
#WAVIV b_wobble1_v100l8o5cp.wav
#WAVIW b_wobble1_v100l32-5o5cp.wav
#WAVIX b_wobble1_v100l32-7o5cp.wav
#WAVIY b_sonar_v100l2o6fp.wav
#WAVIZ b_lead1_v100l16o5fp.wav
#WAVJ0 b_lead1_v100l16o5b.wav
#WAVJ1 b_lead1_v100l16o6dp.wav
#WAVJ2 b_lead1_v100l16o6e.wav
#WAVJ3 b_lead1_v100l16o6fp.wav
#WAVJ4 b_lead1_v100l16o6b.wav
#WAVJ5 b_lead1_v100l16o7dp.wav
#WAVJ6 b_lead1_v100l16o7e.wav
#WAVJ7 b_lead1_v100l16o7fp.wav
#WAVJ8 b_lead1_v100l16o7b.wav
#WAVJ9 b_lead1_v100l16o8dp.wav
#WAVJA b_lead1_v100l16o8e.wav
#WAVJB b_lead1_v100l16o8fp.wav
#WAVJC b_lead1_v100l16o8b.wav
#WAVJD b_lead1_v100l16o9dp.wav
#WAVJE b_lead1_v100l16o9e.wav
#WAVJF b_piano1_v100l4o5e.wav
#WAVJG b_piano1_v100l4o5fp.wav
#WAVJH b_piano1_v100l8o5gp.wav
#WAVJI b_piano1_v100l4o5gp.wav
#WAVJJ b_piano1_v100l8-9o5gp.wav
#WAVJK b_piano1_v100l4o5a.wav
#WAVJL b_piano1_v100l8o5b.wav
#WAVJM b_piano1_v100l4o5b.wav
#WAVJN b_piano1_v100l8-9o5b.wav
#WAVJO b_piano1_v100l4o6cp.wav
#WAVJP b_piano1_v100l4o6dp.wav
#WAVJQ b_piano1_v100l16o6e.wav
#WAVJR b_piano1_v100l8o6e.wav
#WAVJS b_piano1_v100l4o6e.wav
#WAVJT b_piano1_v100l8-3o6e.wav
#WAVJU b_piano1_v100l16o6fp.wav
#WAVJV b_piano1_v100l8o6fp.wav
#WAVJW b_piano1_v100l16-3o6fp.wav
#WAVJX b_piano1_v100l4o6fp.wav
#WAVJY b_piano1_v100l16o6g.wav
#WAVJZ b_piano1_v100l4o6g.wav
#WAVK0 b_piano1_v100l8o6gp.wav
#WAVK1 b_piano1_v100l16-3o6gp.wav
#WAVK2 b_piano1_v100l4o6gp.wav
#WAVK3 b_piano1_v100l8-3o6gp.wav
#WAVK4 b_piano1_v100l4-3o6gp.wav
#WAVK5 b_piano1_v100l8-9o6gp.wav
#WAVK6 b_piano1_v100l16o6a.wav
#WAVK7 b_piano1_v100l8o6a.wav
#WAVK8 b_piano1_v100l4o6a.wav
#WAVK9 b_piano1_v100l16-5o6a.wav
#WAVKA b_piano1_v100l16o6b.wav
#WAVKB b_piano1_v100l32-3o6b.wav
#WAVKC b_piano1_v100l8o6b.wav
#WAVKD b_piano1_v100l16-3o6b.wav
#WAVKE b_piano1_v100l4o6b.wav
#WAVKF b_piano1_v100l8-3o6b.wav
#WAVKG b_piano1_v100l8-9o6b.wav
#WAVKH b_piano1_v100l4o7c.wav
#WAVKI b_piano1_v100l8o7cp.wav
#WAVKJ b_piano1_v100l16-3o7cp.wav
#WAVKK b_piano1_v100l4o7cp.wav
#WAVKL b_piano1_v100l4-3o7cp.wav
#WAVKM b_piano1_v100l16o7d.wav
#WAVKN b_piano1_v100l32-3o7d.wav
#WAVKO b_piano1_v100l4o7dp.wav
#WAVKP b_piano1_v100l8-9o7dp.wav
#WAVKQ b_piano1_v100l16o7e.wav
#WAVKR b_piano1_v100l32-3o7e.wav
#WAVKS b_piano1_v100l8o7e.wav
#WAVKT b_piano1_v100l4o7e.wav
#WAVKU b_piano1_v100l8-3o7e.wav
#WAVKV b_piano1_v100l16o7fp.wav
#WAVKW b_piano1_v100l32-3o7fp.wav
#WAVKX b_piano1_v100l8o7fp.wav
#WAVKY b_piano1_v100l16-3o7fp.wav
#WAVKZ b_piano1_v100l4o7fp.wav
#WAVL0 b_piano1_v100l32-3o7g.wav
#WAVL1 b_piano1_v100l16-3o7g.wav
#WAVL2 b_piano1_v100l4o7g.wav
#WAVL3 b_piano1_v100l8-3o7g.wav
#WAVL4 b_piano1_v100l8-5o7g.wav
#WAVL5 b_piano1_v100l16-3o7gp.wav
#WAVL6 b_piano1_v100l4o7gp.wav
#WAVL7 b_piano1_v100l8-3o7gp.wav
#WAVL8 b_piano1_v100l4-3o7gp.wav
#WAVL9 b_piano1_v100l8-9o7gp.wav
#WAVLA b_piano1_v100l32-3o7a.wav
#WAVLB b_piano1_v100l8o7a.wav
#WAVLC b_piano1_v100l16-3o7a.wav
#WAVLD b_piano1_v100l4o7a.wav
#WAVLE b_piano1_v100l8-3o7a.wav
#WAVLF b_piano1_v100l1o7a.wav
#WAVLG b_piano1_v100l32-3o7b.wav
#WAVLH b_piano1_v100l4o7b.wav
#WAVLI b_piano1_v100l1o7b.wav
#WAVLJ b_piano1_v100l8-3o8c.wav
#WAVLK b_piano1_v100l32-3o8d.wav
#WAVLL b_piano1_v100l16-3o8d.wav
#WAVLM b_piano1_v100l8-3o8d.wav
#WAVLN b_piano1_v100l32-3o8e.wav
#WAVLO b_piano1_v100l8-11o8fp.wav
#WAVLP b_piano1_v100l32-3o8g.wav
#WAVLQ b_choir3_v127l4-7o4a.wav
#WAVLR b_choir3_v127l4-7o4b.wav
#WAVLS b_choir3_v127l8-15o4b.wav
#WAVLT b_choir3_v127l4-7o5cp.wav
#WAVLU b_choir3_v127l2-3o5e.wav
#WAVLV b_choir3_v127l4-7o5e.wav
#WAVLW b_choir3_v127l8-9o5gp.wav
#WAVLX b_choir3_v127l8-11o5gp.wav
#WAVLY b_choir3_v127l4-7o5gp.wav
#WAVLZ b_choir3_v127l8-5o5b.wav
#WAVM0 b_choir3_v127l2o6cp.wav
#WAVM1 b_choir3_v127l1o6dp.wav
#WAVM2 b_choir3_v127l8-15o6dp.wav
#WAVM3 b_lead2_v100l16o4dp.wav
#WAVM4 b_lead2_v100l16o4e.wav
#WAVM5 b_lead2_v100l64-3o4gp.wav
#WAVM6 b_lead2_v100l16o4gp.wav
#WAVM7 b_lead2_v100l64-7o4b.wav
#WAVM8 b_lead2_v100l8o4b.wav
#WAVM9 b_lead2_v100l16o5cp.wav
#WAVMA b_lead2_v100l64-7o5cp.wav
#WAVMB b_lead2_v100l16o5dp.wav
#WAVMC b_lead2_v100l64-7o5dp.wav
#WAVMD b_lead2_v100l16o5e.wav
#WAVME b_lead2_v100l64-7o5e.wav
#WAVMF b_lead2_v100l16o5fp.wav
#WAVMG b_lead2_v100l64-7o5fp.wav
#WAVMH b_lead2_v100l64-3o5gp.wav
#WAVMI b_lead2_v100l16o5gp.wav
#WAVMJ b_lead2_v100l64-7o5gp.wav
#WAVMK b_lead2_v100l64-3o5b.wav
#WAVML b_lead2_v100l16o5b.wav
#WAVMM b_lead2_v100l32-3o5b.wav
#WAVMN b_lead2_v100l64-7o5b.wav
#WAVMO b_lead2_v100l8o5b.wav
#WAVMP b_lead2_v100l4o5b.wav
#WAVMQ b_lead2_v100l64-3o6cp.wav
#WAVMR b_lead2_v100l16o6cp.wav
#WAVMS b_lead2_v100l64-7o6cp.wav
#WAVMT b_lead2_v100l64-3o6dp.wav
#WAVMU b_lead2_v100l16o6dp.wav
#WAVMV b_lead2_v100l32-3o6dp.wav
#WAVMW b_lead2_v100l64-7o6dp.wav
#WAVMX b_lead2_v100l16o6e.wav
#WAVMY b_lead2_v100l64-7o6e.wav
#WAVMZ b_lead2_v100l16o6fp.wav
#WAVN0 b_lead2_v100l64-7o6fp.wav
#WAVN1 b_lead2_v100l64-3o6gp.wav
#WAVN2 b_lead2_v100l16o6gp.wav
#WAVN3 b_lead2_v100l64-3o6b.wav
#WAVN4 b_lead2_v100l16o6b.wav
#WAVN5 b_lead2_v100l32-3o6b.wav
#WAVN6 b_lead2_v100l64-7o6b.wav
#WAVN7 b_lead2_v100l4o6b.wav
#WAVN8 b_lead2_v100l64-3o7cp.wav
#WAVN9 b_lead2_v100l16o7cp.wav
#WAVNA b_lead2_v100l64-3o7dp.wav
#WAVNB b_lead2_v100l16o7dp.wav
#WAVNC b_lead2_v100l32-3o7dp.wav
#WAVND b_lead2_v100l64-7o7dp.wav
#WAVNE b_lead2_v100l16o7e.wav
#WAVNF b_lead2_v100l64-7o7e.wav
#WAVNG b_lead2_v100l64-7o7fp.wav
#WAVNH b_lead2_v100l16o7gp.wav
#WAVNI b_lead3_v100l16o6e.wav
#WAVNJ b_lead3_v100l4o6e.wav
#WAVNK b_lead3_v100l16o6fp.wav
#WAVNL b_lead3_v100l4o6fp.wav
#WAVNM b_lead3_v100l8-3o6fp.wav
#WAVNN b_lead3_v100l16o6g.wav
#WAVNO b_lead3_v100l4o6g.wav
#WAVNP b_lead3_v100l8o6gp.wav
#WAVNQ b_lead3_v100l8-7o6gp.wav
#WAVNR b_lead3_v100l16o6a.wav
#WAVNS b_lead3_v100l4o6a.wav
#WAVNT b_lead3_v100l16-5o6a.wav
#WAVNU b_lead3_v100l16o6b.wav
#WAVNV b_lead3_v100l32-3o6b.wav
#WAVNW b_lead3_v100l8o6b.wav
#WAVNX b_lead3_v100l4o6b.wav
#WAVNY b_lead3_v100l8-9o6b.wav
#WAVNZ b_lead3_v100l4o7c.wav
#WAVO0 b_lead3_v100l16o7d.wav
#WAVO1 b_lead3_v100l32-3o7d.wav
#WAVO2 b_lead3_v100l4o7dp.wav
#WAVO3 b_lead3_v100l16o7e.wav
#WAVO4 b_lead3_v100l32-3o7e.wav
#WAVO5 b_lead3_v100l8o7e.wav
#WAVO6 b_lead3_v100l4o7e.wav
#WAVO7 b_lead3_v100l8-3o7e.wav
#WAVO8 b_lead3_v100l16o7fp.wav
#WAVO9 b_lead3_v100l32-3o7fp.wav
#WAVOA b_lead3_v100l8o7fp.wav
#WAVOB b_lead3_v100l4o7fp.wav
#WAVOC b_lead3_v100l32-3o7g.wav
#WAVOD b_lead3_v100l16-3o7g.wav
#WAVOE b_lead3_v100l4o7g.wav
#WAVOF b_lead3_v100l8-3o7g.wav
#WAVOG b_lead3_v100l8-5o7g.wav
#WAVOH b_lead3_v100l4o7gp.wav
#WAVOI b_lead3_v100l8-3o7gp.wav
#WAVOJ b_lead3_v100l4-3o7gp.wav
#WAVOK b_lead3_v100l8-9o7gp.wav
#WAVOL b_lead3_v100l32-3o7a.wav
#WAVOM b_lead3_v100l8o7a.wav
#WAVON b_lead3_v100l16-3o7a.wav
#WAVOO b_lead3_v100l4o7a.wav
#WAVOP b_lead3_v100l8-3o7a.wav
#WAVOQ b_lead3_v100l1o7a.wav
#WAVOR b_lead3_v100l32-3o7b.wav
#WAVOS b_lead3_v100l4o7b.wav
#WAVOT b_lead3_v100l1o7b.wav
#WAVOU b_lead3_v100l8-3o8c.wav
#WAVOV b_lead3_v100l32-3o8d.wav
#WAVOW b_lead3_v100l16-3o8d.wav
#WAVOX b_lead3_v100l8-3o8d.wav
#WAVOY b_lead3_v100l32-3o8e.wav
#WAVOZ b_lead3_v100l8-11o8fp.wav
#WAVP0 b_lead3_v100l32-3o8g.wav
#WAVP1 b_wobble_v100l2o3fp.wav
#WAVP2 b_wobble_v100l2o3g.wav
#WAVP3 b_wobble_v100l2o3a.wav
#WAVP4 b_wobble_v100l2o3b.wav
#WAVP5 b_c_piano_v100l32-3o5b.wav
#WAVP6 b_c_piano_v100l32-3o6fp.wav
#WAVP7 b_c_piano_v100l32-3o6b.wav
#WAVP8 b_c_piano_v100l32-3o7cp.wav
#WAVP9 b_c_piano_v100l32-3o7d.wav
#WAVPA b_c_piano_v100l32-3o7fp.wav
#WAVPB b_c_piano_v100l32-3o7a.wav
#WAVPC b_c_piano_v100l32-3o7b.wav
#WAVPD b_c_piano_v100l32-3o8cp.wav
#WAVPE b_c_piano_v100l32-3o8d.wav
#WAVPF b_lead4_v100l16o4fp.wav
#WAVPG b_lead4_v100l16o4b.wav
#WAVPH b_lead4_v100l8o4b.wav
#WAVPI b_lead4_v100l16o5cp.wav
#WAVPJ b_lead4_v100l16o5d.wav
#WAVPK b_lead4_v100l16o5e.wav
#WAVPL b_lead4_v100l16o5fp.wav
#WAVPM b_lead4_v100l16o5a.wav
#WAVPN b_lead4_v100l8o5a.wav
#WAVPO b_lead4_v100l16o5b.wav
#WAVPP b_lead4_v100l8o5b.wav
#WAVPQ b_lead4_v100l16o6cp.wav
#WAVPR b_lead4_v100l8o6cp.wav
#WAVPS b_lead4_v100l16o6d.wav
#WAVPT b_lead4_v100l8o6d.wav
#WAVPU b_lead4_v100l16o6e.wav
#WAVPV b_lead4_v100l8o6e.wav
#WAVPW b_lead4_v100l16o6fp.wav
#WAVPX b_lead4_v100l8o6fp.wav
#WAVPY b_lead4_v100l8o6g.wav
#WAVPZ b_lead4_v100l16o6a.wav
#WAVQ0 b_lead4_v100l8o6a.wav
#WAVQ1 b_lead4_v100l16o6b.wav
#WAVQ2 b_lead4_v100l8o6b.wav
#WAVQ3 b_lead4_v100l16o7cp.wav
#WAVQ4 b_lead4_v100l8o7cp.wav
#WAVQ5 b_lead4_v100l16o7d.wav
#WAVQ6 b_lead4_v100l8o7d.wav
#WAVQ7 b_lead5_v100l16o5fp.wav
#WAVQ8 b_lead5_v100l16o5b.wav
#WAVQ9 b_lead5_v100l8o5b.wav
#WAVQA b_lead5_v100l16o6cp.wav
#WAVQB b_lead5_v100l16o6d.wav
#WAVQC b_lead5_v100l16o6e.wav
#WAVQD b_lead5_v100l16o6fp.wav
#WAVQE b_lead5_v100l16o6a.wav
#WAVQF b_lead5_v100l8o6a.wav
#WAVQG b_lead5_v100l16o6b.wav
#WAVQH b_lead5_v100l8o6b.wav
#WAVQI b_lead5_v100l16o7cp.wav
#WAVQJ b_lead5_v100l8o7cp.wav
#WAVQK b_lead5_v100l16o7d.wav
#WAVQL b_lead5_v100l8o7d.wav
#WAVQM b_lead5_v100l16o7e.wav
#WAVQN b_lead5_v100l8o7e.wav
#WAVQO b_lead5_v100l16o7fp.wav
#WAVQP b_lead5_v100l8o7fp.wav
#WAVQQ b_lead5_v100l8o7g.wav
#WAVQR b_lead5_v100l16o7a.wav
#WAVQS b_lead5_v100l8o7a.wav
#WAVQT b_lead5_v100l16o7b.wav
#WAVQU b_lead5_v100l8o7b.wav
#WAVQV b_lead5_v100l16o8cp.wav
#WAVQW b_lead5_v100l8o8cp.wav
#WAVQX b_lead5_v100l16o8d.wav
#WAVQY b_lead5_v100l8o8d.wav
#WAVQZ b_arp2_v100l16o4cp.wav
#WAVR0 b_arp2_v100l16o4d.wav
#WAVR1 b_arp2_v100l16o4fp.wav
#WAVR2 b_arp2_v100l16o4g.wav
#WAVR3 b_arp2_v100l16o5cp.wav
#WAVR4 b_arp2_v100l16o5d.wav
#WAVR5 b_arp2_v100l16o5fp.wav
#WAVR6 b_arp2_v100l16o5g.wav
#WAVR7 b_arp2_v100l16o6cp.wav
#WAVR8 b_arp2_v100l16o6d.wav
#WAVR9 b_arp2_v100l16o6fp.wav
#WAVRA b_arp2_v100l16o6g.wav
#WAVRB b_arp2_v100l32o6a.wav
#WAVRC b_arp2_v100l16o7cp.wav
#WAVRD b_arp2_v100l16o7d.wav
#WAVRE b_arp2_v100l16o7g.wav
#WAVRF b_arp2_v100l32o7a.wav
#WAVRG b_lead6_v100l16o5b.wav
#WAVRH b_lead6_v100l16o6d.wav
#WAVRI b_lead6_v100l8o6d.wav
#WAVRJ b_lead6_v100l8o6e.wav
#WAVRK b_lead6_v100l16o6fp.wav
#WAVRL b_lead6_v100l8-17o6fp.wav
#WAVRM b_lead6_v100l4o6a.wav
#WAVRN b_lead6_v100l16o6b.wav
#WAVRO b_lead6_v100l4o6b.wav
#WAVRP b_lead6_v100l8o7cp.wav
#WAVRQ b_lead6_v100l4o7cp.wav
#WAVRR b_lead6_v100l8-3o7cp.wav
#WAVRS b_lead6_v100l8o7d.wav
#WAVRT b_lead6_v100l4o7d.wav
#WAVRU b_lead6_v100l1o7d.wav
#WAVRV b_lead6_v100l8o7e.wav
#WAVRW b_lead6_v100l4o7e.wav
#WAVRX b_lead6_v100l8o7fp.wav
#WAVRY b_lead6_v100l2o7fp.wav
#WAVRZ b_lead6_v100l8-17o7fp.wav
#WAVS0 b_lead6_v100l8o7g.wav
#WAVS1 b_ststr1_v127l16o5e.wav
#WAVS2 b_ststr1_v127l16o5fp.wav
#WAVS3 b_ststr1_v127l16o5a.wav
#WAVS4 b_ststr1_v127l16o5b.wav
#WAVS5 b_ststr1_v127l16o6cp.wav
#WAVS6 b_ststr1_v127l16o6d.wav
#WAVS7 b_ststr1_v127l16o6e.wav
#WAVS8 b_ststr1_v127l16o6fp.wav
#WAVS9 b_ststr2_v127l16o6e.wav
#WAVSA b_ststr2_v127l16o6fp.wav
#WAVSB b_ststr2_v127l16o6a.wav
#WAVSC b_ststr2_v127l16o6b.wav
#WAVSD b_ststr2_v127l16o7cp.wav
#WAVSE b_ststr2_v127l16o7d.wav
#WAVSF b_ststr2_v127l16o7e.wav
#WAVSG b_ststr2_v127l16o7fp.wav
#WAVSI su-35bmsbgm1.wav
#WAVSJ su-35bmsbgm2.wav
#WAVSK su-35bmsbgm3.wav
*---------------------- EXPANSION FIELD
#BMPSM bga.wmv
*---------------------- MAIN DATA FIELD
#00101:00
#00101:00
#00101:00
#00101:00
#00101:00
#00101:00
#00101:00
#00101:00
#00101:00
#00101:00
#00101:00
#00101:00
#00101:00
#00101:00
#00101:00
#00101:00
#00101:00
#00101:00
#00101:00
#00101:00
#00101:00
#00101:00
#00101:00
#00101:00
#00101:00
#00101:00
#00101:00
#00101:00
#00101:00
#00101:00
#00101:00
#00101:00
#00101:00
#00101:00
#00101:00
#00101:00
#00101:00
#00101:00
#00101:00
#00101:00
#00101:00
#00101:00
#00101:00
#00101:00
#00101:00
#00101:00
#00101:00
#00101:00
#00101:00
#00101:00
#00101:00
#00101:00
#00101:00
#00101:00
#00101:00
#00101:00
#00101:00
#00101:00
#00101:00
#00101:00
#00101:00
#00101:00
#00101:00
#00101:00
#00101:00
#00101:00
#00101:00
#00101:00
#00101:00
#00101:00
#00101:00
#00101:00
#00101:00
#00101:00
#00101:00
#00101:00
#00101:00
#00101:00
#00101:00
#00101:00
#00101:00
#00101:00
#00101:00
#00101:00
#00101:00
#00101:00
#00101:00
#00101:00
#00101:00
#00101:SI
#00104:SM
#00116:00000000005R0000
#00201:00
#00201:00
#00201:BL0000BL0000BL00
#00201:00
#00201:00
#00201:00
#00201:00
#00201:00
#00201:00
#00201:00
#00201:00
#00201:00
#00201:00
#00201:00
#00201:00
#00201:00
#00201:00
#00201:00
#00201:00
#00201:00
#00201:00
#00201:00
#00201:00
#00201:00
#00201:00
#00201:00
#00201:00
#00201:00
#00201:00
#00201:00
#00201:00
#00201:00
#00201:00
#00201:00
#00201:00
#00201:00
#00201:B30000B30000B300
#00201:BF0000BF0000BF00
#00211:C0
#00212:000000S1
#00213:00S2000000000000
#00214:0000000000S300S3
#00215:S4S40000
#00218:00S5
#00219:5Q0000S600000000
#00301:00
#00301:00
#00301:00BL0000BL00BL00
#00301:00
#00301:00
#00301:00
#00301:00
#00301:00
#00301:00
#00301:00
#00301:00
#00301:00
#00301:00
#00301:00
#00301:00
#00301:00
#00301:00
#00301:00
#00301:00
#00301:00
#00301:00
#00301:00
#00301:00
#00301:00
#00301:00
#00301:00
#00301:00
#00301:00
#00301:00
#00301:00
#00301:00
#00301:00
#00301:00
#00301:00
#00301:00
#00301:00
#00301:00B30000B300B300
#00301:00BF0000BF00BF00
#00312:000000S1
#00313:00S2000000S20000
#00314:00000000000000S3
#00315:S4S40000
#00318:00S5
#00319:000000S600000000
#00401:00
#00401:00
#00401:BL0000BL0000BL00
#00401:00
#00401:00
#00401:00
#00401:00
#00401:00
#00401:00
#00401:00
#00401:00
#00401:00
#00401:00
#00401:00
#00401:00
#00401:00
#00401:00
#00401:00
#00401:00
#00401:00
#00401:00
#00401:00
#00401:00
#00401:00
#00401:00
#00401:00
#00401:00
#00401:00
#00401:00
#00401:00
#00401:00
#00401:00
#00401:00
#00401:00
#00401:00
#00401:00
#00401:B30000B30000B300
#00401:BF0000BF0000BF00
#00412:000000S1
#00413:00S2000000000000
#00414:0000000000S300S3
#00415:S4S40000
#00418:00S5
#00419:000000S600000000
#00501:00
#00501:00
#00501:00BL00BL00BL0000
#00501:00
#00501:00
#00501:00
#00501:00
#00501:00
#00501:00
#00501:00
#00501:00
#00501:00
#00501:00
#00501:00
#00501:00
#00501:00
#00501:00
#00501:00
#00501:00
#00501:00
#00501:00
#00501:00
#00501:00
#00501:00
#00501:00
#00501:00
#00501:00
#00501:00
#00501:00
#00501:00
#00501:00
#00501:00
#00501:00
#00501:00
#00501:00
#00501:00
#00501:00B300B300B30000
#00501:00BF00BF00BF0000
#00512:00S2S200
#00513:00000000000000S3
#00514:000000S5
#00515:000000S600S60000
#00518:00S7000000000000
#00519:S8
#00601:00
#00601:00
#00601:BL0000BL0000BL00
#00601:00
#00601:00
#00601:00
#00601:00
#00601:00
#00601:00
#00601:00
#00601:00
#00601:00
#00601:00
#00601:00
#00601:00
#00601:00
#00601:00
#00601:00
#00601:00
#00601:00
#00601:00
#00601:00
#00601:00
#00601:00
#00601:00
#00601:00
#00601:00
#00601:00
#00601:00
#00601:00
#00601:00
#00601:00
#00601:00
#00601:00
#00601:00
#00601:00
#00601:B30000B30000B300
#00601:BF0000BF0000BF00
#00611:000000S1
#00612:00S2000000000000
#00613:0000000000S300S3
#00614:S4S40000
#00615:00S5
#00618:000000S600000000
#00619:BY
#00701:00
#00701:00
#00701:00BL0000BK00BK00
#00701:00
#00701:00
#00701:00
#00701:00
#00701:00
#00701:00
#00701:00
#00701:00
#00701:00
#00701:00
#00701:00
#00701:00
#00701:00
#00701:00
#00701:00
#00701:00
#00701:00
#00701:00
#00701:00
#00701:00
#00701:00
#00701:00
#00701:00
#00701:00
#00701:00
#00701:00
#00701:00
#00701:00
#00701:00
#00701:00
#00701:00
#00701:00
#00701:00
#00701:00B30000B100B100
#00701:00BF0000BD00BD00
#00711:000000S1
#00712:00S2000000S20000
#00713:00000000BU0000S3
#00714:S4S40000
#00715:00S5
#00718:000000S600000000
#00801:00
#00801:00
#00801:BI0000BI0000BI00
#00801:00
#00801:00
#00801:00
#00801:00
#00801:00
#00801:00
#00801:00
#00801:00
#00801:00
#00801:00
#00801:00
#00801:00
#00801:00
#00801:00
#00801:00
#00801:00
#00801:00
#00801:00
#00801:00
#00801:00
#00801:00
#00801:00
#00801:00
#00801:00
#00801:00
#00801:00
#00801:00
#00801:00
#00801:00
#00801:00
#00801:00
#00801:00
#00801:00
#00801:AZ0000AZ0000AZ00
#00801:BB0000BB0000BB00
#00811:BT0000S1
#00812:00S2000000000000
#00813:0000000000S300S3
#00814:S4S40000
#00815:00S5
#00818:000000S600000000
#00901:00
#00901:00
#00901:BK0000BK00BKBK00
#00901:00
#00901:00
#00901:00
#00901:00
#00901:00
#00901:00
#00901:00
#00901:00
#00901:00
#00901:00
#00901:00
#00901:00
#00901:00
#00901:00
#00901:00
#00901:00
#00901:00
#00901:00
#00901:00
#00901:00
#00901:00
#00901:00
#00901:00
#00901:00
#00901:00
#00901:00
#00901:00
#00901:00
#00901:00
#00901:00
#00901:00
#00901:00
#00901:00
#00901:B10000B100B1B100
#00901:BD0000BD00BDBD00
#00901:00
#00901:00
#00901:00
#00901:00
#00901:00
#00901:00
#00901:00
#00901:00
#00901:00
#00901:00
#00901:00
#00901:00
#00901:00
#00901:00
#00901:00
#00901:00
#00901:00
#00901:00
#00901:00
#00901:00
#00901:00
#00901:00
#00901:00
#00901:00
#00901:00
#00901:00
#00901:00
#00901:00
#00901:00
#00901:00
#00901:00
#00901:00
#00901:00
#00901:00
#00901:00
#00901:00
#00901:00
#00901:00
#00901:00
#00901:00
#00901:00
#00901:000000000000SASB
#00912:00S2S200
#00913:00000000000000S3
#00914:000000S5
#00915:BV0000S600S60000
#00918:00S7000000000000
#00919:S8
#01001:2H00002H00002H00
#01001:00
#01001:00
#01001:00
#01001:BZ
#01001:00
#01001:00
#01001:00
#01001:00
#01001:00
#01001:00
#01001:00
#01001:00
#01001:00
#01001:00
#01001:00
#01001:00
#01001:00
#01001:00
#01001:00
#01001:00
#01001:00
#01001:00
#01001:00
#01001:00
#01001:00
#01001:00
#01001:00
#01001:00
#01001:00
#01001:00
#01001:00
#01001:00
#01001:00
#01001:00
#01001:00
#01001:B30000B30000B300
#01001:BF0000BF0000BF00
#01001:BL0000BL0000BL00
#01001:00
#01001:00
#01001:00
#01001:00
#01001:00
#01001:00
#01001:00
#01001:00
#01001:00
#01001:00
#01001:00
#01001:00
#01001:00
#01001:00
#01001:00
#01001:00
#01001:00
#01001:00
#01001:00
#01001:00
#01001:00
#01001:00
#01001:00
#01001:00
#01001:00
#01001:00
#01001:00
#01001:00
#01001:00
#01001:00
#01001:00
#01001:00
#01001:00
#01001:00
#01001:00
#01001:00
#01001:00
#01001:00
#01001:00
#01001:00
#01001:SCSASCSESDSBS9SB
#01011:000000S1
#01012:00S2000000000000
#01013:0000000000S300S3
#01014:S4S40000
#01015:00S5
#01016:2Z00002Z00002Z00
#01018:000000S600000000
#01101:002H00002H002H00
#01101:00
#01101:00
#01101:00
#01101:00
#01101:00
#01101:00
#01101:00
#01101:00
#01101:00
#01101:00
#01101:00
#01101:00
#01101:00
#01101:00
#01101:00
#01101:00
#01101:00
#01101:00
#01101:00
#01101:00
#01101:00
#01101:00
#01101:00
#01101:00
#01101:00
#01101:00
#01101:00
#01101:00
#01101:00
#01101:00
#01101:00
#01101:00
#01101:00
#01101:00
#01101:00
#01101:00B30000B300B300
#01101:00BF0000BF00BF00
#01101:00BL0000BL00BL00
#01101:00
#01101:00
#01101:00
#01101:00
#01101:00
#01101:00
#01101:00
#01101:00
#01101:00
#01101:00
#01101:00
#01101:00
#01101:00
#01101:00
#01101:00
#01101:00
#01101:00
#01101:00
#01101:00
#01101:00
#01101:00
#01101:00
#01101:00
#01101:00
#01101:00
#01101:00
#01101:00
#01101:00
#01101:00
#01101:00
#01101:00
#01101:00
#01101:00
#01101:00
#01101:00
#01101:00
#01101:00
#01101:00
#01101:00
#01101:00
#01101:SCSASCSESDSAS9SB
#01111:000000S1
#01112:00S2000000S20000
#01113:00000000000000S3
#01114:S4S40000
#01115:00S5
#01116:002Z00002Y002Y00
#01118:000000S600000000
#01201:00
#01201:BZ
#01201:00
#01201:00
#01201:00
#01201:2H00002H00002H00
#01201:00
#01201:00
#01201:00
#01201:00
#01201:00
#01201:00
#01201:00
#01201:00
#01201:00
#01201:00
#01201:00
#01201:00
#01201:00
#01201:00
#01201:00
#01201:00
#01201:00
#01201:00
#01201:00
#01201:00
#01201:00
#01201:00
#01201:00
#01201:00
#01201:00
#01201:00
#01201:00
#01201:00
#01201:00
#01201:00
#01201:B30000B30000B300
#01201:BF0000BF0000BF00
#01201:BL0000BL0000BL00
#01201:00
#01201:00
#01201:00
#01201:00
#01201:00
#01201:00
#01201:00
#01201:00
#01201:00
#01201:00
#01201:00
#01201:00
#01201:00
#01201:00
#01201:00
#01201:00
#01201:00
#01201:00
#01201:00
#01201:00
#01201:00
#01201:00
#01201:00
#01201:00
#01201:00
#01201:00
#01201:00
#01201:00
#01201:00
#01201:00
#01201:00
#01201:00
#01201:00
#01201:00
#01201:00
#01201:00
#01201:00
#01201:00
#01201:00
#01201:00
#01201:SCSASCSESDSBS9SB
#01211:000000S1
#01212:00S2000000000000
#01213:0000000000S300S3
#01214:S4S40000
#01216:2Z00002Z00002Z00
#01218:00S5
#01219:000000S600000000
#01301:00
#01301:00
#01301:00
#01301:00
#01301:00
#01301:00002H0000002H0000002E002D2D2D2D
#01301:00
#01301:00
#01301:00
#01301:00
#01301:00
#01301:00
#01301:00
#01301:00
#01301:00
#01301:00
#01301:00
#01301:00
#01301:00
#01301:00
#01301:00
#01301:00
#01301:00
#01301:00
#01301:00
#01301:00
#01301:00
#01301:00
#01301:00
#01301:00
#01301:00
#01301:00
#01301:00
#01301:00
#01301:00
#01301:00
#01301:00B300B300B30000
#01301:00BF00BF00BF0000
#01301:00BL00BL00BL0000
#01301:00
#01301:00
#01301:00
#01301:00
#01301:00
#01301:00
#01301:00
#01301:00
#01301:00
#01301:00
#01301:00
#01301:00
#01301:00
#01301:00
#01301:00
#01301:00
#01301:00
#01301:00
#01301:00
#01301:00
#01301:00
#01301:00
#01301:00
#01301:00
#01301:00
#01301:00
#01301:00
#01301:00
#01301:00
#01301:00
#01301:00
#01301:00
#01301:00
#01301:00
#01301:00
#01301:00
#01301:00
#01301:00
#01301:00
#01301:00
#01301:SGSFSASESASESDSB
#01311:00S2S200
#01313:00000000000000S3
#01314:000000S5
#01315:000000S600S60000
#01316:002Y002Y00300000
#01318:00S7000000000000
#01319:S8
#01401:0102030405060708090A0B0C0D0E0F0G
#01401:0H000I0J0K000L0M0N000O0P0Q000R0S
#01401:0016001600160016
#01401:00
#01401:180019001A001B1C1D001E001F001G00
#01401:2G2G2G2G
#01401:00
#01401:00
#01401:BS
#01401:00
#01401:00
#01401:00
#01401:00
#01401:00
#01401:00
#01401:00
#01401:00
#01401:00
#01401:00
#01401:00
#01401:00
#01401:00
#01401:00
#01401:00
#01401:00
#01401:00
#01401:00
#01401:00
#01401:00
#01401:00
#01401:00
#01401:00
#01401:00
#01401:00
#01401:00
#01401:00
#01401:AY0000AY0000AY00
#01401:BA0000BA0000BA00
#01401:BH0000BH0000BH00
#01401:00
#01401:00
#01401:00
#01401:00
#01401:00
#01401:00
#01401:00
#01401:00
#01401:00
#01401:00
#01401:00
#01401:00
#01401:00
#01401:00
#01401:00
#01401:00
#01401:00
#01401:00
#01401:00
#01401:00
#01401:00
#01401:00
#01401:00
#01401:00
#01401:00
#01401:00
#01401:00
#01401:00
#01401:00
#01401:00
#01401:00
#01401:00
#01401:00
#01401:00
#01401:00
#01401:00
#01401:00
#01401:00
#01401:00
#01401:00
#01401:SCSASCSESDSBS9SB
#01411:00170017
#01412:000000S1
#01413:00S2000000000000
#01414:0000000000S300S3
#01415:S4S40000
#01416:34
#01418:00S5
#01419:000000S600000000
#01501:0102030405060708090A0B0C0D0E0F0G
#01501:0T000U0V0W000X0Y0Z00101112001314
#01501:0016001600160016
#01501:00
#01501:1H001I001J001K1L1M1N1O001P001Q00
#01501:2G2G2G2G
#01501:00
#01501:00
#01501:00
#01501:00
#01501:00
#01501:00
#01501:00
#01501:00
#01501:00
#01501:00
#01501:00
#01501:00
#01501:00
#01501:00
#01501:00
#01501:00
#01501:00
#01501:00
#01501:00
#01501:00
#01501:00
#01501:00
#01501:00
#01501:00
#01501:00
#01501:00
#01501:00
#01501:00
#01501:00
#01501:00
#01501:00AY0000AY00AY00
#01501:00BA0000BA00BA00
#01501:00BH0000BH00BH00
#01501:00
#01501:00
#01501:00
#01501:00
#01501:00
#01501:00
#01501:00
#01501:00
#01501:00
#01501:00
#01501:00
#01501:00
#01501:00
#01501:00
#01501:00
#01501:00
#01501:00
#01501:00
#01501:00
#01501:00
#01501:00
#01501:00
#01501:00
#01501:00
#01501:00
#01501:00
#01501:00
#01501:00
#01501:00
#01501:00
#01501:00
#01501:00
#01501:00
#01501:00
#01501:00
#01501:00
#01501:00
#01501:00
#01501:00
#01501:00
#01501:SCSASCSESDSAS9SB
#01511:00170017
#01512:000000S1
#01513:00S2000000S20000
#01514:00000000000000S3
#01515:S4S40000
#01518:00S5
#01519:000000S600000000
#01601:0102030405060708090A0B0C0D0E0F0G
#01601:0H000I0J0K000L0M0N000O0P0Q000R0S
#01601:0016001600160016
#01601:00
#01601:1R001S001T001U1V1W001X001Y001Z00
#01601:2G2G2G2G
#01601:00
#01601:BT
#01601:00
#01601:00
#01601:00
#01601:00
#01601:00
#01601:00
#01601:00
#01601:00
#01601:00
#01601:00
#01601:00
#01601:00
#01601:00
#01601:00
#01601:00
#01601:00
#01601:00
#01601:00
#01601:00
#01601:00
#01601:00
#01601:00
#01601:00
#01601:00
#01601:00
#01601:00
#01601:00
#01601:00
#01601:AZ0000AZ0000AZ00
#01601:BB0000BB0000BB00
#01601:BI0000BI0000BI00
#01601:00
#01601:00
#01601:00
#01601:00
#01601:00
#01601:00
#01601:00
#01601:00
#01601:00
#01601:00
#01601:00
#01601:00
#01601:00
#01601:00
#01601:00
#01601:00
#01601:00
#01601:00
#01601:00
#01601:00
#01601:00
#01601:00
#01601:00
#01601:00
#01601:00
#01601:00
#01601:00
#01601:00
#01601:00
#01601:00
#01601:00
#01601:00
#01601:00
#01601:00
#01601:00
#01601:00
#01601:00
#01601:00
#01601:00
#01601:00
#01601:SCSASCSESDSBS9SB
#01611:00170017
#01612:000000S1
#01613:00S2000000000000
#01614:0000000000S300S3
#01615:S4S40000
#01618:00S5
#01619:000000S600000000
#01701:0102030405060708090A0B0C0D0E0F0G
#01701:0T000U0V0W000X0Y0Z00101112001314
#01701:0016001600160016
#01701:00
#01701:20002100222324252627280029002A2B
#01701:2E2E2E2E00000000
#01701:BV000017
#01701:00
#01701:00
#01701:00000000S20000S3
#01701:000000S5
#01701:0000000000S60000
#01701:00
#01701:00
#01701:00
#01701:00
#01701:00
#01701:00
#01701:00
#01701:00
#01701:00
#01701:00
#01701:00
#01701:00
#01701:00
#01701:00
#01701:00
#01701:00
#01701:00
#01701:00
#01701:00
#01701:00
#01701:00
#01701:00
#01701:00
#01701:00
#01701:B10000B10000B100
#01701:BD0000BD0000BD00
#01701:BK0000BK0000BK00
#01701:00
#01701:00
#01701:00
#01701:00
#01701:00
#01701:00
#01701:00
#01701:00
#01701:00
#01701:00
#01701:00
#01701:00
#01701:00
#01701:00
#01701:00
#01701:00
#01701:00
#01701:00
#01701:00
#01701:00
#01701:00
#01701:00
#01701:00
#01701:00
#01701:00
#01701:00
#01701:00
#01701:00
#01701:00
#01701:00
#01701:00
#01701:00
#01701:00
#01701:00
#01701:00
#01701:00
#01701:00
#01701:00
#01701:00
#01701:00
#01701:SGSFSASESASESDSB
#01712:0000S20000002D2D
#01713:000000002D2D0000
#01715:000000000000S600002D002D00000000
#01718:0000S7000000000000000000002D002D
#01719:S8170000
#01801:0102030405060708090A0B0C0D0E0F0G
#01801:0H000I0J0K000L0M0N000O0P0Q000R0S
#01801:00
#01801:00170017
#01801:00
#01801:2G000000002G0000
#01801:00
#01801:00
#01801:00
#01801:00
#01801:00
#01801:00
#01801:00
#01801:00
#01801:00
#01801:00
#01801:00
#01801:00
#01801:00
#01801:4Q4R4S004T004U4V4W4X4Y4Z50005152
#01801:5P
#01801:00
#01801:00
#01801:00
#01801:00
#01801:00
#01801:00
#01801:00
#01801:00
#01801:00
#01801:00
#01801:00
#01801:00
#01801:00
#01801:00
#01801:00
#01801:00
#01801:00
#01801:00
#01801:00
#01801:00
#01801:CJ00CICJ00CICQ00
#01801:CW00CUCW00CUD300
#01801:00
#01801:00
#01801:00
#01801:00
#01801:00
#01801:00
#01801:00
#01801:00
#01801:00
#01801:00
#01801:00
#01801:00
#01801:00
#01801:00
#01801:00
#01801:00
#01801:00
#01801:00
#01801:00
#01801:00
#01801:00
#01801:00
#01801:00
#01801:00
#01801:00
#01801:00
#01801:00
#01801:00
#01801:00
#01801:00
#01801:00
#01801:00
#01801:00
#01801:QZR1R3R5R7R9RCR9R7R5R3R1R0R2R4R6
#01811:002O002O
#01813:DK00DJDK00DJ0000
#01815:000000DQ
#01816:34
#01901:0102030405060708090A0B0C0D0E0F0G
#01901:0T000U0V0W000X0Y0Z00101112001314
#01901:00
#01901:00170017
#01901:00
#01901:002G0000002G0000
#01901:00
#01901:00
#01901:00
#01901:00
#01901:00
#01901:00
#01901:00
#01901:00
#01901:00
#01901:00
#01901:00
#01901:00
#01901:00
#01901:4Q4R4S004T004U4V4W4X4Y4Z50005152
#01901:00
#01901:00
#01901:00
#01901:00
#01901:00
#01901:00
#01901:00
#01901:00
#01901:00
#01901:00
#01901:00
#01901:00
#01901:00
#01901:00
#01901:00
#01901:00
#01901:00
#01901:00
#01901:00
#01901:00
#01901:00
#01901:CNCQ00CNCS00CQ00
#01901:D1D300D1D100D300
#01901:00
#01901:00
#01901:00
#01901:00
#01901:00
#01901:00
#01901:00
#01901:00
#01901:00
#01901:00
#01901:00
#01901:00
#01901:00
#01901:00
#01901:00
#01901:00
#01901:00
#01901:00
#01901:00
#01901:00
#01901:00
#01901:00
#01901:00
#01901:00
#01901:00
#01901:00
#01901:00
#01901:00
#01901:00
#01901:00
#01901:00
#01901:00
#01901:00
#01901:R8RARDRAR8R6R4R2RAR6R8RAR6R8RARD
#01911:002O002O
#01915:DODQ00DO0000DQ00
#01919:00DW
#02001:0102030405060708090A0B0C0D0E0F0G
#02001:0H000I0J0K000L0M0N000O0P0Q000R0S
#02001:00
#02001:00170017
#02001:00
#02001:2G000000002G0000
#02001:00
#02001:00
#02001:00
#02001:00
#02001:00
#02001:00
#02001:00
#02001:00
#02001:00
#02001:00
#02001:00
#02001:00
#02001:00
#02001:5354550056005758595A5B005C005D00
#02001:00
#02001:00
#02001:00
#02001:00
#02001:00
#02001:00
#02001:00
#02001:00
#02001:00
#02001:00
#02001:00
#02001:00
#02001:00
#02001:00
#02001:00
#02001:00
#02001:00
#02001:00
#02001:00
#02001:00
#02001:00
#02001:CJ00CICJ00CICQ00
#02001:CW00CUCW00CUD300
#02001:00
#02001:00
#02001:00
#02001:00
#02001:00
#02001:00
#02001:00
#02001:00
#02001:00
#02001:00
#02001:00
#02001:00
#02001:00
#02001:00
#02001:00
#02001:00
#02001:00
#02001:00
#02001:00
#02001:00
#02001:00
#02001:00
#02001:00
#02001:00
#02001:00
#02001:00
#02001:00
#02001:00
#02001:00
#02001:00
#02001:00
#02001:00
#02001:00
#02001:QZR1R3R5R7R9RCR9R7R5R3R1R2R4R6R8
#02011:002O002O
#02013:DK00DJDK00DJ0000
#02015:000000DQ
#02101:0102030405060708090A0B0C0D0E0F0G
#02101:0T000U0V0W000X0Y0Z00101112001314
#02101:00
#02101:00170017
#02101:00
#02101:2G00002G002G0000
#02101:00
#02101:00
#02101:00
#02101:00
#02101:00
#02101:00
#02101:00
#02101:00
#02101:00
#02101:00
#02101:00
#02101:00
#02101:00
#02101:5E5F5G5H5I005J5K5L5M5N0000005O00
#02101:00
#02101:00
#02101:00
#02101:00
#02101:00
#02101:00
#02101:00
#02101:00
#02101:00
#02101:00
#02101:00
#02101:00
#02101:00
#02101:00
#02101:00
#02101:00
#02101:00
#02101:00
#02101:00
#02101:00
#02101:00
#02101:CN00CQ000000CN00CS000000CP00D1DA
#02101:D1D300D1D100D200
#02101:00
#02101:00
#02101:00
#02101:00
#02101:00
#02101:00
#02101:00
#02101:00
#02101:00
#02101:00
#02101:00
#02101:00
#02101:00
#02101:00
#02101:00
#02101:00
#02101:00
#02101:00
#02101:00
#02101:00
#02101:00
#02101:00
#02101:00
#02101:00
#02101:00
#02101:00
#02101:00
#02101:00
#02101:00
#02101:00
#02101:00
#02101:00
#02101:00
#02101:RARDRERDRAR8R6R4RAR6R8RAR6R8RARD
#02111:002O002O
#02115:DODQ00DO0000DP00
#02119:00DW
#02201:0102030405060708090A0B0C0D0E0F0G
#02201:0H000I0J0K000L0M0N000O0P0Q000R0S
#02201:00
#02201:00170017
#02201:00
#02201:2G000000002G0000
#02201:00
#02201:00
#02201:00
#02201:00
#02201:00
#02201:00
#02201:00
#02201:00
#02201:00
#02201:00
#02201:00
#02201:00
#02201:00
#02201:4Q4R4S004T004U4V4W4X4Y4Z50005152
#02201:00
#02201:00
#02201:00
#02201:00
#02201:00
#02201:00
#02201:00
#02201:00
#02201:00
#02201:00
#02201:00
#02201:00
#02201:00
#02201:00
#02201:00
#02201:00
#02201:00
#02201:00
#02201:00
#02201:00
#02201:00
#02201:CJ00CICJ00CICQ00
#02201:CW00CUCW00CUD300
#02201:00
#02201:00
#02201:00
#02201:00
#02201:00
#02201:00
#02201:00
#02201:00
#02201:00
#02201:00
#02201:00
#02201:00
#02201:00
#02201:00
#02201:00
#02201:00
#02201:00
#02201:00
#02201:00
#02201:00
#02201:00
#02201:00
#02201:00
#02201:00
#02201:00
#02201:00
#02201:00
#02201:00
#02201:00
#02201:00
#02201:00
#02201:00
#02201:00
#02201:QZR1R3R5R7R9RCR9R7R5R3R1R0R2R4R6
#02212:DK00DJDK00DJ0000
#02214:000000DQ
#02216:34
#02219:002O002O
#02301:0102030405060708090A0B0C0D0E0F0G
#02301:0T000U0V0W000X0Y0Z00101112001314
#02301:00
#02301:00170017
#02301:00
#02301:002G0000002G0000
#02301:00
#02301:00
#02301:00
#02301:00
#02301:00
#02301:00
#02301:00
#02301:00
#02301:00
#02301:00
#02301:00
#02301:00
#02301:00
#02301:4Q4R4S004T004U4V4W4X4Y4Z50005152
#02301:00
#02301:00
#02301:00
#02301:00
#02301:00
#02301:00
#02301:00
#02301:00
#02301:00
#02301:00
#02301:00
#02301:00
#02301:00
#02301:00
#02301:00
#02301:00
#02301:00
#02301:00
#02301:00
#02301:00
#02301:00
#02301:CNCQ00CNCS00CQ00
#02301:D1D300D1D100D300
#02301:00
#02301:00
#02301:00
#02301:00
#02301:00
#02301:00
#02301:00
#02301:00
#02301:00
#02301:00
#02301:00
#02301:00
#02301:00
#02301:00
#02301:00
#02301:00
#02301:00
#02301:00
#02301:00
#02301:00
#02301:00
#02301:00
#02301:00
#02301:00
#02301:00
#02301:00
#02301:00
#02301:00
#02301:00
#02301:00
#02301:00
#02301:00
#02301:00
#02301:R8RARDRAR8R6R4R2R4R6R8R4R6R8RARD
#02314:DODQ00DO0000DQ00
#02318:00DW
#02319:002O002O
#02401:0102030405060708090A0B0C0D0E0F0G
#02401:0H000I0J0K000L0M0N000O0P0Q000R0S
#02401:00
#02401:00170017
#02401:00
#02401:2G00002G002G002E
#02401:00
#02401:00
#02401:00
#02401:00
#02401:00
#02401:00
#02401:00
#02401:00
#02401:00
#02401:00
#02401:00
#02401:00
#02401:00
#02401:4Q4R4S004T004U4V4W4X4Y4Z50005152
#02401:00
#02401:00
#02401:00
#02401:00
#02401:00
#02401:00
#02401:00
#02401:00
#02401:00
#02401:00
#02401:00
#02401:00
#02401:00
#02401:00
#02401:00
#02401:00
#02401:00
#02401:00
#02401:00
#02401:00
#02401:00
#02401:CJ00CICJ00CICDCD
#02401:CW00CUCW00CUCNCN
#02401:000000000000D1D1
#02401:00
#02401:00
#02401:00
#02401:00
#02401:00
#02401:00
#02401:00
#02401:00
#02401:00
#02401:00
#02401:00
#02401:00
#02401:00
#02401:00
#02401:00
#02401:00
#02401:00
#02401:00
#02401:00
#02401:00
#02401:00
#02401:00
#02401:00
#02401:00
#02401:00
#02401:00
#02401:00
#02401:00
#02401:00
#02401:00
#02401:00
#02401:00
#02401:R7RCR9R7R5R3R5R7R9R3R5R1R4R6R4R8
#02412:DK00DJDK00DJ0000
#02414:000000000000DODO
#02416:33
#02419:002O002O
#02501:00
#02501:00
#02501:00
#02501:00
#02501:00
#02501:2F2F2F2F2F2F
#02501:00
#02501:00
#02501:000000QG
#02501:00000000000000000000000000QI0000
#02501:00000000000000QK
#02501:000000000000000000000000000000QM
#02501:00
#02501:00
#02501:00
#02501:00
#02501:00
#02501:00
#02501:00
#02501:00
#02501:00
#02501:00
#02501:00
#02501:00
#02501:00
#02501:00
#02501:00
#02501:00
#02501:00
#02501:00
#02501:00
#02501:00
#02501:00
#02501:00
#02501:00
#02501:00
#02501:00
#02501:00
#02501:00
#02501:00
#02501:00
#02501:CC00CC00CBCBCC00CC00CC00
#02501:CO00CO00CMCMCO00CO00CO00
#02501:CV00CV00CTCTCV00CV00CV00
#02501:DB00DB00D9D9DB00DB00DB00
#02501:00
#02501:00
#02501:00
#02501:00
#02501:00
#02501:00
#02501:00
#02501:00
#02501:00
#02501:00
#02501:00
#02501:00
#02501:00
#02501:00
#02501:00
#02501:00
#02501:00
#02501:00
#02501:00
#02501:00
#02501:00
#02501:00
#02501:00
#02501:00
#02501:00
#02501:00
#02501:00
#02501:00
#02501:00
#02501:000000000000000000000000POPQPSPU
#02501:00
#02501:RBRFRBRFRBRFRBRFRBRFRBRFRBRFRBRFRBRFRBRFRBRFRBRFRBRFRBRFRBRFRBRF
#02511:00000000002V000000000000
#02512:2X2X00002X2X
#02513:0000000000DV000000000000
#02515:00002V2X0000
#02518:DXDX0000DXDX
#02519:0000DVDX0000
#02601:0102030405060708090A0B0C0D0E0F0G
#02601:0H000I0J0K000L0M0N000O0P0Q000R0S
#02601:0016001600160016
#02601:00170017
#02601:180019001A001B1C1D001E001F001G00
#02601:00
#02601:2G2G2G2G
#02601:00
#02601:00
#02601:00
#02601:00
#02601:00
#02601:00
#02601:00
#02601:00
#02601:00
#02601:00
#02601:4D
#02601:00
#02601:00
#02601:00
#02601:00
#02601:00
#02601:00
#02601:00
#02601:00
#02601:00
#02601:00
#02601:00
#02601:00
#02601:00
#02601:00
#02601:00
#02601:00
#02601:ADAGAFAD00ADAGAF
#02601:00
#02601:00
#02601:00
#02601:00
#02601:00
#02601:00
#02601:CR
#02601:D4
#02601:DN
#02601:00
#02601:00
#02601:00
#02601:00
#02601:00
#02601:00
#02601:00
#02601:00
#02601:00
#02601:00
#02601:00
#02601:00
#02601:00
#02601:00
#02601:00
#02601:00
#02601:00
#02601:00
#02601:00
#02601:00
#02601:00
#02601:00
#02601:00
#02601:00
#02601:00
#02601:00
#02601:00
#02601:00
#02601:00
#02601:00
#02601:PX00PGPP00PGPN00PH00PP00PX00PGPP
#02611:0000Q80000Q80000Q90000000000Q800
#02613:000000QF00000000
#02614:000000QH000000000000QH00000000QH
#02615:QP0000QP
#02616:33
#02701:0102030405060708090A0B0C0D0E0F0G
#02701:0T000U0V0W000X0Y0Z00101112001314
#02701:0016001600160016
#02701:00170017
#02701:1H001I001J001K1L1M1N1O001P001Q00
#02701:00
#02701:2G2G2G2G
#02701:00
#02701:00
#02701:00
#02701:00
#02701:00
#02701:00
#02701:00
#02701:00
#02701:00
#02701:00
#02701:00
#02701:00
#02701:00
#02701:00
#02701:00
#02701:00
#02701:00
#02701:00
#02701:00
#02701:00
#02701:00
#02701:00
#02701:00
#02701:00
#02701:00
#02701:00
#02701:00
#02701:AD00ADAGAFACAHAE
#02701:00
#02701:00
#02701:00
#02701:00
#02701:00
#02701:00
#02701:00
#02701:00
#02701:00
#02701:00
#02701:00
#02701:00
#02701:00
#02701:00
#02701:00
#02701:00
#02701:00
#02701:00
#02701:00
#02701:00
#02701:00
#02701:00
#02701:00
#02701:00
#02701:00
#02701:00
#02701:00
#02701:00
#02701:00
#02701:00
#02701:00
#02701:00
#02701:00
#02701:00
#02701:00
#02701:00
#02701:00
#02701:00
#02701:00
#02701:00PGPN00PH00PP00PQPLPT00Q000PN00
#02711:00Q80000Q90000000000000000000000
#02712:000000000000000000QD000000000000
#02713:00QF0000000000QF
#02714:000000QH00000000
#02715:00QI
#02718:0000000000QL0000
#02719:000000QS
#02801:0102030405060708090A0B0C0D0E0F0G
#02801:0H000I0J0K000L0M0N000O0P0Q000R0S
#02801:0016001600160016
#02801:00170017
#02801:1R001S001T001U1V1W001X001Y001Z00
#02801:00
#02801:2G2G2G2G
#02801:00
#02801:00
#02801:00
#02801:00
#02801:00
#02801:00
#02801:00
#02801:00
#02801:00
#02801:00
#02801:00
#02801:00
#02801:00
#02801:00
#02801:00
#02801:00
#02801:00
#02801:00
#02801:00
#02801:00
#02801:00
#02801:00
#02801:00
#02801:00
#02801:00
#02801:00
#02801:00
#02801:AFACAHAF00AFACAH
#02801:00
#02801:00
#02801:00
#02801:00
#02801:00
#02801:00
#02801:CL
#02801:D0
#02801:DI
#02801:00
#02801:00
#02801:00
#02801:00
#02801:00
#02801:00
#02801:00
#02801:00
#02801:00
#02801:00
#02801:00
#02801:00
#02801:00
#02801:00
#02801:00
#02801:00
#02801:00
#02801:00
#02801:00
#02801:00
#02801:00
#02801:00
#02801:00
#02801:00
#02801:00
#02801:00
#02801:00
#02801:000000000000P5P6
#02801:000000000000P6P9
#02801:000000000000P7PA
#02801:PV00PGPT00PGPR00PGPLPT00PR00PN00
#02801:00
#02801:00
#02801:000000000000000000000000RGRHRKRN
#02811:0000Q80000Q80000Q800000000000000
#02812:000000000000000000QD000000000000
#02813:00000000000000QF
#02815:000000QJ0000QJ00
#02818:000000QL000000000000QL0000000000
#02819:QN
#02901:0102030405060708090A0B0C0D0E0F0G
#02901:0T000U0V0W000X0Y0Z00101112001314
#02901:0016001600160016
#02901:00170017
#02901:20002100222324252627280029002A2B
#02901:00
#02901:2E2E2G002G002E2E
#02901:00
#02901:00
#02901:00
#02901:00
#02901:00
#02901:00
#02901:00
#02901:00
#02901:00
#02901:00
#02901:00
#02901:00
#02901:00
#02901:00
#02901:00
#02901:00
#02901:00
#02901:00
#02901:00
#02901:00
#02901:00
#02901:00
#02901:00
#02901:00
#02901:00
#02901:00
#02901:00
#02901:AF00AFACAJAFAHAC
#02901:00
#02901:00
#02901:00
#02901:00
#02901:00
#02901:00
#02901:00
#02901:00
#02901:00
#02901:00
#02901:00
#02901:00
#02901:00
#02901:00
#02901:00
#02901:00
#02901:00
#02901:00
#02901:00
#02901:00
#02901:00
#02901:00
#02901:00
#02901:00
#02901:00
#02901:00
#02901:00
#02901:00
#02901:00
#02901:00
#02901:00
#02901:00
#02901:00
#02901:00
#02901:00
#02901:00
#02901:P7P8P600P6P9P8P6
#02901:PAPBP900P9PCPBP9
#02901:PCPDPA00PAPEPDPA
#02901:000000000000000000000000POPQPSPU
#02901:00
#02901:00
#02901:000000000000RJRL
#02911:000000QG
#02912:00000000000000000000000000QI0000
#02913:000000RM00RI00QK
#02914:000000000000000000000000000000QM
#02919:RTRP0000
#03001:0102030405060708090A0B0C0D0E0F0G
#03001:0H000I0J0K000L0M0N000O0P0Q000R0S
#03001:0016001600160016
#03001:00170017
#03001:180019001A001B1C1D001E001F001G00
#03001:00
#03001:2G2G2G2G
#03001:00
#03001:00
#03001:00
#03001:00
#03001:00
#03001:00
#03001:00
#03001:00
#03001:00
#03001:00
#03001:00
#03001:00
#03001:00
#03001:00
#03001:00
#03001:00
#03001:00
#03001:00
#03001:00
#03001:00
#03001:00
#03001:00
#03001:00
#03001:00
#03001:00
#03001:00
#03001:00
#03001:ADAGAFAD00ADAGAF
#03001:00
#03001:00
#03001:00
#03001:00
#03001:00
#03001:00
#03001:CR
#03001:D4
#03001:DN
#03001:00
#03001:00
#03001:00
#03001:00
#03001:00
#03001:00
#03001:00
#03001:00
#03001:00
#03001:00
#03001:00
#03001:00
#03001:00
#03001:00
#03001:00
#03001:00
#03001:00
#03001:00
#03001:00
#03001:00
#03001:00
#03001:00
#03001:00
#03001:00
#03001:00
#03001:00
#03001:00
#03001:00
#03001:00
#03001:00
#03001:PX00PGPP00PGPN00PH00PP00PX00PGPP
#03011:0000Q80000Q80000Q90000000000Q800
#03012:000000QF00000000
#03014:000000QH000000000000QH00000000QH
#03015:QP0000QP
#03016:33
#03101:0102030405060708090A0B0C0D0E0F0G
#03101:0T000U0V0W000X0Y0Z00101112001314
#03101:0016001600160016
#03101:00170017
#03101:1H001I001J001K1L1M1N1O001P001Q00
#03101:00
#03101:2G2G2G2G
#03101:00
#03101:00
#03101:00
#03101:00
#03101:00
#03101:00
#03101:00
#03101:00
#03101:00
#03101:00
#03101:00
#03101:00
#03101:00
#03101:00
#03101:00
#03101:00
#03101:00
#03101:00
#03101:00
#03101:00
#03101:00
#03101:00
#03101:00
#03101:00
#03101:00
#03101:00
#03101:00
#03101:AD00ADAGAFACAHAE
#03101:00
#03101:00
#03101:00
#03101:00
#03101:00
#03101:00
#03101:00
#03101:00
#03101:00
#03101:00
#03101:00
#03101:00
#03101:00
#03101:00
#03101:00
#03101:00
#03101:00
#03101:00
#03101:00
#03101:00
#03101:00
#03101:00
#03101:00
#03101:00
#03101:00
#03101:00
#03101:00
#03101:00
#03101:00
#03101:00
#03101:00
#03101:00
#03101:00
#03101:00
#03101:00
#03101:00
#03101:00
#03101:00
#03101:00
#03101:00PGPN00PH00PP00PQPLPT00Q000Q600
#03111:00Q80000Q90000000000000000000000
#03112:0000QF000000000000QD000000000000
#03113:000000QH00000000
#03114:00QI
#03115:0000000000QL0000
#03118:000000QS
#03119:00000000000000QY
#03201:0102030405060708090A0B0C0D0E0F0G
#03201:0H000I0J0K000L0M0N000O0P0Q000R0S
#03201:0016001600160016
#03201:00170017
#03201:1R001S001T001U1V1W001X001Y001Z00
#03201:00
#03201:2G2G2G2G
#03201:00
#03201:00
#03201:00
#03201:00
#03201:00
#03201:00
#03201:00
#03201:00
#03201:00
#03201:00
#03201:00
#03201:00
#03201:00
#03201:00
#03201:00
#03201:00
#03201:00
#03201:00
#03201:00
#03201:00
#03201:00
#03201:00
#03201:00
#03201:00
#03201:00
#03201:00
#03201:00
#03201:AFACAHAF00AFACAH
#03201:00
#03201:00
#03201:00
#03201:00
#03201:00
#03201:00
#03201:CL
#03201:D0
#03201:DI
#03201:00
#03201:00
#03201:00
#03201:00
#03201:00
#03201:00
#03201:00
#03201:00
#03201:00
#03201:00
#03201:00
#03201:00
#03201:00
#03201:00
#03201:00
#03201:00
#03201:00
#03201:00
#03201:00
#03201:00
#03201:00
#03201:00
#03201:00
#03201:00
#03201:00
#03201:00
#03201:00
#03201:000000000000P5P6
#03201:000000000000P6P9
#03201:000000000000P7PA
#03201:Q400PGQ000PGPV00PGPT00PGPLPOPSPL
#03211:0000Q80000Q80000Q80000Q800000000
#03212:000000000000000000000000QD0000QD
#03213:00000000000000000000000000QG0000
#03214:000000000000000000QL00000000QK00
#03215:000000QN00000000
#03216:33
#03218:000000QS000000000000000000000000
#03219:QW
#03301:0102030405060708090A0B0C0D0E0F0G
#03301:0T000U0V0W000X0Y0Z00101112001314
#03301:0016001600160016
#03301:00170017
#03301:20002100222324252627280029002A2B
#03301:00
#03301:2G002G002E2E2E2E
#03301:00
#03301:00
#03301:00
#03301:00
#03301:00
#03301:00
#03301:00
#03301:00
#03301:00
#03301:00
#03301:00
#03301:00
#03301:00
#03301:00
#03301:00
#03301:00
#03301:00
#03301:00
#03301:00
#03301:00
#03301:00
#03301:00
#03301:00
#03301:00
#03301:00
#03301:00
#03301:00
#03301:AF00AFACAJAFAHAC
#03301:00
#03301:00
#03301:00
#03301:00
#03301:00
#03301:00
#03301:00
#03301:00
#03301:00
#03301:00
#03301:00
#03301:00
#03301:00
#03301:00
#03301:00
#03301:00
#03301:00
#03301:00
#03301:00
#03301:00
#03301:00
#03301:00
#03301:00
#03301:00
#03301:00
#03301:00
#03301:00
#03301:00
#03301:00
#03301:00
#03301:00
#03301:00
#03301:00
#03301:00
#03301:00
#03301:00
#03301:P7P8P600P6P9P8P6
#03301:PAPBP900P9PCPBP9
#03301:PCPDPA00PAPEPDPA
#03301:PJPLPOPJPLPWQ1PLQ3Q5Q3PLQ000PV00
#03311:QB0000QB000000000000000000000000
#03312:00QD0000QD0000QD000000000000QN00
#03313:0000000000000000000000QD00000000
#03314:000000QS
#03315:00QG0000QVQV0000
#03318:0000000000QO00000000000000000000
#03319:000000000000QT0000QX000000000000
#03401:0102030405060708090A0B0C0D0E0F0G
#03401:0H000I0J0K000L0M0N000O0P0Q000R0S
#03401:0016001600160016
#03401:00170017
#03401:180019001A001B1C1D001E001F001G00
#03401:00
#03401:2G2G2G2G
#03401:00
#03401:00
#03401:00
#03401:00
#03401:00
#03401:00
#03401:00
#03401:00
#03401:00
#03401:00
#03401:00
#03401:00
#03401:00
#03401:00
#03401:00
#03401:00
#03401:00
#03401:00
#03401:00
#03401:00
#03401:00
#03401:00
#03401:00
#03401:00
#03401:00
#03401:00
#03401:00
#03401:ADAGAFAD00ADAGAF
#03401:00
#03401:00
#03401:00
#03401:00
#03401:00
#03401:00
#03401:CR
#03401:D4
#03401:DN
#03401:00
#03401:00
#03401:00
#03401:00
#03401:00
#03401:00
#03401:00
#03401:00
#03401:00
#03401:00
#03401:00
#03401:00
#03401:00
#03401:00
#03401:00
#03401:00
#03401:00
#03401:00
#03401:00
#03401:00
#03401:00
#03401:00
#03401:00
#03401:00
#03401:00
#03401:00
#03401:00
#03401:00
#03401:00
#03401:00
#03401:PX00PGPP00PGPN00PH00PP00PX00PGPP
#03401:00
#03401:00
#03401:0000RT00RPRO00RM
#03411:0000Q80000Q80000Q90000000000Q800
#03413:000000QF00000000
#03414:000000QH000000000000QH00000000QH
#03415:QP0000QP
#03416:33
#03501:0102030405060708090A0B0C0D0E0F0G
#03501:0T000U0V0W000X0Y0Z00101112001314
#03501:0016001600160016
#03501:00170017
#03501:1H001I001J001K1L1M1N1O001P001Q00
#03501:00
#03501:2G2G2G2G
#03501:00
#03501:00
#03501:00
#03501:00
#03501:00
#03501:00
#03501:00
#03501:00
#03501:00
#03501:00
#03501:00
#03501:00
#03501:00
#03501:00
#03501:00
#03501:00
#03501:00
#03501:00
#03501:00
#03501:00
#03501:00
#03501:00
#03501:00
#03501:00
#03501:00
#03501:00
#03501:00
#03501:AD00ADAGAFACAHAE
#03501:00
#03501:00
#03501:00
#03501:00
#03501:00
#03501:00
#03501:00
#03501:00
#03501:00
#03501:00
#03501:00
#03501:00
#03501:00
#03501:00
#03501:00
#03501:00
#03501:00
#03501:00
#03501:00
#03501:00
#03501:00
#03501:00
#03501:00
#03501:00
#03501:00
#03501:00
#03501:00
#03501:00
#03501:00
#03501:00
#03501:00
#03501:00
#03501:00
#03501:00
#03501:00
#03501:00
#03501:00
#03501:00
#03501:00
#03501:00PGPN00PH00PP00PQPLPT00Q000PN00
#03501:00
#03501:00
#03501:00RMRTRW
#03511:00Q80000Q90000000000000000000000
#03512:000000000000000000QD000000000000
#03513:00QF0000000000QF
#03514:000000QH00000000
#03515:00QI
#03518:0000000000QL0000
#03519:000000QS
#03601:0102030405060708090A0B0C0D0E0F0G
#03601:0H000I0J0K000L0M0N000O0P0Q000R0S
#03601:0016001600160016
#03601:00170017
#03601:1R001S001T001U1V1W001X001Y001Z00
#03601:00
#03601:2G2G2G2G
#03601:00
#03601:00
#03601:00
#03601:00
#03601:00
#03601:00
#03601:00
#03601:00
#03601:00
#03601:00
#03601:00
#03601:00
#03601:00
#03601:00
#03601:00
#03601:00
#03601:00
#03601:00
#03601:00
#03601:00
#03601:00
#03601:00
#03601:00
#03601:00
#03601:00
#03601:00
#03601:00
#03601:AFACAHAF00AFACAH
#03601:00
#03601:00
#03601:00
#03601:00
#03601:00
#03601:00
#03601:CK
#03601:CZ
#03601:DH
#03601:00
#03601:00
#03601:00
#03601:00
#03601:00
#03601:00
#03601:00
#03601:00
#03601:00
#03601:00
#03601:00
#03601:00
#03601:00
#03601:00
#03601:00
#03601:00
#03601:00
#03601:00
#03601:00
#03601:00
#03601:00
#03601:00
#03601:00
#03601:00
#03601:00
#03601:00
#03601:00
#03601:000000000000P5P6
#03601:000000000000P6P9
#03601:000000000000P7PA
#03601:PV00PGPT00PGPN00PV00PGPT00PGPV00
#03601:00
#03601:00
#03601:RY000000S0RXRVRT
#03611:0000Q80000Q800000000Q80000Q80000
#03613:000000QF00000000
#03614:000000QL00000000000000QL00000000
#03615:QN000000QN0000QN
#03701:0102030405060708090A0B0C0D0E0F0G
#03701:0T000U0V0W000X0Y0Z00101112001314
#03701:0016001600160016
#03701:00170017
#03701:20002100222324252627280029002A2B
#03701:00
#03701:2G2G2G2G
#03701:00
#03701:00
#03701:00
#03701:00
#03701:00
#03701:00
#03701:00
#03701:00
#03701:00
#03701:00
#03701:00
#03701:00
#03701:00
#03701:00
#03701:00
#03701:00
#03701:00
#03701:00
#03701:00
#03701:00
#03701:00
#03701:00
#03701:00
#03701:00
#03701:00
#03701:00
#03701:00
#03701:AF00AFACAJAFAHAC
#03701:00
#03701:00
#03701:00
#03701:00
#03701:00
#03701:00
#03701:CF
#03701:CK
#03701:CZ
#03701:00
#03701:00
#03701:00
#03701:00
#03701:00
#03701:00
#03701:00
#03701:00
#03701:00
#03701:00
#03701:00
#03701:00
#03701:00
#03701:00
#03701:00
#03701:00
#03701:00
#03701:00
#03701:00
#03701:00
#03701:00
#03701:00
#03701:00
#03701:00
#03701:00
#03701:00
#03701:00
#03701:P7P8P600P6P9P8P6
#03701:PAPBP900P9PCPBP9
#03701:PCPDPA00PAPEPDPA
#03701:PX00PGPY00PGPX00PGPV00PGPT00PN00
#03701:00
#03701:00
#03701:00RMRQRT
#03711:0000Q80000Q80000Q80000Q800000000
#03713:00000000000000QF
#03714:000000QL
#03715:000000000000000000QN000000000000
#03718:QP0000QP00000000
#03719:000000QQ000000000000000000000000
#03801:0102030405060708090A0B0C0D0E0F0G
#03801:0H000I0J0K000L0M0N000O0P0Q000R0S
#03801:0016001600160016
#03801:00170017
#03801:180019001A001B1C1D001E001F001G00
#03801:00
#03801:2G2G2G2G
#03801:00
#03801:00
#03801:00
#03801:00
#03801:00
#03801:00
#03801:00
#03801:00
#03801:00
#03801:00
#03801:00
#03801:00
#03801:00
#03801:00
#03801:00
#03801:00
#03801:00
#03801:00
#03801:00
#03801:00
#03801:00
#03801:00
#03801:00
#03801:00
#03801:00
#03801:00
#03801:00
#03801:ADAGAFAD00ADAGAF
#03801:00
#03801:00
#03801:00
#03801:00
#03801:00
#03801:00
#03801:CE
#03801:CH
#03801:CR
#03801:00
#03801:00
#03801:00
#03801:00
#03801:00
#03801:00
#03801:00
#03801:00
#03801:00
#03801:00
#03801:00
#03801:00
#03801:00
#03801:00
#03801:00
#03801:00
#03801:00
#03801:00
#03801:00
#03801:00
#03801:00
#03801:00
#03801:00
#03801:00
#03801:00
#03801:00
#03801:00
#03801:00
#03801:00
#03801:00
#03801:PGPJPLPOPLPOPSPWQ200POPX00POPUPO
#03801:00
#03801:00
#03801:RR0000RU00000000
#03811:Q8
#03812:00QB0000000000000000000000000000
#03813:00QDQD0000000000
#03814:000000QG00QG00000000QG00QG0000QG
#03815:000000QK000000QM
#03816:33
#03818:00000000000000QO000000QP00000000
#03819:00QU
#03901:0102030405060708090A0B0C0D0E0F0G
#03901:0T000U0V0W000X0Y0Z00101112001314
#03901:0016001600160016
#03901:00170017
#03901:1H001I001J001K1L1M1N1O001P001Q00
#03901:00
#03901:2G2G2G2G
#03901:00
#03901:00
#03901:00
#03901:00
#03901:00
#03901:00
#03901:00
#03901:00
#03901:00
#03901:00
#03901:00
#03901:00
#03901:00
#03901:00
#03901:00
#03901:00
#03901:00
#03901:00
#03901:00
#03901:00
#03901:00
#03901:00
#03901:00
#03901:00
#03901:00
#03901:00
#03901:00
#03901:AD00ADAGAFACAHAE
#03901:00
#03901:00
#03901:00
#03901:00
#03901:00
#03901:00
#03901:00
#03901:00
#03901:00
#03901:00
#03901:00
#03901:00
#03901:00
#03901:00
#03901:00
#03901:00
#03901:00
#03901:00
#03901:00
#03901:00
#03901:00
#03901:00
#03901:00
#03901:00
#03901:00
#03901:00
#03901:00
#03901:00
#03901:00
#03901:00
#03901:00
#03901:00
#03901:00
#03901:00
#03901:00
#03901:00
#03901:00
#03901:00
#03901:00
#03901:PJPLPOPJPLPOPSPLPOPSPWPOPLPSQ1PS
#03901:00
#03901:00
#03901:0000000000RSRVRZ
#03912:QB0000QB000000000000000000000000
#03913:00QD0000QD0000QD00000000QD000000
#03914:0000QG0000QG0000QG0000QG00000000
#03915:000000000000QK0000QK000000QK00QK
#03918:0000000000QO0000
#03919:00000000000000QT
#04001:0102030405060708090A0B0C0D0E0F0G
#04001:0H000I0J0K000L0M0N000O0P0Q000R0S
#04001:0016001600160016
#04001:00170017
#04001:1R001S001T001U1V1W001X001Y001Z00
#04001:00
#04001:2E2E2E2E2E2E2E2E
#04001:00
#04001:00
#04001:00
#04001:00
#04001:00
#04001:00
#04001:00
#04001:00
#04001:00
#04001:00
#04001:00
#04001:00
#04001:00
#04001:00
#04001:00
#04001:00
#04001:00
#04001:00
#04001:00
#04001:00
#04001:00
#04001:00
#04001:00
#04001:00
#04001:00
#04001:00
#04001:00
#04001:AFADAIAG00AFADAI
#04001:00
#04001:00
#04001:00
#04001:00
#04001:00
#04001:00
#04001:CG
#04001:CR
#04001:D0
#04001:00
#04001:00
#04001:00
#04001:00
#04001:00
#04001:00
#04001:00
#04001:00
#04001:00
#04001:00
#04001:00
#04001:00
#04001:00
#04001:00
#04001:00
#04001:00
#04001:00
#04001:00
#04001:00
#04001:00
#04001:00
#04001:00
#04001:00
#04001:00
#04001:00
#04001:00
#04001:00
#04001:00
#04001:00
#04001:00
#04001:PGPKPLPOPLPOPUPWQ400POPX00POQ3PU
#04011:Q8
#04012:00QC0000000000000000000000000000
#04013:00QDQD0000000000
#04014:000000QG00QG00000000QG0000QG0000
#04015:000000000000QM0000000000000000QM
#04016:33
#04018:00000000000000QO000000QP00000000
#04019:00000000QW0000QV
#04101:0102030405060708090A0B0C0D0E0F0G
#04101:0T000U0V0W000X0Y0Z00101112001314
#04101:0016001600160016
#04101:00170017
#04101:20002100222324252627280029002A2B
#04101:00
#04101:2E002E002E002E002E002E002D2D2D2D
#04101:00
#04101:00
#04101:00
#04101:00
#04101:00
#04101:00
#04101:00
#04101:00
#04101:00
#04101:00
#04101:00
#04101:00
#04101:00
#04101:00
#04101:00
#04101:00
#04101:00
#04101:00
#04101:00
#04101:00
#04101:00
#04101:00
#04101:00
#04101:00
#04101:00
#04101:00
#04101:00
#04101:AG00AFADAJAFAIAC
#04101:00
#04101:00
#04101:00
#04101:00
#04101:00
#04101:00
#04101:00
#04101:00
#04101:00
#04101:00
#04101:00
#04101:00
#04101:00
#04101:00
#04101:00
#04101:00
#04101:00
#04101:00
#04101:00
#04101:00
#04101:00
#04101:00
#04101:00
#04101:00
#04101:00
#04101:00
#04101:00
#04101:00
#04101:00
#04101:00
#04101:00
#04101:00
#04101:00
#04101:00
#04101:00
#04101:00
#04101:00
#04101:00
#04101:00
#04101:PFPIPLPQPWPLPIPFQ3Q5Q3PZPUPSPQPM
#04111:Q7000000000000Q700000000000000QE
#04112:00QA00000000QA00000000000000QI00
#04113:0000QD0000QD00000000000000QK0000
#04114:000000QI0000000000000000QM000000
#04115:00000000QO000000000000QR00000000
#04116:33
#04118:00000000QVQV0000
#04119:000000000000000000QX000000000000
#04201:00
#04201:00
#04201:00
#04201:00
#04201:00
#04201:00
#04201:00
#04201:00
#04201:000000000000003N
#04201:00
#04201:003K003M
#04201:003J00003L000000
#04201:00
#04201:0048
#04201:00P1
#04201:00
#04201:00
#04201:00
#04201:00
#04201:00
#04201:00
#04201:00
#04201:00
#04201:00
#04201:00
#04201:00
#04201:69
#04201:00
#04201:00
#04201:00
#04201:00
#04201:00
#04201:00
#04201:00
#04201:00
#04201:AKANARANAKANAQAM
#04201:00
#04201:00
#04201:00
#04201:00
#04201:00
#04201:00
#04201:00
#04201:00
#04201:00
#04201:00
#04201:00
#04201:00
#04201:00
#04201:00
#04201:00
#04201:00
#04201:00
#04201:00
#04201:00
#04201:00
#04201:00
#04201:00
#04201:00
#04201:00
#04201:00
#04201:00
#04201:00
#04201:00
#04201:00
#04201:00
#04201:00
#04201:00
#04201:00
#04201:00
#04201:00
#04201:00
#04201:00
#04201:00
#04201:00
#04201:00
#04201:00
#04201:00
#04201:00
#04201:00
#04201:00
#04201:00
#04201:00
#04201:00
#04201:00
#04201:00
#04201:00
#04201:00
#04201:00
#04201:SJ
#04212:006D0000
#04215:6I
#04219:5Q
#04251:0000006C00006C00
#04301:00
#04301:00
#04301:00
#04301:00
#04301:00
#04301:00
#04301:00
#04301:00003P000000003T
#04301:0000003Q00000000
#04301:3O003R3S
#04301:00
#04301:00
#04301:00
#04301:00
#04301:00
#04301:00000000000000P20000000000000000
#04301:00
#04301:00
#04301:00
#04301:00
#04301:00
#04301:00
#04301:00
#04301:00
#04301:00
#04301:00
#04301:63
#04301:00
#04301:00
#04301:00
#04301:00
#04301:00
#04301:00
#04301:00
#04301:00
#04301:AKANARANAKANATAQ
#04311:0000006B006B0000
#04312:006D0000
#04313:0000006F
#04314:6G0000000000006K
#04401:00
#04401:00
#04401:00
#04401:00
#04401:003V000000000000
#04401:003Y
#04401:0000003X00000000
#04401:00003W0000000040
#04401:3U00003Z
#04401:00
#04401:00
#04401:00
#04401:00
#04401:0048
#04401:00
#04401:00
#04401:00P3
#04401:00
#04401:00
#04401:00
#04401:00
#04401:00
#04401:00
#04401:00
#04401:00
#04401:00
#04401:67
#04401:00
#04401:00
#04401:00
#04401:00
#04401:00
#04401:00
#04401:00
#04401:00
#04401:AKANARANAKANAQAM
#04414:00000000006L006L
#04419:006S0000
#04455:6P006P6P006P0000
#04501:00
#04501:00
#04501:00
#04501:00
#04501:00
#04501:0000000000000046
#04501:0000004300000000
#04501:00004445
#04501:41420000
#04501:00
#04501:00
#04501:00
#04501:00
#04501:00
#04501:00
#04501:00
#04501:00
#04501:00P4
#04501:00
#04501:00
#04501:00
#04501:00
#04501:00
#04501:00
#04501:00
#04501:00
#04501:69
#04501:00
#04501:00
#04501:00
#04501:00
#04501:00
#04501:00
#04501:00
#04501:00
#04501:AKANARANAKATAUAQ
#04511:0000006E
#04512:006F000000000000
#04514:006K0000
#04555:0000006P006P0000
#04601:00
#04601:00
#04601:00
#04601:00
#04601:00
#04601:003L
#04601:00003K000000003N
#04601:003J000000003M00
#04601:3I
#04601:00
#04601:00
#04601:00
#04601:00
#04601:0048
#04601:00P1
#04601:00
#04601:00
#04601:00
#04601:00
#04601:00
#04601:00
#04601:00
#04601:00
#04601:00
#04601:00
#04601:00
#04601:62
#04601:00
#04601:00
#04601:00
#04601:00
#04601:00
#04601:00
#04601:00
#04601:00
#04601:AKANARANAKANAQAM
#04612:006D0000
#04614:6G
#04651:0000006C00006C00
#04701:00
#04701:00
#04701:00
#04701:00
#04701:3O3R
#04701:00003P000000003T
#04701:00
#04701:0000003Q00003S00
#04701:00
#04701:00
#04701:00
#04701:00
#04701:00
#04701:00
#04701:00
#04701:00P2
#04701:00
#04701:00
#04701:00
#04701:00
#04701:00
#04701:00
#04701:00
#04701:00
#04701:00
#04701:00
#04701:63
#04701:00
#04701:00
#04701:00
#04701:00
#04701:00
#04701:00
#04701:00
#04701:00
#04701:AKANARANAKANATAQ
#04712:0000006F
#04714:6G
#04715:006K0000
#04754:000000000000006M
#04758:0000006P006P0000
#04801:00
#04801:0000000000000040
#04801:00
#04801:0000003Z
#04801:00
#04801:003Y
#04801:003V000000000000
#04801:3U00003X00000000
#04801:003W0000
#04801:00
#04801:00
#04801:00
#04801:00
#04801:0047
#04801:00
#04801:00
#04801:00P3
#04801:00
#04801:00
#04801:00
#04801:00
#04801:00
#04801:00
#04801:00
#04801:00
#04801:00
#04801:67
#04801:00
#04801:00
#04801:00
#04801:00
#04801:00
#04801:00
#04801:00
#04801:00
#04801:AKANARANAKANAQAM
#04814:000000000000006X
#04815:0000007A
#04818:00000000007C0000
#04854:0000006M00000000
#04901:00
#04901:00
#04901:0000000000000046
#04901:00004445
#04901:4100004300000000
#04901:00420000
#04901:00
#04901:00
#04901:00
#04901:00
#04901:00
#04901:00
#04901:00
#04901:00
#04901:00
#04901:00
#04901:00
#04901:00P4
#04901:00
#04901:00
#04901:00
#04901:00
#04901:00
#04901:00
#04901:00
#04901:00
#04901:69
#04901:00
#04901:00
#04901:00
#04901:00
#04901:00
#04901:00
#04901:00
#04901:00
#04901:AKANARANAKATAUAQ
#04911:006F000000000000
#04912:6K006K000000007O
#04914:0000000000000000000000000000007X
#04953:0000006Q00006Q00
#05001:00
#05001:00
#05001:00
#05001:00000000004A0000
#05001:0000004B00000000
#05001:4C
#05001:00
#05001:00
#05001:00
#05001:00
#05001:00
#05001:00
#05001:00
#05001:00
#05001:00
#05001:00
#05001:00
#05001:00
#05001:00
#05001:00
#05001:00
#05001:00
#05001:00
#05001:00
#05001:00
#05001:61
#05001:6A
#05001:6W
#05001:00
#05001:00
#05001:9Z009Z9Z9Z009Z0000009Z009Z9Z9Z00
#05001:A000A1A000A0A1A1
#05001:A30000A300A30000
#05001:00
#05001:00
#05001:ALAOASAOALAOARAN
#05001:B5B5
#05001:BHBH
#05001:BNBN
#05001:00
#05001:00
#05001:0000DT0000DT0000
#05001:0000E20000E20000
#05001:0000EA0000EA0000
#05013:00000085
#05051:0000000000000081
#05055:0000008900008900
#05059:8F00008F00000000
#05101:00
#05101:00
#05101:00
#05101:0000007G
#05101:000000000000007F
#05101:00
#05101:4A000000004A0000
#05101:0000004B00000000
#05101:00
#05101:00
#05101:00
#05101:00
#05101:00
#05101:00
#05101:00
#05101:00
#05101:00
#05101:00
#05101:00
#05101:00
#05101:00
#05101:00
#05101:00
#05101:00
#05101:00
#05101:60
#05101:69
#05101:6Q00007400000000
#05101:00
#05101:00
#05101:9Z0000009Z009Z9Z9Z009Z9Z9Z009Z9Z
#05101:A0000000A100A0000000A000A100A2A2
#05101:A30000A300A30000
#05101:00
#05101:00
#05101:ALAOASAOALAOAUAR
#05101:B3B3
#05101:BFBF
#05101:BLBL
#05101:00
#05101:00
#05101:DL0000D70000D600
#05101:E20000DL0000DK00
#05101:E80000E20000E100
#05114:0000007Z
#05115:000000000000008C
#05151:0081
#05201:00
#05201:00
#05201:00
#05201:0000000000000075
#05201:7979797979797900
#05201:00
#05201:4A
#05201:00
#05201:00
#05201:00
#05201:00000000004A0000
#05201:0000004B00000000
#05201:00
#05201:00
#05201:00
#05201:00
#05201:00
#05201:00
#05201:00
#05201:00
#05201:00
#05201:00
#05201:00
#05201:00
#05201:00
#05201:5Y
#05201:67
#05201:00
#05201:00
#05201:00
#05201:9Z009Z9Z9Z009Z0000009Z009Z9Z9Z00
#05201:A000A1A000A0A1A1
#05201:A30000A300A30000
#05201:00
#05201:00
#05201:ALAOASAOALAOARAN
#05201:B1B1
#05201:BDBD
#05201:BKBK
#05201:00
#05201:00
#05201:DFCY
#05201:DMDG
#05201:E7E3
#05215:00000000008B8B00
#05218:8H8H8H8H8I000000
#05258:000000000000008J
#05301:00
#05301:00
#05301:00
#05301:00000073
#05301:0000007H00000000
#05301:00
#05301:00
#05301:00
#05301:00
#05301:00
#05301:4A00004A00004900
#05301:00
#05301:00
#05301:00
#05301:00
#05301:00
#05301:00
#05301:00
#05301:00
#05301:00
#05301:00
#05301:00
#05301:00
#05301:00
#05301:00
#05301:5W
#05301:65
#05301:00
#05301:00
#05301:00
#05301:9Z0000009Z009Z9Z9Z009Z9Z9Z009Z9Z
#05301:A0000000A100A0000000A100A000A2A2
#05301:A30000A30000A300
#05301:00
#05301:00
#05301:ALAOASAOALAUAVAR
#05301:B0B0
#05301:BCBC
#05301:BJBJ
#05301:00
#05301:00
#05301:DL0000ECEBE9E0DR
#05301:E2
#05301:E8
#05311:000000000000007R
#05313:0000007T
#05355:0000008D008D0000
#05358:008J000000000000
#05359:008P008P00000000
#05401:00
#05401:00
#05401:00
#05401:00
#05401:0070
#05401:7B
#05401:00
#05401:00
#05401:00
#05401:00
#05401:4A000000004A0000
#05401:0000004B00000000
#05401:00
#05401:00
#05401:00
#05401:00
#05401:00
#05401:00
#05401:00
#05401:00
#05401:00
#05401:00
#05401:00
#05401:00
#05401:00
#05401:5U
#05401:62
#05401:00
#05401:00
#05401:00
#05401:9Z009Z9Z9Z009Z0000009Z009Z9Z9Z00
#05401:A000A1A000A0A1A1
#05401:A30000A300A30000
#05401:00
#05401:00
#05401:AKAOARAOAKAOARAN
#05401:AYAY
#05401:BABA
#05401:BHBH
#05401:00
#05401:00
#05401:CU00CX0000CX0000
#05401:DA00DE0000DE0000
#05401:DW00DY0000DY0000
#05413:7T7T0000
#05453:0000007U
#05455:0000008E008E0000
#05501:00
#05501:00
#05501:00
#05501:00
#05501:00
#05501:6V6M
#05501:00
#05501:00
#05501:00
#05501:00
#05501:4A000000004A0000
#05501:0000004B00000000
#05501:00
#05501:00
#05501:00
#05501:00
#05501:00
#05501:00
#05501:00
#05501:00
#05501:00
#05501:00
#05501:00
#05501:00
#05501:00
#05501:5W
#05501:65
#05501:00
#05501:00
#05501:00
#05501:9Z0000009Z009Z9Z9Z009Z9Z9Z009Z9Z
#05501:A0000000A100A0000000A000A100A2A2
#05501:A30000A300A30000
#05501:00
#05501:00
#05501:ALAOASAOALAOAUAR
#05501:B0B0
#05501:BCBC
#05501:BJBJ
#05501:00
#05501:00
#05501:D500D70000D70000
#05501:DJ00DL0000DL0000
#05501:DZ00E20000E20000
#05514:7Z7Z0000
#05552:00000080
#05553:7U
#05558:0000008J008J0000
#05601:00
#05601:00
#05601:00
#05601:00
#05601:00
#05601:000000000000006J
#05601:6P00006N006N0000
#05601:00
#05601:00
#05601:00
#05601:4A000000004A0000
#05601:0000004B00000000
#05601:00
#05601:00
#05601:00
#05601:00
#05601:00
#05601:00
#05601:00
#05601:00
#05601:00
#05601:00
#05601:00
#05601:00
#05601:00
#05601:5X00005Z0000005V
#05601:6600006800000064
#05601:00
#05601:00
#05601:00
#05601:9Z009Z9Z9Z009Z0000009Z009Z9Z9Z00
#05601:A000A1A000A0A1A1
#05601:A30000A300A30000
#05601:00
#05601:00
#05601:ALAOAPASAOAPASAW
#05601:B1B2
#05601:BDBE
#05601:BKBK
#05601:00
#05601:00
#05601:DD0000DC00DC00D8
#05601:DS0000DR00DR00DU
#05601:E60000E500E500E4
#05613:84
#05614:00880000
#05615:0000008B00000000
#05618:00000000008H0000
#05652:80
#05659:000000000000008Q
#05701:00
#05701:00
#05701:00
#05701:00
#05701:0000004P
#05701:000000000000004K0000004O00000000
#05701:0000004J004N0000
#05701:4E4G000000000000
#05701:00000000004I0000004M000000000000
#05701:004F0000000000000000000000000000
#05701:004H4L00
#05701:00
#05701:00
#05701:00
#05701:00
#05701:00
#05701:00
#05701:00
#05701:00
#05701:00
#05701:00
#05701:00
#05701:00
#05701:00
#05701:00
#05701:00
#05701:00
#05701:00
#05701:00
#05701:00
#05701:9Z9Z9Z009Z009Z9Z9Z9Z9Z0000000000
#05701:A0000000A100A000A2A2A20000000000
#05701:A30000A300000000
#05701:00
#05701:00
#05701:00
#05701:B0
#05701:BC
#05701:BJ
#05759:0000008Q
#05801:0102030405060708090A0B0C0D0E0F0G
#05801:0H000I0J0K000L0M0N000O0P0Q000R0S
#05801:0015001500150015
#05801:00
#05801:180019001A001B1C1D001E001F001G00
#05801:00
#05801:2J
#05801:00
#05801:00
#05801:KT00KCKE00KT00KZ
#05801:00
#05801:00
#05801:00
#05801:00
#05801:00
#05801:00
#05801:00
#05801:00
#05801:00
#05801:00
#05801:00
#05801:00
#05801:00
#05801:00
#05801:00
#05801:00
#05801:00
#05801:00
#05801:00
#05801:00
#05801:00
#05801:00
#05801:00
#05801:A9A700A7A600A8A6
#05801:00
#05801:00
#05801:0000B10000B10000
#05801:0000BD0000BD0000
#05801:0000BK0000BK0000
#05801:00
#05801:00
#05801:00
#05801:00
#05801:00
#05801:00
#05801:00
#05801:00
#05801:00
#05801:00
#05801:00
#05801:00
#05801:00
#05801:00
#05801:00
#05801:00
#05801:I7IAIGIJINIPIRIPINIJIGIAIGIJIGIE
#05801:00
#05801:00
#05801:00
#05801:00
#05801:JS00JLJM00JS00JX
#05801:K200JRJS00K200KE
#05811:2G2G2G2G
#05813:00170017
#05814:0000NWNX00000000
#05816:33
#05818:O600000000O60000
#05819:00000000000000OB
#05901:0102030405060708090A0B0C0D0E0F0G
#05901:0T000U0V0W000X0Y0Z00101112001314
#05901:0015001500150015
#05901:00
#05901:1H001I001J001K1L1M1N1O001P001Q00
#05901:00
#05901:00
#05901:00
#05901:00
#05901:00KCKC00KCKSKZ00
#05901:00
#05901:00
#05901:00
#05901:00
#05901:00
#05901:00
#05901:00
#05901:00
#05901:00
#05901:00
#05901:00
#05901:00
#05901:00
#05901:00
#05901:00
#05901:00
#05901:00
#05901:00
#05901:00
#05901:00
#05901:00
#05901:00
#05901:00
#05901:00A6A500A4A5A7A4
#05901:00
#05901:00
#05901:B30000B30000B3B3
#05901:BF0000BF0000BFBF
#05901:BL0000BL0000BLBL
#05901:00
#05901:00
#05901:00
#05901:00
#05901:00
#05901:00
#05901:00
#05901:00
#05901:00
#05901:00
#05901:00
#05901:00
#05901:00
#05901:00
#05901:00
#05901:00
#05901:I9IEIIIMINIQITIQINIMIIIEIIIMIIIN
#05901:00
#05901:00
#05901:00
#05901:00
#05901:00JLJL00JLJRJX00
#05901:00JVJV00JVK0KE00
#05911:2G2G2G2G
#05913:00170017
#05914:00NWNW00NW000000
#05918:0000000000O50000
#05919:000000OB
#06001:0102030405060708090A0B0C0D0E0F0G
#06001:0H000I0J0K000L0M0N000O0P0Q000R0S
#06001:0015001500150015
#06001:00
#06001:1R001S001T001U1V1W001X001Y001Z00
#06001:00
#06001:00
#06001:00
#06001:00
#06001:KY00KXKY00L500LD
#06001:00
#06001:00
#06001:00
#06001:00
#06001:00
#06001:00
#06001:00
#06001:00
#06001:00
#06001:00
#06001:00
#06001:00
#06001:00
#06001:00
#06001:00
#06001:00
#06001:00
#06001:00
#06001:00
#06001:00
#06001:00
#06001:00
#06001:00
#06001:A9A700A7A600A8A6
#06001:00
#06001:00
#06001:0000B50000B50000
#06001:0000BH0000BH0000
#06001:0000BN0000BN0000
#06001:00
#06001:00
#06001:00
#06001:00
#06001:00
#06001:00
#06001:00
#06001:00
#06001:00
#06001:00
#06001:00
#06001:00
#06001:00
#06001:00
#06001:00
#06001:00
#06001:I7IAIGIJINIPIRIPINIJIGIAICIGIJIL
#06001:00
#06001:00
#06001:00
#06001:00
#06001:JW00JVJW00K100K8
#06001:KD00KCKD00KJ00KK
#06011:2G2G2G2G
#06013:00170017
#06015:OB00OAOB00000000
#06018:0000000000OH0000
#06019:00000000000000OP
#06101:0102030405060708090A0B0C0D0E0F0G
#06101:0T000U0V0W000X0Y0Z00101112001314
#06101:0015001500150015
#06101:00
#06101:20002100222324252627280029002A2B
#06101:00
#06101:00
#06101:00
#06101:00
#06101:00L6KZKT
#06101:00
#06101:00
#06101:00
#06101:00
#06101:00
#06101:00
#06101:00
#06101:00
#06101:00
#06101:00
#06101:00
#06101:00
#06101:00
#06101:00
#06101:00
#06101:00
#06101:00
#06101:00
#06101:00
#06101:00
#06101:00
#06101:00
#06101:00
#06101:00A6A800A6ABAAA8
#06101:00
#06101:00
#06101:B00000B00000B0B0
#06101:BC0000BC0000BCBC
#06101:BJ0000BJ0000BJBJ
#06101:00
#06101:00
#06101:00
#06101:00
#06101:00
#06101:00
#06101:00
#06101:00
#06101:00
#06101:00
#06101:00
#06101:00
#06101:00
#06101:00
#06101:00
#06101:00
#06101:IMILIIIEIDIGIMILIIIEIDIGI7IAIEIL
#06101:00
#06101:00
#06101:00
#06101:00
#06101:00K2JXJS
#06101:00KEKEK2
#06111:2G002G002G002E2E
#06113:00170017
#06114:000000O6
#06115:00OB
#06118:00OH0000
#06201:0102030405060708090A0B0C0D0E0F0G
#06201:0H000I0J0K000L0M0N000O0P0Q000R0S
#06201:0015001500150015
#06201:00
#06201:180019001A001B1C1D001E001F001G00
#06201:00
#06201:00
#06201:00
#06201:00
#06201:KO00KSKU00000000
#06201:00
#06201:00
#06201:00
#06201:00
#06201:00
#06201:00
#06201:00
#06201:00
#06201:00
#06201:00
#06201:00
#06201:00
#06201:00
#06201:00
#06201:00
#06201:00
#06201:00
#06201:00
#06201:00
#06201:00
#06201:00
#06201:00
#06201:00
#06201:A9A700A7A600A8A6
#06201:00
#06201:00
#06201:0000B10000B10000
#06201:0000BD0000BD0000
#06201:0000BK0000BK0000
#06201:00
#06201:00
#06201:00
#06201:00
#06201:00
#06201:00
#06201:00
#06201:00
#06201:00
#06201:00
#06201:00
#06201:00
#06201:00
#06201:00
#06201:00
#06201:00
#06201:I7IAIGIJINIPIRIPINIJIGIAIGIJIGIE
#06201:00
#06201:00
#06201:00
#06201:00
#06201:JP00JRJT00000000
#06201:JX00K0K300000000
#06211:2G2G2G2G
#06213:00170017
#06215:O2
#06216:33
#06218:00O50000
#06258:000000O70000O700
#06301:0102030405060708090A0B0C0D0E0F0G
#06301:0T000U0V0W000X0Y0Z00101112001314
#06301:0015001500150000
#06301:0000000000000015
#06301:1H001I001J001K1L1M1N1O001P001Q00
#06301:00
#06301:00
#06301:00
#06301:00
#06301:00
#06301:00
#06301:00
#06301:00
#06301:00
#06301:00
#06301:00
#06301:00
#06301:00
#06301:00
#06301:00
#06301:00
#06301:00
#06301:00
#06301:00
#06301:00
#06301:00
#06301:00
#06301:00
#06301:00
#06301:00
#06301:00
#06301:00
#06301:00
#06301:00A6A500A4A5A7A4
#06301:00
#06301:00
#06301:B30000B30000B3B3
#06301:BF0000BF0000BFBF
#06301:BL0000BL0000BLBL
#06301:00
#06301:00
#06301:00
#06301:00
#06301:00
#06301:00
#06301:00
#06301:00
#06301:00
#06301:00
#06301:00
#06301:00
#06301:00
#06301:00
#06301:00
#06301:00
#06301:I9IEIIIMINIQITIQINIMIIIEIIIMIIIN
#06301:00
#06301:00
#06301:00
#06301:00
#06301:JK00JHJG0000JF00
#06301:JO00JLJK0000JI00
#06301:K800K0JX0000JS00
#06311:2G2G2G2G
#06313:00170017
#06314:000000NJ
#06315:000000NM00000000
#06318:00NP0000
#06319:NS
#06401:0102030405060708090A0B0C0D0E0F0G
#06401:0H000I0J0K000L0M0N000O0P0Q000R0S
#06401:0015001500150015
#06401:00170017
#06401:1R001S001T001U1V1W001X001Y001Z00
#06401:00
#06401:2G2G2G2G
#06401:00
#06401:NL
#06401:0000NPNQ00000000
#06401:00
#06401:00
#06401:00
#06401:00
#06401:00
#06401:00
#06401:00
#06401:00
#06401:00
#06401:00
#06401:00
#06401:00
#06401:00
#06401:00
#06401:00
#06401:00
#06401:00
#06401:00
#06401:00
#06401:00
#06401:00
#06401:00
#06401:00
#06401:A9A700A7A600A8A6
#06401:00
#06401:00
#06401:0000B50000B50000
#06401:0000BH0000BH0000
#06401:0000BN0000BN0000
#06401:00
#06401:00
#06401:00
#06401:00
#06401:00
#06401:00
#06401:00
#06401:00
#06401:00
#06401:00
#06401:00
#06401:00
#06401:00
#06401:00
#06401:00
#06401:00
#06401:I7IAIGIJINIPIRIPINIJIGIAICIGIJIL
#06401:00
#06401:00
#06401:00
#06401:00
#06401:JG00JHJJ00000000
#06401:JK00JLJN00000000
#06401:JX00K0K500000000
#06401:00
#06401:00
#06401:00
#06401:N7000000N1N3N8NAMY0000MW0000MN00
#06401:0000000000000000NF0000ND0000N600
#06411:00000000000000000000M50000M50000
#06412:00MH0000
#06414:0000000000MK0000000000000000MG00
#06415:MP00000000000000000000MN00000000
#06416:34
#06418:000000MQMS000000
#06419:00000000000000MT0000000000000000
#06501:0102030405060708090A0B0C0D0E0F0G
#06501:0T000U0V0W000X0Y0Z00101112001314
#06501:0015001500150015
#06501:00170017
#06501:20002100222324252627280029002A2B
#06501:00
#06501:2E2E2G002G000000
#06501:00
#06501:00
#06501:31002Y2Y
#06501:00000000000000000000000000M50000
#06501:00000000000000M7
#06501:00
#06501:00
#06501:00
#06501:00
#06501:00
#06501:00
#06501:00
#06501:00
#06501:00
#06501:00
#06501:00
#06501:00
#06501:00
#06501:00
#06501:00
#06501:00
#06501:00
#06501:00
#06501:00
#06501:00
#06501:00
#06501:00A6A800A6ABAAA8
#06501:00
#06501:00
#06501:AX0000AX0000AXAX
#06501:B90000B90000B9B9
#06501:BF0000BF0000BFBF
#06501:00
#06501:00
#06501:00
#06501:00
#06501:00
#06501:00
#06501:00
#06501:00
#06501:00
#06501:0000000000000000FKFJFGF9F8F7F4EY
#06501:0000000000000000GBGAG7G0FZFYFVFP
#06501:00
#06501:00
#06501:00
#06501:00
#06501:00
#06501:IMILIIIEIDIGIJILIMILIIIEIDICI9I5
#06501:00
#06501:00
#06501:00
#06501:00
#06501:00
#06501:00
#06501:00
#06501:00
#06501:00
#06501:00
#06501:MG0000ME0000MG00MN0000ME0000MC00
#06501:N00000MY0000N000N60000MY0000MW00
#06511:0000M50000M500000000M50000000000
#06512:000000MA00000000000000MA00000000
#06513:MC0000MC00002D00
#06514:0000000000000000MG000000002D0000
#06515:000000000000002D
#06518:0000000000000000000000000000002D
#06601:0102030405060708090A0B0C0D0E0F0G
#06601:0H000I0J0K000L0M0N000O0P0Q000R0S
#06601:0015001500150015
#06601:00
#06601:180019001A001B1C1D001E001F001G00
#06601:00
#06601:00
#06601:00
#06601:00
#06601:00
#06601:00
#06601:00
#06601:00
#06601:00
#06601:00
#06601:00
#06601:00
#06601:00
#06601:00
#06601:00
#06601:00
#06601:00
#06601:00
#06601:00
#06601:5T
#06601:00
#06601:00
#06601:00
#06601:00
#06601:00
#06601:00
#06601:00
#06601:00
#06601:A9A700A7A600A8A6
#06601:00
#06601:00
#06601:0000B10000B10000
#06601:0000BD0000BD0000
#06601:0000BK0000BK0000
#06601:00
#06601:00
#06601:00
#06601:00
#06601:00
#06601:00
#06601:00
#06601:00
#06601:00
#06601:00
#06601:00
#06601:00
#06601:00
#06601:00
#06601:00
#06601:00
#06601:I7IAIGIJINIPIRIPINIJIGIAIGIJIGIE
#06601:00
#06601:00
#06601:00
#06601:00
#06601:JS00JLJM00JS00JX
#06601:K200JRJS00K200KE
#06601:KT00KCKE00KT00KZ
#06601:00
#06601:00
#06601:MS00M5MN00M5MJ00M5MA00M5MS00M5MN
#06601:MY0000MW0000MN0000ME0000MY0000MW
#06601:NF0000ND0000N60000MY0000NF0000ND
#06611:0000NWNX00000000
#06612:O600000000O60000
#06613:00000000000000OB
#06615:00170017
#06616:34
#06619:2G2G2G2G
#06701:0102030405060708090A0B0C0D0E0F0G
#06701:0T000U0V0W000X0Y0Z00101112001314
#06701:0015001500150015
#06701:00
#06701:1H001I001J001K1L1M1N1O001P001Q00
#06701:00
#06701:00
#06701:00
#06701:00
#06701:00
#06701:00
#06701:00
#06701:00
#06701:00
#06701:00
#06701:00
#06701:00
#06701:00
#06701:00
#06701:00
#06701:00
#06701:00
#06701:00
#06701:00
#06701:00
#06701:00
#06701:00
#06701:00
#06701:00
#06701:00
#06701:00
#06701:00
#06701:00
#06701:00A6A500A4A5A7A4
#06701:00
#06701:00
#06701:B30000B30000B3B3
#06701:BF0000BF0000BFBF
#06701:BL0000BL0000BLBL
#06701:00
#06701:00
#06701:00
#06701:00
#06701:00
#06701:00
#06701:00
#06701:00
#06701:00
#06701:00
#06701:00
#06701:00
#06701:00
#06701:00
#06701:00
#06701:00
#06701:I9IEIIIMINIQITIQINIMIIIEIIIMIIIN
#06701:00
#06701:00
#06701:00
#06701:00
#06701:00JLJL00JLJRJX00
#06701:00JVJV00JVK0KE00
#06701:00KCKC00KCKSKZ00
#06701:00
#06701:00
#06701:00M5MJ00M5MA00MIM9MBMDMFMBMDMFMI
#06701:0000MN0000ME00N2MRMUMXMZMUMXMZN2
#06701:0000N60000MY00000000000000000000
#06711:00NWNW00NW000000
#06712:0000000000O50000
#06713:000000OB
#06715:00170017
#06719:2G2G2G2G
#06801:0102030405060708090A0B0C0D0E0F0G
#06801:0H000I0J0K000L0M0N000O0P0Q000R0S
#06801:0015001500150015
#06801:00
#06801:1R001S001T001U1V1W001X001Y001Z00
#06801:00
#06801:00
#06801:00
#06801:00
#06801:00
#06801:00
#06801:00
#06801:00
#06801:00
#06801:00
#06801:00
#06801:00
#06801:00
#06801:00
#06801:00
#06801:00
#06801:00
#06801:00
#06801:00
#06801:00
#06801:00
#06801:00
#06801:00
#06801:00
#06801:00
#06801:00
#06801:00
#06801:00
#06801:A9A700A7A600A8A6
#06801:00
#06801:00
#06801:0000B50000B50000
#06801:0000BH0000BH0000
#06801:0000BN0000BN0000
#06801:00
#06801:00
#06801:00
#06801:00
#06801:00
#06801:00
#06801:00
#06801:00
#06801:00
#06801:00
#06801:00
#06801:00
#06801:00
#06801:00
#06801:00
#06801:00
#06801:I7IAIGIJINIPIRIPINIJIGIAICIGIJIL
#06801:00
#06801:00
#06801:00
#06801:00
#06801:JX00JVJX00KE00K3
#06801:KE00KCKE00KO00KF
#06801:KZ00KXKZ00LH00L7
#06801:00
#06801:00
#06801:MS00M5MN00M5MJ00M5MA00M5MC00M500
#06801:MY0000MW0000MN0000ME0000MG00MJ00
#06801:NF0000ND0000N60000MY0000N000MN00
#06801:00000000000000N6
#06813:OB00OAOB00000000
#06814:00000000000000OI
#06815:0000170000OS1700
#06819:2G2G2G2G
#06901:0102030405060708090A0B0C0D0E0F0G
#06901:0T000U0V0W000X0Y0Z00101112001314
#06901:0015001500150015
#06901:00
#06901:20002100222324252627280029002A2B
#06901:00
#06901:00
#06901:00
#06901:00
#06901:00
#06901:00
#06901:00
#06901:00
#06901:00
#06901:00
#06901:00
#06901:00
#06901:00
#06901:00
#06901:00
#06901:00
#06901:00
#06901:00
#06901:00
#06901:00
#06901:00
#06901:00
#06901:00
#06901:00
#06901:00
#06901:00
#06901:00
#06901:00
#06901:00A6A800A6ABAAA8
#06901:00
#06901:00
#06901:B00000B00000B0B0
#06901:BC0000BC0000BCBC
#06901:BJ0000BJ0000BJBJ
#06901:00
#06901:00
#06901:00
#06901:00
#06901:00
#06901:00
#06901:00
#06901:00
#06901:00
#06901:00
#06901:00
#06901:00
#06901:00
#06901:00
#06901:00
#06901:00
#06901:IMILIIIEIDIGIMILIIIEIDIGI7IAIEIL
#06901:00
#06901:00
#06901:00
#06901:00
#06901:00000000JVJRJS00
#06901:00000000KCK0K200
#06901:00000000KXKSKT00
#06901:00
#06901:00
#06901:MS00M5MW00M5MJ00MUMXMUMLMIMFM800
#06901:MY0000N00000MN00NBNENBN4N2MZMO00
#06901:NF0000NG0000N6000000000000000000
#06913:0000000000O5O600
#06914:0000000000000000OA0000000000002D
#06915:00170017
#06918:000000000000002D
#06919:2G2G2G2E
#07001:0102030405060708090A0B0C0D0E0F0G
#07001:0H000I0J0K000L0M0N000O0P0Q000R0S
#07001:0015001500150015
#07001:00
#07001:180019001A001B1C1D001E001F001G00
#07001:00
#07001:00
#07001:00
#07001:000000FZ
#07001:00000000000000000000000000G00000
#07001:00000000000000G5
#07001:000000000000000000000000000000G7
#07001:00
#07001:00
#07001:00
#07001:00
#07001:00
#07001:00
#07001:00
#07001:00
#07001:00
#07001:00
#07001:00
#07001:00
#07001:00
#07001:00
#07001:00
#07001:00
#07001:00
#07001:00
#07001:00
#07001:00
#07001:00
#07001:A9A700A7A600A8A6
#07001:00
#07001:00
#07001:0000AY0000AY0000
#07001:0000BA0000BA0000
#07001:0000BH0000BH0000
#07001:00
#07001:00
#07001:00
#07001:00
#07001:00
#07001:00
#07001:00
#07001:00
#07001:00
#07001:000000000000000000000000F8F9FEFG
#07001:00
#07001:00
#07001:00
#07001:00
#07001:00
#07001:00
#07001:I7IAIGIRIPINIJIGIAI7IAIGIRIPINIJ
#07001:00
#07001:00
#07001:00
#07001:00
#07001:JP00JRJT00000000
#07001:JX00K0K300000000
#07001:KO00KSKU00000000
#07001:00
#07001:00
#07001:M4M6M9M4M6M9MDM6MM00MXMV00MLMFM9
#07001:MDMIMRMDMIMRMXMIN500NENC00N4MZMR
#07011:2G2G2G2G
#07012:O2
#07013:00170017
#07016:34
#07019:00O50000
#07059:000000O700000000
#07101:0102030405060708090A0B0C0D0E0F0G
#07101:0T000U0V0W000X0Y0Z00101112001314
#07101:0015001500150015
#07101:00
#07101:1H001I001J001K1L1M1N1O001P001Q00
#07101:00
#07101:00
#07101:00
#07101:00000000000000FZ00FZ00FZ0000FZ00
#07101:00G0
#07101:000000G500G50000
#07101:0000000000G7000000000000G7000000
#07101:G8G80000
#07101:00GA00GA000000000000000000000000
#07101:00GB000000000000
#07101:00
#07101:00
#07101:00
#07101:00
#07101:00
#07101:00
#07101:00
#07101:00
#07101:00
#07101:00
#07101:00
#07101:00
#07101:00
#07101:00
#07101:00
#07101:00
#07101:00
#07101:00
#07101:00A6A500A4A5A7A4
#07101:00
#07101:00
#07101:AY0000AY0000AYAY
#07101:BA0000BA0000BABA
#07101:BH0000BH0000BHBH
#07101:00
#07101:00
#07101:00
#07101:00
#07101:00
#07101:00
#07101:00
#07101:00
#07101:00
#07101:FHFJFKFJFHFGFEF8F9F8FEF8FG00F800
#07101:00
#07101:00
#07101:00
#07101:00
#07101:00
#07101:00
#07101:IGIAI7IAIGIRIPINIJIGIAI7IPINIGIA
#07101:00
#07101:00
#07101:00
#07101:00
#07101:000000JM
#07101:000000JP
#07101:000000KE
#07101:00
#07101:00
#07101:M4M6M9M4M6M9MDM6M9MDMIM9MDMIMXMD
#07101:MDMIMRMDMIMRMXMIMRMXN2MRMXN2NEMX
#07111:2G2G2G2G
#07113:00170017
#07114:000000NX
#07159:O7
#07201:0102030405060708090A0B0C0D0E0F0G
#07201:0H000I0J0K000L0M0N000O0P0Q000R0S
#07201:0015001500150015
#07201:00
#07201:1R001S001T001U1V1W001X001Y001Z00
#07201:00
#07201:00170017
#07201:00
#07201:00
#07201:00
#07201:00
#07201:00
#07201:00
#07201:00
#07201:00
#07201:00
#07201:00
#07201:00
#07201:00
#07201:00
#07201:00
#07201:00
#07201:00
#07201:00
#07201:00
#07201:00
#07201:00
#07201:00
#07201:00
#07201:00
#07201:00
#07201:00
#07201:00
#07201:A9A700A7A600A8A6
#07201:00
#07201:00
#07201:0000B00000B00000
#07201:0000BC0000BC0000
#07201:0000BJ0000BJ0000
#07201:00
#07201:00
#07201:00
#07201:00
#07201:00
#07201:00
#07201:00
#07201:00
#07201:00
#07201:FGFKFJFGF8FEFGFKFJFGF9FEF8FEFGFH
#07201:G7GBGAG7FZG5G7GBGAG7G0G5FZG5G7G8
#07201:00
#07201:00
#07201:00
#07201:00
#07201:00
#07201:I7IAIGISIPIJIGICIAI7IAIGISIPIJIG
#07201:00
#07201:00
#07201:00
#07201:00
#07201:K40000000000K7K5
#07201:KL0000000000KIKP
#07201:L80000000000LBL9
#07201:00
#07201:00
#07201:MBMIMRMBMIMRMUMIMRMBMIMRMIM9M6M3
#07201:MUN2N9MUN2N9NBN2N9MUN2N9N2MRMIMB
#07211:2E2E2E2E2E2E2E2E
#07215:00000000000000OK
#07219:000000OM
#07255:OJ0000OJ
#07301:0102030405060708090A0B0C0D0E0F0G
#07301:0T000U0V0W000X0Y0Z00101112001314
#07301:0015001500150015
#07301:00170017
#07301:20002100222324252627280029002A2B
#07301:00
#07301:00
#07301:00
#07301:00
#07301:00
#07301:00
#07301:00
#07301:00
#07301:00
#07301:00
#07301:00
#07301:00
#07301:00
#07301:00
#07301:00
#07301:00
#07301:00
#07301:00
#07301:00
#07301:00
#07301:00
#07301:00
#07301:00
#07301:00
#07301:00
#07301:00
#07301:00
#07301:00
#07301:00A6A800A6ABAAA8
#07301:00
#07301:00
#07301:B00000B00000B0B0
#07301:BC0000BC0000BCBC
#07301:BJ0000BJ0000BJBJ
#07301:00
#07301:00
#07301:00
#07301:00
#07301:00
#07301:00
#07301:00
#07301:00
#07301:00
#07301:FLFKFJFGFKFJFGF9FJFGFEF9FGFEF9F7
#07301:GCGBGAG7GBGAG7G0GAG7G5G0G7G5G0FY
#07301:00
#07301:00
#07301:00
#07301:00
#07301:00
#07301:ICIAI7IAIGISIPIJIPILIGICIGICI7I3
#07301:00
#07301:00
#07301:00
#07301:00
#07301:00
#07301:00
#07301:00
#07301:00
#07301:00
#07301:M6MBMIMIMRMUMIMBMIMLMUMIMFMUN2MF
#07301:MIMUN2N2N9NBN2MUN2N4NBN2MZNBNHMZ
#07312:2D2D2D2D
#07313:002D002D002D002D
#07315:0000002D0000002D0000002D0000002D
#07318:002D0000002D0000002D0000002D0000
#07401:0102030405060708090A0B0C0D0E0F0G
#07401:00
#07401:00
#07401:00
#07401:00000000000000002G00002G00002E00
#07401:00000000003600380000000000000000
#07401:00000000003A2O00
#07401:0000353739000000
#07401:00
#07401:2W002W00000000002X00002X00002X00
#07401:00
#07401:00
#07401:00
#07401:00
#07401:00
#07401:00
#07401:00
#07401:00
#07401:00
#07401:00
#07401:00
#07401:00
#07401:00
#07401:5S
#07401:00
#07401:00
#07401:00
#07401:00
#07401:00
#07401:00
#07401:00
#07401:00
#07401:00
#07401:00
#07401:00
#07401:00
#07401:00000000B50000B5
#07401:00000000BH0000BH
#07401:00000000BN0000BN
#07401:00
#07401:C5
#07401:00
#07401:00
#07401:00
#07401:00
#07401:00
#07401:0000EH0000EF0000
#07401:0000ER0000EP0000
#07401:00
#07401:00
#07401:0000GO0000GK0000
#07401:0000H60000H10000
#07401:00
#07401:00
#07401:00
#07401:00
#07401:00
#07401:00
#07401:00
#07401:00
#07401:00
#07401:00
#07401:00
#07401:LT
#07401:LY
#07401:00
#07401:00
#07401:00
#07401:00
#07401:00
#07401:00
#07401:00
#07401:00
#07401:00
#07401:00
#07401:00
#07401:00
#07401:00
#07401:00
#07401:00
#07401:00
#07401:00
#07401:00
#07401:00
#07401:00
#07401:00
#07401:00
#07401:00
#07401:00
#07401:SK
#07411:2E2G000000000000
#07454:0000000000HA0000
#07458:0000HG0000HG0000
#07501:0102030405060708090A0B0C0D0E0F0G
#07501:00
#07501:00
#07501:00
#07501:2E002G0000002H000000002D2G000000
#07501:00
#07501:002M00002N0000002L2O000000002L2O
#07501:0000002X
#07501:00
#07501:2X00002X00000000
#07501:00
#07501:00
#07501:00
#07501:00
#07501:00
#07501:00
#07501:00
#07501:00
#07501:00
#07501:00
#07501:00
#07501:00
#07501:00
#07501:00
#07501:00
#07501:00
#07501:00
#07501:00
#07501:00
#07501:00
#07501:00
#07501:00
#07501:00
#07501:00
#07501:00
#07501:00
#07501:0000B50000B50000
#07501:0000BH0000BH0000
#07501:0000BN0000BN0000
#07501:00
#07501:00
#07501:00
#07501:00
#07501:00
#07501:00
#07501:00
#07501:ED0000EE00000000
#07501:EN0000EO00000000
#07501:00
#07501:00
#07501:GG0000GI00000000
#07501:GW0000GY00000000
#07501:00
#07501:0000000000000000HOHOHPHPHQHQHRHR
#07501:0000000000000000HUHUHVHVHWHWHXHX
#07551:GZ0000GZ00000000
#07553:000000H800000000
#07554:HA
#07601:0102030405060708090A0B0C0D0E0F0G
#07601:00
#07601:00
#07601:00
#07601:2D2D2G0000002G0000002E002G000000
#07601:00
#07601:000000002N0000002L2O000000002L2O
#07601:2X000000002W2W00
#07601:00
#07601:00
#07601:00
#07601:00
#07601:00
#07601:00
#07601:00
#07601:00
#07601:00
#07601:00
#07601:00
#07601:00
#07601:00
#07601:00
#07601:00
#07601:00
#07601:00
#07601:00
#07601:00
#07601:00
#07601:00
#07601:00
#07601:00
#07601:00
#07601:00
#07601:00
#07601:00
#07601:00
#07601:00000000B10000B1
#07601:00000000BD0000BD
#07601:00000000BK0000BK
#07601:00
#07601:BX
#07601:00
#07601:00
#07601:00
#07601:00
#07601:00
#07601:0000EH0000EF0000
#07601:0000ER0000EP0000
#07601:00
#07601:00
#07601:0000GO0000GK0000
#07601:0000H60000H10000
#07601:00
#07601:00
#07601:00
#07601:00
#07601:00
#07601:00
#07601:00
#07601:00
#07601:00
#07601:00
#07601:00
#07601:LQ
#07601:LY
#07653:H8
#07654:0000000000HA0000
#07658:0000HG0000HG0000
#07701:0102030405060708090A0B0C0D0E0F0G
#07701:00
#07701:00
#07701:00
#07701:2E002G0000002D2D2G00002G00002E00
#07701:00
#07701:000000002L2M00002N0000002M00002P
#07701:2W002W0000002W002X00002X00002W00
#07701:00
#07701:00
#07701:00
#07701:00
#07701:00
#07701:00
#07701:00
#07701:00
#07701:00
#07701:00
#07701:00
#07701:00
#07701:00
#07701:00
#07701:00
#07701:00
#07701:00
#07701:00
#07701:00
#07701:00
#07701:00
#07701:00
#07701:00
#07701:00
#07701:00
#07701:00
#07701:00
#07701:00
#07701:0000B10000B10000
#07701:0000BD0000BD0000
#07701:0000BK0000BK0000
#07701:00
#07701:00
#07701:00
#07701:00
#07701:00
#07701:00
#07701:00
#07701:ED0000EE00000000
#07701:EN0000EO00000000
#07701:00
#07701:00
#07701:GG0000GI00000000
#07701:GW0000GY00000000
#07751:GZ0000GZ00000000
#07753:000000H800000000
#07754:HA
#07801:0102030405060708090A0B0C0D0E0F0G
#07801:00
#07801:00
#07801:00
#07801:2E002G00000000002G00002G00002E00
#07801:00
#07801:000000003B3C3D3E3F3G3H002O000000
#07801:2W002W00000000002X00002X00002X00
#07801:00
#07801:00
#07801:00
#07801:00
#07801:00
#07801:00
#07801:00
#07801:00
#07801:00
#07801:00
#07801:00
#07801:00
#07801:00
#07801:00
#07801:00
#07801:00
#07801:5T
#07801:00
#07801:00
#07801:00
#07801:00
#07801:00
#07801:00
#07801:00
#07801:00
#07801:00
#07801:00
#07801:00
#07801:00000000B80000B8
#07801:00000000BK0000BK
#07801:00000000BP0000BP
#07801:00
#07801:C9
#07801:00
#07801:00
#07801:00
#07801:00
#07801:00
#07801:0000EH0000EF0000
#07801:0000ER0000EP0000
#07801:00
#07801:00
#07801:0000GO0000GK0000
#07801:0000H60000H10000
#07801:00
#07801:00
#07801:00
#07801:00
#07801:00
#07801:00
#07801:00
#07801:00
#07801:00
#07801:00
#07801:00
#07801:LV
#07801:LX
#07853:H8
#07854:0000000000HA0000
#07858:0000HG0000HG0000
#07901:0102030405060708090A0B0C0D0E0F0G
#07901:00
#07901:00
#07901:00
#07901:2E002G0000002H000000002D2G000000
#07901:00
#07901:002M00002N0000002L2O000000002L2N
#07901:2X00002X00002X00
#07901:00
#07901:00
#07901:00
#07901:00
#07901:00
#07901:00
#07901:00
#07901:00
#07901:00
#07901:00
#07901:00
#07901:00
#07901:00
#07901:00
#07901:00
#07901:00
#07901:00
#07901:00
#07901:00
#07901:00
#07901:00
#07901:00
#07901:00
#07901:00
#07901:00
#07901:00
#07901:00
#07901:00
#07901:0000B80000B80000
#07901:0000BK0000BK0000
#07901:0000BP0000BP0000
#07901:00
#07901:00
#07901:00
#07901:00
#07901:00
#07901:00
#07901:00
#07901:ED0000EI0000EG00
#07901:EN0000ES0000EQ00
#07901:00
#07901:00
#07901:GG0000GQ0000GM00
#07901:GW0000HA0000H400
#07901:00
#07901:0000000000000000HOHOHPHPHQHQHRHR
#07901:0000000000000000HUHUHVHVHWHWHXHX
#07901:00
#07901:00
#07901:00
#07901:00
#07901:00
#07901:00
#07901:00
#07901:00
#07901:000000LZ00000000
#07918:000000HE
#07953:H60000H600000000
#07954:HA
#07959:000000HK0000HK00
#08001:0102030405060708090A0B0C0D0E0F0G
#08001:00
#08001:00
#08001:00
#08001:2G00002G00002G00000000002G00002G
#08001:00
#08001:002P0000
#08001:2X00002X00002X00000000002X00002X
#08001:00
#08001:00
#08001:00
#08001:00
#08001:00
#08001:00
#08001:00
#08001:00
#08001:00
#08001:00
#08001:00
#08001:00
#08001:00
#08001:00
#08001:00
#08001:00
#08001:00
#08001:00
#08001:00
#08001:00
#08001:00
#08001:00
#08001:00
#08001:00
#08001:00
#08001:00
#08001:00
#08001:00
#08001:0000B300B30000B3
#08001:0000BF00BF0000BF
#08001:0000BL00BL0000BL
#08001:00
#08001:C2
#08001:00
#08001:00
#08001:00
#08001:00
#08001:00
#08001:EJ0000EL
#08001:ET0000EV
#08001:00
#08001:00
#08001:GR0000GT
#08001:HB0000HH
#08001:00
#08001:00
#08001:00
#08001:00
#08001:00
#08001:00
#08001:00
#08001:00
#08001:00
#08001:00
#08001:00
#08001:LR0000M1
#08001:M0
#08014:002T
#08059:HL00HLHM
#08101:0102030405060708090A0B0C0D0E0F0G
#08101:00
#08101:0000000000000000000000000000002D
#08101:0000000000002E2D
#08101:00002G0000002D2G00002E0000000000
#08101:00
#08101:2P
#08101:00000000000000002X0000000000000000000000000000002U0000002U00000000000000000000002W000000000000002K2K2K2K2K2K2K2K2K2K2K2K2K2K2K2K
#08101:00
#08101:0000000000002W2W
#08101:00
#08101:00
#08101:00
#08101:00
#08101:00
#08101:00
#08101:00
#08101:00
#08101:00
#08101:00
#08101:00
#08101:00
#08101:00
#08101:00
#08101:00
#08101:00
#08101:00
#08101:00
#08101:00
#08101:00
#08101:00
#08101:00
#08101:00
#08101:00
#08101:00
#08101:00
#08101:0000B30000B300B3
#08101:0000BF0000BF00BF
#08101:0000BL0000BL00BL
#08101:00
#08101:00
#08101:00
#08101:00
#08101:00
#08101:00
#08101:00
#08101:00
#08101:00
#08101:00
#08101:00
#08101:00
#08101:00
#08101:00
#08101:00
#08101:00
#08101:00
#08101:00
#08101:00
#08101:JAJ9J8J7J6J5J4J3J2J1J0IZ00000000
#08101:JEJDJCJBJAJ9J8J7J6J5J4J300000000
#08114:002S2T00
#08201:0102030405060708090A0B0C0D0E0F0G
#08201:00
#08201:00
#08201:00
#08201:00000000000000002G00002G00002E00
#08201:00000000000000002X00002X00002X00
#08201:0000002O
#08201:2W2W000000000000
#08201:00
#08201:00
#08201:00
#08201:00
#08201:00
#08201:00
#08201:00
#08201:00
#08201:0000ER0000EP0000
#08201:00
#08201:00
#08201:00
#08201:00
#08201:00
#08201:00
#08201:00
#08201:00
#08201:00
#08201:00
#08201:00
#08201:00
#08201:00
#08201:00
#08201:00
#08201:00
#08201:00
#08201:00
#08201:00
#08201:00000000B50000B5
#08201:00000000BH0000BH
#08201:00000000BN0000BN
#08201:00
#08201:C5
#08201:00
#08201:00
#08201:00
#08201:00
#08201:00
#08201:0000EH0000EF0000
#08201:00
#08201:00
#08201:00
#08201:0000GN0000GJ0000
#08201:0000H50000H00000
#08201:00
#08201:00
#08201:00
#08201:00
#08201:0000IX000000IUIUIW0000IW0000IV00
#08201:00
#08201:00
#08201:00
#08201:00
#08201:00
#08201:00
#08201:LT
#08201:LY
#08211:2E2G000000000000
#08254:0000000000H90000
#08255:0000HF0000HF0000
#08259:HM
#08301:0102030405060708090A0B0C0D0E0F0G
#08301:00
#08301:00
#08301:00
#08301:2E2G002H00002G00
#08301:2X00002X00002X00
#08301:002M00002N0000002L2O002D00002L2O
#08301:00
#08301:00
#08301:00
#08301:00
#08301:00
#08301:00
#08301:00
#08301:00
#08301:00
#08301:EN0000EO00000000
#08301:00
#08301:00
#08301:00
#08301:00
#08301:00
#08301:00
#08301:00
#08301:00
#08301:00
#08301:00
#08301:00
#08301:00
#08301:00
#08301:00
#08301:00
#08301:00
#08301:00
#08301:00
#08301:00
#08301:0000B50000B50000
#08301:0000BH0000BH0000
#08301:0000BN0000BN0000
#08301:00
#08301:00
#08301:00
#08301:00
#08301:00
#08301:00
#08301:00
#08301:ED0000EE00000000
#08301:00
#08301:00
#08301:00
#08301:GF0000GH00000000
#08301:GV0000GX00000000
#08301:00
#08301:0000000000000000HQHQHTHTHSHSHRHR
#08301:0000000000000000HWHWHZHZHYHYHXHX
#08352:H00000H000000000
#08353:000000H700000000
#08354:H9
#08401:0102030405060708090A0B0C0D0E0F0G
#08401:00
#08401:00
#08401:00
#08401:2D2D2G0000002G0000002E002G000000
#08401:2X000000002W2W00
#08401:000000002N0000002L2O000000002L2O
#08401:00
#08401:00
#08401:00
#08401:00
#08401:00
#08401:00
#08401:00
#08401:00
#08401:00
#08401:0000ER0000EP0000
#08401:00
#08401:00
#08401:00
#08401:00
#08401:00
#08401:00
#08401:00
#08401:00
#08401:00
#08401:00
#08401:00
#08401:00
#08401:00
#08401:00
#08401:00
#08401:00
#08401:00
#08401:00
#08401:00
#08401:00000000B10000B1
#08401:00000000BD0000BD
#08401:00000000BK0000BK
#08401:00
#08401:BX
#08401:00
#08401:00
#08401:00
#08401:00
#08401:00
#08401:0000EH0000EF0000
#08401:00
#08401:00
#08401:00
#08401:0000GN0000GJ0000
#08401:0000H50000H00000
#08401:00
#08401:00
#08401:00
#08401:00
#08401:00
#08401:00
#08401:00
#08401:00
#08401:00
#08401:00
#08401:00
#08401:LQ
#08401:LY
#08453:H7
#08454:0000000000H90000
#08455:0000HF0000HF0000
#08501:0102030405060708090A0B0C0D0E0F0G
#08501:00
#08501:00
#08501:00
#08501:2E002G0000002D2D2G00002G00002E00
#08501:2W002W0000002W002X00002X00002W00
#08501:000000002L2N0000002M00002M00002L
#08501:00
#08501:00
#08501:00
#08501:00
#08501:00
#08501:00
#08501:00
#08501:00
#08501:00
#08501:EN0000EO00000000
#08501:00
#08501:00
#08501:00
#08501:00
#08501:00
#08501:00
#08501:00
#08501:00
#08501:00
#08501:00
#08501:00
#08501:00
#08501:00
#08501:00
#08501:00
#08501:00
#08501:00
#08501:00
#08501:00
#08501:0000B10000B10000
#08501:0000BD0000BD0000
#08501:0000BK0000BK0000
#08501:00
#08501:00
#08501:00
#08501:00
#08501:00
#08501:00
#08501:00
#08501:ED0000EE00000000
#08501:00
#08501:00
#08501:00
#08501:GF0000GH00000000
#08501:GV0000GX00000000
#08552:H00000H000000000
#08553:000000H700000000
#08554:H9
#08601:0000000000000000090A0B0C0D0E0F0G
#08601:00
#08601:00
#08601:00
#08601:00000000000000002G00002G00002E00
#08601:00000000000000002X00002X00002X00
#08601:0000002O
#08601:00
#08601:00
#08601:00
#08601:00
#08601:00
#08601:00
#08601:00
#08601:00
#08601:00
#08601:0000ER0000EP0000
#08601:00
#08601:00
#08601:00
#08601:00
#08601:00
#08601:00
#08601:00
#08601:00
#08601:00
#08601:00
#08601:00
#08601:00
#08601:00
#08601:00
#08601:00
#08601:00
#08601:00
#08601:00
#08601:00
#08601:00000000B80000B8
#08601:00000000BK0000BK
#08601:00000000BP0000BP
#08601:00
#08601:BR
#08601:00
#08601:00
#08601:00
#08601:00
#08601:00
#08601:0000EH0000EF0000
#08601:00
#08601:00
#08601:00
#08601:0000GN0000GJ0000
#08601:0000H50000H00000
#08601:00
#08601:00
#08601:00
#08601:00
#08601:00
#08601:IY
#08601:00
#08601:00
#08601:00
#08601:00
#08601:00
#08601:00LU0000
#08601:00LW0000
#08653:H7
#08654:0000000000H90000
#08655:0000HF0000HF0000
#08701:0102030405060708090A0B0C0D0E0F0G
#08701:00
#08701:00
#08701:00
#08701:2E002G0000002H000000002D2G000000
#08701:2X00002X00002X00
#08701:002M00002N0000002L2O000000002L2N
#08701:00
#08701:00
#08701:00
#08701:00
#08701:00
#08701:00
#08701:00
#08701:00
#08701:00
#08701:EN0000ES0000EQ00
#08701:00
#08701:00
#08701:00
#08701:00
#08701:00
#08701:00
#08701:00
#08701:00
#08701:00
#08701:00
#08701:00
#08701:00
#08701:00
#08701:00
#08701:00
#08701:00
#08701:00
#08701:00
#08701:00
#08701:0000B80000B80000
#08701:0000BK0000BK0000
#08701:0000BP0000BP0000
#08701:00
#08701:00
#08701:00
#08701:00
#08701:00
#08701:00
#08701:00
#08701:ED0000EI0000EG00
#08701:00
#08701:00
#08701:00
#08701:GF0000GP0000GL00
#08701:GV0000H90000H300
#08701:00
#08701:0000000000000000HQHQHTHTHSHSHRHR
#08701:0000000000000000HWHWHZHZHYHYHXHX
#08701:00
#08701:00
#08701:00
#08701:00
#08701:00
#08701:00
#08701:00
#08701:00
#08701:000000LZ00000000
#08753:H50000H500000000
#08754:H9
#08755:000000HD
#08758:000000HJ0000HJ00
#08801:0102030405060708090A0B0C0D0E0F0G
#08801:00
#08801:00
#08801:00
#08801:2G00002G00002G00000000002G00002G
#08801:2X00002X00002X00000000002X00002X
#08801:002P0000
#08801:00
#08801:00
#08801:00
#08801:00
#08801:00
#08801:00
#08801:00
#08801:00
#08801:00
#08801:00
#08801:00
#08801:00
#08801:00
#08801:00
#08801:00
#08801:00
#08801:00
#08801:00
#08801:00
#08801:00
#08801:00
#08801:00
#08801:00
#08801:00
#08801:00
#08801:00
#08801:00
#08801:00
#08801:00
#08801:0000B300B30000B3
#08801:0000BF00BF0000BF
#08801:0000BL00BL0000BL
#08801:00
#08801:C3
#08801:00
#08801:00
#08801:00
#08801:00
#08801:00
#08801:EK
#08801:00
#08801:00
#08801:00
#08801:GS
#08801:HC
#08801:00
#08801:00
#08801:00
#08801:00
#08801:00
#08801:00
#08801:00
#08801:00
#08801:00
#08801:00
#08801:00
#08801:LR0000M1
#08801:M0
#08814:002T
#08855:HD
#08858:HN
#08901:0102030405060708090A0B0C0D0E0F0G
#08901:00
#08901:0000000000000000000000000000002D
#08901:0000002D00002E00
#08901:002G0000002E002D
#08901:00002X0000002U2U00002W0000000000
#08901:2P00000000000000002G00000000000000000000
#08901:0000000000000000000000000000000000000000000000000000000000000000000000000000000000000000000000002K2K2K2K2K2K2K2K2K2K2K2K2K2K2K2K
#08901:00
#08901:0000000000002W2W
#08901:00
#08901:00
#08901:00
#08901:00
#08901:00
#08901:00
#08901:00
#08901:00
#08901:00
#08901:00
#08901:00
#08901:00
#08901:00
#08901:00
#08901:00
#08901:00
#08901:00
#08901:00
#08901:00
#08901:00
#08901:00
#08901:00
#08901:00
#08901:00
#08901:00
#08901:00
#08901:0000B30000B300B3
#08901:0000BF0000BF00BF
#08901:0000BL0000BL00BL
#08901:00
#08901:00
#08901:00
#08901:00
#08901:00
#08901:00
#08901:00
#08901:00
#08901:00
#08901:00
#08901:00
#08901:00
#08901:00
#08901:00
#08901:00
#08901:00
#08901:00
#08901:00
#08901:00
#08901:JAJ9J8J7J6J5J4J3J2J1J0IZ00000000
#08901:JEJDJCJBJAJ9J8J7J6J5J4J300000000
#08914:002S2T00
#08958:000000HN
#09001:0102030405060708090A0B0C0D0E0F0G
#09001:00
#09001:00
#09001:2G00002G00002G00002G00002E002E00
#09001:00
#09001:000000000000000000000000002Q0000
#09001:0000000000000000000000000000002T
#09001:00
#09001:00
#09001:2X00002X00002X00002X00002W002W00
#09001:00
#09001:00
#09001:00
#09001:00
#09001:EW
#09001:00
#09001:00
#09001:00
#09001:00
#09001:00
#09001:00
#09001:00
#09001:00
#09001:00
#09001:00
#09001:00
#09001:00
#09001:00
#09001:00
#09001:00
#09001:00
#09001:00
#09001:00
#09001:00
#09001:00
#09001:00
#09001:00B300B30000B300
#09001:00BF00BF0000BF00
#09001:00BL00BL0000BL00
#09001:00
#09001:00
#09001:00
#09001:00
#09001:00
#09001:00
#09001:00
#09001:EM
#09001:00
#09001:00
#09001:00
#09001:GU
#09001:H2
#09001:00
#09001:00
#09001:00
#09001:00
#09001:00
#09001:00
#09001:00
#09001:00
#09001:00
#09001:00
#09001:00
#09001:LS
#09001:M2
#09013:2R00002R00002R00002R00002Q002Q00
#09055:HI
#09101:0102030405060708090A0B0C0D0E0F0G
#09101:00
#09101:00
#09101:000000002C2C2C2C
#09101:00
#09101:2D0000002D0000002D0000002D000000002C0000002C0000002C0000002C0000
#09101:00
#09101:002D002D002D002D002C002C002C002C
#09101:00
#09101:340000000000000000000000000000000000002C0000002C0000002C0000002C
#09101:00
#09101:00
#09101:000000HI
#09101:00
#09101:0000007W
#09101:00000000000000007M00000000860000
#09101:0000000000000000007N000000008A00
#09101:000000000000000000007P000000008G
#09101:00000000000000000000007S00000000
#09101:00
#09101:00
#09101:00
#09101:00
#09101:00
#09101:00
#09101:00
#09101:00
#09101:00
#09101:00
#09101:00
#09101:00
#09101:00
#09101:00
#09101:00
#09101:00
#09101:00
#09101:00B30000B300B300
#09101:00BF0000BF00BF00
#09101:00BL0000BL00BL00
#09101:00
#09101:00
#09101:00
#09101:00
#09101:00
#09101:00
#09101:00
#09101:00
#09101:00
#09101:00
#09101:00
#09101:00
#09101:00
#09101:00
#09101:00
#09101:00
#09101:I1I5I9IEI5I9IEIII9IEIIINIEIIINIQ
#09101:00
#09101:00
#09101:00
#09101:00
#09101:0000000000000000JQJUJYK6KAKMKQKV
#09101:00
#09101:00
#09101:00
#09101:00
#09101:00
#09101:00
#09101:00
#09101:00
#09101:0000000000000000NINKNNNRNUO0O3O8
#09201:0102030405060708090A0B0C0D0E0F0G
#09201:0H000I0J0K000L0M0N000O0P0Q000R0S
#09201:0015001500150015
#09201:00
#09201:180019001A001B1C1D001E001F001G00
#09201:00
#09201:2J
#09201:00
#09201:00
#09201:00
#09201:00
#09201:00
#09201:00
#09201:00
#09201:00
#09201:00
#09201:00
#09201:00
#09201:00
#09201:00
#09201:00
#09201:00
#09201:00
#09201:00
#09201:00
#09201:00
#09201:00
#09201:00760000
#09201:8K878787008L008U
#09201:9I9E9E9E009J009O
#09201:00
#09201:00
#09201:00
#09201:00
#09201:00
#09201:00
#09201:0000B40000B40000
#09201:0000BG0000BG0000
#09201:0000BM0000BM0000
#09201:00
#09201:C4
#09201:00
#09201:00
#09201:00
#09201:00
#09201:00
#09201:00
#09201:00
#09201:00
#09201:00
#09201:00
#09201:00
#09201:00
#09201:00
#09201:00
#09201:I1I4I9IDIHIIIMIIIHIDI9I4I9IDI9I8
#09201:00
#09201:00
#09201:00
#09201:00
#09201:L0KNKNKN00L100LD
#09211:2G2G2G2G
#09213:00170017
#09214:00O1O1O100000000
#09216:34
#09218:OC00000000OD0000
#09219:00000000000000OO
#09255:HI
#09301:0102030405060708090A0B0C0D0E0F0G
#09301:0T000U0V0W000X0Y0Z00101112001314
#09301:0015001500150015
#09301:00
#09301:1H001I001J001K1L1M1N1O001P001Q00
#09301:00
#09301:00
#09301:00
#09301:00
#09301:00
#09301:00
#09301:00
#09301:00
#09301:00
#09301:00
#09301:00
#09301:00
#09301:00
#09301:00
#09301:00
#09301:00
#09301:00
#09301:00
#09301:00
#09301:00
#09301:00
#09301:00
#09301:6Z00006H00006T00
#09301:00878700878K8T00
#09301:009F9F009F9I9N00
#09301:00
#09301:00
#09301:00
#09301:00
#09301:00
#09301:00
#09301:B60000B60000B6B6
#09301:BI0000BI0000BIBI
#09301:BO0000BO0000BOBO
#09301:00
#09301:C6
#09301:00
#09301:00
#09301:00
#09301:00
#09301:00
#09301:00
#09301:00
#09301:00
#09301:00
#09301:00
#09301:00
#09301:00
#09301:00
#09301:00
#09301:I2I8IBIFIHIKIOIKIHIFIBI8IBIFIBIH
#09301:00
#09301:00
#09301:00
#09301:00
#09301:00KNKN00KNL0LC00
#09311:2G002G002G002E2E
#09313:00170017
#09314:00O1O100O1000000
#09318:0000000000OC0000
#09319:000000ON
#09401:0102030405060708090A0B0C0D0E0F0G
#09401:0H000I0J0K000L0M0N000O0P0Q000R0S
#09401:0015001500150015
#09401:00
#09401:1R001S001T001U1V1W001X001Y001Z00
#09401:00
#09401:00
#09401:00
#09401:00
#09401:00
#09401:00
#09401:00
#09401:00
#09401:00
#09401:00
#09401:00
#09401:00
#09401:00
#09401:00
#09401:00
#09401:00
#09401:00
#09401:00
#09401:00
#09401:00
#09401:00
#09401:00
#09401:6R00006G
#09401:8R8R8R8S008X008Z
#09401:9L9L9L9M009R009S
#09401:00
#09401:00
#09401:00
#09401:00
#09401:00
#09401:00
#09401:0000B80000B80000
#09401:0000BK0000BK0000
#09401:0000BP0000BP0000
#09401:00
#09401:C8
#09401:00
#09401:00
#09401:00
#09401:00
#09401:00
#09401:00
#09401:00
#09401:00
#09401:00
#09401:00
#09401:00
#09401:00
#09401:00
#09401:00
#09401:I1I4I9IDIHIIIMIIIHIDI9I4I5I9IDIE
#09401:00
#09401:00
#09401:00
#09401:00
#09401:LALALALB00LG00LJ
#09411:2G2G2G2G
#09413:00170017
#09415:OLOLOLOM00000000
#09418:0000000000OR0000
#09419:00000000000000OU
#09501:0102030405060708090A0B0C0D0E0F0G
#09501:0T000U0V0W000X0Y0Z00101112001314
#09501:0015001500150015
#09501:00
#09501:20002100222324252627280029002A2B
#09501:00
#09501:00
#09501:00
#09501:00
#09501:00000017
#09501:0000000000OCOD00
#09501:00OL
#09501:00
#09501:00
#09501:00
#09501:00
#09501:00
#09501:00
#09501:00
#09501:00
#09501:00
#09501:00
#09501:00
#09501:00
#09501:00
#09501:00
#09501:00
#09501:6K6O6U0000000000
#09501:00008X008R8K8L00
#09501:00009L009L9I9J00
#09501:00
#09501:00
#09501:00
#09501:00
#09501:00
#09501:00
#09501:B30000B30000B3B3
#09501:BF0000BF0000BFBF
#09501:BL0000BL0000BLBL
#09501:00
#09501:C1
#09501:00
#09501:00
#09501:00
#09501:00
#09501:00
#09501:00
#09501:00
#09501:00
#09501:00
#09501:00
#09501:00
#09501:00
#09501:00
#09501:00
#09501:IFIEIBI8I6I9IFIEIBI8I6I9I1I4I8IE
#09501:00
#09501:00
#09501:00
#09501:00
#09501:0000LG00LAL0L100
#09511:2E002E002G0000002D0000000000002D
#09512:0000000000000000002D000000000000
#09513:000017000000002D
#09514:00000000002D0000
#09515:000000000000000000000000002D0000
#09518:00000000OR0000000000002D00000000
#09519:0000002D
#09601:0102030405060708090A0B0C0D0E0F0G
#09601:0H000I0J0K000L0M0N000O0P0Q000R0S
#09601:0015001500150015
#09601:00170017
#09601:180019001A001B1C1D001E001F001G00
#09601:00
#09601:2G002G002G002E2E
#09601:00
#09601:00
#09601:00
#09601:00
#09601:00
#09601:00
#09601:00
#09601:00
#09601:00
#09601:00
#09601:00
#09601:00
#09601:00
#09601:00
#09601:00
#09601:00
#09601:00
#09601:00
#09601:00
#09601:00
#09601:6Y0000006X6S6X76
#09601:8J008K8N00000000
#09601:9H009I9K00000000
#09601:00
#09601:00
#09601:00
#09601:00
#09601:00
#09601:00
#09601:0000B40000B40000
#09601:0000BG0000BG0000
#09601:0000BM0000BM0000
#09601:00
#09601:C4
#09601:00
#09601:00
#09601:00
#09601:00
#09601:00
#09601:00
#09601:00
#09601:00
#09601:00
#09601:00
#09601:00
#09601:00
#09601:00
#09601:00
#09601:I1I4I9IDIHIIIMIIIHIDI9I4I9IDI9I8
#09612:OB
#09613:00OC0000
#09614:KZ
#09615:00L00000
#09616:34
#09653:000000OF0000OF00
#09655:000000L30000L300
#09701:0102030405060708090A0B0C0D0E0F0G
#09701:0T000U0V0W000X0Y0Z00101112001314
#09701:0015001500150015
#09701:00170017
#09701:1H001I001J001K1L1M1N1O001P001Q00
#09701:00
#09701:2G002G002G002E2E
#09701:00
#09701:00
#09701:00
#09701:00
#09701:00
#09701:00
#09701:00
#09701:00
#09701:00
#09701:00
#09701:00
#09701:00
#09701:00
#09701:00
#09701:00
#09701:00
#09701:00
#09701:00
#09701:00
#09701:00
#09701:0000006P
#09701:83007Z7V00007Q00
#09701:9D009A9800009600
#09701:00
#09701:00
#09701:00
#09701:00
#09701:00
#09701:00
#09701:B60000B60000B6B6
#09701:BI0000BI0000BIBI
#09701:BO0000BO0000BOBO
#09701:00
#09701:C6
#09701:00
#09701:00
#09701:00
#09701:00
#09701:00
#09701:00
#09701:00
#09701:00
#09701:00
#09701:00
#09701:00
#09701:00
#09701:00
#09701:00
#09701:I2I8IBIFIHIKIOIKIHIFIBI8IBIFIBIH
#09711:000000NO
#09713:00NW00JZ
#09714:NZ
#09715:00KC0000
#09718:KH
#09752:000000NT0000NT00
#09754:000000K90000K900
#09801:0102030405060708090A0B0C0D0E0F0G
#09801:0H000I0J0K000L0M0N000O0P0Q000R0S
#09801:0015001500150015
#09801:00170017
#09801:1R001S001T001U1V1W001X001Y001Z00
#09801:2G2G2G2G
#09801:00
#09801:00
#09801:0032
#09801:00
#09801:00
#09801:00
#09801:00
#09801:NS
#09801:0000NVNY00000000
#09801:00
#09801:00
#09801:00
#09801:00
#09801:00
#09801:00
#09801:00
#09801:00
#09801:00
#09801:00
#09801:00
#09801:00
#09801:6L006F6G00007K00
#09801:7U007Y8200000000
#09801:9700999B00000000
#09801:00
#09801:00
#09801:00
#09801:00
#09801:00
#09801:00
#09801:0000B80000B80000
#09801:0000BK0000BK0000
#09801:0000BP0000BP0000
#09801:00
#09801:C8
#09801:00
#09801:00
#09801:00
#09801:00
#09801:00
#09801:00
#09801:00
#09801:EX00EY00F000F200F400F500F800F900FDFN00000000FBFM00000000F6FI0000
#09801:FO00FP00FR00FT00FV00FW00FZ00G000G4GE00000000G2GD00000000FXG90000
#09801:00
#09801:00
#09801:00
#09801:00
#09801:00
#09801:I1I4I9IDIHIIIMIIIHIDI9I4I5I9IDIE
#09801:00
#09801:00
#09801:00
#09801:00
#09801:K800KBKG00000000
#09811:2L2L2L2L
#09813:002L002L002L002L
#09815:0000002L0000002L0000002L0000002L
#09816:32
#09819:002L0000002L0000002L0000002L0000
#09901:0102030405060708090A0B0C0D0E0F0G
#09901:0T000U0V0W000X0Y0Z00101112001314
#09901:0015001500150015
#09901:00170017
#09901:20002100222324252627280029002A2B
#09901:2E002E002E002E002E002D2D2E002D2D
#09901:00
#09901:00
#09901:32002Z2Z
#09901:00
#09901:00
#09901:00
#09901:00
#09901:00
#09901:00NY
#09901:00
#09901:00
#09901:00
#09901:00
#09901:00
#09901:00
#09901:00
#09901:00
#09901:00
#09901:00
#09901:00
#09901:00
#09901:7J7D6T6Y
#09901:00
#09901:00
#09901:00
#09901:00
#09901:00
#09901:00
#09901:00
#09901:00
#09901:AZ0000AZ0000AZAZ
#09901:BB0000BB0000BBBB
#09901:BI0000BI0000BIBI
#09901:00
#09901:CA
#09901:00
#09901:00
#09901:00
#09901:00
#09901:00
#09901:00
#09901:00
#09901:F3FF00000000F1FC00000000F3FF0000F6FI00000000F1FC00000000EZFA0000
#09901:FUG600000000FSG300000000FUG60000FXG900000000FSG300000000FQG10000
#09901:00
#09901:00
#09901:00
#09901:00
#09901:00
#09901:IFIEIBI8I6I9IDIEIFIEIBI8I6I5I2I0
#09912:2L2L2L2L
#09913:002L002L002L002L
#09915:0000002L0000002L0000002L0000002L
#09918:002L0000002L0000002L0000002L0000
#10001:0102030405060708090A0B0C0D0E0F0G
#10001:0H000I0J0K000L0M0N000O0P0Q000R0S
#10001:0015001500150015
#10001:00
#10001:180019001A001B1C1D001E001F001G00
#10001:00
#10001:00
#10001:00
#10001:009E9E9E009J0000
#10001:9I0000000000009O
#10001:00
#10001:00
#10001:00
#10001:00
#10001:00
#10001:00
#10001:00
#10001:00
#10001:00
#10001:00
#10001:00
#10001:00
#10001:00
#10001:00
#10001:00
#10001:00
#10001:00
#10001:77
#10001:8K878787008L008U
#10001:00
#10001:00
#10001:00
#10001:00
#10001:00
#10001:00
#10001:00
#10001:0000B40000B40000
#10001:0000BG0000BG0000
#10001:0000BM0000BM0000
#10001:00
#10001:C4
#10001:00
#10001:00
#10001:00
#10001:00
#10001:00
#10001:00
#10001:00
#10001:00
#10001:00
#10001:00
#10001:00
#10001:00
#10001:00
#10001:00
#10001:I1I4I9IDIHIIIMIIIHIDI9I4I9IDI9I8
#10001:00
#10001:00
#10001:00
#10001:00
#10001:L0KNKNKN00L100LD
#10011:2G2G2G2G
#10013:00170017
#10014:00O1O1O100000000
#10016:34
#10018:OC00000000OD0000
#10019:00000000000000OO
#10101:0102030405060708090A0B0C0D0E0F0G
#10101:0T000U0V0W000X0Y0Z00101112001314
#10101:0015001500150015
#10101:00
#10101:1H001I001J001K1L1M1N1O001P001Q00
#10101:00
#10101:00
#10101:00
#10101:009F9F009F009N00
#10101:00000000009I0000
#10101:00
#10101:00
#10101:00
#10101:00
#10101:00
#10101:00
#10101:00
#10101:00
#10101:00
#10101:00
#10101:00
#10101:00
#10101:00
#10101:00
#10101:00
#10101:00
#10101:00
#10101:6Z00006H00006T00
#10101:00878700878K8T00
#10101:00
#10101:00
#10101:00
#10101:00
#10101:00
#10101:00
#10101:00
#10101:B60000B60000B6B6
#10101:BI0000BI0000BIBI
#10101:BO0000BO0000BOBO
#10101:00
#10101:C6
#10101:00
#10101:00
#10101:00
#10101:00
#10101:00
#10101:00
#10101:00
#10101:00
#10101:00
#10101:00
#10101:00
#10101:00
#10101:00
#10101:00
#10101:I2I8IBIFIHIKIOIKIHIFIBI8IBIFIBIH
#10101:00
#10101:00
#10101:00
#10101:00
#10101:00KNKN00KNL0LC00
#10111:2G002G002G002E2E
#10113:00170017
#10114:00O1O100O1000000
#10118:0000000000OC0000
#10119:000000ON
#10201:0102030405060708090A0B0C0D0E0F0G
#10201:0H000I0J0K000L0M0N000O0P0Q000R0S
#10201:0015001500150015
#10201:00
#10201:1R001S001T001U1V1W001X001Y001Z00
#10201:00
#10201:2G2G2G2G
#10201:00
#10201:00
#10201:00
#10201:00
#10201:00
#10201:00
#10201:00
#10201:00
#10201:00
#10201:00
#10201:00
#10201:00
#10201:00
#10201:00
#10201:00
#10201:00
#10201:00
#10201:00
#10201:00
#10201:00
#10201:6R
#10201:8V92
#10201:00
#10201:00
#10201:00
#10201:00
#10201:00
#10201:00
#10201:00
#10201:0000B70000B70000
#10201:0000BJ0000BJ0000
#10201:0000BP0000BP0000
#10201:00
#10201:C7
#10201:00
#10201:00
#10201:00
#10201:00
#10201:00
#10201:00
#10201:00
#10201:00
#10201:00
#10201:00
#10201:00
#10201:00
#10201:00
#10201:00
#10201:I1I5I9IEIHIIINIIIHIEI9I1I5I9IEIH
#10201:00
#10201:00
#10201:00
#10201:00
#10201:LELM
#10212:00170000
#10213:00000017
#10216:34
#10254:9Q9Q0000
#10255:00009V9V
#10258:OPOP0000
#10259:0000OXOX
#10301:0102030405060708090A0B0C0D0E0F0G
#10301:0T000U0V0W000X0Y0Z00101112001314
#10301:0015001500150015
#10301:00
#10301:20002100222324252627280029002A2B
#10301:00
#10301:00000000009O1700
#10301:9R9I9R9L00000000
#10301:00
#10301:00
#10301:00
#10301:00
#10301:00
#10301:00
#10301:00
#10301:00
#10301:00
#10301:00
#10301:00
#10301:00
#10301:00
#10301:00
#10301:00
#10301:00
#10301:00
#10301:00
#10301:00
#10301:76
#10301:8X8B8X8R008M0000
#10301:00
#10301:00
#10301:00
#10301:00
#10301:00
#10301:00
#10301:00
#10301:B80000B80000B8B8
#10301:BK0000BK0000BKBK
#10301:BP0000BP0000BPBP
#10301:00
#10301:C8
#10301:00
#10301:00
#10301:00
#10301:00
#10301:00
#10301:00
#10301:00
#10301:00
#10301:00
#10301:00
#10301:00
#10301:00
#10301:00
#10301:00
#10301:IIIFIDI9IFIDI9I6IDI9I6I4I9I6I4I1
#10301:00
#10301:00
#10301:00
#10301:00
#10301:LGKRLGLA00L20000
#10311:2G002G002G002E2E
#10313:00000000170000000000002D00000000
#10314:00O4000000000000
#10315:0000000000OE0000
#10316:34
#10318:000000OL00000000
#10319:OROR0000
#10401:00
#10401:00
#10401:00
#10401:00
#10401:180019001A001B1C1D001E001F001G00
#10401:2E2E2E2E2E2E2E2E
#10401:2I
#10401:00
#10401:00
#10401:00
#10401:00
#10401:00
#10401:00
#10401:00
#10401:00
#10401:00
#10401:00
#10401:00
#10401:00
#10401:00
#10401:00
#10401:00
#10401:00
#10401:00
#10401:00
#10401:00
#10401:7500000078726X6S
#10401:8J008K8O00000000
#10401:00
#10401:00
#10401:00
#10401:00
#10401:00
#10401:00
#10401:00
#10401:0000B10000B10000
#10401:0000BD0000BD0000
#10401:0000BK0000BK0000
#10401:00
#10401:BW
#10401:00
#10401:00
#10401:00
#10401:00
#10401:00
#10401:00
#10401:00
#10401:00
#10401:00
#10401:00
#10401:00
#10401:00
#10401:00
#10401:00
#10401:I1I4I9IDIHIIIMIIIHIDI9I4I9IDI9I8
#10401:00
#10401:00
#10401:00
#10401:00
#10401:KZ00L0L400000000
#10412:2X00002X00002X00
#10414:9O
#10415:009R0000
#10418:OB
#10419:00OC0000
#10455:0000009T00000000
#10459:000000OG00000000
#10501:00
#10501:00
#10501:00
#10501:00
#10501:1H001I001J001K1L1M1N1O001P001Q00
#10501:2E2E2E2E2E2E2E2E
#10501:00
#10501:00
#10501:00
#10501:00
#10501:00000000009C9E9F
#10501:00
#10501:00
#10501:00
#10501:00
#10501:00
#10501:00
#10501:00
#10501:00
#10501:00
#10501:00
#10501:00
#10501:00
#10501:00
#10501:00
#10501:00
#10501:71
#10501:00000000008B8K8R
#10501:00
#10501:00
#10501:00
#10501:00
#10501:00
#10501:00
#10501:00
#10501:B30000B30000B3B3
#10501:BF0000BF0000BFBF
#10501:BL0000BL0000BLBL
#10501:00
#10501:C1
#10501:00
#10501:00
#10501:00
#10501:00
#10501:00
#10501:00
#10501:00
#10501:00
#10501:00
#10501:00
#10501:00
#10501:00
#10501:00
#10501:00
#10501:I2I8IBIFIHIKIOIKIHIFIBI8IBIFIBIH
#10501:00
#10501:00
#10501:00
#10501:00
#10501:0000000000KRL0LA
#10511:2X00002X00002X00
#10513:0000000000O40000
#10515:000000OC
#10519:00000000000000OL
#10555:009T0000
#10559:00OG0000
#10601:00
#10601:00
#10601:0000000000000000000000002D2D2D2D
#10601:00
#10601:1R001S001T001U1V1W001X001Y001Z00
#10601:2E2E2E2E2E2E0000
#10601:00
#10601:00
#10601:2X00002X00002X00
#10601:00
#10601:00
#10601:00
#10601:00
#10601:00
#10601:00
#10601:00
#10601:00
#10601:00
#10601:00
#10601:00
#10601:00
#10601:00
#10601:00
#10601:00
#10601:00
#10601:00
#10601:757I
#10601:8X8B8X8B8X909391
#10601:9I9C9I9C9I9L9R9N
#10601:00
#10601:00
#10601:00
#10601:00
#10601:00
#10601:00
#10601:0000B40000B40000
#10601:0000BG0000BG0000
#10601:0000BM0000BM0000
#10601:00
#10601:C4
#10601:00
#10601:00
#10601:00
#10601:00
#10601:00
#10601:00
#10601:00
#10601:00
#10601:00
#10601:00
#10601:00
#10601:00
#10601:00
#10601:00
#10601:I1I4I9IDIHIIIMIIIHIDI9I4I5I9IDIE
#10601:00
#10601:00
#10601:00
#10601:00
#10601:LGKRLGKRLGLKLNLL
#10601:00
#10601:00
#10601:00
#10601:00
#10601:00
#10601:00
#10601:00
#10601:00
#10601:ORO4ORO4OROVOYOW
#10611:0000002L
#10613:2L2L2L2L2L2L002L
#10615:002L0000002L0000002L0000002L0000
#10619:0000002L0000002L0000002L0000002L
#10701:00
#10701:00
#10701:2D2D2D2D2D2D2D2D0000000000000000
#10701:00
#10701:20002100222324252627280029002A2B
#10701:00
#10701:000000O900000000
#10701:00
#10701:2X0000002X0000002X00002X00002X00
#10701:00
#10701:00
#10701:00
#10701:00
#10701:000000000000009X
#10701:00
#10701:00
#10701:00
#10701:00
#10701:00
#10701:00
#10701:00
#10701:00
#10701:00
#10701:00
#10701:00
#10701:00
#10701:7E70
#10701:008T008H8K909594
#10701:009G009L9L9W9Y00
#10701:00
#10701:00
#10701:00
#10701:00
#10701:00
#10701:00
#10701:B60000B60000B6B6
#10701:BI0000BI0000BIBI
#10701:BO0000BO0000BOBO
#10701:00
#10701:C6
#10701:00
#10701:00
#10701:00
#10701:00
#10701:00
#10701:00
#10701:00
#10701:00
#10701:00
#10701:00
#10701:00
#10701:00
#10701:00
#10701:00
#10701:IFIEIBI8I6I9IDIEIFIEIBI8I6I5I2I0
#10701:00
#10701:00
#10701:00
#10701:00
#10701:00LC00KWL0LKLPLO
#10701:00
#10701:00
#10701:00
#10701:00
#10701:00
#10701:00
#10701:00
#10701:00
#10701:00ON000000000000
#10711:2L0000002L0000002G00002G00002E00
#10713:002L002LOC000000
#10715:002L0000002L00000000OV0000000000
#10719:0000002L0000002L00000000P0000000
#10758:00000000000000OZ
#10801:0000000005060708090A0B0C0D0E0F0G
#10801:000000000K000L0M0N000O0P0Q000R0S
#10801:0000001500150015
#10801:00170017
#10801:00
#10801:002J0000
#10801:00
#10801:00
#10801:00
#10801:0000007D
#10801:737J
#10801:007K0000
#10801:00
#10801:00
#10801:00
#10801:00
#10801:00
#10801:00
#10801:00
#10801:00
#10801:00
#10801:00
#10801:00
#10801:00
#10801:00
#10801:00
#10801:00
#10801:00
#10801:00
#10801:00
#10801:00
#10801:00
#10801:00
#10801:00
#10801:00
#10801:0000B40000B40000
#10801:0000BG0000BG0000
#10801:0000BM0000BM0000
#10801:00
#10801:C4
#10801:00
#10801:00
#10801:00
#10801:00
#10801:00
#10801:00
#10801:00
#10801:00
#10801:00
#10801:00
#10801:00
#10801:00
#10801:00
#10801:00
#10801:I1I4I9IDIHIIIMIIIHIDI9I4I9IDI9I8
#10811:002G2G2G
#10813:00340000
#10901:0102030405060708090A0B0C0D0E0F0G
#10901:0T000U0V0W000X0Y0Z00101112001314
#10901:0015001500150015
#10901:00170017
#10901:00
#10901:00
#10901:000000000000000000000000009U9U00
#10901:009V
#10901:00
#10901:00
#10901:000000007D006S6X
#10901:7K7J0000
#10901:00
#10901:00
#10901:00
#10901:00
#10901:00
#10901:00
#10901:00
#10901:00
#10901:00
#10901:00
#10901:00
#10901:00
#10901:00
#10901:00
#10901:00
#10901:000000009200008W
#10901:00
#10901:00
#10901:00
#10901:00
#10901:00
#10901:00
#10901:00
#10901:B60000B60000B6B6
#10901:BI0000BI0000BIBI
#10901:BO0000BO0000BOBO
#10901:00
#10901:C6
#10901:00
#10901:00
#10901:00
#10901:00
#10901:00
#10901:00
#10901:00
#10901:00
#10901:00
#10901:00
#10901:00
#10901:00
#10901:00
#10901:00
#10901:I2I8IBIFIHIKIOIKIHIFIBI8IBIFIBIH
#10901:00
#10901:00
#10901:00
#10901:00
#10901:00000000LM0000LF
#10911:2G2G2G2G
#10953:00000000000000OQ
#10955:00000000OX0000OX
#10958:00OZ0000
#11001:0102030405060708090A0B0C0D0E0F0G
#11001:0H000I0J0K000L0M0N000O0P0Q000R0S
#11001:0015001500150015
#11001:00170017
#11001:00
#11001:00
#11001:0000000000000000000000000000009P
#11001:00
#11001:73
#11001:007K0000
#11001:007J
#11001:00
#11001:0000007D
#11001:00
#11001:00
#11001:00
#11001:00
#11001:00
#11001:00
#11001:00
#11001:00
#11001:00
#11001:00
#11001:00
#11001:00
#11001:00
#11001:00
#11001:00
#11001:00
#11001:00
#11001:00
#11001:00
#11001:00
#11001:00
#11001:00
#11001:0000B80000B80000
#11001:0000BK0000BK0000
#11001:0000BP0000BP0000
#11001:00
#11001:C8
#11001:00
#11001:00
#11001:00
#11001:00
#11001:00
#11001:00
#11001:00
#11001:00
#11001:00
#11001:00
#11001:00
#11001:00
#11001:00
#11001:00
#11001:I1I4I9IDIHIIIMIIIHIDI9I4I5I9IDIE
#11011:2G2G2G2G
#11053:000000OQ
#11101:0102030405060708090A0B0C0D0E0F0G
#11101:0T000U0V0W000X0Y0Z00101112001314
#11101:0015001500150015
#11101:00170017
#11101:00
#11101:00
#11101:9P
#11101:00
#11101:7K007D6S
#11101:007J0000
#11101:000000000000006X
#11101:00
#11101:00
#11101:00
#11101:00
#11101:00
#11101:00
#11101:00
#11101:00
#11101:00
#11101:00
#11101:00
#11101:00
#11101:00
#11101:00
#11101:00
#11101:00
#11101:8Y
#11101:00
#11101:00
#11101:00
#11101:00
#11101:00
#11101:00
#11101:00
#11101:B30000B30000B3B3
#11101:BF0000BF0000BFBF
#11101:BL0000BL0000BLBL
#11101:00
#11101:C1
#11101:00
#11101:00
#11101:00
#11101:00
#11101:00
#11101:00
#11101:00
#11101:00
#11101:00
#11101:00
#11101:00
#11101:00
#11101:00
#11101:00
#11101:IFIEIBI8I6I9IDIEIFIEIBI8I6I5I2I0
#11101:00
#11101:00
#11101:00
#11101:00
#11101:LI
#11111:2G2G2G2G
#11154:OT
#11201:0102030405060708090A0B0C0D0E0F0G
#11201:0H000I0J0K000L0M0N000O0P0Q000R0S
#11201:0015001500150015
#11201:00170017
#11201:00
#11201:00
#11201:00
#11201:00
#11201:73
#11201:00
#11201:00
#11201:00
#11201:00
#11201:00
#11201:00
#11201:00
#11201:00
#11201:00
#11201:00
#11201:00
#11201:00
#11201:00
#11201:00
#11201:00
#11201:00
#11201:00
#11201:00
#11201:00
#11201:00
#11201:00
#11201:00
#11201:00
#11201:00
#11201:00
#11201:00
#11201:0000B40000B40000
#11201:0000BG0000BG0000
#11201:0000BM0000BM0000
#11201:00
#11201:C4
#11201:00
#11201:00
#11201:00
#11201:00
#11201:00
#11201:00
#11201:00
#11201:00
#11201:00
#11201:00
#11201:00
#11201:00
#11201:00
#11201:00
#11201:I1I4I9IDIHIIIMIIIHIDI9I4I9IDI9I8
#11211:2G2G2G2G
#11213:0000007D
#11215:007J
#11216:34
#11219:007K0000
#11254:OT
#11301:0102030405060708090A0B0C0D0E0F0G
#11301:0T000U0V0W000X0Y0Z00101112001314
#11301:0015001500150015
#11301:00170017
#11301:2G2G2G2G
#11301:007K0000
#11301:7L7J
#11301:0000007D
#11301:00
#11301:00
#11301:00
#11301:00
#11301:00
#11301:00
#11301:00
#11301:00
#11301:00
#11301:00
#11301:00
#11301:00
#11301:00
#11301:00
#11301:00
#11301:00
#11301:00
#11301:00
#11301:00
#11301:00
#11301:00
#11301:00
#11301:00
#11301:00
#11301:00
#11301:00
#11301:00
#11301:B60000B60000B6B6
#11301:BI0000BI0000BIBI
#11301:BO0000BO0000BOBO
#11301:00
#11301:C6
#11301:00
#11301:00
#11301:00
#11301:00
#11301:00
#11301:00
#11301:00
#11301:00
#11301:00
#11301:00
#11301:00
#11301:00
#11301:00
#11301:00
#11301:I2I8IBIFIHIKIOIKIHIFIBI8IBIFIBIH
#11312:2L2L2L2L
#11314:002L002L002L002L
#11316:34
#11318:002L002L002L002L002L002L002L002L
#11414:00BQ