Files
admin-leaf-alice-in-misanth…/_1(8)4.bms

4816 lines
98 KiB
Plaintext
Raw Normal View History

*---------------------- HEADER FIELD
#PLAYER 3
#GENRE GOTHIC CHOIR
#TITLE Alice in Misanthrope -<2D>}<7D><><EFBFBD>A<EFBFBD><41><EFBFBD>X-[184]
#ARTIST LeaF
#BPM 172
#PLAYLEVEL 0
#RANK 3
#TOTAL 764.5
#STAGEFILE _title.png
#WAV01 kick1_4g.wav
#WAV02 kick1_4.wav
#WAV03 kick1_8.wav
#WAV04 kick1_16.wav
#WAV05 kick1_32.wav
#WAV06 kick1_sub1.wav
#WAV07 kick1_sub2.wav
#WAV08 cym1_1.wav
#WAV09 cym1_2.wav
#WAV0A cym1_3.wav
#WAV0B cym1_4.wav
#WAV0C cym1_5.wav
#WAV0D cym1_6.wav
#WAV0E cym1_7_spr.wav
#WAV0F cym1_9.wav
#WAV0G cym1_10.wav
#WAV0H cym1_11.wav
#WAV0I hat1.wav
#WAV0J hat2.wav
#WAV0K hat3.wav
#WAV0L hat4.wav
#WAV0M hat5.wav
#WAV0N ride1.wav
#WAV0O ride2.wav
#WAV0P ride3.wav
#WAV0Q snare1.wav
#WAV0R snaredrum1_1.wav
#WAV0S snaredrum1_1.wav
#WAV0T snaredrum1_2.wav
#WAV0U snaredrum1_3.wav
#WAV0V clap1.wav
#WAV0W clap2.wav
#WAV0X tom1.wav
#WAV0Y tom2.wav
#WAV0Z tom3.wav
#WAV10 tom4.wav
#WAV11 tom5.wav
#WAV12 tom6.wav
#WAV13 break1_1.wav
#WAV14 break1_2.wav
#WAV15 break1_3.wav
#WAV16 break1_4.wav
#WAV17 break1_5.wav
#WAV18 break1_6.wav
#WAV19 break1_7.wav
#WAV1A break1_8.wav
#WAV1B break2_1.wav
#WAV1C break2_2.wav
#WAV1D break2_3.wav
#WAV1E break2_4.wav
#WAV1F break2_5.wav
#WAV1G break2_6.wav
#WAV1H break2_7.wav
#WAV1I break2_8.wav
#WAV1J break3_1.wav
#WAV1K break3_2.wav
#WAV1L break3_3.wav
#WAV1M break3_4.wav
#WAV1N break3_5.wav
#WAV1O break3_6.wav
#WAV1P break3_7.wav
#WAV1Q break3_8.wav
#WAV1R break3_9.wav
#WAV1S break3_10.wav
#WAV1T break3_11.wav
#WAV1U break3_12.wav
#WAV1V break3_14.wav
#WAV1W break3_15.wav
#WAV1X break3_16.wav
#WAV1Y break3_17.wav
#WAV1Z break3_18.wav
#WAV20 break3_19.wav
#WAV21 break3_20.wav
#WAV22 break3_21.wav
#WAV23 break3_22.wav
#WAV24 break3_23.wav
#WAV25 break3_24.wav
#WAV26 break3_25.wav
#WAV27 break3_26.wav
#WAV28 break3_27.wav
#WAV29 break3_28.wav
#WAV2A break3_29.wav
#WAV2B break3_30.wav
#WAV2C break3_31.wav
#WAV2D break3_32.wav
#WAV2E break3_33.wav
#WAV2F break3_34.wav
#WAV2G break3_35.wav
#WAV2H break3_36.wav
#WAV2I break3_37.wav
#WAV2J break3_38.wav
#WAV2K break3_39.wav
#WAV2L break3_40.wav
#WAV2M break3_41.wav
#WAV2N break3_42.wav
#WAV2O break4_1.wav
#WAV2P break4_2.wav
#WAV2Q break4_3.wav
#WAV2R break4_4.wav
#WAV2S break4_5.wav
#WAV2T break4_6.wav
#WAV2U break4_7.wav
#WAV2V break4_8.wav
#WAV2W break4_9.wav
#WAV2X break4_10.wav
#WAV2Y break4_11.wav
#WAV2Z break4_12.wav
#WAV30 ens1_1.wav
#WAV31 ens1_2.wav
#WAV32 ens1_3.wav
#WAV33 ens1_4.wav
#WAV34 ens1_5.wav
#WAV35 ens1_6.wav
#WAV36 ens1_7.wav
#WAV37 ens1_8.wav
#WAV38 ens1_9.wav
#WAV39 ens1_10.wav
#WAV3A fx1.wav
#WAV3B synth1_1.wav
#WAV3C synth1_2.wav
#WAV3D synth1_3.wav
#WAV3E synth1_4.wav
#WAV3F synth1_5.wav
#WAV3G synth1_6.wav
#WAV3H synth1_7.wav
#WAV3I synth1_8.wav
#WAV3J synth1_9.wav
#WAV3K synth1_10.wav
#WAV3L synth1_11.wav
#WAV3M synth1_12.wav
#WAV3N synth1_13.wav
#WAV3O synth1_14.wav
#WAV3P synth1_15.wav
#WAV3Q synth1_16.wav
#WAV3R synth1_17.wav
#WAV3S synth1_18.wav
#WAV3T synth1_19.wav
#WAV3U synth1_20.wav
#WAV3V synth1_21.wav
#WAV3W synth1_22.wav
#WAV3X synth1_23.wav
#WAV3Y synth1_24.wav
#WAV3Z synth1_25.wav
#WAV40 synth1_26.wav
#WAV41 synth1_27.wav
#WAV42 synth1_28.wav
#WAV43 synth1_29.wav
#WAV44 synth1_30.wav
#WAV45 synth1_31.wav
#WAV46 synth2_1.wav
#WAV47 synth2_2.wav
#WAV48 synth2_3.wav
#WAV49 synth2_4.wav
#WAV4A synth2_5.wav
#WAV4B synth2_6.wav
#WAV4C synth2_7.wav
#WAV4D synth2_8.wav
#WAV4E synth2_9.wav
#WAV4F synth2_10.wav
#WAV4G synth2_11.wav
#WAV4H synth2_12.wav
#WAV4I synth2_13.wav
#WAV4J synth2_14.wav
#WAV4K synth2_15.wav
#WAV4L synth2_16.wav
#WAV4M synth2_17.wav
#WAV4N synth2_18.wav
#WAV4O synth2_19.wav
#WAV4P synth2_20.wav
#WAV4Q synth2_21.wav
#WAV4R synth2_22.wav
#WAV4S synth2_23.wav
#WAV4T synth2_24.wav
#WAV4U synth2_25.wav
#WAV4V synth2_26.wav
#WAV4W synth2_27.wav
#WAV4X synth2_28.wav
#WAV4Y synth3_1.wav
#WAV4Z synth3_2.wav
#WAV50 synth3_3.wav
#WAV51 synth3_5.wav
#WAV52 synth3_6.wav
#WAV53 synth3_7.wav
#WAV54 synth3_8.wav
#WAV55 synth3_9.wav
#WAV56 synth3_10.wav
#WAV57 synth3_11.wav
#WAV58 synth3_12.wav
#WAV59 synth3_13.wav
#WAV5A synth3_14.wav
#WAV5B synth3_15.wav
#WAV5C synth3_16.wav
#WAV5D synth3_17.wav
#WAV5E synth3_18.wav
#WAV5F synth3_19.wav
#WAV5G synth3_20.wav
#WAV5H synth3_21.wav
#WAV5I synth3_22.wav
#WAV5J synth3_23.wav
#WAV5K synth3_24.wav
#WAV5L synth3_25.wav
#WAV5M synth3_26.wav
#WAV5N synth3_27.wav
#WAV5O synth3_28.wav
#WAV5P synth3_29.wav
#WAV5Q stringsfx1_1.wav
#WAV5R stringsfx1_2.wav
#WAV5S stringsfx1_3.wav
#WAV5T strings1_1.wav
#WAV5U strings1_2.wav
#WAV5V strings1_4.wav
#WAV5W strings1_5.wav
#WAV5X strings1_6.wav
#WAV5Y strings1_7.wav
#WAV5Z strings1_8.wav
#WAV60 strings1_9.wav
#WAV61 strings1_10.wav
#WAV62 strings1_11.wav
#WAV63 strings1_12.wav
#WAV64 strings1_13.wav
#WAV65 strings1_14.wav
#WAV66 strings1_15.wav
#WAV67 strings1_16.wav
#WAV68 strings1_17.wav
#WAV69 strings1_18.wav
#WAV6A strings1_19.wav
#WAV6B strings1_20.wav
#WAV6C strings1_21.wav
#WAV6D strings1_22.wav
#WAV6E strings1_23.wav
#WAV6F strings1_24.wav
#WAV6G strings1_25.wav
#WAV6H strings1_27.wav
#WAV6I strings1_28.wav
#WAV6J strings1_29.wav
#WAV6K strings1_30.wav
#WAV6L strings1_31.wav
#WAV6M strings1_32.wav
#WAV6N strings1_33.wav
#WAV6O strings1_34.wav
#WAV6P strings1_35.wav
#WAV6Q strings1_36.wav
#WAV6R strings1_37.wav
#WAV6S strings1_38.wav
#WAV6T strings1_39.wav
#WAV6U strings1_40.wav
#WAV6V strings1_41.wav
#WAV6W strings2_1.wav
#WAV6X strings2_2.wav
#WAV6Y strings2_3.wav
#WAV6Z strings2_4.wav
#WAV70 strings2_5.wav
#WAV71 strings2_6.wav
#WAV72 strings2_7.wav
#WAV73 strings2_8.wav
#WAV74 strings2_9.wav
#WAV75 strings2_10.wav
#WAV76 strings2_11.wav
#WAV77 strings2_12.wav
#WAV78 strings2_13.wav
#WAV79 strings2_14.wav
#WAV7A strings2_15.wav
#WAV7B strings2_16.wav
#WAV7C strings2_17.wav
#WAV7D strings2_18.wav
#WAV7E strings2_19.wav
#WAV7F strings2_20.wav
#WAV7G strings2_21.wav
#WAV7H strings2_22.wav
#WAV7I strings2_23.wav
#WAV7J strings2_24.wav
#WAV7K strings2_25.wav
#WAV7L strings2_26.wav
#WAV7M strings2_27.wav
#WAV7N strings2_28.wav
#WAV7O strings4_1.wav
#WAV7P strings4_2.wav
#WAV7Q strings4_3.wav
#WAV7R strings4_4.wav
#WAV7S strings4_5.wav
#WAV7T strings4_6.wav
#WAV7U strings4_7.wav
#WAV7V strings4_8.wav
#WAV7W strings4_9.wav
#WAV7X strings4_10.wav
#WAV7Y strings4_11.wav
#WAV7Z strings4_12.wav
#WAV80 strings4_13.wav
#WAV81 strings4_14.wav
#WAV82 strings4_15.wav
#WAV83 strings4_16.wav
#WAV84 strings4_17.wav
#WAV85 strings4_18.wav
#WAV86 strings4_19.wav
#WAV87 strings4_20.wav
#WAV88 strings4_21.wav
#WAV89 strings4_22.wav
#WAV8A strings4_23.wav
#WAV8B strings4_24.wav
#WAV8C strings4_25.wav
#WAV8D strings4_26.wav
#WAV8E strings4_27.wav
#WAV8F strings4_28.wav
#WAV8G strings4_29.wav
#WAV8H strings4_30.wav
#WAV8I strings4_31.wav
#WAV8J strings4_32.wav
#WAV8K strings4_33.wav
#WAV8L strings4_34.wav
#WAV8M strings4_35_bgm.wav
#WAV8N strings4_36.wav
#WAV8O strings4_37.wav
#WAV8P strings4_38.wav
#WAV8Q strings4_39.wav
#WAV8R strings4_40.wav
#WAV8S strings4_41.wav
#WAV8T strings4_42.wav
#WAV8U strings7_1.wav
#WAV8V strings7_2.wav
#WAV8W strings7_3.wav
#WAV8X strings7_4.wav
#WAV8Y strings7_5.wav
#WAV8Z strings7_6.wav
#WAV90 strings7_7.wav
#WAV91 strings7_8.wav
#WAV92 strings7_9.wav
#WAV93 strings7_10.wav
#WAV94 strings7_11.wav
#WAV95 strings7_12.wav
#WAV96 strings7_13.wav
#WAV97 strings7_14.wav
#WAV98 strings7_15.wav
#WAV99 strings7_16.wav
#WAV9A strings7_17.wav
#WAV9B strings7_18.wav
#WAV9C strings7_19.wav
#WAV9D strings7_20.wav
#WAV9E strings7_21.wav
#WAV9F strings7_22.wav
#WAV9G strings7_23.wav
#WAV9H strings7_24.wav
#WAV9I strings8_1.wav
#WAV9J strings8_2.wav
#WAV9K strings8_3.wav
#WAV9L strings8_4.wav
#WAV9M strings8_5.wav
#WAV9N strings8_6.wav
#WAV9O strings8_7.wav
#WAV9P strings8_8.wav
#WAV9Q strings8_9.wav
#WAV9R strings8_10.wav
#WAV9S strings8_11.wav
#WAV9T strings8_12.wav
#WAV9U strings8_13.wav
#WAV9V strings8_14.wav
#WAV9W strings8_15.wav
#WAV9X strings8_16.wav
#WAV9Y strings8_17.wav
#WAV9Z strings8_18.wav
#WAVA0 strings8_19.wav
#WAVA1 strings8_20.wav
#WAVA2 strings8_21.wav
#WAVA3 strings8_22.wav
#WAVA4 strings8_23.wav
#WAVA5 strings8_24.wav
#WAVA6 strings8_25.wav
#WAVA7 strings8_26.wav
#WAVA8 strings8_27.wav
#WAVA9 strings8_28.wav
#WAVAA strings8_29.wav
#WAVAB strings8_30.wav
#WAVAC strings8_31.wav
#WAVAD strings8_32.wav
#WAVAE strings8_33.wav
#WAVAF strings8_34.wav
#WAVAG strings8_35.wav
#WAVAH strings8_36.wav
#WAVAI strings8_37.wav
#WAVAJ strings8_38.wav
#WAVAK strings8_39.wav
#WAVAL strings8_40.wav
#WAVAM strings8_41.wav
#WAVAN strings8_42.wav
#WAVAO strings8_43.wav
#WAVAP strings9_1.wav
#WAVAQ strings9_2.wav
#WAVAR strings9_3.wav
#WAVAS strings9_4.wav
#WAVAT strings9_5.wav
#WAVAU strings9_6.wav
#WAVAV strings9_7.wav
#WAVAW strings9_8.wav
#WAVAX strings9_9.wav
#WAVAY strings9_10.wav
#WAVAZ strings9_11.wav
#WAVB0 strings9_12.wav
#WAVB1 strings9_13.wav
#WAVB2 strings9_14.wav
#WAVB3 strings9_15.wav
#WAVB4 strings9_16.wav
#WAVB5 strings9_17.wav
#WAVB6 strings9_18.wav
#WAVB7 strings9_19.wav
#WAVB8 strings9_20.wav
#WAVB9 strings9_21.wav
#WAVBA strings9_22.wav
#WAVBB strings9_23.wav
#WAVBC strings9_24.wav
#WAVBD strings9_25.wav
#WAVBE strings9_26.wav
#WAVBF strings10_1.wav
#WAVBG strings10_2.wav
#WAVBH strings10_3.wav
#WAVBI strings10_4.wav
#WAVBJ strings10_5.wav
#WAVBK strings10_6.wav
#WAVBL strings10_7.wav
#WAVBM strings10_8.wav
#WAVBN strings10_8.wav
#WAVBO strings10_10.wav
#WAVBP strings10_11.wav
#WAVBQ strings10_12.wav
#WAVBR strings10_13.wav
#WAVBS strings10_14.wav
#WAVBT strings11_1.wav
#WAVBU strings11_2.wav
#WAVBV strings11_3.wav
#WAVBW strings11_5.wav
#WAVBX strings11_6.wav
#WAVBY strings11_7.wav
#WAVBZ strings11_8.wav
#WAVC0 strings11_9.wav
#WAVC1 strings11_11.wav
#WAVC2 strings11_12.wav
#WAVC3 strings11_13.wav
#WAVC4 strings11_14.wav
#WAVC5 strings11_15.wav
#WAVC6 strings11_16.wav
#WAVC7 strings11_17.wav
#WAVC8 strings11_18.wav
#WAVC9 strings11_19.wav
#WAVCA strings11_20.wav
#WAVCB strings11_21.wav
#WAVCC strings12_1.wav
#WAVCD strings12_2.wav
#WAVCE strings12_3.wav
#WAVCF strings12_4.wav
#WAVCG strings12_5.wav
#WAVCH strings12_6.wav
#WAVCI strings12_7.wav
#WAVCJ strings12_8.wav
#WAVCK strings12_9.wav
#WAVCL strings12_10.wav
#WAVCM strings12_11.wav
#WAVCN strings12_12.wav
#WAVCO strings12_13.wav
#WAVCP strings12_14.wav
#WAVCQ strings12_15.wav
#WAVCR strings12_16.wav
#WAVCS strings12_18.wav
#WAVCT strings13_1.wav
#WAVCU strings13_2.wav
#WAVCV strings13_3.wav
#WAVCW strings13_4.wav
#WAVCX strings13_5.wav
#WAVCY strings13_6.wav
#WAVCZ strings13_7.wav
#WAVD0 strings13_8.wav
#WAVD1 strings13_9.wav
#WAVD2 strings13_10.wav
#WAVD3 strings13_11.wav
#WAVD4 strings13_12.wav
#WAVD5 strings13_13.wav
#WAVD6 strings13_14.wav
#WAVD7 strings13_15.wav
#WAVD8 strings13_16.wav
#WAVD9 strings13_17.wav
#WAVDA strings14_1.wav
#WAVDB strings14_2.wav
#WAVDC strings14_3.wav
#WAVDD strings14_4.wav
#WAVDE strings14_5.wav
#WAVDF strings14_6.wav
#WAVDG strings14_7.wav
#WAVDH strings14_8.wav
#WAVDI strings14_9.wav
#WAVDJ strings14_10.wav
#WAVDK strings14_11.wav
#WAVDL strings14_12.wav
#WAVDM strings14_13.wav
#WAVDN strings14_14.wav
#WAVDO strings14_15.wav
#WAVDP strings14_16.wav
#WAVDQ strings14_6.wav
#WAVDR strings14_7.wav
#WAVDS strings14_8.wav
#WAVDT chenvalo1_1.wav
#WAVDU chenvalo1_2.wav
#WAVDV chenvalo1_3.wav
#WAVDW chenvalo1_4.wav
#WAVDX chenvalo1_5.wav
#WAVDY chenvalo1_6.wav
#WAVDZ chenvalo1_7.wav
#WAVE0 chenvalo1_8.wav
#WAVE1 chenvalo1_9.wav
#WAVE2 chenvalo1_10.wav
#WAVE3 chenvalo1_11.wav
#WAVE4 chenvalo1_12.wav
#WAVE5 chenvalo1_13.wav
#WAVE6 chenvalo1_14.wav
#WAVE7 chenvalo1_15.wav
#WAVE8 chenvalo2_1.wav
#WAVE9 chenvalo2_2.wav
#WAVEA chenvalo2_3.wav
#WAVEB chenvalo2_4.wav
#WAVEC chenvalo2_5.wav
#WAVED chenvalo2_6.wav
#WAVEE chenvalo2_7.wav
#WAVEF chenvalo3_1.wav
#WAVEG chenvalo3_2.wav
#WAVEH chenvalo3_3.wav
#WAVEI chenvalo3_4.wav
#WAVEJ chenvalo3_5.wav
#WAVEK chenvalo3_6.wav
#WAVEL chenvalo3_7.wav
#WAVEM chenvalo3_8.wav
#WAVEN chenvalo3_9.wav
#WAVEO chenvalo3_10.wav
#WAVEP chenvalo3_11.wav
#WAVEQ chenvalo3_12.wav
#WAVER chenvalo3_13.wav
#WAVES chenvalo3_14.wav
#WAVET chenvalo3_15.wav
#WAVEU chenvalo3_16.wav
#WAVEV chenvalo3_17.wav
#WAVEW chenvalo3_18.wav
#WAVEX chenvalo3_19.wav
#WAVEY chenvalo3_20.wav
#WAVEZ chenvalo3_21.wav
#WAVF0 chenvalo3_22.wav
#WAVF1 chenvalo3_23.wav
#WAVF2 chenvalo3_24.wav
#WAVF3 chenvalo3_25.wav
#WAVF4 chenvalo3_26.wav
#WAVF5 chenvalo3_27.wav
#WAVF6 chenvalo3_28.wav
#WAVF7 chenvalo3_29.wav
#WAVF8 chenvalo3_30.wav
#WAVF9 chenvalo3_31.wav
#WAVFA chenvalo3_32.wav
#WAVFB chenvalo3_33.wav
#WAVFC chenvalo3_34.wav
#WAVFD chenvalo3_35.wav
#WAVFE chenvalo4_1.wav
#WAVFF chenvalo4_2.wav
#WAVFG chenvalo4_3.wav
#WAVFH chenvalo4_4.wav
#WAVFI chenvalo4_5.wav
#WAVFJ chenvalo4_6.wav
#WAVFK chenvalo4_7.wav
#WAVFL chenvalo4_8.wav
#WAVFM chenvalo4_9.wav
#WAVFN chenvalo4_10.wav
#WAVFO chenvalo5_1.wav
#WAVFP chenvalo5_2.wav
#WAVFQ chenvalo5_3.wav
#WAVFR chenvalo5_4.wav
#WAVFS chenvalo5_5.wav
#WAVFT chenvalo5_6.wav
#WAVFU chenvalo5_7.wav
#WAVFV chenvalo5_8.wav
#WAVFW chenvalo5_9.wav
#WAVFX chenvalo5_10.wav
#WAVFY chenvalo5_11.wav
#WAVFZ chenvalo5_12.wav
#WAVG0 chenvalo5_13.wav
#WAVG1 chenvalo5_14.wav
#WAVG2 chenvalo5_15.wav
#WAVG3 chenvalo5_16.wav
#WAVG4 chenvalo5_17.wav
#WAVG5 chenvalo5_18.wav
#WAVG6 chenvalo5_19.wav
#WAVG7 chenvalo5_20.wav
#WAVG8 chenvalo5_21.wav
#WAVG9 chenvalo5_22.wav
#WAVGA chenvalo5_23.wav
#WAVGB chenvalo5_24.wav
#WAVGC chenvalo5_25.wav
#WAVGD chenvalo5_26.wav
#WAVGE chenvalo6_1.wav
#WAVGF chenvalo6_2.wav
#WAVGG chenvalo6_3.wav
#WAVGH chenvalo6_4.wav
#WAVGI chenvalo6_5.wav
#WAVGJ chenvalo6_6.wav
#WAVGK chenvalo6_7.wav
#WAVGL chenvalo6_8.wav
#WAVGM chenvalo6_9.wav
#WAVGN chenvalo6_10.wav
#WAVGO chenvalo6_11.wav
#WAVGP chenvalo6_12.wav
#WAVGQ chenvalo6_13.wav
#WAVGR chor1_1.wav
#WAVGS chor2_1.wav
#WAVGT chor2_2.wav
#WAVGU chor2_3.wav
#WAVGV chor2_4.wav
#WAVGW chor2_5.wav
#WAVGX chor2_6.wav
#WAVGY chor2_7.wav
#WAVGZ chor2_8.wav
#WAVH0 chor2_9.wav
#WAVH1 chor2_10.wav
#WAVH2 chor2_11.wav
#WAVH3 chor2_12.wav
#WAVH4 chor2_13.wav
#WAVH5 chor2_14.wav
#WAVH6 chor2_15.wav
#WAVH7 chor2_16.wav
#WAVH8 chor3_1.wav
#WAVH9 glissando1.wav
#WAVHA harp1_1.wav
#WAVHB harp1_2.wav
#WAVHC harp1_3.wav
#WAVHD harp1_4.wav
#WAVHE harp1_5.wav
#WAVHF harp1_6.wav
#WAVHG harp1_7.wav
#WAVHH harp1_8.wav
#WAVHI harp1_9.wav
#WAVHJ celesta1_1.wav
#WAVHK celesta1_2.wav
#WAVHL celesta1_3.wav
#WAVHM celesta1_4.wav
#WAVHN celesta1_5.wav
#WAVHO celesta1_6.wav
#WAVHP celesta1_7.wav
#WAVHQ celesta1_8.wav
#WAVHR celesta1_9.wav
#WAVHS celesta1_10.wav
#WAVHT celesta1_11.wav
#WAVHU celesta1_12.wav
#WAVHV celesta1_13.wav
#WAVHW celesta1_14.wav
#WAVHX celesta1_15.wav
#WAVHY piano1_1.wav
#WAVHZ piano1_2.wav
#WAVI0 piano1_3.wav
#WAVI1 piano1_4.wav
#WAVI2 piano1_5.wav
#WAVI3 piano1_6.wav
#WAVI4 piano1_7.wav
#WAVI5 piano1_8.wav
#WAVI6 piano1_9.wav
#WAVI7 piano1_10.wav
#WAVI8 piano1_11.wav
#WAVI9 piano1_12.wav
#WAVIA piano1_13.wav
#WAVIB piano1_14.wav
#WAVIC piano1_15.wav
#WAVID piano1_16.wav
#WAVIE piano1_17.wav
#WAVIF piano1_18.wav
#WAVIG piano1_19.wav
#WAVIH piano1_20.wav
#WAVII piano1_21.wav
#WAVIJ piano1_22.wav
#WAVIK piano1_23.wav
#WAVIL piano1_24.wav
#WAVIM piano2_1.wav
#WAVIN piano2_2.wav
#WAVIO piano2_3.wav
#WAVIP piano2_4.wav
#WAVIQ piano2_5.wav
#WAVIR piano2_6.wav
#WAVIS piano2_7.wav
#WAVIT piano2_8.wav
#WAVIU piano2_9.wav
#WAVIV piano2_10.wav
#WAVIW piano2_11.wav
#WAVIX piano2_12.wav
#WAVIY piano2_13.wav
#WAVIZ piano2_14.wav
#WAVJ0 piano2_15.wav
#WAVJ1 piano2_16.wav
#WAVJ2 piano2_17.wav
#WAVJ3 piano2_18.wav
#WAVJ4 piano2_19.wav
#WAVJ5 piano2_21.wav
#WAVJ6 piano2_23.wav
#WAVJ7 piano2_24.wav
#WAVJ8 piano2_25.wav
#WAVJ9 piano2_26.wav
#WAVJA piano2_27.wav
#WAVJB piano2_28.wav
#WAVJC piano2_29.wav
#WAVJD piano2_30.wav
#WAVJE piano2_31.wav
#WAVJF piano2_32.wav
#WAVJG piano2_33.wav
#WAVJH piano2_34.wav
#WAVJI piano3_1.wav
#WAVJJ piano3_2.wav
#WAVJK piano3_3.wav
#WAVJL piano3_4.wav
#WAVJM piano3_5.wav
#WAVJN piano3_6.wav
#WAVJO piano3_7.wav
#WAVJP piano3_8.wav
#WAVJQ piano3_9.wav
#WAVJR piano3_10.wav
#WAVJS piano3_11.wav
#WAVJT piano3_12.wav
#WAVJU piano3_13.wav
#WAVJV piano3_14.wav
#WAVJW piano3_15.wav
#WAVJX piano3_16.wav
#WAVJY piano3_17.wav
#WAVJZ piano3_18.wav
#WAVK0 piano3_19.wav
#WAVK1 piano3_20.wav
#WAVK2 piano3_21.wav
#WAVK3 piano3_22.wav
#WAVK4 piano3_23.wav
#WAVK5 piano3_24.wav
#WAVK6 piano3_25.wav
#WAVK7 piano3_26.wav
#WAVK8 piano3_27.wav
#WAVK9 piano3_28.wav
#WAVKA piano3_29.wav
#WAVKB piano3_30.wav
#WAVKC piano3_31.wav
#WAVKD piano3_32.wav
#WAVKE piano3_33.wav
#WAVKF piano3_34.wav
#WAVKG piano3_35.wav
#WAVKH piano3_36.wav
#WAVKI piano3_37.wav
#WAVKJ piano3_38.wav
#WAVKK piano3_39.wav
#WAVKL piano3_40.wav
#WAVKM piano3_41.wav
#WAVKN piano3_42.wav
#WAVKO piano3_43.wav
#WAVKP piano4_1.wav
#WAVKQ piano4_2.wav
#WAVKR piano4_3.wav
#WAVKS piano4_4.wav
#WAVKT piano4_5.wav
#WAVKU piano4_6.wav
#WAVKV piano4_7.wav
#WAVKW piano4_8.wav
#WAVKX piano4_9.wav
#WAVKY piano4_10.wav
#WAVKZ piano4_11.wav
#WAVL0 piano4_12.wav
#WAVL1 piano4_13.wav
#WAVL2 piano4_14.wav
#WAVL3 piano4_15.wav
#WAVL4 piano4_16.wav
#WAVL5 piano4_17.wav
#WAVL6 piano4_18.wav
#WAVL7 piano4_19.wav
#WAVL8 piano4_20.wav
#WAVL9 piano4_21.wav
#WAVLA piano4_22.wav
#WAVLB piano4_23.wav
#WAVLC piano4_24.wav
#WAVLD piano4_25.wav
#WAVLE piano4_26.wav
#WAVLF piano4_27.wav
#WAVLG piano4_28.wav
#WAVLH piano4_29.wav
#WAVLI piano4_30.wav
#WAVLJ piano4_31.wav
#WAVLK piano4_32.wav
#WAVLL piano4_33.wav
#WAVLM piano4_34.wav
#WAVLN piano4_35.wav
#WAVLO piano4_36.wav
#WAVLP piano4_37.wav
#WAVLQ piano4_38.wav
#WAVLR piano4_39.wav
#WAVLS piano4_40.wav
#WAVLT piano4_41.wav
#WAVLU piano4_42.wav
#WAVLV piano4_43.wav
#WAVLW piano4_44.wav
#WAVLX piano4_45.wav
#WAVLY piano4_46.wav
#WAVLZ piano4_47.wav
#WAVM0 piano4_48.wav
#WAVM1 piano4_49.wav
#WAVM2 piano5_1.wav
#WAVM3 piano5_2.wav
#WAVM4 piano5_3.wav
#WAVM5 piano5_4.wav
#WAVM6 piano5_5.wav
#WAVM7 piano5_6.wav
#WAVM8 piano5_7.wav
#WAVM9 piano5_8.wav
#WAVMA piano5_9.wav
#WAVMB piano5_10.wav
#WAVMC piano5_11.wav
#WAVMD piano5_12.wav
#WAVME piano5_13.wav
#WAVMF piano5_14.wav
#WAVMG piano6_1.wav
#WAVMH piano6_2.wav
#WAVMI piano6_3.wav
#WAVMJ piano6_4.wav
#WAVMK piano6_5.wav
#WAVML piano6_6.wav
#WAVMM piano6_7.wav
#WAVMN piano6_8.wav
#WAVMO piano6_9.wav
#WAVMP piano6_10.wav
#WAVMQ piano6_11.wav
#WAVMR piano6_12.wav
#WAVMS piano6_13.wav
#WAVMT piano6_14.wav
#WAVMU piano6_15.wav
#WAVMV piano6_16.wav
#WAVMW piano6_17.wav
#WAVMX piano6_18.wav
#WAVMY piano6_19.wav
#WAVMZ piano6_20.wav
#WAVN0 piano6_21.wav
#WAVN1 piano6_22.wav
#WAVN2 piano6_23.wav
#WAVN3 piano6_24.wav
#WAVN4 piano6_25.wav
#WAVN5 piano6_26.wav
#WAVN6 piano6_27.wav
#WAVN7 piano6_28.wav
#WAVN8 piano6_29.wav
#WAVN9 piano6_30.wav
#WAVNA piano6_31.wav
#WAVNB piano6_32.wav
#WAVNC piano7_1.wav
#WAVND piano7_2.wav
#WAVNE piano7_3.wav
#WAVNF piano7_4.wav
#WAVNG piano7_5.wav
#WAVNH piano7_6.wav
#WAVNI piano7_7.wav
#WAVNJ piano7_8.wav
#WAVNK piano7_9.wav
#WAVNL piano7_10.wav
#WAVNM piano7_11.wav
#WAVNN piano7_12.wav
#WAVNO piano7_13.wav
#WAVNP piano7_14.wav
#WAVNQ piano7_15.wav
#WAVNR piano7_16.wav
#WAVNS piano7_17.wav
#WAVNT piano7_18.wav
#WAVNU piano7_19.wav
#WAVNV piano7_20.wav
#WAVNW piano7_21.wav
#WAVNX piano7_22.wav
#WAVNY piano7_23.wav
#WAVNZ piano7_24.wav
#WAVO0 piano7_25.wav
#WAVO1 piano7_26.wav
#WAVO2 piano7_27.wav
#WAVO3 piano7_28.wav
#WAVO4 piano7_29.wav
#WAVO5 piano7_30.wav
#WAVO6 piano7_31.wav
#WAVO7 piano7_32.wav
#WAVO8 piano7_33.wav
#WAVO9 piano7_34.wav
#WAVOA piano7_35.wav
#WAVOB piano7_36.wav
#WAVOC piano7_37.wav
#WAVOD piano7_38.wav
#WAVOE piano7_39.wav
#WAVOF piano8_1.wav
#WAVOG piano8_2.wav
#WAVOH piano8_3.wav
#WAVOI piano8_4.wav
#WAVOJ piano8_5.wav
#WAVOK piano8_6.wav
#WAVOL piano8_7.wav
#WAVOM piano8_8.wav
#WAVON piano8_9.wav
#WAVOO piano8_10.wav
#WAVOP piano8_11.wav
#WAVOQ piano8_12.wav
#WAVOR piano8_14.wav
#WAVOS piano8_15.wav
#WAVOT piano8_16.wav
#WAVOU piano8_17.wav
#WAVOV piano8_18.wav
#WAVOW piano8_19.wav
#WAVOX piano8_20.wav
#WAVOY piano8_21.wav
#WAVOZ piano8_22.wav
#WAVP0 piano8_23.wav
#WAVP1 piano8_24.wav
#WAVP2 piano8_25.wav
#WAVP3 piano8_26.wav
#WAVP4 piano8_27.wav
#WAVP5 piano8_28.wav
#WAVP6 piano8_29.wav
#WAVP7 piano8_30.wav
#WAVP8 piano8_31.wav
#WAVP9 piano8_32.wav
#WAVPA piano8_33.wav
#WAVPB piano8_34.wav
#WAVPC piano8_35.wav
#WAVPD piano8_36.wav
#WAVPE piano9_1.wav
#WAVPF piano9_2.wav
#WAVPG piano9_3.wav
#WAVPH piano9_4.wav
#WAVPI piano9_5.wav
#WAVPJ piano9_6.wav
#WAVPK piano9_7.wav
#WAVPL piano9_8.wav
#WAVPM piano9_9.wav
#WAVPN piano9_10.wav
#WAVPO piano9_11.wav
#WAVPP piano9_12.wav
#WAVPQ piano9_13.wav
#WAVPR piano9_14.wav
#WAVPS piano9_15.wav
#WAVPT piano9_16.wav
#WAVPU piano9_17.wav
#WAVPV piano9_18.wav
#WAVPW piano9_19.wav
#WAVPX piano9_20.wav
#WAVPY piano9_21.wav
#WAVPZ piano9_22.wav
#WAVQ0 pianoadrib1_1.wav
#WAVQ1 pianoadrib1_2.wav
#WAVQ2 pianoadrib1_3.wav
#WAVQ3 pianoadrib1_4.wav
#WAVQ4 pianoadrib1_5.wav
#WAVQ5 pianoadrib1_6.wav
#WAVQ6 pianoadrib1_7.wav
#WAVQ7 pianoadrib1_8.wav
#WAVQ8 pianoadrib1_9.wav
#WAVQ9 pianoadrib1_10.wav
#WAVQA pianoadrib1_11.wav
#WAVQB pianoadrib1_12.wav
#WAVQC pianoadrib1_13.wav
#WAVQD pianoadrib1_14.wav
#WAVQE pianoadrib1_15.wav
#WAVQF pianoadrib1_16.wav
#WAVQG pianoadrib1_17.wav
#WAVQH pianoadrib1_18.wav
#WAVQI pianoadrib1_19.wav
#WAVQJ pianoadrib1_20.wav
#WAVQK pianoadrib1_21.wav
#WAVQL pianoadrib1_22.wav
#WAVQM pianoadrib1_23.wav
#WAVQN pianoadrib1_24.wav
#WAVQO pianoadrib1_25.wav
#WAVQP pianoadrib1_26.wav
#WAVQQ pianoadrib1_27.wav
#WAVQR pianoadrib1_28.wav
#WAVQS pianoadrib1_29.wav
#WAVQT pianoadrib1_30.wav
#WAVQU pianoadrib1_31.wav
#WAVQV pianoadrib1_32.wav
#WAVQW pianoadrib1_33.wav
#WAVQX pianoadrib1_34.wav
#WAVQY pianoadrib1_35.wav
#WAVQZ pianoadrib1_36.wav
#WAVR0 pianoadrib1_37.wav
#WAVR1 pianoadrib1_38.wav
#WAVR2 pianoadrib1_39.wav
#WAVR3 pianoadrib1_40.wav
#WAVR4 pianoadrib1_41.wav
#WAVR5 pianoadrib1_42.wav
#WAVR6 pianoadrib1_43.wav
#WAVR7 pianoadrib1_44.wav
#WAVR8 pianoadrib1_45.wav
#WAVR9 pianoadrib1_46.wav
#WAVRA pianoadrib1_47.wav
#WAVRB pianoadrib1_48.wav
#WAVRC pianoadrib1_49.wav
#WAVRD pianoadrib1_50.wav
#WAVRE pianoadrib1_64.wav
#WAVRF pianoadrib1_51.wav
#WAVRG pianoadrib1_52.wav
#WAVRH pianoadrib1_53.wav
#WAVRI pianoadrib1_54.wav
#WAVRJ pianoadrib1_55.wav
#WAVRK pianoadrib1_56.wav
#WAVRL pianoadrib1_57.wav
#WAVRM pianoadrib1_58.wav
#WAVRN pianoadrib1_59.wav
#WAVRO pianoadrib1_60.wav
#WAVRP pianoadrib1_61.wav
#WAVRQ pianoadrib1_62.wav
#WAVRR pianoadrib1_63.wav
#WAVRS piano10_1.wav
#WAVRT piano10_2.wav
#WAVRU piano10_3.wav
#WAVRV piano10_4.wav
#WAVRW piano10_5.wav
#WAVRX piano10_6.wav
#WAVRY piano10_7.wav
#WAVRZ piano10_8.wav
#WAVS0 piano10_9.wav
#WAVS1 piano10_10.wav
#WAVS2 piano11_1.wav
#WAVS3 piano11_2.wav
#WAVS4 piano11_3.wav
#WAVS5 piano11_4.wav
#WAVS6 piano11_5.wav
#WAVS7 piano11_6.wav
#WAVS8 piano11_7.wav
#WAVS9 piano11_8.wav
#WAVSA piano11_9.wav
#WAVSB piano11_10.wav
#WAVSC piano11_11.wav
#WAVSD piano11_12.wav
#WAVSE piano11_13.wav
#WAVSF piano11_14.wav
#WAVSG piano11_15.wav
#WAVSH synthlo1_168_000.wav
#WAVSI synthlo1_168_001.wav
#WAVSJ synthlo1_168_002.wav
#WAVSK synthlo1_168_003.wav
#WAVSL synthlo1_168_004.wav
#WAVSM synthlo1_168_005.wav
#WAVSN synthlo1_168_006.wav
#WAVSO synthlo1_168_007.wav
#WAVSP synthlo1_168_008.wav
#WAVSQ synthl1_0170_000.wav
#WAVSR synthl1_0170_001.wav
#WAVSS synthl1_0170_002.wav
#WAVST synthl1_0170_003.wav
#WAVSU synthl1_0170_004.wav
#WAVSV synthl1_172_000.wav
#WAVSW synthl1_172_001.wav
#WAVSX synthl1_172_002.wav
#WAVSY synthl1_172_003.wav
#WAVSZ synthl1_172_004.wav
#WAVT0 synthl1_172_005.wav
#WAVT1 synthl1_172_006.wav
#WAVT2 synthl1_172_007.wav
#WAVT3 synthl1_172_008.wav
#WAVT4 synthl1_174_000.wav
#WAVT5 synthl1_174_001.wav
#WAVT6 synthl1_174_002.wav
#WAVT7 synthl1_174_003.wav
#WAVT8 synthl1_174_004.wav
#WAVT9 synthl1_174_005.wav
#WAVTA synthl1_174_006.wav
#WAVTB synthlo2_172_000.wav
#WAVTC synthlo2_172_001.wav
#WAVTD synthlo2_172_002.wav
#WAVTE synthlo2_172_003.wav
#WAVTF synthlo2_172_004.wav
#WAVTG synthlo2_172_005.wav
#WAVTH synthlo2_172_006.wav
#WAVTI synthlo2_172_007.wav
#WAVTJ synthlo2_172_008.wav
#WAVTK synthlo2_172_009.wav
#WAVTL synthlo2_172_010.wav
#WAVTM synthlo2_172_011.wav
#WAVTN synthlo2_172_012.wav
#WAVTO synthlo2_172_013.wav
#WAVTP synthlo2_172_014.wav
#WAVTQ synthlo2_172_015.wav
#WAVTR synthlo2_172_016.wav
#WAVTS synthlo2_172_017.wav
#WAVTT synthlo2_172_018.wav
#WAVTU synthlo2_172_019.wav
#WAVTV synthlo2_172_020.wav
#WAVTW synthlo2_172_021.wav
#WAVTX synthlo2_172_022.wav
#WAVTY slap_000.wav
#WAVTZ slap_001.wav
#WAVU0 slap_002.wav
#WAVU1 slap_003.wav
#WAVU2 slap_004.wav
#WAVU3 slap_005.wav
#WAVU4 slap_006.wav
#WAVU5 slap2_000.wav
#WAVU6 slap2_001.wav
#WAVU7 slap2_002.wav
#WAVU8 slap2_003.wav
#WAVU9 slap2_004.wav
#WAVUA slap2_005.wav
#WAVUB piano9_23.wav
#WAVUC piano9_24.wav
#WAVUD piano9_25.wav
#WAVUE piano9_26.wav
#WAVUF piano9_27.wav
#WAVUG strings34_1_000.wav
#WAVUH strings34_1_001.wav
#WAVUI strings34_1_002.wav
#WAVUJ strings34_1_003.wav
#WAVUK strings34_1_004.wav
#WAVUL strings34_1_005.wav
#WAVUM strings34_1_006.wav
#WAVUN strings34_1_007.wav
#WAVUO strings34_1_008.wav
#WAVUP strings34_1_009.wav
#WAVUQ strings34_1_010.wav
#WAVUR strings34_1_011.wav
#WAVUS strings34_1_012.wav
#WAVUT strings34_1_013.wav
#WAVUU strings34_1_014.wav
#WAVUV strings34_1_015.wav
#WAVUW strings34_1_016.wav
#WAVUX strings34_1_017.wav
#WAVUY strings34_1_018.wav
#WAVUZ strings34_1_019.wav
#WAVV0 strings34_1_020.wav
#WAVV1 strings34_1_021.wav
#WAVV2 strings34_1_022.wav
#WAVV3 strings34_1_023.wav
#WAVV4 strings34_1_024.wav
#WAVV5 strings34_1_025.wav
#WAVV6 strings34_2_000.wav
#WAVV7 strings34_2_001.wav
#WAVV8 strings34_2_002.wav
#WAVV9 strings34_2_003.wav
#WAVVA strings34_2_004.wav
#WAVVB strings34_2_005.wav
#WAVVC strings34_2_006.wav
#WAVVD strings34_2_007.wav
#WAVVE strings34_2_008.wav
#WAVVF strings34_2_009.wav
#WAVVG strings34_2_010.wav
#WAVVH strings34_2_011.wav
#WAVVI strings34_2_012.wav
#WAVVJ strings34_2_013.wav
#WAVVK strings34_2_014.wav
#WAVVL strings34_2_015.wav
#WAVVM strings34_2_016.wav
#WAVVN strings34_2_017.wav
#WAVVO strings34_2_018.wav
#WAVVP strings34_2_019.wav
#WAVVQ strings34_2_020.wav
#WAVVR strings34_2_021.wav
#WAVVS strings34_2_022.wav
#WAVVT strings34_2_023.wav
#WAVVU strings34_2_024.wav
#WAVVV strings34_3_000.wav
#WAVVW strings34_3_001.wav
#WAVVX strings34_3_002.wav
#WAVVY strings34_3_003.wav
#WAVVZ strings34_3_004.wav
#WAVW0 strings34_3_005.wav
#WAVW1 strings34_3_006.wav
#WAVW2 strings34_3_007.wav
#WAVW3 strings34_4_000.wav
#WAVW4 strings34_4_001.wav
#WAVW5 strings34_4_002.wav
#WAVW6 strings34_4_003.wav
#WAVW7 strings34_4_004.wav
#WAVW8 strings34_4_005.wav
#WAVW9 strings34_4_006.wav
#WAVWA strings34_4_007.wav
#WAVWB strings34_5_000.wav
#WAVWC strings34_5_001.wav
#WAVWD strings34_5_002.wav
#WAVWE strings34_5_003.wav
#WAVWF strings34_5_004.wav
#WAVWG strings34_5_005.wav
#WAVWH strings34_5_006.wav
#WAVWI strings34_5_007.wav
#WAVWJ piano34_1_000.wav
#WAVWK piano34_1_001.wav
#WAVWL piano34_1_002.wav
#WAVWM piano34_1_003.wav
#WAVWN piano34_1_004.wav
#WAVWO piano34_1_005.wav
#WAVWP piano34_1_006.wav
#WAVWQ piano34_1_007.wav
#WAVWR piano34_1_008.wav
#WAVWS piano34_1_009.wav
#WAVWT piano34_1_010.wav
#WAVWU piano34_1_011.wav
#WAVWV piano34_1_012.wav
#WAVWW piano34_1_013.wav
#WAVWX piano34_1_014.wav
#WAVWY piano34_1_015.wav
#WAVWZ piano34_1_016.wav
#WAVX0 piano34_1_017.wav
#WAVX1 piano34_1_018.wav
#WAVX2 piano34_1_019.wav
#WAVX3 piano34_1_020.wav
#WAVX4 piano34_1_021.wav
#WAVX5 piano34_1_022.wav
#WAVX6 piano34_1_023.wav
#WAVX7 piano34_1_024.wav
#WAVX8 piano34_1_025.wav
#WAVX9 piano34_1_026.wav
#WAVXA piano34_6_000.wav
#WAVXB piano34_6_001.wav
#WAVXC piano34_6_002.wav
#WAVXD piano34_6_003.wav
#WAVXE piano34_6_004.wav
#WAVXF piano34_6_005.wav
#WAVXG piano34_6_006.wav
#WAVXH piano34_6_007.wav
#WAVXI piano34_6_008.wav
#WAVXJ piano34_6_009.wav
#WAVXK piano34_6_010.wav
#WAVXL piano34_6_011.wav
#WAVXM piano34_6_012.wav
#WAVXN piano34_6_013.wav
#WAVXO piano34_6_014.wav
#WAVXP piano34_6_015.wav
#WAVXQ piano34_6_016.wav
#WAVXR piano34_6_017.wav
#WAVXS piano34_6_018.wav
#WAVXT piano34_6_019.wav
#WAVXU piano34_6_020.wav
#WAVXV piano34_6_021.wav
#WAVXW piano34_6_022.wav
#WAVXX piano34_6_023.wav
#WAVXY piano34_6_024.wav
#WAVXZ piano34_6_025.wav
#WAVY0 piano34_6_026.wav
#WAVY1 piano34_6_027.wav
#WAVY2 piano34_6_028.wav
#WAVY3 piano34_6_029.wav
#WAVY4 piano34_6_030.wav
#WAVY5 piano34_6_031.wav
#WAVY6 piano34_6_032.wav
#WAVY7 piano34_9_000.wav
#WAVY8 piano34_9_001.wav
#WAVY9 piano34_9_002.wav
#WAVYA piano34_9_003.wav
#WAVYB piano34_9_004.wav
#WAVYC piano34_9_005.wav
#WAVYD piano34_9_006.wav
#WAVYE piano34_9_007.wav
#WAVYF piano34_9_008.wav
#WAVYG piano34_9_009.wav
#WAVYH piano34_9_010.wav
#WAVYI piano34_9_011.wav
#WAVYJ piano34_9_012.wav
#WAVYK pianost22_000.wav
#WAVYL pianost22_001.wav
#WAVYM pianost22_002.wav
#WAVYN pianost22_003.wav
#WAVYO pianost22_004.wav
#WAVYP pianost22_005.wav
#WAVYQ pianost22_006.wav
#WAVYR pianost22_007.wav
#WAVYS pianost22_008.wav
#WAVYT pianost22_009.wav
#WAVYU pianost22_010.wav
#WAVYV pianost22_011.wav
#WAVYW pianost22_012.wav
#WAVYX pianost22_013.wav
#WAVYY pianost22_014.wav
#WAVYZ pianost22_015.wav
#WAVZ0 pianost22_016.wav
#WAVZ1 pianost22_017.wav
#WAVZ2 pianost22_018.wav
#WAVZ3 pianost22_019.wav
#WAVZ4 pianost22_020.wav
#WAVZ5 pianost22_021.wav
#WAVZ6 pianost22_022.wav
#WAVZ7 pianost22_023.wav
#WAVZ8 pianost22_024.wav
#WAVZ9 pianost22_025.wav
#WAVZA pianost22_026.wav
#WAVZB pianost22_027.wav
#WAVZC pianost22_028.wav
#WAVZD pianost22_1_000.wav
#WAVZE pianost22_1_001.wav
#WAVZF pianost22_1_002.wav
#WAVZG pianost22_2_000.wav
#WAVZH pianost22_2_001.wav
#WAVZI pianost22_2_002.wav
#WAVZJ pianost22_3_000.wav
#WAVZK pianost22_3_001.wav
#WAVZL pianost22_3_002.wav
#WAVZM bgm2.wav
#WAVZN bgm6.wav
#WAVZO bgm22.wav
#WAVZP bgm34.wav
#WAVZQ bgm50.wav
#WAVZR bgm58.wav
#WAVZS bgm72.wav
#WAVZT bgm90.wav
#WAVZU celesta1_2.wav
#WAVZV celesta1_7.wav
#WAVZW celesta1_1.wav
#WAVZX celesta1_9.wav
#WAVZY celesta1_10.wav
#BMP01 _bga.mpg
#SUBARTIST Movie:<3A>z<EFBFBD>N / Illust:<3A>Z<EFBFBD>V<EFBFBD><56><EFBFBD><EFBFBD><EFBFBD>^<5E>C<EFBFBD>g
#BACKBMP _backbmp.png
#DIFFICULTY 5
#BANNER _banner.png
*---------------------- MAIN DATA FIELD
#00002:0.0625
#00103:9A
#00104:0001
#00201:3A
#00201:00
#00201:00
#00201:00
#00201:00
#00201:00
#00201:00
#00201:00
#00201:00
#00201:00
#00201:00
#00201:00
#00201:00
#00201:00
#00201:00
#00201:00
#00201:00
#00201:00
#00201:00
#00201:00HK00ZU00HK00ZU
#00201:00
#00201:HP
#00201:000000HR
#00201:00HS
#00201:00HU0000
#00201:00
#00201:00
#00201:00
#00201:00
#00201:00
#00201:00
#00201:ZM
#00203:009C
#00301:00
#00301:00
#00301:00
#00301:00
#00301:00
#00301:00
#00301:00
#00301:00
#00301:00
#00301:00
#00301:00
#00301:00
#00301:00
#00301:00
#00301:00
#00301:00
#00301:00
#00301:00
#00301:00
#00301:00HK000000HK0000
#00301:00000000000000HO
#00301:HPZV00HP
#00301:000000HR00000000
#00301:00HS
#00303:A0A4
#00401:00
#00401:00
#00401:00
#00401:00
#00401:0U00000000000R00000S00000R000S000R000S00000R00000000000S00000T00000R00000S00000T00000000000R0000
#00401:00
#00401:00
#00401:00
#00401:00
#00401:00
#00401:00
#00401:00
#00401:00
#00401:00
#00401:00
#00401:00
#00401:00
#00401:00
#00401:00HJ00ZW00000000
#00401:00
#00401:00HL0000
#00401:ZVHP
#00401:0000000000HR0000
#00401:000000HS
#00401:00000000000000HU
#00403:A8AC
#00411:02
#00412:0002
#00413:HY
#00414:00HY
#00426:0A0B
#00501:00
#00501:00
#00501:00
#00501:00
#00501:0U000S0R0T000R0S0U00000000000000
#00501:00
#00501:00
#00501:00
#00501:00
#00501:00
#00501:00
#00501:00
#00501:00
#00501:00
#00501:00
#00501:00
#00501:00
#00501:00
#00501:00
#00501:00
#00501:00HM000000000000
#00501:000000HP00000000
#00501:00HRZX00
#00501:ZY
#00501:00
#00501:00
#00501:00
#00501:00
#00501:00
#00501:0000000000000000U500U6U700U8U9UA
#00503:AD
#00511:02
#00512:00020000
#00513:I102
#00514:00I10000
#00515:HZI2
#00518:00000000HZ0000000000005T00000000
#00519:00000000I000005U
#00522:0000000000000000000000I300000000
#00523:00000000000000I4
#00524:0000000000000000000000DT00000000
#00525:00000000000000DU
#00526:0C0C0D00
#00601:00
#00601:00
#00601:0I0I0I0I
#00601:000J000J000J000J
#00601:0U0R0S0R
#00601:0N0N0N0N
#00601:00
#00601:00
#00601:0000000000I60000
#00601:00
#00601:00
#00601:00
#00601:00
#00601:00
#00601:00
#00601:00
#00601:00
#00601:00
#00601:00
#00601:5V6T006T006T006T
#00601:00
#00601:00
#00601:00
#00601:00
#00601:00DX00DY
#00601:DVDV
#00601:00DW00DW00DW0000
#00601:00
#00601:00
#00601:00
#00601:00
#00601:ZN
#00603:AC
#00611:0200020002000303
#00612:00000000000000000000000I00000000
#00613:080000000000000U
#00614:0000000S0000000R0000000S00000000
#00615:GR
#00618:000R000S000R0000
#00621:I5000000000000IN000000006S000000
#00622:00I60000IO000000
#00623:00000000I700000000IP0000I80000IQ
#00624:6R0000I600IQ00IR
#00625:000000006S000000I50000IR00000000
#00628:IM0000IS
#00629:006R
#00701:00
#00701:00
#00701:0I0I0I0I
#00701:000J000J000J000J
#00701:000R0S0R
#00701:0N0N0N0N
#00701:00
#00701:00
#00701:00000000I5I60000
#00701:00
#00701:00
#00701:00
#00701:00
#00701:00
#00701:00
#00701:00
#00701:00
#00701:00
#00701:00
#00701:006T006T006T6V6T
#00701:00
#00701:00
#00701:00
#00701:00
#00701:00DX0000
#00701:DVDV
#00701:00DW00DW00DW0000
#00701:000000DZ
#00711:02000000020000000200000400000300
#00712:00000000000000000000000I00000000
#00713:0U00000000000000000I000000000U00
#00714:0000000S0000000R0000000S00000000
#00718:000R000S000R0000
#00719:00000003
#00721:00IU00IX00006U00
#00722:I5IW5V00
#00723:0000I6000000I600005W0000I9000060
#00724:0000I700005X0000
#00725:IT00000000000000IY00005Y00006100
#00728:006S005Z
#00729:6R0000IV000000006R00000000600000
#00801:00
#00801:00
#00801:0I0I0K0I
#00801:000J000J000J000J
#00801:000R0S0R
#00801:0N0N0N0N
#00801:00
#00801:00
#00801:00
#00801:00
#00801:00
#00801:00
#00801:00
#00801:00
#00801:00
#00801:00
#00801:00
#00801:00
#00801:00
#00801:006T006T006T006T
#00801:00
#00801:00
#00801:00
#00801:00
#00801:00DX00DY
#00801:DVDV
#00801:00DW00DW00DW0000
#00811:02000000020000000200000400000400
#00812:00000000000000000000000I00000000
#00813:0U000000000000000000000000000000000L000000000000000000000U000000
#00814:0000000S0000000R000M000S00000000
#00815:000000000000000000000000000000000000000I000000000000000000000000
#00818:000R000S000R0000
#00819:00000000000000000000000003000004
#00821:62006S00I5000069
#00822:000000I600006800
#00823:0000I700006700IB
#00824:I500000000000000660000006S0000IC
#00825:00I6006500I60000
#00828:6R646RIA
#00829:0063000000000000
#00901:00
#00901:00
#00901:0I0I0I0I
#00901:000J000J000J000J
#00901:000R0000
#00901:0N0N0N0N
#00901:00
#00901:00
#00901:00
#00901:00
#00901:00
#00901:00
#00901:00
#00901:IZJ0IZ00
#00901:00
#00901:00
#00901:00
#00901:00
#00901:00
#00901:006T006T006T0000
#00901:00
#00901:00
#00901:00
#00901:00
#00901:00000000DX000000000000E000000000
#00901:DVDV
#00901:00DW00DW00DW00E2
#00901:00
#00901:000000E1
#00911:0200020002000303
#00912:00000000000000000000000I00000000
#00913:0U00000000000000000I000000000U00
#00914:0000000S0000000R0000000U00000000
#00915:000S
#00918:000R000S000R0000
#00919:0000000000000000000T00000U000000
#00921:000000I600I60000
#00922:6A000000I7000000I500006C00000000
#00923:00I6000000000000
#00924:000000006B000000000000J10000J200
#00925:I5006AI9
#00928:00006S000000006E
#00929:6R006R6D
#01001:00
#01001:00
#01001:0I0I0I0I
#01001:000J000J000J000J
#01001:0U0R0S0R
#01001:0N0N0N0N
#01001:00
#01001:00
#01001:00
#01001:00
#01001:00
#01001:00
#01001:00
#01001:00
#01001:00
#01001:00
#01001:00
#01001:00
#01001:00
#01001:006T006T006T006T
#01001:00
#01001:00
#01001:00
#01001:00
#01001:00DX00DY
#01001:DV
#01001:00DW00DW00DW0000
#01011:I500000000000000006S006F
#01012:00I60000DV000000
#01013:00I700I8
#01014:6R0000000000000000000000I600000000000000I6000000000000000000006H
#01015:006SI500
#01018:J300000000000000000000000000006G
#01019:006R
#01021:0200020002000303
#01022:00000000000000000000000I00000000
#01023:080000000000000U
#01024:0000000S0000000R0000000S00000000
#01025:GR
#01028:000R000S000R0000
#01101:00
#01101:00
#01101:0I0I0I0I
#01101:000J000J000J000J
#01101:000R0S0R
#01101:0N0N0N0N
#01101:00
#01101:00
#01101:00J4
#01101:00
#01101:00
#01101:00
#01101:00
#01101:00
#01101:00
#01101:00
#01101:00
#01101:00
#01101:00
#01101:006T006T006T6V6T
#01101:00
#01101:00
#01101:00
#01101:00
#01101:00DX0000
#01101:DVDV
#01101:00DW00DW00DW0000
#01101:000000DZ
#01111:006J006M00000000
#01112:6I006L00I50000IX
#01113:00I600I60000I900
#01114:0000I70000I60000
#01115:I5006NJ5
#01118:00006S0000IW0000
#01119:6R00006K000000006R0000006U000000
#01121:02000000020000000200000400000300
#01122:00000000000000000000000I00000000
#01123:0U00000000000000000I000000000U00
#01124:0000000S0000000R0000000S00000000
#01128:000R000S000R0000
#01129:00000003
#01201:00
#01201:00
#01201:0I0I0I0I
#01201:000J000J000J000J
#01201:000R0R00
#01201:0N0N0N0N
#01201:00
#01201:00
#01201:I500I6000000I6000000I6ID0000IFIG
#01201:00
#01201:00
#01201:00
#01201:00
#01201:00
#01201:00
#01201:00
#01201:00
#01201:00
#01201:00
#01201:006T006T006T006T
#01201:00
#01201:00
#01201:00
#01201:00
#01201:00000000DX000000000000E3DY000000
#01201:DV000000DV0000E4
#01201:0000DW000000DW000000DW00000000E5
#01211:J70000J9000000006R00000000000000
#01212:00J8J80000006S00
#01213:0000000000J90000I500000000000000
#01214:J60000000000JA0000JD0000IE0000JH
#01215:00000000I70000JB0000JE000000JG00
#01218:6R00000000000000JC0000JF00JF0000
#01219:006S00JG
#01221:02000000020000000200000400000400
#01222:00000000000000000000000I00000000
#01223:0U000000000000000000000000000004
#01224:0000000S0000000S0000000U0000000S
#01225:0000000U
#01228:000R000T000S000R
#01229:00000003
#01301:00
#01301:00
#01301:00
#01301:00
#01301:0U0000000R0S0R0S0U00000000000000
#01301:00
#01301:00000000000V0000
#01301:000000IL
#01311:090C0D00
#01314:00IK0000
#01315:IJIJ
#01316:0000000W
#01318:00II0000
#01319:IHIH
#01321:02020200
#01324:006P0000
#01325:6O6Q
#01328:00E70000
#01329:E6E6
#01401:00
#01401:00
#01401:00
#01401:00
#01401:00
#01401:13001400150016171819140015001617
#01401:00
#01401:00
#01401:00
#01401:00
#01401:00
#01401:00
#01401:00
#01401:00
#01401:00
#01401:00
#01401:6W
#01401:00
#01401:00
#01401:007A
#01401:79
#01403:A6A8
#01411:02
#01412:00JS00JS00JS00JS
#01413:08
#01421:JJ
#01422:00JJ0000
#01423:JI
#01424:00HP00JL
#01425:HSJK
#01428:000000HV
#01429:00HW
#01501:00
#01501:00
#01501:00
#01501:00
#01501:00
#01501:13001A00150016171819140015001617
#01501:00
#01501:00
#01501:00
#01501:00
#01501:00
#01501:00
#01501:00
#01501:00
#01501:00
#01501:00
#01501:006Y
#01501:6X
#01501:00
#01501:00
#01501:007C
#01501:00
#01501:7B
#01503:AA
#01513:00JT00JT00000000
#01514:0000000000KO00KO
#01521:00JN
#01522:00JM00JQ
#01523:JL000000000000JL
#01524:0000HTHU
#01525:0000HU00000000HV
#01528:HV
#01601:00
#01601:00
#01601:00
#01601:00
#01601:00
#01601:13001400150016171819140015001617
#01601:00
#01601:00
#01601:00
#01601:00
#01601:00
#01601:JM
#01601:00
#01601:00
#01601:00
#01601:00
#01601:00
#01601:6Z
#01601:00
#01601:007E
#01601:00
#01601:7D
#01603:AC
#01614:00KO000000000000
#01615:000000JJ00JJ00JJ
#01623:00JO0000
#01624:JK0000JK
#01625:00HQJP00
#01628:HW0000HW
#01629:00HX
#01701:00
#01701:00
#01701:00
#01701:00
#01701:00
#01701:13001A00150016171819140015001617
#01701:00
#01701:00
#01701:00
#01701:00
#01701:00
#01701:00
#01701:00
#01701:00
#01701:00
#01701:00
#01701:70
#01701:0071
#01701:00
#01701:00
#01701:7F
#01701:007G
#01703:AE
#01713:0000000000JU0000
#01714:000000JQ
#01715:00000000000000JR
#01718:00JO00JO00000000
#01721:000000JM00000000
#01722:00JLJL00
#01723:JK00000000HR0000
#01724:000000HU0000HU00
#01725:0000HV00HV0000HV
#01728:HW
#01801:00
#01801:00
#01801:00
#01801:00
#01801:00
#01801:13001400150016171819140015001617
#01801:00
#01801:00
#01801:00
#01801:00
#01801:00
#01801:KH
#01801:00
#01801:00
#01801:00
#01801:00
#01801:72
#01801:00
#01801:00
#01801:00
#01801:00
#01801:00
#01801:7H
#01803:ACAA
#01812:0000000000K00000
#01813:000000K1
#01814:00000000000000JZ000000000000K200
#01818:JV0000JWJX0000000000000000000000
#01822:0000000000HP0000
#01823:000000JYJY00HT00
#01824:00000000000000HU
#01825:00KI
#01828:HW
#01901:00
#01901:00
#01901:00
#01901:00
#01901:00
#01901:13001A00150016171819140015001617
#01901:00
#01901:00
#01901:00
#01901:000000KK
#01901:00
#01901:00
#01901:00
#01901:00
#01901:00
#01901:00
#01901:00
#01901:73
#01901:00
#01901:00
#01901:00
#01901:7I
#01903:A8A7
#01911:0000000000K00000
#01912:000000K1
#01913:00000000000000K6000000000000K200
#01915:K30000K4K50000000000000000000000
#01921:0000000000HP0000
#01922:000000JZJZ00HT00
#01923:00000000000000HU
#01924:00KJ
#01925:HV
#02001:00
#02001:00
#02001:00
#02001:00
#02001:0U00000000000R00000S00000R000S000R000S00000R00000000000S00000T00000R00000S00000T00000000000R0000
#02001:13001400150016171819140015001617
#02001:00
#02001:00
#02001:00
#02001:00
#02001:00
#02001:00
#02001:00
#02001:00
#02001:00
#02001:00
#02001:00
#02001:00750000
#02001:74000077
#02001:007K7600
#02001:7J00007M
#02001:007L
#02003:ACAD
#02011:0202
#02014:K70B
#02018:HYHY
#02022:0A
#02023:00K800KA
#02024:HSK9
#02025:00HR00HW
#02028:00HX
#02101:00
#02101:00000000005Q0000
#02101:00
#02101:00
#02101:0U000S0R0T000R0S0000000000000000
#02101:00
#02101:00
#02101:00
#02101:I1I1I200
#02101:0000000000KL0000
#02101:000000KM
#02101:00000000005L00KN
#02101:0000005M
#02101:000000000000005N
#02101:00
#02101:00
#02101:00
#02101:00
#02101:78
#02101:00
#02101:7N
#02101:00
#02101:00
#02101:ED
#02101:00
#02101:00
#02101:00
#02101:00
#02101:00
#02101:0000000000000000TY00TZU0U1U2U3U4
#02103:00AC
#02111:02020300
#02112:00ED0000
#02113:00000000000000EC0000000000000000
#02114:E80000E9000000000000000000000000
#02115:000000EBEB000000
#02118:0CEA0000
#02119:00EE
#02121:HZHZI000
#02122:00000000000000KF0000000000000000
#02123:KB0000KC000000000000000000000000
#02124:000000KEKG000000
#02125:HWKD0000
#02128:005K
#02129:000C0000
#02201:08
#02201:00
#02201:0I0I00000I0I00000I0I00000I0I0000
#02201:000J000J000J000J
#02201:000Q000Q
#02201:00
#02201:1B001C001D001E1F1G1H1C001D001E1F
#02201:00000607000006070000060700000607
#02201:00
#02201:00
#02201:00
#02201:00
#02201:00
#02201:00
#02201:00
#02201:00
#02201:00
#02201:00
#02201:00
#02201:00
#02201:00
#02201:00
#02201:00
#02201:00
#02201:00
#02201:00
#02201:00
#02201:00
#02201:00
#02201:00
#02201:00
#02201:ZO
#02211:01010101
#02212:0000000000000000000000EG00000000
#02213:EI000000EI00000000EI000000000000
#02214:00000000000000EN00000000EI000000
#02215:00EL00EL00EL00000000EL0000EL00EL
#02218:00EO
#02219:00EQ00EO000000EQ
#02221:00000000000000530000540000000000
#02222:00000000005100000000000055000000
#02223:00004Z00000000YO0000ZD0000005600
#02224:000000525200ZE00
#02225:4Y00005P50000000000000000000ZF00
#02228:000000YNYP000000
#02229:YK0000YLYM0000000000000000000000
#02301:00
#02301:00
#02301:0I000I00000000000I000000000000000K0L0M0I000000000I0000000I000000
#02301:00000J0000000J0000000J00000J000J
#02301:000Q000Q
#02301:00
#02301:1B001I001D001E1F1G1H1C001D001E1F
#02301:00000607000006070000060700000607
#02311:01010101
#02312:0000000000EG0000
#02313:EF00000000EF000000000000EI000000
#02314:00EH00000000EH0000EJ00000000EN00
#02315:00000000EJ000000000000EK00000000
#02318:0000EJ00000000EJ0000000000EM0000
#02319:000000EN00000000EN000000000000EQ
#02321:00000000005C0000
#02322:000058000000005B000000005D000000
#02323:00000000000I00000000000000005700
#02324:57000059570000YU0000ZG0000000000
#02325:0000005A5300ZH00
#02328:YQ0000YRYS000000000000000000ZI00
#02329:000000YTYV000000
#02401:00
#02401:00
#02401:0I0I00000I0I00000I0I00000I0I0000
#02401:0000000J000J000J
#02401:000Q000Q
#02401:00
#02401:1B001C001D001E1F1G1H1C001D001E1F
#02401:00000607000006070000060700000607
#02411:01010101
#02412:00EK000000000000EJ00000000000000
#02413:0000EO0000EM000000EO000000000000
#02414:000000ER000000EM0000EQ0000EO0000
#02415:EI000000EO000000000000ER000000ES
#02418:000000EL0000ES00
#02419:00000000000000EV
#02421:0000005F00000000000000000000004Z
#02422:0000005H005H00Z0
#02423:005G005E
#02424:5E000000000000005I000000000000Z1
#02425:000J000000000000
#02428:00YX00YZ
#02429:YWYY
#02501:00
#02501:00
#02501:0I000I00000000000I000I00000000000K0L0M0I000000000I0000000I000000
#02501:00000J0000000J0000000J00000J000J
#02501:000Q000Q
#02501:00
#02501:1B001I001D001E1F1G1H1C001D001E1F
#02501:00000607000006070000060700000607
#02501:00
#02501:00
#02501:00000000005J0000
#02501:0000005D
#02501:0000000000000057
#02511:01010101
#02512:000000000000000000000000000000ET
#02513:EM0000000000EM000000000000ES0000
#02514:00EQ0000000000EQ000000EU00000000
#02515:0000ER0000ER0000ER0000000000EU00
#02518:000000ES0000000000ES0000EW000000
#02519:0000ET0000ET0000
#02521:005O005600ZJ0000
#02522:005752ZK
#02523:4Y00005000000000000000Z80000ZL00
#02524:000000000000Z40000Z6000000ZA0000
#02525:00000000Z3000000Z500Z700000000ZC
#02528:Z20000Z9
#02529:00000000000000ZB
#02601:08
#02601:00
#02601:0I0I00000I0I00000I0I00000I0I0000
#02601:0000000J000J000J
#02601:000Q000Q
#02601:00
#02601:1B001C001D001E1F1G1H1C001D001E1F
#02601:00000607000006070000060700000607
#02611:00000000000000530000540000000000
#02612:00000000005100000000000055000000
#02613:00004Z00000000YO0000ZD0000005600
#02614:000000525200ZE00
#02615:4Y00005P50000000000000000000ZF00
#02618:000000YNYP000000
#02619:YK0000YLYM0000000000000000000000
#02621:01010101
#02622:000000EO00000000
#02623:EX0000EY0000000000000000EP000000
#02624:00000000000000EQ000000000000EL00
#02625:000000000000EI0000000000000000F000EQ000000000000
#02628:00000J0000000000EZ00000000EI00EP
#02629:000000000000000000000000000000EL00000000000000000000000000000000ER000000000000000000000000000000
#02701:00
#02701:00
#02701:0I000I00000000000I000000000000000K0L0M0I000000000I000I0000000000
#02701:0000000J000J000J
#02701:000Q000Q
#02701:00
#02701:1B001I001D001E1F1G1H1C001D001E1F
#02701:00000607000006070000060700000607
#02711:0000000000540000
#02712:000058000000005B0000000055000000
#02713:00000000000I00000000000000005600
#02714:57000059570000YU0000ZD0000000000
#02715:0000005A5300ZE00
#02718:YQ0000YRYS000000000000000000ZF00
#02719:000000YTYV000000
#02721:0100010001000103
#02723:EH0000EH00000000F300000000000000
#02724:000000EL00F40000
#02725:00F10000F200000000000000F5000000
#02728:00000000000000EP0000000000000000
#02729:000J000000000000
#02801:00
#02801:00
#02801:0I0I0I0I
#02801:000J000J000J000J
#02801:00
#02801:0N0N0N0N
#02801:00
#02801:00000607000006070000060700000607
#02801:00
#02801:00
#02801:00
#02801:00
#02801:00
#02801:00
#02801:00
#02801:00
#02801:00
#02801:00
#02801:00
#02801:7O
#02801:00
#02801:00
#02801:00
#02801:00
#02801:00
#02801:00
#02801:00
#02801:00
#02801:00
#02801:HSHRHXHW
#02811:007P007R
#02812:087Q
#02813:00L80000
#02814:L70000KS
#02815:00L9
#02818:00KQ00LA
#02819:KPKR
#02821:01010101
#02823:008D0000
#02824:8C00008F
#02825:00F78E00
#02828:F60000F9
#02829:00F8
#02901:00
#02901:00
#02901:0I0I0I0I
#02901:000J000J000J000J
#02901:00
#02901:0N0N0N0N
#02901:00
#02901:00000607000006070000060700000607
#02901:00
#02901:00
#02901:00LD
#02901:00
#02901:00
#02901:00
#02901:00
#02901:00
#02901:007T0000
#02901:00
#02901:0000007V
#02901:000000000000007W
#02901:008H
#02901:00
#02901:00
#02901:00
#02901:00
#02901:00
#02901:00
#02901:00
#02901:00
#02901:HWHV
#02911:00LC7U00
#02912:7S00000000LE0000
#02913:00000000000000KV00000000LF000000
#02914:LB00000000KW00LG
#02915:000000KUKU00KX00
#02918:KT000000000000KY
#02921:01010101
#02923:00000000008I0000
#02924:8G000000000000FC000000008J000000
#02925:000000000000008K
#02928:FA0000FBFD000000
#03001:00
#03001:00
#03001:00
#03001:00
#03001:00
#03001:0N0N0N0N
#03001:35003131350031313134353136363136
#03001:00
#03001:00
#03001:00
#03001:00
#03001:00
#03001:00
#03001:00
#03001:00
#03001:00
#03001:00
#03001:00
#03001:00
#03001:00
#03001:8L
#03001:00
#03001:00
#03001:00
#03001:00
#03001:00
#03001:00
#03001:00
#03001:00
#03001:00
#03001:00
#03001:008M0000
#03011:02020202
#03015:KZ
#03019:08
#03021:LH
#03022:000000LK
#03023:7XLI0000
#03024:0000LJ80
#03025:007Y0000
#03028:007Z
#03101:00
#03101:00
#03101:00
#03101:00
#03101:00
#03101:0N0N0N0N
#03101:37003030313236003700303036003733
#03101:000E
#03111:02020202
#03122:000000LO
#03123:00LM0000
#03124:0000LN84
#03125:LL820000
#03128:0083
#03129:81
#03201:00
#03201:00
#03201:00
#03201:00
#03201:00
#03201:0N0N0N0N
#03201:37333633
#03201:00070607000706070007060700070607
#03201:00
#03201:00LQ0000
#03201:LP
#03201:00LR
#03201:000000LS
#03201:00
#03201:00
#03201:00
#03201:00860000
#03201:85
#03201:0087
#03201:00000088
#03211:02020202
#03214:0000000I0000000I0000000I0000000I
#03218:000I000I000I000I
#03221:00L2
#03222:00L100L3
#03223:L08P
#03224:008O008Q
#03225:8NFG
#03228:00FF00FH
#03229:FE
#03301:00
#03301:00
#03301:000000000000000000000000000000000I000I000M0M0I000M0M0I000I000I00
#03301:00
#03301:0000000000000000000000001J001K1L
#03301:0N0N0N00
#03301:31323600370031003700000000000000
#03301:00070607000706070000000000000000
#03301:00
#03301:00
#03301:00
#03301:LT
#03301:00LU0000
#03301:00LV
#03301:00
#03301:00
#03301:00
#03301:00
#03301:89
#03301:008A0000
#03301:008B
#03311:0200020003040004
#03312:00000005
#03314:0000000000000I000000000000000I0000000000000000000005000000000000
#03315:00000000000000000000000400000004
#03318:00000I0000000I000000000000040000
#03321:L4LT0000000000M0
#03322:0000L5LU0000LYFN
#03323:8R000000L6LW0000
#03324:000000008S0000000000FL00FM0000M1
#03325:FI000000000000008T00000000LZ00FN
#03328:00000000FJ000000000000LX00000000
#03329:0000000000000000FK0000FL00FM0000
#03401:00
#03401:00
#03401:00
#03401:000J000J000J000J
#03401:1M001N001O001P001Q001R001S1T1U1V
#03401:00
#03401:00
#03401:00
#03401:00
#03401:00
#03401:00
#03401:00
#03401:00
#03401:00
#03401:00
#03401:00
#03401:00
#03401:00
#03401:00
#03401:00
#03401:00
#03401:00
#03401:00
#03401:00
#03401:00
#03401:00
#03401:00
#03401:00
#03401:00
#03401:00
#03401:00
#03401:ZP
#03411:02020202
#03412:00003E000000003U0000000000003R00
#03413:3B000000003M0000000000003K000000
#03414:0000003H0000000000003Q000000003W
#03415:003D0000000000003Y000000003O0000
#03418:0000000000003R000000003M00000000
#03419:000000003I000000003T000000000000
#03421:WJWK000000000000
#03422:0000WLWM00000000
#03423:UGUH0000WNWO0000
#03424:0000UIUJ0000WPWQ
#03425:00000000UKUL0000
#03428:000000000000UMUN
#03429:0F0F0F0F
#03501:00
#03501:00
#03501:00
#03501:000J000J00000000
#03501:1W001X1Y1Z0020212223240025252525
#03501:00
#03501:00
#03501:00
#03501:00
#03501:00
#03501:00
#03501:00
#03501:00
#03501:00
#03501:000F
#03501:00VV
#03501:00US
#03501:00
#03501:00
#03501:0000000000WW0000
#03511:02020200
#03512:0000003V00000000000000003M003T00
#03513:003O00000000000040003S0000000000
#03514:0000000000003T0000000000003Q003Y
#03515:000000003K000000003V003O00000000
#03518:00003R000000003W0000000000000000
#03519:3J000000003O00000000000000000000
#03521:00000000WVVX0000
#03522:0000WTWU0000VZW1
#03523:WRWS0000FOFQ0000
#03524:0000UQUR0000FSFU
#03525:UO00UP000000000000VW00VY00W000W2
#03529:0F0000000F00000000FP00FR00FT00FV
#03601:00
#03601:00
#03601:00
#03601:00
#03601:26270027282900292A2B002B2C2D002D
#03601:00
#03601:00
#03601:00
#03601:00
#03601:3N3R003U3K3P003S3M3R003V3H3M003P
#03611:02020202
#03612:000000000000X3X4
#03613:0000WZX000000000
#03614:00000000X1X2UZV0
#03615:WXWYUVUW00000000
#03618:00000000UXUY0000
#03619:UTUU000000000000
#03621:GS27000000000000
#03622:00000000GU2B0000
#03623:0F3ZGT2900000000
#03624:000000000F3YGV2D
#03625:00000F3W00000000
#03628:0000000000000F3T
#03629:000J000J000J000J
#03701:00
#03701:00
#03701:00
#03701:00
#03701:2E0000002G0000002I002J2J1J001K1L
#03701:00
#03701:00
#03701:0E
#03701:00
#03701:3J3O003V3P3T0041423Y3V3Q3R3O3K3F
#03711:02020200
#03712:00X9
#03713:0000X7X800000000
#03714:00V5
#03715:X5X6V3V400000000
#03718:00GY
#03719:V1V200000F000000
#03721:GW002F000000000000W400W600W80000
#03722:00000000000000W9
#03723:0F003R00GX002H0000FX0000W7000000
#03724:0000000000W500G2
#03725:000000000F003W00W3000000G00000WA
#03728:0000000000FY0000
#03729:00000J0000000J00FW0000FZ00G100G3
#03801:00
#03801:00
#03801:00
#03801:000J000J000J000J
#03801:1M001N001O001P001Q001R001S1T1U1V
#03811:WJWK000000000000
#03812:0000WLWM00000000
#03813:UGUH0000WNWO0000
#03814:0000UIUJ0000WPWQ
#03815:00000000UKUL0000
#03818:000000000000UMUN
#03819:0F0F0F0F
#03821:02020202
#03822:00003E000000003U0000000000003R00
#03823:3B000000003M0000000000003K000000
#03824:0000003H0000000000003Q000000003W
#03825:003D0000000000003Y000000003O0000
#03828:0000000000003R000000003M00000000
#03829:000000003I000000003T000000000000
#03901:00
#03901:00
#03901:00
#03901:000J000J00000000
#03901:1W001X1Y1Z0020212223240025252525
#03901:00
#03901:00
#03901:00
#03901:00
#03901:00
#03901:00
#03901:00
#03901:00
#03901:00
#03901:000F
#03901:00
#03901:00
#03901:00
#03901:00
#03901:00WV
#03901:0000000000WW0000
#03901:00US
#03911:00000000VVVX0000
#03912:0000WTWU0000VZW1
#03913:WRWS0000FOFQ0000
#03914:0000UQUR0000FSFU
#03915:UO00UP000000000000VW00VY00W000W2
#03919:0F0000000F00000000FP00FR00FT00FV
#03921:02020200
#03922:0000003V00000000000000003M003T00
#03923:003O00000000000040003S0000000000
#03924:0000000000003T0000000000003Q003Y
#03925:000000003K000000003V003O00000000
#03928:00003R000000003W0000000000000000
#03929:3J000000003O00000000000000000000
#04001:00
#04001:00
#04001:00
#04001:00
#04001:26270027282900292A2B002B2C2D002D
#04001:00
#04001:00
#04001:00
#04001:00
#04001:3N3R003U3K3P003S3M3R003V3H3M003P
#04011:GS27000000000000
#04012:00000000GU2B0000
#04013:0F3ZGT2900000000
#04014:000000000F3YGV2D
#04015:00000F3W00000000
#04018:0000000000000F3T
#04019:000J000J000J000J
#04021:02020202
#04022:000000000000X3X4
#04023:0000WZX000000000
#04024:00000000X1X2UZV0
#04025:WXWYUVUW00000000
#04028:00000000UXUY0000
#04029:UTUU000000000000
#04101:00
#04101:00
#04101:00
#04101:00
#04101:2E0000002G0000002I002J2J1J001K1L
#04101:00
#04101:00000000000000003536003637003600
#04101:0E
#04101:00
#04101:3J3O003V3P3T0041423Y3V3Q3R3O3K3F
#04111:GW002F000000000000W400W600W80000
#04112:00000000000000W9
#04113:0F003R00GX002H0000FX0000W7000000
#04114:0000000000W500G2
#04115:000000000F003W00W3000000G00000WA
#04118:0000000000FY0000
#04119:00000J0000000J00FW0000FZ00G100G3
#04121:02020200
#04122:00X9
#04123:0000X7X800000000
#04124:00V5
#04125:X5X6V3V400000000
#04128:00GY
#04129:V1V200000F000000
#04201:00
#04201:00
#04201:00
#04201:000J000J000J000J
#04201:1M001N001O001P001Q001R001S1T1U1V
#04201:0N0N0N0N
#04201:37000000000000000000000000003435
#04211:02020202
#04212:00000000003P000000003T0000000000
#04213:3C0000000000003X000000003N000000
#04214:00003G0000000000003W000000003U00
#04215:000000003L0000000000003P00000000
#04218:003E000000003U0000000000003R0000
#04219:0000003K00000000410000000000003Z
#04221:XAXB000000000000
#04222:0000XCXD00000000
#04223:V6V70000XEXF0000
#04224:0000V8V90000XGXH
#04225:00000000VAVB0000
#04228:000000000000VCVD
#04229:0F0F0F0F
#04301:000F
#04301:00
#04301:00
#04301:000J000J00000000
#04301:1W001X1Y1Z0020212223240025252525
#04301:0N0000000N0000000N0000000P0P0P0P
#04301:36000000000034353600000034343535
#04301:00
#04301:00
#04301:0000000000000000000000003P3T3W41
#04301:00
#04301:00
#04301:00
#04301:00
#04301:00
#04301:00
#04301:00
#04301:00
#04301:00
#04301:00000000WBWD0000
#04301:00
#04301:00VI
#04311:02020204
#04312:003R000000003W000000000000000400
#04313:0000003Y0000000043000000WF000000
#04314:00000000003R000000003V000000WH00
#04315:3M0000000000003Z00000000G8000000
#04318:00003U0000000000003Y00000000GA00
#04319:000000003N0000000000003R00000000
#04321:0000000000000000XM00XN0000040000
#04322:00000000XK00XL000000000000000004
#04323:XI00XJ0000000000G400G60000WG0000
#04324:00000000VG00VH00000000WE000000WI
#04325:VE00VF000000000000WC000000G90000
#04328:0000000000000000000000G7000000GB
#04329:0F0000000F00000000G5000000000000
#04401:00
#04401:00
#04401:00
#04401:00
#04401:26270027282900292A2B002B2C2D002D
#04401:0N0N0N0N
#04401:36353535
#04401:00
#04401:00
#04401:3Q3U003X3N3S003V3P3U003Y3K3P003S
#04411:02020202
#04412:00000000XSXT0000
#04413:XOXP000000000000
#04414:00000000VNVOXUXV
#04415:VJVKXQXR00000000
#04418:000000000000VPVQ
#04419:0000VLVM00000000
#04421:0000H02900000000
#04422:000000000000H22D
#04423:GZ270F3Z00000000
#04424:00000000H12B0F3W
#04425:0F42000000000000
#04428:000000000F410000
#04429:000J000J000J000J
#04501:00
#04501:00
#04501:00
#04501:00
#04501:2E0000002G0000002K2L2K2L2M002N2N
#04501:0N0000000N0000000P0P0P0P0P000P0P
#04501:35350000
#04501:0E
#04501:00
#04501:3M3R003Y3S3W0044000000003P00003H
#04501:000000000000003M
#04501:00000000000000000000003T00000000
#04501:00000000003Y0000
#04501:00000000000000000041000000000000
#04501:0045
#04501:00
#04501:00
#04501:00
#04501:00
#04501:00000000000000005R5R5R5R5R005R5R
#04501:00
#04501:00
#04501:00
#04501:00
#04501:0000000000000000GDGDGDGDGC00GDGD
#04511:02020000
#04512:00000000000000000400040004000004
#04513:XWXX000000000000
#04514:00000000000000000H000H000H00000H
#04515:VRVSXYXZ00000000
#04518:0000000000000000Y000Y200Y40000Y6
#04519:0000VTVU00000000
#04521:0000H42H00000000
#04522:00000000000000000004000400000400
#04523:H32F0F3Z00000000
#04524:0000000000000000000H000H00000H00
#04525:0F3U000000000000
#04528:000000000000000000Y100Y30000Y500
#04529:000J000J00000000
#04601:00
#04601:00
#04601:00
#04601:000J000J000J000J
#04601:1M001N001O001P001Q001R001S1T1U1V
#04601:0N0N0N0N
#04601:36000000000000000000000000003435
#04611:XAXB000000000000
#04612:0000XCXD00000000
#04613:V6V70000XEXF0000
#04614:0000V8V90000XGXH
#04615:00000000VAVB0000
#04618:000000000000VCVD
#04619:0F0F0F0F
#04621:02020202
#04622:00000000003P000000003T0000000000
#04623:3C0000000000003X000000003N000000
#04624:00003G0000000000003W000000003U00
#04625:000000003L0000000000003P00000000
#04628:003E000000003U0000000000003R0000
#04629:0000003K00000000410000000000003Z
#04701:00
#04701:00
#04701:00
#04701:000J000J00000000
#04701:1W001X1Y1Z0020212N2M002N2M002N2N
#04701:0N0N0000
#04701:36000000343434340000000000000000
#04701:00
#04701:00
#04701:00
#04701:0000003P
#04701:00000000000000000000003R003T0000
#04701:00000000003V003W
#04701:0000000000000000003Y000000000041
#04701:0043
#04701:00WB
#04701:000000000000000000WC0000WF000000
#04701:00000000000000000000WD0000WG0000
#04701:0000000000000000XM0000WE0000WH00
#04701:00000000000000000000XN00000000WI
#04701:00VI
#04701:00
#04701:00
#04701:00G4
#04701:000000000000000000G50000G8000000
#04701:00000000000000000000G60000G90000
#04701:0000000000000000000000G70000GA00
#04701:000000000000000000000000000000GB
#04712:00000000XK00XL000404000404000400
#04713:XIXJ000000000000
#04714:00000000VG00VH000H0H000H0H000H00
#04715:VEVF000000000000
#04719:0F0F0000
#04721:02020000
#04722:003R000000003W000P0P000P0P000O00
#04723:0000003Y000000000000000000000000
#04724:00000000003R00003536003636003600
#04725:3M0000000000003Z0000000000000000
#04728:003U000000000000
#04729:003N0000
#04801:00
#04801:00
#04801:00
#04801:00
#04801:26270027282900292A2B002B2C2D002D
#04801:0N0N0N0N
#04801:00
#04801:00
#04801:00
#04801:3Q3U003X3N3S003V3P3U003Y3K3P003S
#04811:0000H02900000000
#04812:000000000000H52D
#04813:GZ270F3Z00000000
#04814:00000000H12B0F3W
#04815:0F42000000000000
#04818:000000000F410000
#04819:360J360J360J360J
#04821:0303030303030303
#04822:00000000YBYC0000
#04823:Y7Y8000000000000
#04824:00000000VNVOYDYE
#04825:VJVKY9YA00000000
#04828:000000000000VPVQ
#04829:0000VLVM00000000
#04901:000I
#04901:00
#04901:00000000000V0000
#04901:00
#04901:2E2G2I00
#04901:0N0N0N00
#04901:00000000000000003600343435353535
#04901:0E
#04901:00
#04901:3M3R003Y3N3S003Z3P3U3Y413S3K3R3K
#04901:00
#04901:00
#04901:00
#04901:00
#04901:00
#04901:00
#04901:00
#04901:00
#04901:00YJ
#04911:0000H72H00000000
#04913:H62F0F3W00000000
#04915:0F3U000000000000
#04916:000000000000000000002J2J0W000000
#04919:360J360J00000000
#04921:0303030302000000
#04923:YFYG000000000000
#04925:VRVSYHYI00000000
#04929:0000VTVU00000000
#05001:3A
#05001:00
#05001:00
#05001:00
#05001:00
#05001:00
#05001:00
#05001:00
#05001:00
#05001:00
#05001:00
#05001:00
#05001:00
#05001:00
#05001:HPHLHVHLHVHLHUHL
#05001:00
#05001:00
#05001:00
#05001:98
#05001:00
#05001:00
#05001:8U
#05001:008V
#05001:00
#05001:00
#05001:00
#05001:00
#05001:00
#05001:00
#05001:00
#05001:00
#05001:ZQ
#05003:A8
#05012:00SI00SL00000000
#05014:000000SJ00000000000000SN0000SP00
#05023:SH
#05025:000000SO
#05029:00SKSM00
#05101:00
#05101:00
#05101:00
#05101:00
#05101:00
#05101:00
#05101:00
#05101:00
#05101:00
#05101:00
#05101:00
#05101:00
#05101:00
#05101:00
#05101:HUHMHSHRHS000000
#05101:00
#05101:00
#05101:00
#05101:00
#05101:00
#05101:8W
#05101:008X
#05103:AA
#05118:00SR000000000000
#05121:000000ST00000000
#05123:00SSSU00
#05125:SQ
#05201:00
#05201:00
#05201:00
#05201:00
#05201:00
#05201:00
#05201:00
#05201:00
#05201:00
#05201:00
#05201:00
#05201:00
#05201:00
#05201:00
#05201:HMHJHSHMHSHNHRHN
#05201:00
#05201:00
#05201:99
#05201:00
#05201:8Y
#05201:008Z
#05203:AC
#05211:00SW00SZ00000000
#05213:000000SX00000000000000T10000T300
#05222:SV0000T2
#05228:00SYT000
#05301:00
#05301:00
#05301:00
#05301:00
#05301:00
#05301:00
#05301:00
#05301:00
#05301:00
#05301:00
#05301:00
#05301:00
#05301:00
#05301:00
#05301:HRHMHPHOHP000000
#05301:00
#05301:00
#05301:00
#05301:009B
#05301:9A
#05301:00
#05301:0091
#05301:90
#05301:00
#05301:00MG
#05301:00000000000000000000000000MH00000000MM0000000000
#05301:0000000000000000000000000000MI00000000MN00000000
#05301:000000000000000000000000000000MJ00000000MO000000
#05301:00000000000000000000000000000000MK00000000MP0000
#05301:0000000000000000000000000000000000ML00000000MQ00
#05301:0000000000000000000000000000000000000000000000MR
#05303:AE
#05313:00T5000000000000
#05315:00T600000000
#05319:0000000000T7000000000000000000000000000000000000
#05322:T40000T900000000
#05324:00T8TA00
#05401:00
#05401:00
#05401:00
#05401:00
#05401:00
#05401:00000031310031000000003131003500
#05401:00
#05401:TB00TCTDTE00TF00TG0000THTI00TJ00
#05401:00
#05401:MSMVMXMZN3N5N7N3MZN0MXMWMSMTMWMZN1N5N6N1MYMZMWMT
#05401:00
#05401:00
#05401:00
#05401:00
#05401:HPHLHVHLHVHLHUHL
#05403:AC
#05411:0202
#05414:3637
#05418:0A0B
#05421:M2
#05422:00M3
#05424:9C
#05425:009D
#05428:92
#05429:0093
#05501:00
#05501:00
#05501:000000M6
#05501:00
#05501:00
#05501:00000031310031000000000035003500
#05501:000E
#05501:TKTLTMTNTO00TP00
#05501:00
#05501:MSMUMWMXMZN2N5N4N2MZMXMWMSMVMXMZN3N4N7N5MZMVMXMZ
#05501:00
#05501:00
#05501:00
#05501:00
#05501:HUHMHSHRHS00HO00
#05511:0202
#05513:3737
#05518:0A0A
#05521:9E
#05522:009C
#05523:94
#05524:0092
#05528:M4
#05529:00M2
#05601:00
#05601:00
#05601:00
#05601:00
#05601:0U00000000000R00000S00000R000S000R000S00000R00000000000S00000T00000R00000S00000T00000000000R0000
#05601:00003839380039380039380039383700
#05601:00
#05601:TQ00000000TRTSTT
#05601:00
#05601:M7000000MSMVMXMZN3N5N7N800NAN8NBN9N5N7N6N5N4N3N2
#05601:00
#05601:00
#05601:00
#05601:00
#05601:HP00000000HRHSHU
#05611:0202
#05613:37N5
#05615:0A0B
#05621:M5
#05622:00M2
#05623:9F
#05624:009C
#05625:95
#05628:0092
#05701:00
#05701:00
#05701:0I0I000I0I000I0I0I000I0I0I0I0I0I
#05701:00
#05701:0U000S0R0T000R0S0U00000000000000
#05701:00003500360036000000363536353635
#05701:00
#05701:TU0000000000TVTWTX00000000000000
#05701:00
#05701:M8000000M9000000M9000000MA0000MB0000000000MC0000MD0000000000ME0000MF0000ME0000MF0000ME0000MF0000
#05701:00
#05701:00
#05701:00
#05701:00
#05701:HS0000000000HRHPHR00000000000000
#05703:00A8
#05711:0200020003040404
#05713:3736
#05715:0A0A
#05721:0000000000000000M400000400040004
#05722:M2
#05723:009H
#05724:9G
#05725:0097
#05728:96
#05801:00
#05801:00
#05801:0I0I0I0I
#05801:00
#05801:00
#05801:00
#05801:1B001C001D001E1F1G1H1C001D001E1F
#05801:3A
#05801:00
#05801:00
#05801:00
#05801:00
#05801:00
#05801:00
#05801:00
#05801:00
#05801:AP
#05801:00
#05801:00
#05801:00
#05801:00
#05801:00
#05801:00
#05801:00
#05801:00
#05801:00
#05801:00
#05801:00
#05801:00
#05801:00
#05801:HPHLHVHLHVHLHUHL
#05801:ZR
#05803:AC
#05811:01010101
#05813:000Q000Q
#05814:000I0000000I0000000I0000000I0000
#05818:000J000J000J000J
#05819:08
#05821:0000470000004700000000000000009N
#05822:00000000000000000000004800000000
#05823:9I000048000000000000000000009M00
#05824:0000009L
#05825:46009J009K00004C
#05828:0000004B
#05829:00494A00
#05901:00
#05901:00
#05901:0I0I0K0I
#05901:00
#05901:00
#05901:00
#05901:1B001I001D001E1F1G1H1C001D001E1F
#05901:00
#05901:00
#05901:0000000000000000ARASATAUAVAWAXAY
#05901:00NC
#05901:00
#05901:00
#05901:00
#05901:00
#05901:00
#05901:00
#05901:AQ
#05901:00
#05901:00
#05901:00
#05901:00
#05901:00
#05901:00
#05901:00
#05901:00
#05901:00
#05901:00
#05901:00
#05901:00
#05901:HUHMHSHRHS000000
#05911:01000000010000000100000400000300
#05913:00000000000000000Q00000000000000000L0000000000000Q00000000000000
#05914:000I0000000I0000000M0000000I0000
#05915:000000000000000000000000000000000000000I000000000000000000000000
#05918:000J000J000J000J
#05919:00000003
#05921:000000000000000000ND000000000000
#05922:00004D0000009Q00000000NF00000000
#05923:000000009P0000009R00000000NH0000
#05924:9O00000000004X000000NE00000000NJ
#05925:004E4GNG
#05928:4B000000000000NI
#06001:00
#06001:00
#06001:0I0I0I0I
#06001:00
#06001:00
#06001:00
#06001:1B001C001D001E1F1G1H1C001D001E1F
#06001:00
#06001:00
#06001:00
#06001:00
#06001:00
#06001:00
#06001:00
#06001:00
#06001:00
#06001:B1
#06001:00
#06001:00
#06001:00
#06001:00
#06001:00
#06001:00
#06001:00
#06001:00
#06001:00
#06001:00
#06001:00
#06001:00
#06001:00
#06001:HMHJHSHMHSHNHRHN
#06011:01010101
#06013:000Q000Q
#06014:000I0000000I0000000I0000000I0000
#06018:000J000J000J000J
#06021:0000000000004H000000004K00000000
#06022:9S0000000000009W
#06023:004H000000009V00
#06024:000000009T0000009U0000000000009X
#06025:4D00004I000000000000000000004M00
#06028:0000004L
#06029:004E4J00
#06101:00
#06101:00
#06101:0I0I0K0I
#06101:00
#06101:00
#06101:00
#06101:1B001I001D001E1F1G1H1C001D001E1F
#06101:000E
#06101:00
#06101:0000000000000000ATAUAVAWAXAYAZB0
#06101:00NE
#06101:00
#06101:00
#06101:00
#06101:00
#06101:00
#06101:00
#06101:B2
#06101:00
#06101:00
#06101:00
#06101:00
#06101:00
#06101:00
#06101:00
#06101:00
#06101:00
#06101:00
#06101:00
#06101:00
#06101:HRHMHPHOHP000000
#06111:01000000010000000100000400000300
#06113:00000000000000000Q00000000000000000L0000000000000Q00000000000000
#06114:000I0000000I0000000M0000000J000J
#06115:000000000000000000000000000000000000000I000000000000000000000000
#06118:000J000J000J000I
#06119:00000003
#06121:0000004N00000000
#06122:00004600A10000NK
#06123:4L0000NI
#06124:0000000000004N0000004F00000000000000A00000000000000000000000NG0000000000000000000000000000NL0000
#06125:000000009Z0000004P00000000NJ0000
#06128:9Y000000000000004O000000000000000000000000000000000000000000000000NH0000000000000000000000000000
#06129:000000000000000000NF000000000000
#06201:00
#06201:00
#06201:0I0I0I0I
#06201:00
#06201:00
#06201:00
#06201:1B001C001D001E1F1G1H1C001D001E1F
#06201:00
#06201:00
#06201:00
#06201:00
#06201:00
#06201:00
#06201:00
#06201:00
#06201:00
#06201:00B3
#06201:00
#06201:00
#06201:00
#06201:00
#06201:00
#06201:00
#06201:00
#06201:00
#06201:00
#06201:00
#06201:00
#06201:00
#06201:00
#06201:HPHLHVHLHVHLHUHL
#06211:01010101
#06213:000Q000Q
#06214:000I0000000I0000000I0000000I0000
#06218:000J000J000J000J
#06219:08
#06221:0000470000004700000000000000009N
#06222:00000000000000000000004800000000
#06223:9I000048000000000000000000009M00
#06224:0000009L
#06225:46009J009K00004C
#06228:0000004B
#06229:00494A00
#06301:00
#06301:00
#06301:0I0I0K0I
#06301:00
#06301:00
#06301:00
#06301:1B001I001D001E1F1G1H1C001D001E1F
#06301:00
#06301:00
#06301:00
#06301:00
#06301:00
#06301:00
#06301:00
#06301:00
#06301:00
#06301:0000B5B6
#06301:B4
#06301:00
#06301:00
#06301:00
#06301:00
#06301:00
#06301:00
#06301:00
#06301:00
#06301:00
#06301:00
#06301:00
#06301:00
#06301:HUHMHSHRHS00HO00
#06311:01000000010000000100000400000300
#06313:00000000000000000Q00000000000000000L0000000000000Q00000000000000
#06314:000I0000000I0000000M0000000I0000
#06315:000000000000000000000000000000000000000I000000000000000000000000
#06318:000J000J000J000J
#06319:00000003
#06322:004D009Q0000A200
#06323:00009P009U0000A3
#06324:9O00004X00004R00
#06325:000000004E0000004Q000000000000A4
#06328:4B
#06401:0000000000AIAJAK
#06401:00
#06401:0I0I0I0I
#06401:00
#06401:00
#06401:00
#06401:1B001C001D001E1F1G1H1C001D001E1F
#06401:00
#06401:00
#06401:00
#06401:00
#06401:00
#06401:00
#06401:00
#06401:00
#06401:00
#06401:B7B2
#06401:00
#06401:00
#06401:00
#06401:00
#06401:00
#06401:00
#06401:00
#06401:00
#06401:00
#06401:00
#06401:00
#06401:00
#06401:00
#06401:HP00000000HRHSHU
#06411:01010101
#06413:000Q000Q
#06414:000I0000000I0000000I0000000I0000
#06418:000J000J000J000J
#06421:0000000000AE00000000A60000000000
#06422:00000000000000AG00000000A7000000
#06423:0000AD00000000A8
#06424:4S0000AF004L0000
#06425:0000AH4E
#06428:000000000000004T
#06429:A5
#06501:AL0000000000AMANAO00000000000000
#06501:00
#06501:0I0I0K0I
#06501:00
#06501:00
#06501:00
#06501:1B001I001D001E1F1G1H1C001D001E1F
#06501:00
#06501:00000000000000000000NMNNNONPNQNR
#06501:00
#06501:00
#06501:00
#06501:00
#06501:00
#06501:00
#06501:00
#06501:B7B8
#06501:00
#06501:00
#06501:00
#06501:00
#06501:00
#06501:00
#06501:00
#06501:00
#06501:00
#06501:00
#06501:00
#06501:00
#06501:00
#06501:HS0000000000HRHPHR00000000000000
#06511:01000004000003000100030004000400
#06513:00000000000000000Q00000000000000000L0000000000000Q00000000000000
#06514:000I0000000I0000000M0000000J000J
#06515:000000000000000000000000000000000000000I000000000000000000000000
#06518:000J000J000J000I
#06519:00000000010000000000000000040004
#06521:00000000000000AB0000000000000000
#06522:A9
#06523:000000AAAC0000BD
#06524:000000000000004V00000000BB000000
#06525:4U000000000000000000B900000000BE
#06528:0000000000004X004W00000000BC0000
#06529:0000000000000000000000BA00000000
#06601:00
#06601:00
#06601:0I0I0I0I
#06601:00
#06601:00
#06601:0N0N0N0N
#06601:1B001C001D001E1F1G1H1C001D001E1F
#06601:00
#06601:00
#06601:00
#06601:00
#06601:00
#06601:00
#06601:00
#06601:00
#06601:00
#06601:AP
#06601:00
#06601:00
#06601:00
#06601:00
#06601:00
#06601:00
#06601:00
#06601:00
#06601:00
#06601:00
#06601:00
#06601:00
#06601:00
#06601:HPHLHVHLHVHLHUHL
#06611:0000470000004700000000000000009N
#06612:00000000000000000000004800000000
#06613:9I000048000000000000000000004C00
#06614:0000009L
#06615:46009J009K00009M
#06618:0000004B
#06619:00494A00
#06621:01010101
#06623:000Q000Q
#06624:000I0000000I0000000I0000000I0000
#06628:000J000J000J000J
#06629:08
#06701:00
#06701:00
#06701:0I00000I00000I00000I00000I000000
#06701:000J00000J00000J00000J0000000J00
#06701:0R0U0S0R0U000R0U0S0R0U000U000U00
#06701:00
#06701:2O00002Q2R002S2T002Q2R002O002P00
#06701:00
#06701:00
#06701:00
#06701:00
#06701:00
#06701:00
#06701:00
#06701:00
#06701:00
#06701:00
#06701:AQ
#06701:00AR
#06701:00
#06701:00
#06701:00
#06701:00
#06701:NSNT00NSNT0000000000000000000000
#06701:000000000000NUNV00NUNV0000000000
#06701:000000000000NWNX
#06701:00
#06701:00
#06701:00
#06701:00
#06701:HUHMHSHRHS000000
#06711:000000000000000000AS000000000000
#06712:00004D0000004X00000000AU00000000
#06713:000000009P0000009R00000000AW0000
#06714:9O00000000009Q000000AT00000000AY
#06715:004E4GAV
#06718:4B000000000000AX
#06721:04000000000S00002P00000003000000
#06722:00000004000000000000030000000300
#06723:00030000000000030000000000000000
#06724:000000000300000000000G00000I0000
#06725:000G00000000000G000000000000002Q
#06728:000000000G000000000400000G000000
#06729:00002P00000004000000000S00000G00
#06801:00
#06801:00
#06801:0I0I0I0I
#06801:00
#06801:00
#06801:0N0N0N0N
#06801:1B001C001D001E1F1G1H1C001D001E1F
#06801:00
#06801:00
#06801:00
#06801:00
#06801:00
#06801:00
#06801:00
#06801:00
#06801:00
#06801:B1
#06801:00
#06801:00
#06801:00
#06801:00
#06801:00
#06801:00
#06801:00
#06801:00
#06801:00
#06801:00
#06801:00
#06801:00
#06801:00
#06801:HMHJHSHMHSHNHRHN
#06811:0000000000004H000000004K00000000
#06812:9S0000000000009W
#06813:004H000000009V00
#06814:000000009T0000009U0000000000009X
#06815:4D00004I000000000000000000004M00
#06818:0000004L
#06819:004E4J00
#06821:0100010001040103
#06823:000Q000Q
#06824:000I0000000I0000000I0000000I0000
#06828:000J000J000J000J
#06829:08000000000000000000000400000000
#06901:00
#06901:00
#06901:0I00000I00000I00000I00000I000000
#06901:000J00000J00000J00000J0000000J00
#06901:0R0U0S000U000R0U0S0R0U000U000U00
#06901:00
#06901:2U2V000R2X002Y2Z002V2X002W002Y00
#06901:00
#06901:00
#06901:00
#06901:00
#06901:00
#06901:00
#06901:00
#06901:00
#06901:00
#06901:00
#06901:B2
#06901:00AT
#06901:00
#06901:00
#06901:00
#06901:00
#06901:00
#06901:NYNZ00NYNZ0000000000000000000000
#06901:000000000000O0O100O0O10000000000
#06901:000000000000O2O3
#06901:00
#06901:00
#06901:00
#06901:HRHMHPHOHP000000
#06911:000000A000000000
#06912:00004600A10000AZ
#06913:4L0000AX
#06914:0000000000004N0000004F000000000000004N0000000000000000000000AV0000000000000000000000000000B00000
#06915:000000009Z0000004P00000000AY0000
#06918:9Y000000000000004O000000000000000000000000000000000000000000000000AW0000000000000000000000000000
#06919:000000000000000000AU000000000000
#06921:04030003
#06922:00002W00000000030000000S00000000
#06923:000000000G0000000004000000000300
#06924:000300000000000G000000000G000000
#06925:0000000400000000000003000000002Z
#06928:000G0000000S00002U000000000I0000
#06929:00000004000G000G
#07001:00
#07001:00
#07001:0I0I0I0I
#07001:00
#07001:00
#07001:0N0N0N0N
#07001:1B001C001D001E1F1G1H1C001D001E1F
#07001:00
#07001:00
#07001:00
#07001:00
#07001:00
#07001:00
#07001:00
#07001:00
#07001:00
#07001:00
#07001:00
#07001:00BF
#07001:00
#07001:00
#07001:00
#07001:00
#07001:00
#07001:00
#07001:00
#07001:00
#07001:00
#07001:00
#07001:00
#07001:HPHLHVHLHVHLHUHL
#07011:0000470000004700000000000000009N
#07012:00000000000000000000004800000000
#07013:9I000048000000000000000000009M00
#07014:0000009L
#07015:46009J009K00004C
#07018:0000004B
#07019:00494A00
#07021:01010101
#07023:000Q000Q
#07024:000I0000000I0000000I0000000I0000
#07028:000J000J000J000J
#07029:08
#07101:000000000000000000000000BIBJBKBL
#07101:00
#07101:0I000000000000000I000000000000000K0L000I000000000I00000000000000
#07101:00
#07101:00
#07101:0N0N0N0N
#07101:1B001I001D001E1F1G001C000000001F
#07101:0E
#07101:00
#07101:00
#07101:00
#07101:00
#07101:00
#07101:00
#07101:00
#07101:00
#07101:BG
#07101:00BH
#07101:00
#07101:00
#07101:00
#07101:00
#07101:00
#07101:00
#07101:00
#07101:00
#07101:00
#07101:00
#07101:00
#07101:00
#07101:HUHMHSHRHS00HO00
#07111:0000000000000000001H000000000000
#07112:00004D0000009Q00000000O500000000
#07113:000000009P0000009U00000000O70000
#07114:9O00000000004X000000O400000000O9
#07115:004E4QO6
#07118:4B000000000000O8
#07119:0000004R
#07121:01000000010000000100000400000300
#07123:000Q000Q
#07124:000I0000000I0000000M000000001E00
#07125:0000001D
#07128:000J000J000J000I
#07129:00000003
#07201:00
#07201:00OC
#07201:00
#07201:00
#07201:00
#07201:00
#07201:00
#07201:00
#07201:00
#07201:00
#07201:00
#07201:00
#07201:00
#07201:00
#07201:00
#07201:00
#07201:00
#07201:00
#07201:00BO
#07201:000000BP
#07201:00
#07201:00
#07201:00
#07201:00
#07201:00
#07201:00
#07201:00
#07201:00
#07201:00
#07201:00
#07201:HP000000HPHRHSHU
#07201:ZS
#07211:OAOB000000000000
#07215:BMBN000000000000
#07219:4646000000000000
#07221:0102000000000000
#07223:0I0I000000000000
#07229:0G0G000000000000
#07301:00
#07301:ODOE
#07301:00
#07301:00
#07301:00
#07301:00
#07301:00
#07301:00
#07301:00
#07301:00
#07301:00
#07301:00
#07301:00
#07301:00
#07301:00
#07301:00
#07301:00
#07301:00
#07301:00
#07301:00
#07301:BQ
#07301:00BR0000
#07301:00BS
#07301:00
#07301:00
#07301:00
#07301:00
#07301:00
#07301:00
#07301:00
#07301:HS00HRHPHR000000
#07401:0H0H0H0H0G000H0H0H0H0G000H0H0H0H
#07401:00
#07401:0I0I0I0I00000I0I0I0I00000I0I0I0I
#07401:00000J00000J0000
#07401:08
#07401:00
#07401:00
#07401:00
#07401:00
#07401:00
#07401:00
#07401:00
#07401:00
#07401:OF
#07401:00
#07401:00
#07401:CC00CDCC00CDCC00
#07413:0000000000000404
#07414:00000000000000040004000000000000
#07415:04000400030000000000000000040004
#07418:0000000404030000
#07419:00040004000000000000000000000000
#07421:000000000000OH00OJ00OK0000OI00OI
#07422:00OI00OI000000000000000000000000
#07423:000000000000BT00BV00BV0000BU00BU
#07424:00BU00BU0000000000000000OH00OJ00
#07425:OH00OJ00OK0000OI00OI000000000000
#07428:000000000000BTBV
#07429:BT00BV00BV0000BU00BU000000000000
#07501:0G000H0H0H0H0G000F0000000F000000
#07501:00
#07501:00000I0I0I0I00000I0I00000I0I0000
#07501:0J00000J000J000J
#07501:00
#07501:00
#07501:00
#07501:00
#07501:00
#07501:00
#07501:00
#07501:00
#07501:000000OG
#07501:00
#07501:00
#07501:000000CE
#07501:CDCC00CDCC000000
#07511:0000000003030303
#07512:00000004000400000000000000000000
#07513:03
#07514:0004040300000000
#07521:00OHOJOK00000000
#07522:000000OM
#07523:00BTBVBV00000000
#07524:OK00OLBW
#07525:000000OI00OI00000000000000000000
#07528:BVBT
#07529:000000BU00BU00000000000000000000
#07601:0H0H0H0H0G000H0H0H0H0G000H0H0H0H
#07601:00
#07601:0I0I0I0I00000I0I0I0I00000I0I0I0I
#07601:00000J00000J0000
#07601:00
#07601:00
#07601:00
#07601:00
#07601:00
#07601:00
#07601:00
#07601:00
#07601:00
#07601:OF
#07601:00
#07601:00
#07601:CC00CDCC00CDCC00
#07611:000000000000OH00OJ00OK0000OI00OI
#07612:00OI00OI000000000000000000000000
#07613:000000000000BT00BV00BV0000BU00BU
#07614:00BU00BU0000000000000000OH00OJ00
#07615:OH00OJ00OK0000OI00OI000000000000
#07618:000000000000BTBV
#07619:BT00BV00BV0000BU00BU000000000000
#07623:0000000000000404
#07624:00000000000000040004000000000000
#07625:04000400030000000000000000040004
#07628:0000000404030000
#07629:00040004000000000000000000000000
#07701:0G000H0H0H0H0G000F0000000F000000
#07701:00
#07701:00000I0I0I0I00000I0I00000I0I0000
#07701:0J00000J000J000J
#07701:00
#07701:00
#07701:00
#07701:00
#07701:00
#07701:00
#07701:00
#07701:00
#07701:00
#07701:00
#07701:00
#07701:00
#07701:CDCC00CDCC000000
#07701:000000CF
#07711:00OHOJOK00000000
#07712:00OL
#07713:00BTBVBV00000000
#07714:OK00BTON
#07715:000000OI00OI00000000000000000000
#07718:BV0000BX
#07719:000000BU00BU00000000000000000000
#07721:0000000003030303
#07722:00000004000400000000000000000000
#07723:03
#07724:0004040300000000
#07801:0H0H0H0H0G000H0H0H0H0G000H0H0H0H
#07801:00
#07801:0I0I0I0I00000I0I0I0I00000I0I0I0I
#07801:00000J00000J0000
#07801:00
#07801:00
#07801:00
#07801:00
#07801:00
#07801:00
#07801:00
#07801:00
#07801:00
#07801:00
#07801:00
#07801:00
#07801:00
#07801:00
#07801:CG00CHCG00CHCG00
#07813:0000000000000404
#07814:00000000000000040004000000000000
#07815:04000400030000000000000000040004
#07818:0000000404030000
#07819:00040004000000000000000000000000
#07821:000000000000OO00OQ00OR0000OP00OP
#07822:000000000000OOOQ
#07823:00OP00OP000000OP00OP000000000000
#07824:OOOQOR000000BYC0
#07825:00000000000000BZ00BZ000000BZ00BZ
#07828:BYC0C00000000000
#07829:00BZ00BZ0000BY00C000C00000000000
#07901:0G000H0H0H0H0G000F0000000F000000
#07901:00
#07901:00000I0I0I0I00000I0I00000I0I0000
#07901:0J00000J000J000J
#07901:00
#07901:00
#07901:00
#07901:00
#07901:00
#07901:00
#07901:00
#07901:00
#07901:00
#07901:00
#07901:00
#07901:00
#07901:00
#07901:000000CF
#07901:CHCG00CHCG000000
#07911:0000000003030303
#07912:00000004000400000000000000000000
#07913:03
#07914:0004040300000000
#07921:00OOOQOR00000000
#07922:OR0000OT
#07923:000000OP00OP00000000000000000000
#07924:C000OSC1
#07925:000000BZ00BZ00000000000000000000
#07928:00BY
#07929:00BYC0C000000000
#08001:0H0H0H0H0G000H0H0H0H0G000H0H0H0H
#08001:00
#08001:0I0I0I0I00000I0I0I0I00000I0I0I0I
#08001:00000J00000J0000
#08001:00
#08001:00
#08001:00
#08001:00
#08001:00
#08001:00
#08001:00
#08001:00
#08001:00
#08001:00
#08001:00
#08001:00
#08001:00
#08001:00
#08001:CG00CHCG00CHCG00
#08011:000000000000OO00OQ00OR0000OP00OP
#08012:000000000000OOOQ
#08013:00OP00OP000000OP00OP000000000000
#08014:OOOQOR000000BYC0
#08015:00000000000000BZ00BZ000000BZ00BZ
#08018:BYC0C00000000000
#08019:00BZ00BZ0000BY00C000C00000000000
#08023:0000000000000404
#08024:00000000000000040004000000000000
#08025:04000400030000000000000000040004
#08028:0000000404030000
#08029:00040004000000000000000000000000
#08101:0G000H0H0H0H0G000F0000000F000000
#08101:00
#08101:00000I0I0I0I00000I0I00000I0I0000
#08101:0J00000J000J000J
#08101:00
#08101:00
#08101:00
#08101:00
#08101:00
#08101:00
#08101:00
#08101:00
#08101:00
#08101:00
#08101:00
#08101:00
#08101:00
#08101:00
#08101:CHCG00CHCG000000
#08101:000000CI
#08111:00OOOQOR00000000
#08112:OROS
#08113:000000OP00OP00000000000000000000
#08114:C000BYOU
#08115:000000BZ00BZ00000000000000000000
#08118:000000C2
#08119:00BYC0C000000000
#08121:0000000003030303
#08122:00000004000400000000000000000000
#08123:03
#08124:0004040300000000
#08201:08
#08201:00
#08201:0I0I0I0I00000I0I0I0I00000I0I0I0I
#08201:00000J00000J0000
#08201:0N0N0N0N
#08201:00
#08201:37003131310036003131310036003131
#08211:0303030303030303
#08213:CJCKCLCJCKCLCJCK
#08221:00000000000000OW00OW0000OV00OX00
#08222:OVOXOY0000000000
#08223:00000000000000C400C40000C300C500
#08224:C300C500C50000000000000000OW00OW
#08225:00OW00OW0000OV00OX00OY0000000000
#08228:00000000000000000000000000C400C4
#08229:00C400C40000C300C500C50000000000
#08301:00000000000000000000000000000004
#08301:00
#08301:00000I0I0I0I00000I0I00000I0I0000
#08301:0J00000J000J000J
#08301:0N0N0N0N
#08301:00
#08301:3136363137003600
#08311:0303030303030304
#08313:CLCJCKCLCM31CN31
#08321:OY0000OW00OW00000000000000000000
#08322:000000P0
#08323:C50000C400C400000000000000000000
#08324:0000OZC6
#08325:00OVOXOY00000000
#08328:00C3
#08329:00C3C5C500000000
#08401:08
#08401:00
#08401:0I0I0I0I00000I0I0I0I00000I0I0I0I
#08401:00000J00000J0000
#08401:0N0N0N0N
#08401:00
#08401:37003131310036003131310036003131
#08411:00000000000000OW00OW0000OV00OX00
#08412:OVOXOY0000000000
#08413:00000000000000C400C40000C300C500
#08414:C300C500C50000000000000000OW00OW
#08415:00OW00OW0000OV00OX00OY0000000000
#08418:00000000000000000000000000C400C4
#08419:00C400C40000C300C500C50000000000
#08421:0303030303030303
#08423:CJCKCLCJCKCLCJCK
#08501:00000000000000000000000000000004
#08501:00
#08501:00000I0I0I0I00000I0I00000I0I0000
#08501:0J00000J00000000
#08501:0N0N0N0N
#08501:00
#08501:3136363137313631
#08511:OY0000OW00OW00000000000000000000
#08512:00CM
#08513:C50000C400C400000000000000000000
#08514:0000C3CO
#08515:00OVOXOY00000000
#08518:000000C7
#08519:00C3C5C500000000
#08521:0303030303030304
#08523:CLCJCKCLOZ0JP10J
#08601:00
#08601:00
#08601:0I0I0I0I00000I0I0I0I00000I0I0I0I
#08601:00000J00000J0000
#08601:0N0N0N0N
#08601:00
#08601:00
#08601:00
#08601:00
#08601:00
#08601:00
#08601:00
#08601:00
#08601:00
#08601:00
#08601:00
#08601:00
#08601:00
#08601:00
#08601:CQ00CQCQ00CQCQ00
#08601:CP
#08611:00000000000000040004000004000400
#08612:00000000000000000000000000040004
#08613:0404030404030000
#08614:000400040000000000000000000H000H
#08615:0000000H0H0G0H0H
#08618:000H000H000000000000000000000000
#08619:0H000H000G00000H000H000000000000
#08621:00000000000000P300P30000P200P400
#08622:00000000000000000000000000P300P3
#08623:P2P4P5P2P4P50000
#08624:00P300P3000000000000000000C900C9
#08625:000000C8CACAC8CA
#08628:00C900C9000000000000000000000000
#08629:C800CA00CA0000C900C9000000000000
#08701:00
#08701:00
#08701:00000I0I0I0I00000I0I00000I0I0000
#08701:0J00000J00000000
#08701:0N0N0N0N
#08701:00
#08701:00
#08701:00
#08701:00
#08701:00
#08701:00
#08701:00
#08701:00
#08701:00
#08701:00
#08701:00
#08701:00
#08701:00
#08701:00
#08701:CQCQ00CQCQ00CR00
#08711:03000004000400000300030003000300
#08713:000404030F0J0F0J
#08715:0G0H0H0G00000000
#08719:0000000H000H00000000000000000000
#08721:P50000P300P300000000000000000000
#08722:000000P7
#08723:00P2P4P500000000
#08724:0000P6CB
#08725:CAC8CACA00000000
#08728:00C8
#08729:000000C900C900000000000000000000
#08801:00
#08801:00
#08801:0I0I0I0I00000I0I0I0I00000I0I0I0I
#08801:00000J00000J0000
#08801:0N0N0N0N
#08801:00
#08801:00
#08801:00
#08801:00
#08801:00
#08801:00
#08801:00
#08801:00
#08801:00
#08801:00
#08801:00
#08801:00
#08801:P900PAP900PAP900
#08801:00
#08801:CQ00CQCQ00CQCQ00
#08801:00
#08801:00
#08801:CP
#08811:00000000000000040004000004000400
#08812:0404030000000000
#08813:000000000000000H000H00000H000H00
#08814:0H0H0G0404030000
#08815:00040004000000000000000000040004
#08818:0000000H0H0G0000
#08819:000H000H0000000000000000000H000H
#08821:000000000000P200P400P50000P300P3
#08822:00P300P3000000000000000000000000
#08823:000000000000C800CA00CA0000C900C9
#08824:00C900C9000000P300P3000000000000
#08825:P2P4P5000000P2P4
#08828:00000000000000C900C9000000000000
#08829:C8CACA000000C8CA
#08901:00
#08901:00
#08901:0I0I0I0I0I0I0I0I0I0I0I0I0I0I0I0I
#08901:00
#08901:0N0N0N0N
#08901:00
#08901:00
#08901:00
#08901:00
#08901:00
#08901:00
#08901:00
#08901:00
#08901:00
#08901:00
#08901:00
#08901:00
#08901:PBPCPBPCPBPCPBPC
#08901:00
#08901:CQCQCQCQCQCQCQCQ
#08911:0404040404040404
#08913:0H0H0H0H0H0H0H0H
#08915:00040004000400040004000400040004
#08919:000H000H000H000H000H000H000H000H
#08921:00P300P300P300P300P300P300P300P8
#08923:00C900C900C900C900C900C900C900C9
#08925:P4P4P4P4P4P4P4P4
#08929:CACACACACACACACA
#09001:00
#09001:00
#09001:00
#09001:00
#09001:00
#09001:00
#09001:00
#09001:00
#09001:000000000000000000000000PQ0000PT
#09001:00000000000000000000000000PR0000
#09001:0000000000000000PM0000PP0000PS00
#09001:0000000000PJ00PL0000PO0000000000
#09001:00PF00PH0000PK0000PN000000000000
#09001:00PG000000000000
#09001:00PI0000
#09001:00
#09001:00
#09001:00
#09001:00
#09001:00
#09001:00
#09001:00
#09001:000000UE
#09001:0000000000000000UB0000UB00UB00UF
#09001:0000000000UD00UD
#09001:000000000000000000UC000000000000
#09001:00
#09001:00
#09001:00
#09001:00
#09001:00
#09001:ZT
#09003:AA
#09011:02
#09013:0G
#09025:PE
#09029:CS
#09101:00
#09101:00
#09101:00
#09101:00
#09101:0U0000000R0S0R0S0U00000000000000
#09101:00
#09101:00000000000V0000
#09103:AC
#09111:02020200
#09113:0I0I0I00
#09115:090C0D00
#09116:0000000W
#09122:00PV0000
#09123:PUPU
#09124:00PX0000
#09125:PWPW
#09128:006P0000
#09129:6O6Q
#09201:00
#09201:00
#09201:0I0000000I000I000M0M0M0M0M000I0000000I0000000I000I0000000I000000
#09201:00
#09201:0000000000000X00000X00000Y000Z0010001100001100001200000000000Z00001000000X00000000000R0000000000
#09201:00
#09201:00003031320032330035363733003600
#09201:00
#09201:CT00CVCUCV00CU00CT00CVCUCV00CU00
#09211:02
#09212:0002
#09213:PY
#09214:00PY
#09226:3737
#09301:00H9
#09301:00
#09301:0I000I0I0I000I000I0I0I0I00000000
#09301:00
#09301:00000S0R00000S000000000000000000
#09301:00
#09301:00003133000033000000000000000000
#09301:00
#09301:CW00CUCVCW00CU00CV00000000000000
#09301:00
#09301:00
#09301:00
#09301:00CX
#09301:00000000000000000000000000CY00000000000000000000
#09301:00000000000000CZ00000000
#09301:0000000000D00000
#09301:0000D1
#09301:0000000000000000000000000000000000D2000000000000
#09311:0200000000030200
#09312:00020000
#09313:PZ03
#09314:00PZ0000
#09315:0UPZ
#09318:000U0000
#09319:000U
#09322:0000000000000000000000000000000000000000000000D8
#09323:0000000000000000000000D7
#09324:00000000000000D6
#09325:0000000000D5
#09326:37373700
#09328:00000000000000000000000000000000000000D400000000
#09329:000000D3
#09401:00
#09401:00
#09401:0I0000000I0000000I00000I0I000000
#09401:000J000J000J000J
#09401:0U000R0S0R000S0R0S000R0S0R000U00
#09401:0N0N0N0N
#09401:00R000R900000000
#09401:00QI
#09401:00
#09401:00
#09401:00
#09401:00
#09401:00
#09401:00
#09401:00
#09401:00
#09401:00
#09401:00QR00R8
#09401:0000000000R9
#09401:0000000000000000000000RA
#09401:006S006S
#09401:6R6R
#09401:00
#09401:006T006T006T006T
#09401:D9
#09401:00
#09401:00DX00DY
#09401:DVDV
#09401:00DW00DW00DW0000
#09411:0200020002000303
#09412:00R3000000R60000
#09413:0000000000000000000000R700000000
#09414:00R400RCQL00RJ00
#09415:GR0000QS000000000000RC00
#09418:000000000000000000RE0000QN000000000000000000RD00
#09419:08QT0000
#09421:HAHA
#09422:00HB000000000000000000HI00HB000000000000000000HI
#09423:00HC000000HC00HC000000HC
#09424:00HD00HD00HD00HD
#09425:00HEHH00HEHH
#09428:0000000000HF00HF000000000000000000HF00HF00000000
#09429:00HG00HG
#09501:00
#09501:00
#09501:0I0000000I0000000I0I000I0I000000
#09501:000J000J000J000J
#09501:0U000R0S0R000S0R0S000R0S0R000U00
#09501:0N0N0N0N
#09501:0000000000000000000000000000000000000000R1000000000000Q600000000
#09501:0000000000000000000000000000Q7QA
#09501:00000000000000000000000000000000QH000000000000000000000000Q800QB
#09501:00
#09501:000000QG
#09501:00
#09501:00
#09501:00
#09501:00
#09501:00
#09501:00
#09501:00
#09501:00
#09501:00
#09501:006S0000
#09501:6R6R
#09501:0000006U
#09501:006T006T006T006T
#09501:0000006V
#09501:00
#09501:00DX0000
#09501:DVDV
#09501:00DW00DW00DW0000
#09501:000000DZ
#09511:02000000020000000200000400000300
#09513:000000IX00R30000
#09514:00IWQIQJ
#09515:000000IV000000000000R80000000000
#09518:00IU0000QM00QO00
#09519:IT000003
#09521:HAHA
#09522:00HB000000000000000000HI00HB000000000000000000HI
#09523:00HC000000HC00HC000000HC
#09524:00HD00HD00HD00HD
#09525:00HEHH00HEHH
#09528:0000000000HF00HF000000000000000000HF00HF00000000
#09529:00HG00HG
#09601:00
#09601:00000000000000000000000003000404
#09601:0I000000000000000I000000000000000K0L0M0I00000I000I00000000000000
#09601:000J000J000J000J
#09601:0U000R0S0R000S0R0S000R0S0R000U00
#09601:0N0N0N0N
#09601:QX000000000000QZ0000000000000000
#09601:0000R4000000000000R4000000000000
#09601:000000000000000000000000000000R500000000000000000000000000000000R9000000RB0000000000000000000000
#09601:000000R8000000000000000000000000RA00000000000000
#09601:00
#09601:00
#09601:00
#09601:00
#09601:00
#09601:00
#09601:00
#09601:00
#09601:00
#09601:00
#09601:006S006S
#09601:6R6R
#09601:00
#09601:006T006T006T006T
#09601:00
#09601:00
#09601:00DX00DY
#09601:DVDV
#09601:00DW00DW00DW0000
#09611:02000000020000000200000400000000
#09612:00000000000000R100000000RD000000
#09613:R00000000000000000000000000000R80000000000000000000000R800000000000000000000RH000000000000000000
#09614:000000000000RA0000000000000000000000000000R500000000000000000000RC00000000000000RK00000000000000
#09615:R400000000RA000000RA00000000RM00
#09618:000000RB000000000000000000000000RF0000000000RN00
#09619:0000000000000000000000000000000000000000000000RQ
#09621:HAHA
#09622:00HB000000000000000000HI00HB000000000000000000HI
#09623:00HC000000HC00HC000000HC
#09624:00HD00HD00HD00HD
#09625:00HEHH00HEHH
#09628:0000000000HF00HF000000000000000000HF00HF00000000
#09629:00HG00HG
#09701:00
#09701:0000000000000303
#09701:0I0000000I0000000I0I000I0I000000
#09701:000J000J000J000J
#09701:0U000R0S0R000S0R0S0T0R0U0U000U00
#09701:0N0N0N0N
#09701:00000000000000000000000000QE0000RF00000000000000
#09701:000000000000000000000000000000000000000000QY00000000000000000000RI000000000000000000000000000000
#09701:00000000000000000000000000QG00000000RP0000000000
#09701:00000000000000R000000000QV000000
#09701:00
#09701:00
#09701:00
#09701:00
#09701:00
#09701:00
#09701:00
#09701:00
#09701:00
#09701:00
#09701:000000006S0000000000006C00000000
#09701:6R6R
#09701:000000000000006E
#09701:006T006T006T0000
#09701:0000006D
#09701:00
#09701:00000000DX000000000000E000000000
#09701:DVDV
#09701:00DW00DW00DW00E2
#09701:000000E1
#09711:02020200
#09712:000000000000000000000000000000000000000000R1000000000000000000000000000000000000000000000000RB00
#09713:QS000000000000000000000000QI0000000000000000RF00
#09714:000000QT0000000000000000000000000000000000R300000000000000000000RK000000000000000000RL0000000000
#09715:000000QU0000000000RH000000QK000000000000RQ000000
#09718:000000000000000000QR0000000000QP00000000000000000000000000000000RM0000000000RR000000000000000000
#09719:00QQ00QW
#09721:HAHA
#09722:00HB000000000000000000HI00HB000000000000000000HI
#09723:00HC000000HC00HC000000HC
#09724:00HD00HD00HD00HD
#09725:00HEHH00HEHH
#09728:0000000000HF00HF000000000000000000HF00HF00000000
#09729:00HG00HG
#09801:00
#09801:00
#09801:0I0000000I0000000I00000I0I000000
#09801:000J000J000J000J
#09801:0U000R0S0R000S0R0S000R0S0R000U00
#09801:0N0N0N0N
#09801:00
#09801:00
#09801:Q0
#09801:Q1
#09801:00
#09801:00
#09801:00
#09801:00
#09801:00
#09801:00
#09801:00
#09801:00
#09801:00
#09801:00
#09801:006S006S
#09801:6R6R
#09801:00
#09801:006T006T006T006T
#09801:00
#09801:00
#09801:00DX00DY
#09801:DVDV
#09801:00DW00DW00DW0000
#09811:HAHA
#09812:00HB000000000000000000HI00HB000000000000000000HI
#09813:00HC000000HC00HC000000HC
#09814:00HD00HD00HD00HD
#09815:00HEHH00HEHH
#09818:0000000000HF00HF000000000000000000HF00HF00000000
#09819:00HG00HG
#09821:0200020002000303
#09823:00Q7QI00
#09824:0000000000000000000000000000Q8000000000000000000000000QN0000000000000000000000000000000000QF0000
#09825:GR00000000000000Q9000000000000QR0000000000QJ0000
#09828:000000000000QC00000000QO00QL0000
#09829:08000000000000QG00000000QN000000
#09901:00
#09901:00
#09901:0I0000000I0000000I0I000I0I000000
#09901:000J000J000J000J
#09901:0U000R0S0R000S0R0S000R0S0R000U00
#09901:0N0N0N0N
#09901:0000R200R8RA0000
#09901:0000000000RGQ200
#09901:00QD00RD0000Q300
#09901:00
#09901:00
#09901:00
#09901:00
#09901:00
#09901:00
#09901:00
#09901:00
#09901:00
#09901:00
#09901:00
#09901:006S0000
#09901:6R6R
#09901:0000006U
#09901:006T006T006T006T
#09901:0000006V
#09901:00
#09901:00DX0000
#09901:DVDV
#09901:00DW00DW00DW0000
#09901:000000DZ
#09911:HAHA
#09912:00HB000000000000000000HI00HB000000000000000000HI
#09913:00HC000000HC00HC000000HC
#09914:00HD00HD00HD00HD
#09915:00HEHH00HEHH
#09918:0000000000HF00HF000000000000000000HF00HF00000000
#09919:00HG00HG
#09921:02000000020000000200000400000300
#09922:00QH000000000000
#09923:QC00RHQ4
#09924:00QJ00RG00RL0000
#09925:00R4RJQ5
#09928:000000RO00RJ0000
#09929:00R80003
#10001:00
#10001:00
#10001:0I0000000I0000000I00000I0I000000
#10001:000J000J000J000J
#10001:0U000R0S0R000T0S0R000S0U0U000R0S
#10001:0N0N0N0N
#10001:00
#10001:00
#10001:00
#10001:00
#10001:00
#10001:00
#10001:00
#10001:00
#10001:00
#10001:00
#10001:00
#10001:00
#10001:00
#10001:00
#10001:006S006S
#10001:6R6R
#10001:00
#10001:006T006T006T006T
#10001:00
#10001:00
#10001:00000000DX000000000000E3DY000000
#10001:DV000000DV0000E4
#10001:0000DW000000DW000000DW00000000E5
#10011:HAHA
#10012:00HB000000000000000000HI00HB000000000000000000HI
#10013:00HC000000HC00HC000000HC
#10014:00HD00HD00HD00HD
#10015:00HEHH00HEHH
#10018:0000000000HF00HF000000000000000000HF00HF00000000
#10019:00HG00HG
#10021:02000000020000000200000400000400
#10022:00J8000000000000
#10023:J70000J900000000JC00000000JF0000
#10024:00000000J800000000JD0000JG00JG00
#10025:0000000000J900000000JE00000000JH
#10028:000000000000JA00000000JF00000000
#10029:00000000000000JB0000000003000004
#10101:00
#10101:00
#10101:0I0000000000000I
#10101:00
#10101:0U
#10101:00
#10101:000000000000000000000000000000SG
#10101:000000000000SDSF
#10101:0000000000000000000000SC00SE0000
#10101:00000000S9SB0000
#10101:00000000000000S800SA000000000000
#10101:00S300S700000000
#10101:000000S400S600000000000000000000
#10101:00S50000
#10101:00000000000000DA
#10101:00
#10101:00
#10101:00
#10101:00
#10101:00000000000000DE
#10101:00
#10101:00
#10101:00
#10101:00
#10101:00
#10101:00
#10101:00
#10101:00
#10101:00
#10101:E6
#10111:0200000000000003
#10115:H8
#10119:090000000000000G
#10121:S2000000000000GE
#10123:5S000000000000RS
#10201:00
#10201:00
#10201:0I0I000I0I000I0I000I0I000I000I00
#10201:0N00000N00000N00000N00000O000O00
#10201:0R0U000R0U000R0U000R0U000R0S0U00
#10201:00
#10201:00
#10201:00
#10201:00
#10201:00
#10201:00
#10201:00
#10201:00
#10201:00
#10201:DBDC00DBDC00DBDC00DBDC00DB00DD00
#10201:00
#10201:000000DGDR0000000000000000000000
#10201:000000DI
#10201:000000000000DHDS0000000000000000
#10201:00000000000000DJ
#10201:DFDQ00000000000000DFDQ0000000000
#10201:00
#10201:00
#10201:00
#10201:000000000000GPGK0000000000000000
#10201:000000000000000000GQGL0000000000
#10201:GNGI00000000000000000000GI000000
#10201:000000GOGJ000000000000000000GJ00
#10211:04030004030004030004030003000300
#10219:0H0G000H0G000H0G000H0G000G000G00
#10221:00000000000000GH
#10222:000000000000000000GFGG0000000000
#10223:000000000000GFGG000000000000RW00
#10224:000000GFGG00000000RTRU0000000000
#10225:GFGG00000000RTRU00000000GG000000
#10228:000000RTRU0000000000000000000000
#10229:RTRU00000000000000000000RV000000
#10301:00
#10301:00
#10301:00
#10301:00
#10301:00
#10301:00
#10301:00
#10301:00
#10301:00
#10301:00
#10301:00
#10301:00
#10301:00
#10301:00
#10301:DC
#10301:00
#10301:00
#10301:00
#10301:DK
#10301:00
#10301:00
#10301:00
#10301:00
#10301:00
#10301:00
#10301:00
#10301:00
#10301:00
#10301:00
#10301:00
#10301:GR
#10311:02
#10314:0000RXRZS1000000
#10318:0000000000RY00S00000000000000000
#10319:0G
#10322:0000000000DM00DO0000000000000000
#10324:0000DLDNDP000000
#10325:GM
#10329:RV