Files
admin-leaf-alice-in-misanth…/_7LUNACY.bms

4692 lines
100 KiB
Plaintext
Raw Normal View History

*---------------------- HEADER FIELD
#PLAYER 1
#GENRE GOTHIC CHOIR
#TITLE Alice in Misanthrope -<2D>}<7D><><EFBFBD>A<EFBFBD><41><EFBFBD>X-[LUNACY]
#ARTIST LeaF
#BPM 172
#PLAYLEVEL 23
#RANK 3
#TOTAL 789
#STAGEFILE _title.png
#WAV01 kick1_4g.wav
#WAV02 kick1_4.wav
#WAV03 kick1_8.wav
#WAV04 kick1_16.wav
#WAV05 kick1_32.wav
#WAV06 kick1_sub1.wav
#WAV07 kick1_sub2.wav
#WAV08 cym1_1.wav
#WAV09 cym1_2.wav
#WAV0A cym1_3.wav
#WAV0B cym1_4.wav
#WAV0C cym1_5.wav
#WAV0D cym1_6.wav
#WAV0E cym1_7_spr.wav
#WAV0F cym1_9.wav
#WAV0G cym1_10.wav
#WAV0H cym1_11.wav
#WAV0I hat1.wav
#WAV0J hat2.wav
#WAV0K hat3.wav
#WAV0L hat4.wav
#WAV0M hat5.wav
#WAV0N ride1.wav
#WAV0O ride2.wav
#WAV0P ride3.wav
#WAV0Q snare1.wav
#WAV0R snaredrum1_1.wav
#WAV0S snaredrum1_1.wav
#WAV0T snaredrum1_2.wav
#WAV0U snaredrum1_3.wav
#WAV0V clap1.wav
#WAV0W clap2.wav
#WAV0X tom1.wav
#WAV0Y tom2.wav
#WAV0Z tom3.wav
#WAV10 tom4.wav
#WAV11 tom5.wav
#WAV12 tom6.wav
#WAV13 break1_1.wav
#WAV14 break1_2.wav
#WAV15 break1_3.wav
#WAV16 break1_4.wav
#WAV17 break1_5.wav
#WAV18 break1_6.wav
#WAV19 break1_7.wav
#WAV1A break1_8.wav
#WAV1B break2_1.wav
#WAV1C break2_2.wav
#WAV1D break2_3.wav
#WAV1E break2_4.wav
#WAV1F break2_5.wav
#WAV1G break2_6.wav
#WAV1H break2_7.wav
#WAV1I break2_8.wav
#WAV1J break3_1.wav
#WAV1K break3_2.wav
#WAV1L break3_3.wav
#WAV1M break3_4.wav
#WAV1N break3_5.wav
#WAV1O break3_6.wav
#WAV1P break3_7.wav
#WAV1Q break3_8.wav
#WAV1R break3_9.wav
#WAV1S break3_10.wav
#WAV1T break3_11.wav
#WAV1U break3_12.wav
#WAV1V break3_14.wav
#WAV1W break3_15.wav
#WAV1X break3_16.wav
#WAV1Y break3_17.wav
#WAV1Z break3_18.wav
#WAV20 break3_19.wav
#WAV21 break3_20.wav
#WAV22 break3_21.wav
#WAV23 break3_22.wav
#WAV24 break3_23.wav
#WAV25 break3_24.wav
#WAV26 break3_25.wav
#WAV27 break3_26.wav
#WAV28 break3_27.wav
#WAV29 break3_28.wav
#WAV2A break3_29.wav
#WAV2B break3_30.wav
#WAV2C break3_31.wav
#WAV2D break3_32.wav
#WAV2E break3_33.wav
#WAV2F break3_34.wav
#WAV2G break3_35.wav
#WAV2H break3_36.wav
#WAV2I break3_37.wav
#WAV2J break3_38.wav
#WAV2K break3_39.wav
#WAV2L break3_40.wav
#WAV2M break3_41.wav
#WAV2N break3_42.wav
#WAV2O break4_1.wav
#WAV2P break4_2.wav
#WAV2Q break4_3.wav
#WAV2R break4_4.wav
#WAV2S break4_5.wav
#WAV2T break4_6.wav
#WAV2U break4_7.wav
#WAV2V break4_8.wav
#WAV2W break4_9.wav
#WAV2X break4_10.wav
#WAV2Y break4_11.wav
#WAV2Z break4_12.wav
#WAV30 ens1_1.wav
#WAV31 ens1_2.wav
#WAV32 ens1_3.wav
#WAV33 ens1_4.wav
#WAV34 ens1_5.wav
#WAV35 ens1_6.wav
#WAV36 ens1_7.wav
#WAV37 ens1_8.wav
#WAV38 ens1_9.wav
#WAV39 ens1_10.wav
#WAV3A fx1.wav
#WAV3B synth1_1.wav
#WAV3C synth1_2.wav
#WAV3D synth1_3.wav
#WAV3E synth1_4.wav
#WAV3F synth1_5.wav
#WAV3G synth1_6.wav
#WAV3H synth1_7.wav
#WAV3I synth1_8.wav
#WAV3J synth1_9.wav
#WAV3K synth1_10.wav
#WAV3L synth1_11.wav
#WAV3M synth1_12.wav
#WAV3N synth1_13.wav
#WAV3O synth1_14.wav
#WAV3P synth1_15.wav
#WAV3Q synth1_16.wav
#WAV3R synth1_17.wav
#WAV3S synth1_18.wav
#WAV3T synth1_19.wav
#WAV3U synth1_20.wav
#WAV3V synth1_21.wav
#WAV3W synth1_22.wav
#WAV3X synth1_23.wav
#WAV3Y synth1_24.wav
#WAV3Z synth1_25.wav
#WAV40 synth1_26.wav
#WAV41 synth1_27.wav
#WAV42 synth1_28.wav
#WAV43 synth1_29.wav
#WAV44 synth1_30.wav
#WAV45 synth1_31.wav
#WAV46 synth2_1.wav
#WAV47 synth2_2.wav
#WAV48 synth2_3.wav
#WAV49 synth2_4.wav
#WAV4A synth2_5.wav
#WAV4B synth2_6.wav
#WAV4C synth2_7.wav
#WAV4D synth2_8.wav
#WAV4E synth2_9.wav
#WAV4F synth2_10.wav
#WAV4G synth2_11.wav
#WAV4H synth2_12.wav
#WAV4I synth2_13.wav
#WAV4J synth2_14.wav
#WAV4K synth2_15.wav
#WAV4L synth2_16.wav
#WAV4M synth2_17.wav
#WAV4N synth2_18.wav
#WAV4O synth2_19.wav
#WAV4P synth2_20.wav
#WAV4Q synth2_21.wav
#WAV4R synth2_22.wav
#WAV4S synth2_23.wav
#WAV4T synth2_24.wav
#WAV4U synth2_25.wav
#WAV4V synth2_26.wav
#WAV4W synth2_27.wav
#WAV4X synth2_28.wav
#WAV4Y synth3_1.wav
#WAV4Z synth3_2.wav
#WAV50 synth3_3.wav
#WAV51 synth3_5.wav
#WAV52 synth3_6.wav
#WAV53 synth3_7.wav
#WAV54 synth3_8.wav
#WAV55 synth3_9.wav
#WAV56 synth3_10.wav
#WAV57 synth3_11.wav
#WAV58 synth3_12.wav
#WAV59 synth3_13.wav
#WAV5A synth3_14.wav
#WAV5B synth3_15.wav
#WAV5C synth3_16.wav
#WAV5D synth3_17.wav
#WAV5E synth3_18.wav
#WAV5F synth3_19.wav
#WAV5G synth3_20.wav
#WAV5H synth3_21.wav
#WAV5I synth3_22.wav
#WAV5J synth3_23.wav
#WAV5K synth3_24.wav
#WAV5L synth3_25.wav
#WAV5M synth3_26.wav
#WAV5N synth3_27.wav
#WAV5O synth3_28.wav
#WAV5P synth3_29.wav
#WAV5Q stringsfx1_1.wav
#WAV5R stringsfx1_2.wav
#WAV5S stringsfx1_3.wav
#WAV5T strings1_1.wav
#WAV5U strings1_2.wav
#WAV5V strings1_4.wav
#WAV5W strings1_5.wav
#WAV5X strings1_6.wav
#WAV5Y strings1_7.wav
#WAV5Z strings1_8.wav
#WAV60 strings1_9.wav
#WAV61 strings1_10.wav
#WAV62 strings1_11.wav
#WAV63 strings1_12.wav
#WAV64 strings1_13.wav
#WAV65 strings1_14.wav
#WAV66 strings1_15.wav
#WAV67 strings1_16.wav
#WAV68 strings1_17.wav
#WAV69 strings1_18.wav
#WAV6A strings1_19.wav
#WAV6B strings1_20.wav
#WAV6C strings1_21.wav
#WAV6D strings1_22.wav
#WAV6E strings1_23.wav
#WAV6F strings1_24.wav
#WAV6G strings1_25.wav
#WAV6H strings1_27.wav
#WAV6I strings1_28.wav
#WAV6J strings1_29.wav
#WAV6K strings1_30.wav
#WAV6L strings1_31.wav
#WAV6M strings1_32.wav
#WAV6N strings1_33.wav
#WAV6O strings1_34.wav
#WAV6P strings1_35.wav
#WAV6Q strings1_36.wav
#WAV6R strings1_37.wav
#WAV6S strings1_38.wav
#WAV6T strings1_39.wav
#WAV6U strings1_40.wav
#WAV6V strings1_41.wav
#WAV6W strings2_1.wav
#WAV6X strings2_2.wav
#WAV6Y strings2_3.wav
#WAV6Z strings2_4.wav
#WAV70 strings2_5.wav
#WAV71 strings2_6.wav
#WAV72 strings2_7.wav
#WAV73 strings2_8.wav
#WAV74 strings2_9.wav
#WAV75 strings2_10.wav
#WAV76 strings2_11.wav
#WAV77 strings2_12.wav
#WAV78 strings2_13.wav
#WAV79 strings2_14.wav
#WAV7A strings2_15.wav
#WAV7B strings2_16.wav
#WAV7C strings2_17.wav
#WAV7D strings2_18.wav
#WAV7E strings2_19.wav
#WAV7F strings2_20.wav
#WAV7G strings2_21.wav
#WAV7H strings2_22.wav
#WAV7I strings2_23.wav
#WAV7J strings2_24.wav
#WAV7K strings2_25.wav
#WAV7L strings2_26.wav
#WAV7M strings2_27.wav
#WAV7N strings2_28.wav
#WAV7O strings4_1.wav
#WAV7P strings4_2.wav
#WAV7Q strings4_3.wav
#WAV7R strings4_4.wav
#WAV7S strings4_5.wav
#WAV7T strings4_6.wav
#WAV7U strings4_7.wav
#WAV7V strings4_8.wav
#WAV7W strings4_9.wav
#WAV7X strings4_10.wav
#WAV7Y strings4_11.wav
#WAV7Z strings4_12.wav
#WAV80 strings4_13.wav
#WAV81 strings4_14.wav
#WAV82 strings4_15.wav
#WAV83 strings4_16.wav
#WAV84 strings4_17.wav
#WAV85 strings4_18.wav
#WAV86 strings4_19.wav
#WAV87 strings4_20.wav
#WAV88 strings4_21.wav
#WAV89 strings4_22.wav
#WAV8A strings4_23.wav
#WAV8B strings4_24.wav
#WAV8C strings4_25.wav
#WAV8D strings4_26.wav
#WAV8E strings4_27.wav
#WAV8F strings4_28.wav
#WAV8G strings4_29.wav
#WAV8H strings4_30.wav
#WAV8I strings4_31.wav
#WAV8J strings4_32.wav
#WAV8K strings4_33.wav
#WAV8L strings4_34.wav
#WAV8M strings4_35_bgm.wav
#WAV8N strings4_36.wav
#WAV8O strings4_37.wav
#WAV8P strings4_38.wav
#WAV8Q strings4_39.wav
#WAV8R strings4_40.wav
#WAV8S strings4_41.wav
#WAV8T strings4_42.wav
#WAV8U strings7_1.wav
#WAV8V strings7_2.wav
#WAV8W strings7_3.wav
#WAV8X strings7_4.wav
#WAV8Y strings7_5.wav
#WAV8Z strings7_6.wav
#WAV90 strings7_7.wav
#WAV91 strings7_8.wav
#WAV92 strings7_9.wav
#WAV93 strings7_10.wav
#WAV94 strings7_11.wav
#WAV95 strings7_12.wav
#WAV96 strings7_13.wav
#WAV97 strings7_14.wav
#WAV98 strings7_15.wav
#WAV99 strings7_16.wav
#WAV9A strings7_17.wav
#WAV9B strings7_18.wav
#WAV9C strings7_19.wav
#WAV9D strings7_20.wav
#WAV9E strings7_21.wav
#WAV9F strings7_22.wav
#WAV9G strings7_23.wav
#WAV9H strings7_24.wav
#WAV9I strings8_1.wav
#WAV9J strings8_2.wav
#WAV9K strings8_3.wav
#WAV9L strings8_4.wav
#WAV9M strings8_5.wav
#WAV9N strings8_6.wav
#WAV9O strings8_7.wav
#WAV9P strings8_8.wav
#WAV9Q strings8_9.wav
#WAV9R strings8_10.wav
#WAV9S strings8_11.wav
#WAV9T strings8_12.wav
#WAV9U strings8_13.wav
#WAV9V strings8_14.wav
#WAV9W strings8_15.wav
#WAV9X strings8_16.wav
#WAV9Y strings8_17.wav
#WAV9Z strings8_18.wav
#WAVA0 strings8_19.wav
#WAVA1 strings8_20.wav
#WAVA2 strings8_21.wav
#WAVA3 strings8_22.wav
#WAVA4 strings8_23.wav
#WAVA5 strings8_24.wav
#WAVA6 strings8_25.wav
#WAVA7 strings8_26.wav
#WAVA8 strings8_27.wav
#WAVA9 strings8_28.wav
#WAVAA strings8_29.wav
#WAVAB strings8_30.wav
#WAVAC strings8_31.wav
#WAVAD strings8_32.wav
#WAVAE strings8_33.wav
#WAVAF strings8_34.wav
#WAVAG strings8_35.wav
#WAVAH strings8_36.wav
#WAVAI strings8_37.wav
#WAVAJ strings8_38.wav
#WAVAK strings8_39.wav
#WAVAL strings8_40.wav
#WAVAM strings8_41.wav
#WAVAN strings8_42.wav
#WAVAO strings8_43.wav
#WAVAP strings9_1.wav
#WAVAQ strings9_2.wav
#WAVAR strings9_3.wav
#WAVAS strings9_4.wav
#WAVAT strings9_5.wav
#WAVAU strings9_6.wav
#WAVAV strings9_7.wav
#WAVAW strings9_8.wav
#WAVAX strings9_9.wav
#WAVAY strings9_10.wav
#WAVAZ strings9_11.wav
#WAVB0 strings9_12.wav
#WAVB1 strings9_13.wav
#WAVB2 strings9_14.wav
#WAVB3 strings9_15.wav
#WAVB4 strings9_16.wav
#WAVB5 strings9_17.wav
#WAVB6 strings9_18.wav
#WAVB7 strings9_19.wav
#WAVB8 strings9_20.wav
#WAVB9 strings9_21.wav
#WAVBA strings9_22.wav
#WAVBB strings9_23.wav
#WAVBC strings9_24.wav
#WAVBD strings9_25.wav
#WAVBE strings9_26.wav
#WAVBF strings10_1.wav
#WAVBG strings10_2.wav
#WAVBH strings10_3.wav
#WAVBI strings10_4.wav
#WAVBJ strings10_5.wav
#WAVBK strings10_6.wav
#WAVBL strings10_7.wav
#WAVBM strings10_8.wav
#WAVBN strings10_8.wav
#WAVBO strings10_10.wav
#WAVBP strings10_11.wav
#WAVBQ strings10_12.wav
#WAVBR strings10_13.wav
#WAVBS strings10_14.wav
#WAVBT strings11_1.wav
#WAVBU strings11_2.wav
#WAVBV strings11_3.wav
#WAVBW strings11_5.wav
#WAVBX strings11_6.wav
#WAVBY strings11_7.wav
#WAVBZ strings11_8.wav
#WAVC0 strings11_9.wav
#WAVC1 strings11_11.wav
#WAVC2 strings11_12.wav
#WAVC3 strings11_13.wav
#WAVC4 strings11_14.wav
#WAVC5 strings11_15.wav
#WAVC6 strings11_16.wav
#WAVC7 strings11_17.wav
#WAVC8 strings11_18.wav
#WAVC9 strings11_19.wav
#WAVCA strings11_20.wav
#WAVCB strings11_21.wav
#WAVCC strings12_1.wav
#WAVCD strings12_2.wav
#WAVCE strings12_3.wav
#WAVCF strings12_4.wav
#WAVCG strings12_5.wav
#WAVCH strings12_6.wav
#WAVCI strings12_7.wav
#WAVCJ strings12_8.wav
#WAVCK strings12_9.wav
#WAVCL strings12_10.wav
#WAVCM strings12_11.wav
#WAVCN strings12_12.wav
#WAVCO strings12_13.wav
#WAVCP strings12_14.wav
#WAVCQ strings12_15.wav
#WAVCR strings12_16.wav
#WAVCS strings12_18.wav
#WAVCT strings13_1.wav
#WAVCU strings13_2.wav
#WAVCV strings13_3.wav
#WAVCW strings13_4.wav
#WAVCX strings13_5.wav
#WAVCY strings13_6.wav
#WAVCZ strings13_7.wav
#WAVD0 strings13_8.wav
#WAVD1 strings13_9.wav
#WAVD2 strings13_10.wav
#WAVD3 strings13_11.wav
#WAVD4 strings13_12.wav
#WAVD5 strings13_13.wav
#WAVD6 strings13_14.wav
#WAVD7 strings13_15.wav
#WAVD8 strings13_16.wav
#WAVD9 strings13_17.wav
#WAVDA strings14_1.wav
#WAVDB strings14_2.wav
#WAVDC strings14_3.wav
#WAVDD strings14_4.wav
#WAVDE strings14_5.wav
#WAVDF strings14_6.wav
#WAVDG strings14_7.wav
#WAVDH strings14_8.wav
#WAVDI strings14_9.wav
#WAVDJ strings14_10.wav
#WAVDK strings14_11.wav
#WAVDL strings14_12.wav
#WAVDM strings14_13.wav
#WAVDN strings14_14.wav
#WAVDO strings14_15.wav
#WAVDP strings14_16.wav
#WAVDQ strings14_6.wav
#WAVDR strings14_7.wav
#WAVDS strings14_8.wav
#WAVDT chenvalo1_1.wav
#WAVDU chenvalo1_2.wav
#WAVDV chenvalo1_3.wav
#WAVDW chenvalo1_4.wav
#WAVDX chenvalo1_5.wav
#WAVDY chenvalo1_6.wav
#WAVDZ chenvalo1_7.wav
#WAVE0 chenvalo1_8.wav
#WAVE1 chenvalo1_9.wav
#WAVE2 chenvalo1_10.wav
#WAVE3 chenvalo1_11.wav
#WAVE4 chenvalo1_12.wav
#WAVE5 chenvalo1_13.wav
#WAVE6 chenvalo1_14.wav
#WAVE7 chenvalo1_15.wav
#WAVE8 chenvalo2_1.wav
#WAVE9 chenvalo2_2.wav
#WAVEA chenvalo2_3.wav
#WAVEB chenvalo2_4.wav
#WAVEC chenvalo2_5.wav
#WAVED chenvalo2_6.wav
#WAVEE chenvalo2_7.wav
#WAVEF chenvalo3_1.wav
#WAVEG chenvalo3_2.wav
#WAVEH chenvalo3_3.wav
#WAVEI chenvalo3_4.wav
#WAVEJ chenvalo3_5.wav
#WAVEK chenvalo3_6.wav
#WAVEL chenvalo3_7.wav
#WAVEM chenvalo3_8.wav
#WAVEN chenvalo3_9.wav
#WAVEO chenvalo3_10.wav
#WAVEP chenvalo3_11.wav
#WAVEQ chenvalo3_12.wav
#WAVER chenvalo3_13.wav
#WAVES chenvalo3_14.wav
#WAVET chenvalo3_15.wav
#WAVEU chenvalo3_16.wav
#WAVEV chenvalo3_17.wav
#WAVEW chenvalo3_18.wav
#WAVEX chenvalo3_19.wav
#WAVEY chenvalo3_20.wav
#WAVEZ chenvalo3_21.wav
#WAVF0 chenvalo3_22.wav
#WAVF1 chenvalo3_23.wav
#WAVF2 chenvalo3_24.wav
#WAVF3 chenvalo3_25.wav
#WAVF4 chenvalo3_26.wav
#WAVF5 chenvalo3_27.wav
#WAVF6 chenvalo3_28.wav
#WAVF7 chenvalo3_29.wav
#WAVF8 chenvalo3_30.wav
#WAVF9 chenvalo3_31.wav
#WAVFA chenvalo3_32.wav
#WAVFB chenvalo3_33.wav
#WAVFC chenvalo3_34.wav
#WAVFD chenvalo3_35.wav
#WAVFE chenvalo4_1.wav
#WAVFF chenvalo4_2.wav
#WAVFG chenvalo4_3.wav
#WAVFH chenvalo4_4.wav
#WAVFI chenvalo4_5.wav
#WAVFJ chenvalo4_6.wav
#WAVFK chenvalo4_7.wav
#WAVFL chenvalo4_8.wav
#WAVFM chenvalo4_9.wav
#WAVFN chenvalo4_10.wav
#WAVFO chenvalo5_1.wav
#WAVFP chenvalo5_2.wav
#WAVFQ chenvalo5_3.wav
#WAVFR chenvalo5_4.wav
#WAVFS chenvalo5_5.wav
#WAVFT chenvalo5_6.wav
#WAVFU chenvalo5_7.wav
#WAVFV chenvalo5_8.wav
#WAVFW chenvalo5_9.wav
#WAVFX chenvalo5_10.wav
#WAVFY chenvalo5_11.wav
#WAVFZ chenvalo5_12.wav
#WAVG0 chenvalo5_13.wav
#WAVG1 chenvalo5_14.wav
#WAVG2 chenvalo5_15.wav
#WAVG3 chenvalo5_16.wav
#WAVG4 chenvalo5_17.wav
#WAVG5 chenvalo5_18.wav
#WAVG6 chenvalo5_19.wav
#WAVG7 chenvalo5_20.wav
#WAVG8 chenvalo5_21.wav
#WAVG9 chenvalo5_22.wav
#WAVGA chenvalo5_23.wav
#WAVGB chenvalo5_24.wav
#WAVGC chenvalo5_25.wav
#WAVGD chenvalo5_26.wav
#WAVGE chenvalo6_1.wav
#WAVGF chenvalo6_2.wav
#WAVGG chenvalo6_3.wav
#WAVGH chenvalo6_4.wav
#WAVGI chenvalo6_5.wav
#WAVGJ chenvalo6_6.wav
#WAVGK chenvalo6_7.wav
#WAVGL chenvalo6_8.wav
#WAVGM chenvalo6_9.wav
#WAVGN chenvalo6_10.wav
#WAVGO chenvalo6_11.wav
#WAVGP chenvalo6_12.wav
#WAVGQ chenvalo6_13.wav
#WAVGR chor1_1.wav
#WAVGS chor2_1.wav
#WAVGT chor2_2.wav
#WAVGU chor2_3.wav
#WAVGV chor2_4.wav
#WAVGW chor2_5.wav
#WAVGX chor2_6.wav
#WAVGY chor2_7.wav
#WAVGZ chor2_8.wav
#WAVH0 chor2_9.wav
#WAVH1 chor2_10.wav
#WAVH2 chor2_11.wav
#WAVH3 chor2_12.wav
#WAVH4 chor2_13.wav
#WAVH5 chor2_14.wav
#WAVH6 chor2_15.wav
#WAVH7 chor2_16.wav
#WAVH8 chor3_1.wav
#WAVH9 glissando1.wav
#WAVHA harp1_1.wav
#WAVHB harp1_2.wav
#WAVHC harp1_3.wav
#WAVHD harp1_4.wav
#WAVHE harp1_5.wav
#WAVHF harp1_6.wav
#WAVHG harp1_7.wav
#WAVHH harp1_8.wav
#WAVHI harp1_9.wav
#WAVHJ celesta1_1.wav
#WAVHK celesta1_2.wav
#WAVHL celesta1_3.wav
#WAVHM celesta1_4.wav
#WAVHN celesta1_5.wav
#WAVHO celesta1_6.wav
#WAVHP celesta1_7.wav
#WAVHQ celesta1_8.wav
#WAVHR celesta1_9.wav
#WAVHS celesta1_10.wav
#WAVHT celesta1_11.wav
#WAVHU celesta1_12.wav
#WAVHV celesta1_13.wav
#WAVHW celesta1_14.wav
#WAVHX celesta1_15.wav
#WAVHY piano1_1.wav
#WAVHZ piano1_2.wav
#WAVI0 piano1_3.wav
#WAVI1 piano1_4.wav
#WAVI2 piano1_5.wav
#WAVI3 piano1_6.wav
#WAVI4 piano1_7.wav
#WAVI5 piano1_8.wav
#WAVI6 piano1_9.wav
#WAVI7 piano1_10.wav
#WAVI8 piano1_11.wav
#WAVI9 piano1_12.wav
#WAVIA piano1_13.wav
#WAVIB piano1_14.wav
#WAVIC piano1_15.wav
#WAVID piano1_16.wav
#WAVIE piano1_17.wav
#WAVIF piano1_18.wav
#WAVIG piano1_19.wav
#WAVIH piano1_20.wav
#WAVII piano1_21.wav
#WAVIJ piano1_22.wav
#WAVIK piano1_23.wav
#WAVIL piano1_24.wav
#WAVIM piano2_1.wav
#WAVIN piano2_2.wav
#WAVIO piano2_3.wav
#WAVIP piano2_4.wav
#WAVIQ piano2_5.wav
#WAVIR piano2_6.wav
#WAVIS piano2_7.wav
#WAVIT piano2_8.wav
#WAVIU piano2_9.wav
#WAVIV piano2_10.wav
#WAVIW piano2_11.wav
#WAVIX piano2_12.wav
#WAVIY piano2_13.wav
#WAVIZ piano2_14.wav
#WAVJ0 piano2_15.wav
#WAVJ1 piano2_16.wav
#WAVJ2 piano2_17.wav
#WAVJ3 piano2_18.wav
#WAVJ4 piano2_19.wav
#WAVJ5 piano2_21.wav
#WAVJ6 piano2_23.wav
#WAVJ7 piano2_24.wav
#WAVJ8 piano2_25.wav
#WAVJ9 piano2_26.wav
#WAVJA piano2_27.wav
#WAVJB piano2_28.wav
#WAVJC piano2_29.wav
#WAVJD piano2_30.wav
#WAVJE piano2_31.wav
#WAVJF piano2_32.wav
#WAVJG piano2_33.wav
#WAVJH piano2_34.wav
#WAVJI piano3_1.wav
#WAVJJ piano3_2.wav
#WAVJK piano3_3.wav
#WAVJL piano3_4.wav
#WAVJM piano3_5.wav
#WAVJN piano3_6.wav
#WAVJO piano3_7.wav
#WAVJP piano3_8.wav
#WAVJQ piano3_9.wav
#WAVJR piano3_10.wav
#WAVJS piano3_11.wav
#WAVJT piano3_12.wav
#WAVJU piano3_13.wav
#WAVJV piano3_14.wav
#WAVJW piano3_15.wav
#WAVJX piano3_16.wav
#WAVJY piano3_17.wav
#WAVJZ piano3_18.wav
#WAVK0 piano3_19.wav
#WAVK1 piano3_20.wav
#WAVK2 piano3_21.wav
#WAVK3 piano3_22.wav
#WAVK4 piano3_23.wav
#WAVK5 piano3_24.wav
#WAVK6 piano3_25.wav
#WAVK7 piano3_26.wav
#WAVK8 piano3_27.wav
#WAVK9 piano3_28.wav
#WAVKA piano3_29.wav
#WAVKB piano3_30.wav
#WAVKC piano3_31.wav
#WAVKD piano3_32.wav
#WAVKE piano3_33.wav
#WAVKF piano3_34.wav
#WAVKG piano3_35.wav
#WAVKH piano3_36.wav
#WAVKI piano3_37.wav
#WAVKJ piano3_38.wav
#WAVKK piano3_39.wav
#WAVKL piano3_40.wav
#WAVKM piano3_41.wav
#WAVKN piano3_42.wav
#WAVKO piano3_43.wav
#WAVKP piano4_1.wav
#WAVKQ piano4_2.wav
#WAVKR piano4_3.wav
#WAVKS piano4_4.wav
#WAVKT piano4_5.wav
#WAVKU piano4_6.wav
#WAVKV piano4_7.wav
#WAVKW piano4_8.wav
#WAVKX piano4_9.wav
#WAVKY piano4_10.wav
#WAVKZ piano4_11.wav
#WAVL0 piano4_12.wav
#WAVL1 piano4_13.wav
#WAVL2 piano4_14.wav
#WAVL3 piano4_15.wav
#WAVL4 piano4_16.wav
#WAVL5 piano4_17.wav
#WAVL6 piano4_18.wav
#WAVL7 piano4_19.wav
#WAVL8 piano4_20.wav
#WAVL9 piano4_21.wav
#WAVLA piano4_22.wav
#WAVLB piano4_23.wav
#WAVLC piano4_24.wav
#WAVLD piano4_25.wav
#WAVLE piano4_26.wav
#WAVLF piano4_27.wav
#WAVLG piano4_28.wav
#WAVLH piano4_29.wav
#WAVLI piano4_30.wav
#WAVLJ piano4_31.wav
#WAVLK piano4_32.wav
#WAVLL piano4_33.wav
#WAVLM piano4_34.wav
#WAVLN piano4_35.wav
#WAVLO piano4_36.wav
#WAVLP piano4_37.wav
#WAVLQ piano4_38.wav
#WAVLR piano4_39.wav
#WAVLS piano4_40.wav
#WAVLT piano4_41.wav
#WAVLU piano4_42.wav
#WAVLV piano4_43.wav
#WAVLW piano4_44.wav
#WAVLX piano4_45.wav
#WAVLY piano4_46.wav
#WAVLZ piano4_47.wav
#WAVM0 piano4_48.wav
#WAVM1 piano4_49.wav
#WAVM2 piano5_1.wav
#WAVM3 piano5_2.wav
#WAVM4 piano5_3.wav
#WAVM5 piano5_4.wav
#WAVM6 piano5_5.wav
#WAVM7 piano5_6.wav
#WAVM8 piano5_7.wav
#WAVM9 piano5_8.wav
#WAVMA piano5_9.wav
#WAVMB piano5_10.wav
#WAVMC piano5_11.wav
#WAVMD piano5_12.wav
#WAVME piano5_13.wav
#WAVMF piano5_14.wav
#WAVMG piano6_1.wav
#WAVMH piano6_2.wav
#WAVMI piano6_3.wav
#WAVMJ piano6_4.wav
#WAVMK piano6_5.wav
#WAVML piano6_6.wav
#WAVMM piano6_7.wav
#WAVMN piano6_8.wav
#WAVMO piano6_9.wav
#WAVMP piano6_10.wav
#WAVMQ piano6_11.wav
#WAVMR piano6_12.wav
#WAVMS piano6_13.wav
#WAVMT piano6_14.wav
#WAVMU piano6_15.wav
#WAVMV piano6_16.wav
#WAVMW piano6_17.wav
#WAVMX piano6_18.wav
#WAVMY piano6_19.wav
#WAVMZ piano6_20.wav
#WAVN0 piano6_21.wav
#WAVN1 piano6_22.wav
#WAVN2 piano6_23.wav
#WAVN3 piano6_24.wav
#WAVN4 piano6_25.wav
#WAVN5 piano6_26.wav
#WAVN6 piano6_27.wav
#WAVN7 piano6_28.wav
#WAVN8 piano6_29.wav
#WAVN9 piano6_30.wav
#WAVNA piano6_31.wav
#WAVNB piano6_32.wav
#WAVNC piano7_1.wav
#WAVND piano7_2.wav
#WAVNE piano7_3.wav
#WAVNF piano7_4.wav
#WAVNG piano7_5.wav
#WAVNH piano7_6.wav
#WAVNI piano7_7.wav
#WAVNJ piano7_8.wav
#WAVNK piano7_9.wav
#WAVNL piano7_10.wav
#WAVNM piano7_11.wav
#WAVNN piano7_12.wav
#WAVNO piano7_13.wav
#WAVNP piano7_14.wav
#WAVNQ piano7_15.wav
#WAVNR piano7_16.wav
#WAVNS piano7_17.wav
#WAVNT piano7_18.wav
#WAVNU piano7_19.wav
#WAVNV piano7_20.wav
#WAVNW piano7_21.wav
#WAVNX piano7_22.wav
#WAVNY piano7_23.wav
#WAVNZ piano7_24.wav
#WAVO0 piano7_25.wav
#WAVO1 piano7_26.wav
#WAVO2 piano7_27.wav
#WAVO3 piano7_28.wav
#WAVO4 piano7_29.wav
#WAVO5 piano7_30.wav
#WAVO6 piano7_31.wav
#WAVO7 piano7_32.wav
#WAVO8 piano7_33.wav
#WAVO9 piano7_34.wav
#WAVOA piano7_35.wav
#WAVOB piano7_36.wav
#WAVOC piano7_37.wav
#WAVOD piano7_38.wav
#WAVOE piano7_39.wav
#WAVOF piano8_1.wav
#WAVOG piano8_2.wav
#WAVOH piano8_3.wav
#WAVOI piano8_4.wav
#WAVOJ piano8_5.wav
#WAVOK piano8_6.wav
#WAVOL piano8_7.wav
#WAVOM piano8_8.wav
#WAVON piano8_9.wav
#WAVOO piano8_10.wav
#WAVOP piano8_11.wav
#WAVOQ piano8_12.wav
#WAVOR piano8_14.wav
#WAVOS piano8_15.wav
#WAVOT piano8_16.wav
#WAVOU piano8_17.wav
#WAVOV piano8_18.wav
#WAVOW piano8_19.wav
#WAVOX piano8_20.wav
#WAVOY piano8_21.wav
#WAVOZ piano8_22.wav
#WAVP0 piano8_23.wav
#WAVP1 piano8_24.wav
#WAVP2 piano8_25.wav
#WAVP3 piano8_26.wav
#WAVP4 piano8_27.wav
#WAVP5 piano8_28.wav
#WAVP6 piano8_29.wav
#WAVP7 piano8_30.wav
#WAVP8 piano8_31.wav
#WAVP9 piano8_32.wav
#WAVPA piano8_33.wav
#WAVPB piano8_34.wav
#WAVPC piano8_35.wav
#WAVPD piano8_36.wav
#WAVPE piano9_1.wav
#WAVPF piano9_2.wav
#WAVPG piano9_3.wav
#WAVPH piano9_4.wav
#WAVPI piano9_5.wav
#WAVPJ piano9_6.wav
#WAVPK piano9_7.wav
#WAVPL piano9_8.wav
#WAVPM piano9_9.wav
#WAVPN piano9_10.wav
#WAVPO piano9_11.wav
#WAVPP piano9_12.wav
#WAVPQ piano9_13.wav
#WAVPR piano9_14.wav
#WAVPS piano9_15.wav
#WAVPT piano9_16.wav
#WAVPU piano9_17.wav
#WAVPV piano9_18.wav
#WAVPW piano9_19.wav
#WAVPX piano9_20.wav
#WAVPY piano9_21.wav
#WAVPZ piano9_22.wav
#WAVQ0 pianoadrib1_1.wav
#WAVQ1 pianoadrib1_2.wav
#WAVQ2 pianoadrib1_3.wav
#WAVQ3 pianoadrib1_4.wav
#WAVQ4 pianoadrib1_5.wav
#WAVQ5 pianoadrib1_6.wav
#WAVQ6 pianoadrib1_7.wav
#WAVQ7 pianoadrib1_8.wav
#WAVQ8 pianoadrib1_9.wav
#WAVQ9 pianoadrib1_10.wav
#WAVQA pianoadrib1_11.wav
#WAVQB pianoadrib1_12.wav
#WAVQC pianoadrib1_13.wav
#WAVQD pianoadrib1_14.wav
#WAVQE pianoadrib1_15.wav
#WAVQF pianoadrib1_16.wav
#WAVQG pianoadrib1_17.wav
#WAVQH pianoadrib1_18.wav
#WAVQI pianoadrib1_19.wav
#WAVQJ pianoadrib1_20.wav
#WAVQK pianoadrib1_21.wav
#WAVQL pianoadrib1_22.wav
#WAVQM pianoadrib1_23.wav
#WAVQN pianoadrib1_24.wav
#WAVQO pianoadrib1_25.wav
#WAVQP pianoadrib1_26.wav
#WAVQQ pianoadrib1_27.wav
#WAVQR pianoadrib1_28.wav
#WAVQS pianoadrib1_29.wav
#WAVQT pianoadrib1_30.wav
#WAVQU pianoadrib1_31.wav
#WAVQV pianoadrib1_32.wav
#WAVQW pianoadrib1_33.wav
#WAVQX pianoadrib1_34.wav
#WAVQY pianoadrib1_35.wav
#WAVQZ pianoadrib1_36.wav
#WAVR0 pianoadrib1_37.wav
#WAVR1 pianoadrib1_38.wav
#WAVR2 pianoadrib1_39.wav
#WAVR3 pianoadrib1_40.wav
#WAVR4 pianoadrib1_41.wav
#WAVR5 pianoadrib1_42.wav
#WAVR6 pianoadrib1_43.wav
#WAVR7 pianoadrib1_44.wav
#WAVR8 pianoadrib1_45.wav
#WAVR9 pianoadrib1_46.wav
#WAVRA pianoadrib1_47.wav
#WAVRB pianoadrib1_48.wav
#WAVRC pianoadrib1_49.wav
#WAVRD pianoadrib1_50.wav
#WAVRE pianoadrib1_64.wav
#WAVRF pianoadrib1_51.wav
#WAVRG pianoadrib1_52.wav
#WAVRH pianoadrib1_53.wav
#WAVRI pianoadrib1_54.wav
#WAVRJ pianoadrib1_55.wav
#WAVRK pianoadrib1_56.wav
#WAVRL pianoadrib1_57.wav
#WAVRM pianoadrib1_58.wav
#WAVRN pianoadrib1_59.wav
#WAVRO pianoadrib1_60.wav
#WAVRP pianoadrib1_61.wav
#WAVRQ pianoadrib1_62.wav
#WAVRR pianoadrib1_63.wav
#WAVRS piano10_1.wav
#WAVRT piano10_2.wav
#WAVRU piano10_3.wav
#WAVRV piano10_4.wav
#WAVRW piano10_5.wav
#WAVRX piano10_6.wav
#WAVRY piano10_7.wav
#WAVRZ piano10_8.wav
#WAVS0 piano10_9.wav
#WAVS1 piano10_10.wav
#WAVS2 piano11_1.wav
#WAVS3 piano11_2.wav
#WAVS4 piano11_3.wav
#WAVS5 piano11_4.wav
#WAVS6 piano11_5.wav
#WAVS7 piano11_6.wav
#WAVS8 piano11_7.wav
#WAVS9 piano11_8.wav
#WAVSA piano11_9.wav
#WAVSB piano11_10.wav
#WAVSC piano11_11.wav
#WAVSD piano11_12.wav
#WAVSE piano11_13.wav
#WAVSF piano11_14.wav
#WAVSG piano11_15.wav
#WAVSH synthlo1_168_000.wav
#WAVSI synthlo1_168_001.wav
#WAVSJ synthlo1_168_002.wav
#WAVSK synthlo1_168_003.wav
#WAVSL synthlo1_168_004.wav
#WAVSM synthlo1_168_005.wav
#WAVSN synthlo1_168_006.wav
#WAVSO synthlo1_168_007.wav
#WAVSP synthlo1_168_008.wav
#WAVSQ synthl1_0170_000.wav
#WAVSR synthl1_0170_001.wav
#WAVSS synthl1_0170_002.wav
#WAVST synthl1_0170_003.wav
#WAVSU synthl1_0170_004.wav
#WAVSV synthl1_172_000.wav
#WAVSW synthl1_172_001.wav
#WAVSX synthl1_172_002.wav
#WAVSY synthl1_172_003.wav
#WAVSZ synthl1_172_004.wav
#WAVT0 synthl1_172_005.wav
#WAVT1 synthl1_172_006.wav
#WAVT2 synthl1_172_007.wav
#WAVT3 synthl1_172_008.wav
#WAVT4 synthl1_174_000.wav
#WAVT5 synthl1_174_001.wav
#WAVT6 synthl1_174_002.wav
#WAVT7 synthl1_174_003.wav
#WAVT8 synthl1_174_004.wav
#WAVT9 synthl1_174_005.wav
#WAVTA synthl1_174_006.wav
#WAVTB synthlo2_172_000.wav
#WAVTC synthlo2_172_001.wav
#WAVTD synthlo2_172_002.wav
#WAVTE synthlo2_172_003.wav
#WAVTF synthlo2_172_004.wav
#WAVTG synthlo2_172_005.wav
#WAVTH synthlo2_172_006.wav
#WAVTI synthlo2_172_007.wav
#WAVTJ synthlo2_172_008.wav
#WAVTK synthlo2_172_009.wav
#WAVTL synthlo2_172_010.wav
#WAVTM synthlo2_172_011.wav
#WAVTN synthlo2_172_012.wav
#WAVTO synthlo2_172_013.wav
#WAVTP synthlo2_172_014.wav
#WAVTQ synthlo2_172_015.wav
#WAVTR synthlo2_172_016.wav
#WAVTS synthlo2_172_017.wav
#WAVTT synthlo2_172_018.wav
#WAVTU synthlo2_172_019.wav
#WAVTV synthlo2_172_020.wav
#WAVTW synthlo2_172_021.wav
#WAVTX synthlo2_172_022.wav
#WAVTY slap_000.wav
#WAVTZ slap_001.wav
#WAVU0 slap_002.wav
#WAVU1 slap_003.wav
#WAVU2 slap_004.wav
#WAVU3 slap_005.wav
#WAVU4 slap_006.wav
#WAVU5 slap2_000.wav
#WAVU6 slap2_001.wav
#WAVU7 slap2_002.wav
#WAVU8 slap2_003.wav
#WAVU9 slap2_004.wav
#WAVUA slap2_005.wav
#WAVUB piano9_23.wav
#WAVUC piano9_24.wav
#WAVUD piano9_25.wav
#WAVUE piano9_26.wav
#WAVUF piano9_27.wav
#WAVUG strings34_1_000.wav
#WAVUH strings34_1_001.wav
#WAVUI strings34_1_002.wav
#WAVUJ strings34_1_003.wav
#WAVUK strings34_1_004.wav
#WAVUL strings34_1_005.wav
#WAVUM strings34_1_006.wav
#WAVUN strings34_1_007.wav
#WAVUO strings34_1_008.wav
#WAVUP strings34_1_009.wav
#WAVUQ strings34_1_010.wav
#WAVUR strings34_1_011.wav
#WAVUS strings34_1_012.wav
#WAVUT strings34_1_013.wav
#WAVUU strings34_1_014.wav
#WAVUV strings34_1_015.wav
#WAVUW strings34_1_016.wav
#WAVUX strings34_1_017.wav
#WAVUY strings34_1_018.wav
#WAVUZ strings34_1_019.wav
#WAVV0 strings34_1_020.wav
#WAVV1 strings34_1_021.wav
#WAVV2 strings34_1_022.wav
#WAVV3 strings34_1_023.wav
#WAVV4 strings34_1_024.wav
#WAVV5 strings34_1_025.wav
#WAVV6 strings34_2_000.wav
#WAVV7 strings34_2_001.wav
#WAVV8 strings34_2_002.wav
#WAVV9 strings34_2_003.wav
#WAVVA strings34_2_004.wav
#WAVVB strings34_2_005.wav
#WAVVC strings34_2_006.wav
#WAVVD strings34_2_007.wav
#WAVVE strings34_2_008.wav
#WAVVF strings34_2_009.wav
#WAVVG strings34_2_010.wav
#WAVVH strings34_2_011.wav
#WAVVI strings34_2_012.wav
#WAVVJ strings34_2_013.wav
#WAVVK strings34_2_014.wav
#WAVVL strings34_2_015.wav
#WAVVM strings34_2_016.wav
#WAVVN strings34_2_017.wav
#WAVVO strings34_2_018.wav
#WAVVP strings34_2_019.wav
#WAVVQ strings34_2_020.wav
#WAVVR strings34_2_021.wav
#WAVVS strings34_2_022.wav
#WAVVT strings34_2_023.wav
#WAVVU strings34_2_024.wav
#WAVVV strings34_3_000.wav
#WAVVW strings34_3_001.wav
#WAVVX strings34_3_002.wav
#WAVVY strings34_3_003.wav
#WAVVZ strings34_3_004.wav
#WAVW0 strings34_3_005.wav
#WAVW1 strings34_3_006.wav
#WAVW2 strings34_3_007.wav
#WAVW3 strings34_4_000.wav
#WAVW4 strings34_4_001.wav
#WAVW5 strings34_4_002.wav
#WAVW6 strings34_4_003.wav
#WAVW7 strings34_4_004.wav
#WAVW8 strings34_4_005.wav
#WAVW9 strings34_4_006.wav
#WAVWA strings34_4_007.wav
#WAVWB strings34_5_000.wav
#WAVWC strings34_5_001.wav
#WAVWD strings34_5_002.wav
#WAVWE strings34_5_003.wav
#WAVWF strings34_5_004.wav
#WAVWG strings34_5_005.wav
#WAVWH strings34_5_006.wav
#WAVWI strings34_5_007.wav
#WAVWJ piano34_1_000.wav
#WAVWK piano34_1_001.wav
#WAVWL piano34_1_002.wav
#WAVWM piano34_1_003.wav
#WAVWN piano34_1_004.wav
#WAVWO piano34_1_005.wav
#WAVWP piano34_1_006.wav
#WAVWQ piano34_1_007.wav
#WAVWR piano34_1_008.wav
#WAVWS piano34_1_009.wav
#WAVWT piano34_1_010.wav
#WAVWU piano34_1_011.wav
#WAVWV piano34_1_012.wav
#WAVWW piano34_1_013.wav
#WAVWX piano34_1_014.wav
#WAVWY piano34_1_015.wav
#WAVWZ piano34_1_016.wav
#WAVX0 piano34_1_017.wav
#WAVX1 piano34_1_018.wav
#WAVX2 piano34_1_019.wav
#WAVX3 piano34_1_020.wav
#WAVX4 piano34_1_021.wav
#WAVX5 piano34_1_022.wav
#WAVX6 piano34_1_023.wav
#WAVX7 piano34_1_024.wav
#WAVX8 piano34_1_025.wav
#WAVX9 piano34_1_026.wav
#WAVXA piano34_6_000.wav
#WAVXB piano34_6_001.wav
#WAVXC piano34_6_002.wav
#WAVXD piano34_6_003.wav
#WAVXE piano34_6_004.wav
#WAVXF piano34_6_005.wav
#WAVXG piano34_6_006.wav
#WAVXH piano34_6_007.wav
#WAVXI piano34_6_008.wav
#WAVXJ piano34_6_009.wav
#WAVXK piano34_6_010.wav
#WAVXL piano34_6_011.wav
#WAVXM piano34_6_012.wav
#WAVXN piano34_6_013.wav
#WAVXO piano34_6_014.wav
#WAVXP piano34_6_015.wav
#WAVXQ piano34_6_016.wav
#WAVXR piano34_6_017.wav
#WAVXS piano34_6_018.wav
#WAVXT piano34_6_019.wav
#WAVXU piano34_6_020.wav
#WAVXV piano34_6_021.wav
#WAVXW piano34_6_022.wav
#WAVXX piano34_6_023.wav
#WAVXY piano34_6_024.wav
#WAVXZ piano34_6_025.wav
#WAVY0 piano34_6_026.wav
#WAVY1 piano34_6_027.wav
#WAVY2 piano34_6_028.wav
#WAVY3 piano34_6_029.wav
#WAVY4 piano34_6_030.wav
#WAVY5 piano34_6_031.wav
#WAVY6 piano34_6_032.wav
#WAVY7 piano34_9_000.wav
#WAVY8 piano34_9_001.wav
#WAVY9 piano34_9_002.wav
#WAVYA piano34_9_003.wav
#WAVYB piano34_9_004.wav
#WAVYC piano34_9_005.wav
#WAVYD piano34_9_006.wav
#WAVYE piano34_9_007.wav
#WAVYF piano34_9_008.wav
#WAVYG piano34_9_009.wav
#WAVYH piano34_9_010.wav
#WAVYI piano34_9_011.wav
#WAVYJ piano34_9_012.wav
#WAVYK pianost22_000.wav
#WAVYL pianost22_001.wav
#WAVYM pianost22_002.wav
#WAVYN pianost22_003.wav
#WAVYO pianost22_004.wav
#WAVYP pianost22_005.wav
#WAVYQ pianost22_006.wav
#WAVYR pianost22_007.wav
#WAVYS pianost22_008.wav
#WAVYT pianost22_009.wav
#WAVYU pianost22_010.wav
#WAVYV pianost22_011.wav
#WAVYW pianost22_012.wav
#WAVYX pianost22_013.wav
#WAVYY pianost22_014.wav
#WAVYZ pianost22_015.wav
#WAVZ0 pianost22_016.wav
#WAVZ1 pianost22_017.wav
#WAVZ2 pianost22_018.wav
#WAVZ3 pianost22_019.wav
#WAVZ4 pianost22_020.wav
#WAVZ5 pianost22_021.wav
#WAVZ6 pianost22_022.wav
#WAVZ7 pianost22_023.wav
#WAVZ8 pianost22_024.wav
#WAVZ9 pianost22_025.wav
#WAVZA pianost22_026.wav
#WAVZB pianost22_027.wav
#WAVZC pianost22_028.wav
#WAVZD pianost22_1_000.wav
#WAVZE pianost22_1_001.wav
#WAVZF pianost22_1_002.wav
#WAVZG pianost22_2_000.wav
#WAVZH pianost22_2_001.wav
#WAVZI pianost22_2_002.wav
#WAVZJ pianost22_3_000.wav
#WAVZK pianost22_3_001.wav
#WAVZL pianost22_3_002.wav
#WAVZM bgm2.wav
#WAVZN bgm6.wav
#WAVZO bgm22.wav
#WAVZP bgm34.wav
#WAVZQ bgm50.wav
#WAVZR bgm58.wav
#WAVZS bgm72.wav
#WAVZT bgm90.wav
#WAVZU celesta1_2.wav
#WAVZV celesta1_7.wav
#WAVZW celesta1_1.wav
#WAVZX celesta1_9.wav
#WAVZY celesta1_10.wav
#BMP01 _bga.mpg
#SUBARTIST Movie:<3A>z<EFBFBD>N / Illust:<3A>Z<EFBFBD>V<EFBFBD><56><EFBFBD><EFBFBD><EFBFBD>^<5E>C<EFBFBD>g / obj: qtp13
#BACKBMP _backbmp.png
#DIFFICULTY 5
#BANNER _banner.png
*---------------------- MAIN DATA FIELD
#00002:0.0625
#00103:9A
#00104:0001
#00201:00
#00201:00
#00201:00
#00201:00
#00201:00
#00201:00
#00201:00
#00201:00
#00201:00
#00201:00
#00201:00
#00201:3A
#00201:00
#00201:00HK00ZU00HK00ZU
#00201:00
#00201:HP
#00201:000000HR
#00201:00HS
#00201:00HU0000
#00201:00
#00201:00
#00201:00
#00201:00
#00201:00
#00201:00
#00201:00
#00201:00
#00201:00
#00201:00
#00201:00
#00201:00
#00201:ZM
#00203:009C
#00301:00
#00301:00
#00301:00
#00301:00
#00301:00
#00301:00
#00301:00
#00301:00
#00301:00
#00301:00
#00301:00
#00301:00
#00301:00
#00301:00HK000000HK0000
#00301:00000000000000HO
#00301:HPZV00HP
#00301:000000HR00000000
#00301:00HS
#00303:A0A4
#00401:00
#00401:00
#00401:00
#00401:00
#00401:0U00000000000R00000S00000R000S000R000S00000R00000000000S00000T00000R00000S00000T00000000000R0000
#00401:00
#00401:00
#00401:00
#00401:00
#00401:00
#00401:00
#00401:00
#00401:00
#00401:00HJ00ZW00000000
#00401:00HL0000
#00401:ZVHP
#00401:0000000000HR0000
#00401:000000HS
#00401:00000000000000HU
#00403:A8AC
#00411:0202
#00415:HYHY
#00416:0A0B
#00501:00
#00501:00
#00501:00
#00501:00
#00501:0U000S0R0T000R0S0U00000000000000
#00501:00
#00501:00
#00501:00
#00501:00
#00501:00
#00501:00
#00501:00
#00501:00
#00501:00
#00501:00HM000000000000
#00501:000000HP00000000
#00501:00
#00501:ZY
#00501:00HRZX00
#00501:00
#00501:00
#00501:00
#00501:00
#00501:00
#00501:00
#00501:0000000000000000000000DT00000000
#00501:00000000000000DU
#00501:00
#00501:00
#00501:0000000000000000U500U6U700U8U9UA
#00503:AD
#00511:02020200
#00512:00I2
#00513:0000000000000000000000I300000000
#00514:00000000I00000I4
#00515:I1000000I10000000000005T00000000
#00516:0C0C0D00
#00518:000000000000005U
#00519:HZHZ0000
#00601:00
#00601:00
#00601:0I0000000I0000000I00000I0I000000
#00601:000J000J000J000J
#00601:0U000R0S0R000S0R0S000R0S0R000U00
#00601:0N0N0N0N
#00601:00
#00601:00
#00601:00
#00601:00
#00601:00I60000IOI6I800
#00601:00HA
#00601:HA000000000000HD
#00601:00
#00601:00
#00601:00
#00601:00
#00601:000000HG
#00601:00
#00601:6R6T6S6T6R6T6S6T
#00601:5V
#00601:00
#00601:00
#00601:00
#00601:00DX00DY
#00601:DVDV
#00601:00DW00DW00DW0000
#00601:00
#00601:00
#00601:00
#00601:GR
#00601:ZN
#00603:AC
#00611:0200020002IQ0003
#00612:0000HB000000000000000000I7000000000000000000HI000000HB000000000000IR000000000000000000000000HI00
#00613:00HC000000HC00HC00IS00HC
#00614:00HD00HD00HD00IR
#00615:I5HEHHI5HEHH
#00616:08
#00618:00000000000000000000HF000000HF000000000000IN0000000000IP000000000000HF000000HF000000000000IQ0000
#00619:IM00HGI600000300
#00701:00
#00701:00000000000000000000000400000000
#00701:0I0000000I0000000I0I000I0I000000
#00701:000J000J000J000J
#00701:0U000R0S0R000S0R0S000R0S0R000U00
#00701:0N0N0N0N
#00701:00
#00701:00
#00701:00
#00701:00
#00701:I5I6I7I6I5I6I900
#00701:00
#00701:HA
#00701:00
#00701:00
#00701:00
#00701:00
#00701:00
#00701:00
#00701:006T6S6T6R6T6V6T
#00701:00
#00701:00
#00701:00005V5Z
#00701:00
#00701:00DX0000
#00701:DVDV
#00701:00DW00DW00DW0000
#00701:000000DZ
#00711:02000200HA5X0300
#00712:0000HB000000000000IV0000000000000000IX000000HI000000HB0000000000005Y000000000000000003000000HI00
#00713:00000000HC00000000000000IW00000000000000HC00000000000000HC000000000000000000006000000000HC000000
#00714:00HD00HD00HD6UHD
#00715:6R00000000000000HE00000000000000HH000000000000000200000000000000HE00000000000000HH00000000600000
#00718:000000000000IU000000HF000000HF0000000000000000000000005W000000000000HF000000HF000000610000000000
#00719:ITHGIYHG
#00801:00
#00801:0000000000000004
#00801:0I000000000000000I000000000000000K0L0M0I00000I000I00000000000000
#00801:000J000J000J000J
#00801:0U000R0S0R000S0R0S000R0S0R000U00
#00801:0N0N0N0N
#00801:00
#00801:00
#00801:000000000000000000000000IA00IBIC
#00801:00
#00801:I5I6I7I6I5I60000
#00801:00
#00801:HA
#00801:00
#00801:00
#00801:00
#00801:00
#00801:00
#00801:00
#00801:006T6S6T6R6T6S6T
#00801:00
#00801:00
#00801:00
#00801:00
#00801:00DX00DY
#00801:DVDV
#00801:00DW00DW00DW0000
#00811:0200020002670369
#00812:0000HB00000000000000000000000000000065000000HI000000HB00000000000004000000000000000000000000HI00
#00813:00HC006400HC00HC00HG00HC
#00814:6RHD00HD00HD00HD
#00815:00HEHH00HEHH
#00818:0000006300HF00HF000000006600000000HF00HF00000000
#00819:62000000HG000000HA00000068000004
#00901:00
#00901:00
#00901:0I0000000I0000000I0I000I0I000000
#00901:000J000J000J000J
#00901:0U000R0S0R000S0R0S0T0R0U0U000U00
#00901:0N0N0N0N
#00901:00
#00901:00
#00901:00
#00901:00
#00901:I5I6I7I6I5I60000
#00901:0000HAHG
#00901:HA
#00901:IZJ0IZ00
#00901:0000000000000000000000J10000J200
#00901:00
#00901:00
#00901:00
#00901:00
#00901:006S0000
#00901:00
#00901:00
#00901:00
#00901:00
#00901:00000000DX000000000000E000000000
#00901:DVDV
#00901:00DW00DW00DW00E2
#00901:00
#00901:000000E1
#00911:0200020002000303
#00912:0000HB00000000000000000000000000000000000000HI000000HB0000000000006C000000000000000000000000HI00
#00913:00HC006B00HC00HC00I900HC
#00914:00HD00HD00HD00HD
#00915:6RHEHH6RHEHH
#00918:6A00000000000000000000000000000000000000HF00000000000000HF000000000000000000006T00000000000000000000000000000000000000000000000000000000HF00000000000000HF00000000000000000000000000000000000000
#00919:006THG006A6T6D6E
#01001:00
#01001:00
#01001:0I0000000I0000000I00000I0I000000
#01001:000J000J000J000J
#01001:0U000R0S0R000S0R0S000R0S0R000U00
#01001:0N0N0N0N
#01001:00
#01001:00
#01001:00
#01001:00
#01001:I5I6I7I6I5I6I800
#01001:HA
#01001:00
#01001:00
#01001:00
#01001:00
#01001:00
#01001:00
#01001:00
#01001:00
#01001:00
#01001:00
#01001:00
#01001:00
#01001:00DX00DY
#01001:DVDV
#01001:00DW00DW00DW0000
#01001:00
#01001:00
#01001:00
#01001:GR
#01011:0200026T02000303
#01012:00HB000000000000000000HI00HB000000006S00000000HI
#01013:00HC006S00HC00HC000000HC
#01014:00000000HD00000000000000HD00000000000000HD00000000000000HD00006H
#01015:J300000000000000HE00000000000000HH000000000000000000000000000000HE00000000000000HH000000006G0000
#01016:08
#01018:0000000000HF00HF00000000HA00000000HF00HF00006F00
#01019:6R6THG006R6THG6T
#01101:00
#01101:00
#01101:0I0000000I0000000I0I000I0I000000
#01101:000J000J000J000J
#01101:0U000R0S0R000S0R0S000R0S0R000U00
#01101:0N0N0N0N
#01101:00
#01101:00
#01101:00
#01101:00
#01101:I5I6I7I600I6I900
#01101:00HA
#01101:HA
#01101:00
#01101:00
#01101:00
#01101:00
#01101:000000HG
#01101:00
#01101:006T6S6T6R6T006T
#01101:0000006V
#01101:00
#01101:006N
#01101:00
#01101:00DX0000
#01101:DVDV
#01101:00DW00DW00DW0000
#01101:000000DZ
#01111:0200020002IW0303
#01112:0000HB0000000000006K00000000000000006M000000HI000000HB00000000000004000000000000000000000000HI00
#01113:6IHC006L00HC00HC006U00HC
#01114:00HD00HD00HD00HD
#01115:00HEHH00HEHH
#01118:0000006J00HF00HF00000000I500000000HF00HF00000000
#01119:6R00HG00J400J5IX
#01201:00
#01201:00
#01201:0I0000000I0000000I00000I0I000000
#01201:000J000J000J000J
#01201:0U000R0S0R000T0S0R000S0U0U000R0S
#01201:0N0N0N0N
#01201:00
#01201:00
#01201:00000000I700000000000000000000IG
#01201:0000000000000000I50000ID0000IF00
#01201:I5I600I600I6IE00
#01201:HAHA
#01201:J7
#01201:00
#01201:00
#01201:00
#01201:00
#01201:000000HG
#01201:00
#01201:006T6S6T006T006T
#01201:00
#01201:00
#01201:00
#01201:00
#01201:00000000DX000000000000E3DY000000
#01201:DV000000DV0000E4
#01201:0000DW000000DW000000DW00000000E5
#01211:0200J80002000304
#01212:0000HB000000000000J90000000000J9000000000000HI000000HB000000000000040000000000JF000000000000HI00
#01213:00000000HC000000000000000200000000000000HC00000000000000HC00000000JF00000000000000000000HC000000
#01214:00HD00HD00HD6SHD
#01215:6R00000000000000HE00000000000000HH00000000000000JC00000000000000HE00000000000000HH00000000040000
#01218:000000000000000000J800000000000000000000HF00000000000000HF00000000000000000000000000JB0000000000000000000000JD00000000000000000000000000HF00000000000000HF00000000000000JG0000000000000000000000
#01219:J6000000HG00JA006R00JE00JG0000JH
#01301:00
#01301:00
#01301:00
#01301:00
#01301:0U0000000R0S0R0S0U00000000000000
#01301:00
#01301:00000000000V0000
#01301:000000IL
#01301:00
#01301:IH
#01301:00
#01301:00
#01301:00
#01301:00
#01301:00
#01301:00
#01301:00
#01301:00
#01301:00
#01301:00
#01301:00
#01301:00
#01301:00
#01301:00
#01301:00
#01301:00
#01301:00E70000
#01301:E6E6
#01311:02020200
#01312:00IK0000
#01313:00IJ
#01314:IJII0000
#01315:006PIH00
#01316:090C0D0W
#01318:6O6Q
#01401:00
#01401:00
#01401:00
#01401:00
#01401:00
#01401:13001400150016171819140015001617
#01401:00
#01401:00
#01401:00JS00JS00JS00JS
#01401:JJ
#01401:00JJ0000
#01401:JI
#01401:000000JL
#01401:00JK
#01401:00
#01401:00
#01401:6W
#01403:A6A8
#01411:027A
#01413:79
#01414:00HP0000
#01416:08
#01418:HS0000HV
#01419:00HW
#01501:00
#01501:00
#01501:00
#01501:00
#01501:00
#01501:13001A00150016171819140015001617
#01501:00
#01501:00
#01501:0000000000KO00KO
#01501:00JT00JT00000000
#01501:00JN
#01501:00JM00JQ
#01501:JL000000000000JL
#01501:00
#01501:00
#01501:00
#01501:006Y
#01501:6X
#01503:AA
#01511:007C
#01512:7B
#01513:00HT
#01514:000000HU
#01515:0000HU00000000HV
#01518:HV
#01601:00
#01601:00
#01601:00
#01601:00
#01601:00
#01601:13001400150016171819140015001617
#01601:00
#01601:00
#01601:00KO000000000000
#01601:000000JJ00JJ00JJ
#01601:00JO0000
#01601:JM
#01601:00
#01601:JK0000JK
#01601:00JP
#01601:00
#01601:00
#01601:6Z
#01603:AC
#01611:007E
#01613:7D
#01614:00HQ0000
#01618:HW0000HW
#01619:00HX
#01701:00
#01701:00
#01701:00
#01701:00
#01701:00
#01701:13001A00150016171819140015001617
#01701:00
#01701:00
#01701:00JO00JO00000000
#01701:0000000000JU0000
#01701:00
#01701:000000JM0000JQ00
#01701:0000JL00JL0000JR
#01701:JK
#01701:00
#01701:00
#01701:70
#01701:0071
#01703:AE
#01711:0000000000HR0000
#01712:7F7G
#01713:000000HU
#01714:000000HU00000000
#01715:0000HV00HV0000HV
#01718:HW
#01801:00
#01801:00
#01801:00
#01801:00
#01801:00
#01801:13001400150016171819140015001617
#01801:00
#01801:00
#01801:00KI
#01801:00
#01801:00
#01801:KH
#01801:00
#01801:00
#01801:00
#01801:00
#01801:72
#01801:00
#01801:00
#01801:00
#01801:00
#01801:00
#01801:7H
#01803:ACAA
#01811:0000000000HP0000
#01812:000000HT
#01813:00000000000000JZ000000000000HU00
#01814:HW00000000K00000
#01815:000000JYJY00K100
#01818:00000000000000K2
#01819:JV0000JWJX0000000000000000000000
#01901:00
#01901:00
#01901:00
#01901:00
#01901:00
#01901:13001A00150016171819140015001617
#01901:00
#01901:00
#01901:000000KK
#01901:00KJ
#01901:00
#01901:00
#01901:00
#01901:00
#01901:00
#01901:00
#01901:00
#01901:73
#01901:00
#01901:00
#01901:00
#01901:7I
#01903:A8A7
#01911:0000000000HP0000
#01912:00000000000000K600000000HT000000
#01913:0000000000K000K2
#01914:000000JZJZ000000
#01915:HV0000K1
#01918:000000K4K5000000000000000000HU00
#01919:K3
#02001:00
#02001:00
#02001:00
#02001:00
#02001:0U00000000000R00000S00000R000S000R000S00000R00000000000S00000T00000R00000S00000T00000000000R0000
#02001:13001400150016171819140015001617
#02001:00
#02001:00
#02001:00
#02001:HYHY
#02001:00
#02001:00
#02001:00
#02001:00
#02001:00
#02001:00
#02001:00
#02001:00750000
#02001:74000077
#02001:0076
#02003:ACAD
#02011:0202
#02012:00HR007M
#02013:007L
#02014:HS7KHX00
#02015:7J0000HW
#02016:0A0B
#02018:00K800KA
#02019:K7K9
#02101:00
#02101:00
#02101:00
#02101:00
#02101:0U000S0R0T000R0S0000000000000000
#02101:00
#02101:005K
#02101:00
#02101:I1I1I200
#02101:00
#02101:00I0
#02101:00000000005L0000
#02101:0000005M
#02101:000000000000005N
#02101:00
#02101:00
#02101:00
#02101:00
#02101:78
#02101:00
#02101:7N
#02101:00
#02101:00
#02101:EDEDEE00
#02101:00
#02101:00
#02101:00
#02101:00
#02101:HW
#02101:0000000000000000TY00TZU0U1U2U3U4
#02103:00AC
#02111:02020300
#02112:0000000000KL0000
#02113:HZ000000HZ0000EC0000000000000000
#02114:000000EBEB00KM00
#02115:E80000E9EA0000KF0000000000000000
#02116:0C000C00005Q0000
#02118:000000KEKG0000KN
#02119:KB0000KCKD0000000000000000000000
#02201:00
#02201:00
#02201:0I0I00000I0I00000I0I00000I0I0000
#02201:000J000J00000000
#02201:000Q000Q
#02201:00
#02201:1B001C001D001E1F1G1H1C001D001E1F
#02201:00000607000006070000060700000607
#02201:00
#02201:000000000000000000EI00EG00EL00EL
#02201:00004Z00005100000000000000000000
#02201:00
#02201:00
#02201:00
#02201:4Y
#02201:00
#02201:00
#02201:00
#02201:00
#02201:00
#02201:00
#02201:00
#02201:00
#02201:00
#02201:00
#02201:00
#02201:00
#02201:00
#02201:00
#02201:00
#02201:00
#02201:ZO
#02211:01000100010J0100
#02212:00EL000000EL00EN0000ZD0000000J00
#02213:EI0000ELEI00EO00EO000000ZE000000
#02214:0000EQ00000000YO000054000000ZF00
#02215:0000005P500000530000EL0055000000
#02216:08
#02218:000000YNYP00EI56
#02219:YK0000YLYM005200520000000000EQ00
#02301:00
#02301:00
#02301:0I000I00000000000I000I00000000000K0L0M0I000000000I00000000000000
#02301:00000J0000000J0000000000000J000J
#02301:000Q000Q
#02301:00
#02301:1B001I001D001E1F1G1H1C001D001E1F
#02301:00000607000006070000060700000607
#02301:00
#02301:000058000000000000EJ00EK00EM00EQ
#02311:0100010001ZG0100
#02312:00EH00EN00EF00EJ0000EG0000000I00
#02313:57EJ00EHEN00ZH00
#02314:00000000EJ0000YU00000J005D00ZI00
#02315:EF0000595700YT00YV005C000000EN00
#02318:000000YRYS00005B00000000EI000000
#02319:YQ00005A53000057
#02401:00
#02401:00
#02401:000I0000000I0000000I0000000I0000
#02401:000J000J000J000J
#02401:000Q000Q
#02401:00
#02401:1B001C001D001E1F1G1H1C001D001E1F
#02401:00000607000006070000060700000607
#02401:00
#02401:0000005F00005H0000005H0000000000
#02401:0000000000000000000000000000004Z
#02411:01010101
#02412:00EK0000YX0000EM00EO000000EO0000
#02413:5EEO00EL00000IZ0
#02414:000000ER00EM0000EJ0000005E0000Z1
#02415:EI000I000IEQYZEV
#02418:YW000000EO0000005I0000ER000000ES
#02419:0I5GYYES
#02501:00
#02501:00
#02501:00000I000000000000000I00000000000K0L0M0I000000000I0000000I000000
#02501:00000J000000000000000J00000J000J
#02501:000Q000Q
#02501:00
#02501:1B001I001D001E1F1G1H1C001D001E1F
#02501:00000607000006070000060700000607
#02501:00
#02501:0052
#02501:00000000005J0000
#02501:005O000000005D00
#02501:0000000000000057
#02501:00
#02501:4Y000050000000000000000000000000
#02501:00
#02501:0000000000ZJ0000
#02501:000000ZK
#02501:00000000000000ZL
#02511:01000100010001EU
#02512:00EQ0000ET00EM0000Z600Z800ES00ZC
#02513:EM000000ER0000000000ER000000EQ00000000ES000000EU00000000ZB000000
#02514:000000000000ES00000000000J000000ER000000ET000000Z90000ES000000ET
#02515:0I000000000000000I0000005600000000ER000000ET00000000ZA000000ET00
#02518:000000000000000057000000Z40000000000ES000000EU0000EW000000EU0000
#02519:Z200Z300Z5Z7EW00
#02601:00
#02601:00
#02601:0I0000000I0I00000I0I0000000I0000
#02601:0000000J00000000
#02601:000Q000Q
#02601:00
#02601:1B001C001D001E1F1G1H1C001D00001F
#02601:00000607000006070000060700000607
#02601:00
#02601:00
#02601:00004Z00005100000000000000000000
#02601:00000055
#02601:0000000000000056
#02601:00
#02601:4Y
#02611:01000100010J0100
#02612:0000000I0000000000000000000000EL0000000000EQ000000000000000054000000EQ00000000EI0000000000000000
#02613:EX00000J0000EI0000YN0000EZ000000ER000000001E0000
#02614:000000EY0000EOYO0000F000EP0000EP
#02615:00005000YPZDZE0J
#02616:08
#02618:0000005P00005253000000000I00EL00
#02619:YK0000YLYM000000520000000000ZF00
#02701:00
#02701:00
#02701:000I00000I0I00000K0000000I0I0000
#02701:0000000J00000000
#02701:000Q000Q
#02701:00
#02701:1B001I001D001E1F1G1H1C001D001E1F
#02701:00000607000006070000060700000607
#02701:00
#02701:0058000000000000
#02701:0000000000540000
#02701:00
#02701:00
#02701:57
#02711:010000EH010000000100000001000000
#02712:EH0000YR0000ELEP0000F400F5000300
#02713:000000000J0000005700000000000000F300000I00000000000000000J000000
#02714:000000590000YTYU000M000055000000
#02715:0000F10000000000YS00000000005B00000L0000ZD000000ZE00000056000000
#02718:0I00005A530J00ZF
#02719:YQF2YV00
#02801:00
#02801:00
#02801:000I0I0I
#02801:000J000J000J000J
#02801:00
#02801:0N0N0N0N
#02801:00
#02801:00000607000006070000060700000607
#02801:00
#02801:00
#02801:00
#02801:L7
#02801:00
#02801:00
#02801:00
#02801:00
#02801:00
#02801:00
#02801:00
#02801:7O
#02801:00
#02801:00
#02801:00
#02801:00
#02801:00
#02801:00
#02801:00
#02801:00
#02801:00
#02801:HSHRHXHW
#02811:01010101
#02812:00KQ00KS
#02813:KP00L9LA
#02814:0IL8KR8F
#02815:008D8E7R
#02816:08
#02818:8CF77QF9
#02819:F67PF800
#02901:00
#02901:00
#02901:0I
#02901:000J000J00000000
#02901:00
#02901:0N0N
#02901:00
#02901:00000607000000000000000700000007
#02901:00
#02901:00
#02901:00000000LDLE0000
#02901:000000LF
#02901:00000000000000LG
#02901:00
#02901:00
#02901:00
#02901:00
#02901:007U
#02901:0000007V
#02901:000000000000007W
#02901:008H
#02901:00
#02901:00
#02901:00
#02901:00
#02901:00
#02901:00
#02901:00
#02901:00
#02901:HWHV
#02911:01010101
#02912:KT000N00KU8I0006
#02913:LB000000LC0000KV0I000J008J000000
#02914:FA0000007T0000070000KW000I008K00
#02915:7S0000000000KUFC00000000KX000J00
#02918:8G000006000600KY
#02919:00000IFBFD000N00
#03001:00
#03001:00
#03001:00
#03001:00
#03001:00
#03001:00
#03001:35003131350031313134353136363136
#03001:00
#03001:00
#03001:00
#03001:00
#03001:00
#03001:00
#03001:00
#03001:00
#03001:00
#03001:00
#03001:00
#03001:00
#03001:00
#03001:00
#03001:00
#03001:8L
#03001:00
#03001:00
#03001:00
#03001:00
#03001:00
#03001:00
#03001:00
#03001:00
#03001:008M0000
#03011:02020202
#03013:7X000080
#03014:007Y000N
#03015:LH0N7ZLK
#03016:08
#03018:0NLI0N00
#03019:KZLJ
#03101:00
#03101:00
#03101:00
#03101:00
#03101:00
#03101:00
#03101:37003030313236003700303036003733
#03111:02000084
#03112:0082000N
#03113:000N83LO
#03114:81LM0N00
#03115:0NLN
#03116:000E
#03118:LL
#03119:00020202
#03201:00
#03201:00
#03201:00
#03201:00
#03201:00
#03201:0N0N0N0N
#03201:37333633
#03201:00070607000706070007060700070607
#03211:02000I0I000000000200000002000000
#03212:0002FGFH
#03213:85000000FF000I0I0000000088000I0I
#03214:FELQ878Q
#03215:LP000000L1000000LR000I0I00000000
#03218:8N86L2LS
#03219:L08O8PL3
#03301:00
#03301:00
#03301:000000000000000000000000000000000I000I00000M0000000M000000000000
#03301:00
#03301:0000000000000000000000001J001K1L
#03301:0N0N0N00
#03301:31323600370031003700000000000000
#03301:00070607000706070000000000000000
#03301:00
#03301:00
#03301:00
#03301:00
#03301:00
#03301:00
#03301:00
#03301:00
#03301:00
#03301:00
#03301:00
#03301:00
#03301:00
#03301:00
#03301:00
#03301:00
#03301:00
#03301:00
#03301:00
#03301:0000000000000000000000000000FNFN
#03301:000000000000000000000000FMFM0000
#03301:00000000000000000000FLFL00000000
#03311:0200020003000504
#03312:FI000000LT000I0000000000000000008B000000000004000005000000000400
#03313:00000000LU00LU0I0000040000040000
#03314:LT000I00FJ000000LV00000I00LZ000I
#03315:L4008A0IFK0MLYM0
#03318:89000000L50000008T0000LX000I00M1
#03319:8R008S00L6LW0M0I
#03401:00
#03401:00
#03401:00
#03401:00
#03401:00001N0000001P0000001R00001T1U1V
#03401:00
#03401:00
#03401:00
#03401:3B
#03401:003D00003I000000000000003K000000
#03401:00003E00003M00000000003M003O0000
#03401:0000003H00003R0000003Q0000003R00
#03401:000000000000003U003T00000000003W
#03401:003Y
#03401:00
#03401:00
#03401:00
#03401:00
#03401:00
#03401:00
#03401:00
#03401:00
#03401:00
#03401:00
#03401:00
#03401:00
#03401:00
#03401:00
#03401:00
#03401:00
#03401:00
#03401:ZP
#03411:02020202
#03412:00WK0000000J0000
#03413:WJ00WLWM0000WPWQ
#03414:000J0000WNWO0000
#03415:UGUH00UJUK0000UN
#03416:0F0F0F0F
#03418:0000UI0J00ULUM0J
#03419:1M1O1Q1S
#03501:00
#03501:00
#03501:00
#03501:00
#03501:00001X1Y000020210023240025252525
#03501:00
#03501:00
#03501:00
#03501:00
#03501:3J
#03501:003O00003K000000000000003M000000
#03501:00003R00003O00000000003O003Q0000
#03501:0000003V00003T0000003S0000003T00
#03501:000000000000003W003V00000000003Y
#03501:0040
#03501:00
#03501:00VV
#03501:00
#03501:00
#03501:00000000WVWW0000
#03501:00
#03501:00
#03501:00
#03501:00FO
#03511:020202VZ
#03512:WR00WS0000000J0000VW000000W00000
#03513:0000WTWU00VXFSW1
#03514:00000J00UQ000000US0000VY00FT00W2
#03515:UO0000000000000000FP00000000FU00
#03516:0F0F0F00
#03518:0000UP000000UR000000FQ00000000FV
#03519:1W0000001Z000000220000FR00000000
#03601:00
#03601:00
#03601:00
#03601:00
#03601:0027002700290029002B002B002D002D
#03601:00
#03601:00
#03601:00
#03601:00
#03601:00
#03601:00
#03601:00
#03601:3N3R3Z3U003P3W3S3M3R3Y3V003M3T3P
#03611:0200020J020002X4
#03612:26273K002AX2X300
#03613:0F0028290F003HV0
#03614:000JWZX0000JUZ00
#03615:WXWY00UWX1UY000J
#03616:GSGTGUGV
#03618:00000F00002B2C2D
#03619:UTUUUV00UX000F00
#03701:00
#03701:00
#03701:00
#03701:00
#03701:00000000000000002I002J2J1J001K1L
#03701:00
#03701:00
#03701:00
#03701:00
#03701:00
#03701:00
#03701:00
#03701:3J3O3R3V003T3W410000000000000000
#03701:00
#03701:00
#03701:00
#03701:00W3
#03701:000000000000000000W4000000000000
#03701:0000000000W50000
#03701:0000000000000000V50000W600000000
#03701:00
#03701:00
#03701:00
#03701:00
#03701:00
#03701:00FW
#03711:0200000002002H00020000FZ00003K00
#03712:2E00X6000F0000000F00FY00003O00G3
#03713:0F0000000000X80000FX00003R00G200
#03714:X500V2002G000000X900003Q00G100WA
#03715:0E003PV4003VG0W9
#03716:GWGXGY00
#03718:00002F00X7000J00003Y000000W8003F
#03719:V10JV3004200W700
#03801:00
#03801:00
#03801:00
#03801:00
#03801:000000000000000000000000001T001V
#03801:00
#03801:00
#03801:00
#03801:00
#03801:003D0000000000000000000000000000
#03801:00003E00003M00000000003M003O0000
#03801:0000003H00003R0000003Q0000003R00
#03801:000000000000003U003T00000000003W
#03801:003Y
#03811:0200021P02000200
#03812:000J3I0000WO000J
#03813:WJWK000JWN00WP00
#03814:3B00WLWM001R3KWQ
#03815:UGUHUI00UK00UM1U
#03816:0F0F0F0F
#03818:001N00UJ00UL00UN
#03819:1M001O001Q0J1S00
#03901:00
#03901:00
#03901:00
#03901:00
#03901:0000001Y000000210023240025252525
#03901:00
#03901:00
#03901:00
#03901:00
#03901:00
#03901:003O000000000000000000003M000000
#03901:00003R00003O00000000003O003Q0000
#03901:0000003V00003T0000003S0000003T00
#03901:000000000000003W003V00000000003Y
#03901:00
#03901:00VV
#03901:00
#03901:00
#03901:00
#03901:00000000WVWW0000
#03901:00
#03901:00
#03901:00
#03901:00FO
#03911:020202VZ
#03912:3J00UP000000200000VW000000W00000
#03913:WR0JWT0000VXFSW1
#03914:00000000UQ00WU00US0000VY00FT00W2
#03915:0000WS003K00UR0000FP00000000FU00
#03916:0F0F0F00
#03918:UO001X0000000J004000FQ00000000FV
#03919:1W0000001Z000000220000FR00000000
#04001:00
#04001:00
#04001:00
#04001:00
#04001:0027002700290029002B002B002D002D
#04001:00
#04001:00
#04001:00
#04001:00
#04001:00
#04001:00
#04001:00
#04001:3N3R003U003P003S003R003V003M003P
#04011:0200020J02000200
#04012:0F3Z0F3W3MX200X4
#04013:26002829X13YX33T
#04014:000JWZX0000J2CV0
#04015:WX2700UWUX00UZ0J
#04016:GSGTGUGV
#04018:00WYUV000FUY0F2D
#04019:UTUU3K002A2B3H00
#04101:00
#04101:00
#04101:00
#04101:00
#04101:00000000000000002I002J2J1J001K1L
#04101:00
#04101:00000000000000003536003637003600
#04101:00
#04101:00
#04101:00
#04101:00
#04101:00
#04101:3J3O003V003T00410000000000000000
#04101:00
#04101:00
#04101:00W3
#04101:000000000000000000W4000000000000
#04101:0000000000W50000
#04101:0000000000000000000000W600000000
#04101:00
#04101:00V5
#04101:00
#04101:00
#04101:00
#04101:00
#04101:00FW
#04111:02000J0002000000020000FZ00003K00
#04112:0F000000X7000J00X900FY00003O00WA
#04113:2E003R000F00X80000FX00003R00W900
#04114:0E00X600V30000000F00003Q00W800G3
#04115:X5002GV4003VW7G2
#04116:GWGXGY00
#04118:0000V20000002H00003Y000000G1003F
#04119:V12F3P3W4200G000
#04201:00
#04201:00
#04201:00
#04201:00
#04201:1M001N001O001P001Q001R001S1T1U1V
#04201:0N
#04201:37000000000000000000000000003435
#04201:00
#04201:3C
#04201:00
#04201:00
#04201:00
#04201:00
#04201:00
#04201:00
#04201:00
#04201:00
#04201:00
#04201:00
#04201:000000XD000000XH
#04201:00V7V800XE00XG00
#04201:0000XCV900XF0000
#04201:00XB00000000VCVD
#04201:00000000VAVB0000
#04211:020000000J0000000200000000000000020000000000003P0000000000000000
#04212:00003E0000000000003L00003U0000000N000000003T00003N0000003U000000
#04213:003C00003G00000000003P00003U00000000003W00000000003N0000003U0000
#04214:0000003E00003K000000003P00003X000041000000003P0000003R0000003Z00
#04215:XA000000003G00003L0000000000003X000000003T0000000000003R0000003Z
#04216:0F0F0F0F
#04218:000000000000003K000000000J00000000003W0000000000020000000J000000
#04219:V6000N00410J0N00
#04301:00
#04301:00000000000000000000000004040404
#04301:00
#04301:00
#04301:1W001X1Y1Z0020212223240025252525
#04301:00000000000000000N0000000P0P0P0P
#04301:36000000000034353600000034343535
#04301:00
#04301:00
#04301:00
#04301:00
#04301:00
#04301:00
#04301:00
#04301:00
#04301:00WB
#04301:00
#04301:00
#04301:00
#04301:0000XK00XMXN0000
#04301:XIXJ000000000000
#04301:0000VGXL00000000
#04301:00VF000000000000
#04301:VE000000G4G6G8GA
#04301:000000000000VH0000G500G700G900GB
#04311:0N0000000J00000002000000000000000200003Y0000000000003T0000000000
#04312:00003R0000000000003N00003W00000000003Y00003V0000003P00003W000000
#04313:000000003U00000000003R00003W0000VI0000003V00003R0000003T00004100
#04314:003M000000003Y000000003R00003Z000000WC0000003R000000WG00003W0000
#04315:0000003R000000003N0000000000003Z00000000WD0000003P000000WH000041
#04316:0F0F0F00
#04318:02000000003U00000N00000000000000004300000000WE00000000000000WI00
#04319:3M0000000000003Y000000000J0000004300000000000000WF00000000000000
#04401:0F0F0F0F
#04401:00
#04401:00
#04401:00
#04401:26272727282929292A2B2B2B2C2D2D2D
#04401:0N0N0N0N
#04401:36353535
#04401:00
#04401:00
#04401:00
#04401:00
#04401:00
#04401:00
#04401:00
#04401:00
#04401:00
#04401:00000000000000XV
#04401:000000XR00000000
#04401:0000000000XTVPVQ
#04401:00XPVLVM00000000
#04401:00000000VNVO0000
#04401:VJVK000000000000
#04411:0200020J020J3K00
#04412:003Q000042000000003N0000003Z0000XS00000000000000003K00003W000000
#04413:00003U000042000000003S0000003V000000000000003Y0000003P00003W0000
#04414:XO00000000000000XQ00003S0000003V000000004100003Y0000003P00003S00
#04415:0000003U00003X00000000003Z00000000003U0000410000000000000000003S
#04416:GZH0H1H2
#04418:000000000J00003X00000000000000003P00003U00000000020000000J000000
#04419:3Q000000000000003N00000000000000003P000000000000XU00000000000000
#04501:0F0F0000
#04501:00
#04501:00
#04501:00
#04501:2E2F2G2H00000000
#04501:0N0000000N0000000P0P000P0000000P
#04501:35350000
#04501:0E
#04501:00
#04501:0000000000000000000000003P00003H
#04501:000000000000003M
#04501:00000000000000000000003T00000000
#04501:00000000003Y0000
#04501:00000000000000000041000000000000
#04501:0045
#04501:00
#04501:00
#04501:0000XX0000000000Y0Y1Y2Y3Y400Y5Y6
#04501:000000XZ00000000
#04501:VR00VS00000000005R5R5R5R5R005R5R
#04501:0000VTVU00000000
#04501:00
#04501:00
#04501:00
#04501:0000000000000000GDGDGDGDGC00GDGD
#04511:0200020004040400
#04512:000000000J000000003S00000000000000000400000004000000000004000400
#04513:3M000000000000003S00003W000000000H0000000H0000000H0000000H000000
#04514:003M00003U00000000003W00003Z000000000H0000000H000000000000000H00
#04515:00003R00003U0000XY0000003Z000044000000002K0000002M0000000P000000
#04516:H3H40000
#04518:0000003R00003Y00000000000000440000002L0000002L00000000002N002N00
#04519:XW0000000000003Y000000000J0000002K0000000P0000000P00000000000000
#04601:00
#04601:00
#04601:00
#04601:000J000J000J000J
#04601:00001N001O001P001Q001R001S1T1U1V
#04601:000N0N0N
#04601:36000000000000000000000000003435
#04601:00
#04601:3C3C000000000000000000000000000000000000000000000000000000000000
#04601:00
#04601:00
#04601:00
#04601:00
#04601:00
#04601:00
#04601:00
#04601:00
#04601:00V7V8V9VAVBVCVD
#04611:02000000XB0000000200000000000000020000000000003P00000000XH000000
#04612:00003E0000000000003L000000000000XE000000003T0000003N0000003U0000
#04613:XA0000003G000000XC00003P000000000000003W0000000000003R0000003Z00
#04614:0N00000000003K0000003P00003U00000041000000003P000000003R0000003Z
#04615:V600003E000000003L0000003U00003X000000003T000000020000003U000000
#04616:0F0F0F0F
#04618:00000000003G00000000000000003X0000003W00000000003N00000000000000
#04619:1M0000000000003K00000000XD00000041000000XF000000XG00000000000000
#04701:00
#04701:00000000000000000404000404000400
#04701:00
#04701:000J000J00000000
#04701:1W001X1Y1Z0020210000000000000000
#04701:0N0000000N0000000P0P000P0P000O00
#04701:36000000343434343536003636003600
#04701:00
#04701:00
#04701:00
#04701:00
#04701:00
#04701:00
#04701:00
#04701:00
#04701:00
#04701:00
#04701:VEVFVGVHVI000000
#04701:00
#04701:00000000XMXN0000
#04701:00
#04701:00
#04701:00
#04701:0000G4G8
#04701:000000000000000000G5000000G90000
#04701:00000000WBG600GA
#04701:000000000000000000WC00G7WF0000GB
#04701:00000000000000000000WD0000WG0000
#04701:0000000000000000000000WE0000WH00
#04701:000000000000000000000000000000WI
#04711:0200000000000000003N0000000000000H000H0000003R00000000000H000000
#04712:00003R00000000003N00003R000000002N002M00003V003R000000002N000000
#04713:003M00003U00000000003R00003W0000000000003V0000003P00000000002N00
#04714:0000003R00003Y00000000003W00003Z0000003Y00000000003P0000003W0000
#04715:00000000003U00000200000000003Z0000003Y000000000000003T0000004100
#04716:0F0F0000
#04718:XI0000000000003Y00000000XL0000000043000000002N002M00003T00000041
#04719:3M00XJ00XK0000004300000H0H003W00
#04801:0F0F0F0F
#04801:00
#04801:00
#04801:000J000J000J000J
#04801:26272727282929292A2B2B2B2C2D2D2D
#04801:0N0N0N0N
#04801:36363636
#04801:00
#04801:00
#04801:00
#04801:00
#04801:00
#04801:00
#04801:00
#04801:00
#04801:00
#04801:00000000000000YE
#04801:000000YA00000000
#04801:0000000000YC00VQ
#04801:Y7Y800VMVN000000
#04801:0000000000VOVP00
#04801:00VKVL0000000000
#04811:030000000000000003000000030000000300000000003Y00003K000000000000
#04812:3Q004200003S00003P004100003P0000
#04813:003Q000000420000000000003Z00000000003U000000003Y0000003P00000000
#04814:00003U0000003X00003N000000003V000000000000410000000000003W000000
#04815:0000003U0000003X0000003S00000000YB00003U000000003K000000003W0000
#04816:GZH0H1H5
#04818:00000000030000003N000000003Z0000003P000000000000YD00000000003S00
#04819:VJ00000000000000Y90000000000003V0000000003000000030000000300003S
#04901:0F0F0I00
#04901:00
#04901:00000000000V0000
#04901:000J000J00000000
#04901:2E002F002G002H002I002J2J00000000
#04901:0N0N0N00
#04901:36000000360000003600343435353535
#04901:0E
#04901:3M
#04901:00
#04901:00
#04901:00
#04901:00
#04901:00
#04901:00
#04901:00
#04901:00
#04901:00YG000000000000
#04901:000000YI00000000
#04901:00VSVT0000000000
#04901:000000VU00000000
#04911:003M00000300000003000000030000000200000000000000000000003R000000
#04912:00003R0000000000003N0000000000003P0000000000000000003K0000003K00
#04913:0300003R000000003N00000000000000003P0000000000410000000000000000
#04914:YF0000003U000000YH00003S00000000YJ00003U000000000000003K0000003K
#04915:VR000000003U000000003S00003W000000003U00003Y0000003S0000003R0000
#04916:H6H7000W
#04918:0000000000003Y00000000003W00003Z000000003Y0000003S00000000000000
#04919:000000000000003Y0000000000003Z0000000000000041000000000000000000
#05001:00
#05001:00
#05001:00
#05001:00
#05001:00
#05001:00
#05001:00
#05001:00
#05001:00
#05001:00
#05001:00
#05001:00
#05001:00
#05001:00
#05001:00HL00HL00HL00HL
#05001:00
#05001:00
#05001:00
#05001:00
#05001:00
#05001:00
#05001:00
#05001:008V
#05001:00
#05001:00
#05001:00
#05001:00
#05001:00
#05001:00
#05001:00
#05001:00
#05001:ZQ
#05003:A8
#05011:HP
#05012:0000SI0000000000000000SN0000SP00
#05013:SH0000SL00000000
#05014:000000SJ0000000000000000SO000000
#05015:98SKSM00
#05016:3A
#05018:000000HU
#05019:8UHVHV00
#05101:00
#05101:00
#05101:00
#05101:00
#05101:00
#05101:00
#05101:00
#05101:00
#05101:00
#05101:00
#05101:00
#05101:00
#05101:00
#05101:00
#05101:00HM000000000000
#05101:00
#05101:00
#05101:00
#05101:00
#05101:00
#05101:8W
#05101:008X
#05103:AA
#05111:00SR000000000000
#05112:000000ST00000000
#05113:00SSSU00
#05114:SQ0000HR00000000
#05115:00HSHS00
#05118:HU
#05201:00
#05201:00
#05201:00
#05201:00
#05201:00
#05201:00
#05201:00
#05201:00
#05201:00
#05201:00
#05201:00
#05201:00
#05201:00
#05201:00
#05201:00HJ00HM00HN00HN
#05201:00
#05201:00
#05201:99
#05201:00
#05201:8Y
#05201:008Z
#05203:AC
#05211:0000000000000000000000T10000T300
#05212:SV00000000000000000000SZ0000000000000000000000000000000000000000
#05213:00SW00000000T200
#05214:HMSYT000
#05215:000000SX0000000000000000HR000000
#05218:00HSHS00
#05301:00
#05301:00
#05301:00
#05301:00
#05301:00
#05301:00
#05301:00
#05301:00
#05301:00
#05301:00
#05301:00
#05301:00
#05301:00
#05301:00
#05301:00
#05301:00
#05301:00
#05301:00
#05301:009B
#05301:9A
#05301:00
#05301:0091
#05301:90
#05303:AE
#05311:00T8MG00
#05312:000000T500T700000000000000MH00000000MM0000000000
#05313:T4000000T600000000HO00000000MI00000000MN00000000
#05314:000000000000HP0000000000HP0000MJ00000000MO000000
#05315:HR0000000000000000T9000000000000MK00000000MP0000
#05318:000000HM0000000000000000TA00000000ML00000000MQ00
#05319:0000000000000000000000000000000000000000000000MR
#05401:00
#05401:00
#05401:00
#05401:00
#05401:00
#05401:36000031310031003700003131003500
#05401:00
#05401:00
#05401:00
#05401:00
#05401:00
#05401:00
#05401:00
#05401:00
#05401:HPHLHVHLHVHLHUHL
#05401:00
#05401:00
#05401:9C
#05401:009D
#05401:00
#05401:00
#05401:9293
#05401:00
#05401:00
#05401:00M3
#05401:M2
#05403:AC
#05411:MS00TC000000TF00MS0000TH0000TJ00
#05412:0000MV000000000000TD000000000000000000000000MW000000MT000000000000000000TI000000000000000000MT00
#05413:00MX00TE00MX00MW000000MW
#05414:TB0000MZ00000000MZ000000000000MZ00000000MY000000
#05415:02000000N300000000N0000000000000N100000000MZ0000
#05416:0A0B
#05418:0000000000N500N300000000TG00000000N500N100000000
#05419:00N702N6
#05501:00
#05501:00
#05501:00
#05501:00
#05501:00
#05501:37000031310031003700000035003500
#05501:000E
#05501:00
#05501:00
#05501:00
#05501:00
#05501:00
#05501:00
#05501:00
#05501:HUHMHSHRHS00HO00
#05501:00
#05501:9E
#05501:009C
#05501:00
#05501:00
#05501:00
#05501:9492
#05501:00
#05501:M4
#05501:00
#05501:00M2
#05511:MS00MSM6
#05512:00MU00TL00000000000000MW00MV00000000000000MV0000
#05513:00MW00TM00MX00MX00TP00MX
#05514:000000MX0000000000MZ0000000000MZ00000000MZ0000MZ
#05515:TK000000MZ000000N2000000TO000000N30000N500000000
#05516:0A0A
#05518:0000000000N200N400TN00000000000000N4000000000000
#05519:02N502N7
#05601:00
#05601:00
#05601:00
#05601:00
#05601:0U000R0S0000000R000S0T0R0S0T000R
#05601:37003839380039380039380039383700
#05601:00
#05601:00
#05601:00
#05601:00
#05601:00
#05601:00
#05601:00
#05601:00
#05601:HP00000000HRHSHU
#05601:9F
#05601:00
#05601:009C
#05601:00
#05601:00
#05601:00
#05601:95
#05601:00
#05601:0092
#05611:M5000000MS0000000R000000M200000000N5000000000000
#05612:TQ00000000MV0000000S0000N50000TR00000000000000N2
#05613:000000MX000000N800TS00N3
#05614:00000000000000MZ000000N800000000N900000000N40000
#05615:M700000000000000N300000000NA000000000000N5000000
#05616:0A0B
#05618:0000000000000R0000N50000020000NB000000N600000000
#05619:020000000000000S0000N700000000000000N70000TT0000
#05701:00
#05701:00
#05701:0I0I000I0I000I0I0I000I0I0I0I0I0I
#05701:00
#05701:0U000S0R0T000R0S0U00000000000000
#05701:3735363636000000
#05701:00
#05701:00
#05701:00
#05701:00
#05701:00
#05701:00
#05701:00
#05701:00
#05701:HSHR
#05701:00
#05701:009H
#05701:9G
#05701:00
#05701:00
#05701:00
#05701:00
#05701:00
#05701:M2
#05701:96
#05701:00
#05701:00
#05701:0000000000000000M9000000000000MB0000000000MC0000000000000000000000000000000000000000000000000000
#05701:00
#05701:00M900MA0000MD0000000000
#05703:00A8
#05711:0200020003040404
#05712:00000000000000TW0000000400040004
#05713:00TX
#05714:000000000000TVHP000000MF00MF00MF
#05715:TU000000M4MEMEME
#05716:0A0A
#05718:M80000000000HR000000003500350035
#05719:0000000097363636
#05801:00
#05801:00
#05801:0I0I00000I0I0000000I0000000I0000
#05801:00
#05801:00
#05801:00
#05801:000000000000001F1G1H00001D00001F
#05801:3A
#05801:00
#05801:00
#05801:00
#05801:00
#05801:00
#05801:00
#05801:00
#05801:00
#05801:AP
#05801:00
#05801:00
#05801:000000000000009M
#05801:0000000000000000000000000000009N
#05801:00
#05801:00
#05801:00
#05801:00
#05801:00
#05801:00
#05801:00
#05801:00
#05801:00
#05801:HPHLHVHLHV00HUHL
#05801:ZR
#05803:AC
#05811:01010101
#05812:000J000J000J000J
#05813:46000Q1E00HL0Q00
#05814:001C1D000I000I4C
#05815:1B479J009K1C9L00
#05816:08
#05818:00000048000047000000004800001E00
#05819:9I494A4B
#05901:00
#05901:00
#05901:00000I000000000000000I00000000000K0L0M0I000000000I000I0000000000
#05901:00000000000J000J
#05901:0000000Q
#05901:00
#05901:1B0000001D001E1F1G1H1C001D001E1F
#05901:00
#05901:00
#05901:00
#05901:00
#05901:00
#05901:00
#05901:00
#05901:00
#05901:00
#05901:00AR
#05901:AQ
#05901:00
#05901:0000000000000000000000AU00000000
#05901:00
#05901:00
#05901:009R
#05901:00
#05901:00
#05901:00
#05901:00
#05901:00
#05901:00
#05901:00
#05901:HUHMHSHRHS000000
#05911:0100010001000303
#05912:000000000J00000000000000000000000000ND000000040000NG00000000AY00
#05913:9O000000000000000I0000000J00000000NC0000NE000000NG0000NH00000000
#05914:000000004D0000004E00000000000000000000ND0000NF000000NH0000NI0000
#05915:0I0000001I000000000000004X000000NC00000000NE000000000000NI0000NJ
#05918:00000000000000000Q0000009Q0000000000AS00000000NF0000AW000000NJ00
#05919:4B009P004GATAVAX
#06001:00
#06001:00
#06001:0I0I0000000I0000000I0000000I0000
#06001:00
#06001:00
#06001:00
#06001:1B0000001D00001F1G1H00001D00001F
#06001:00
#06001:00
#06001:00
#06001:00
#06001:00
#06001:00
#06001:00
#06001:00
#06001:00
#06001:B1
#06001:00
#06001:000000000000009W
#06001:0000000000000000000000000000009X
#06001:00
#06001:00
#06001:00
#06001:00
#06001:00
#06001:00
#06001:00
#06001:00
#06001:00
#06001:00
#06001:HMHJHSHMHS00HRHN
#06011:01010101
#06012:000J000J000J000J
#06013:9S000I000IHN4L00
#06014:00004H000Q004H000000004K00004M00
#06015:0000004I0000000000001C009V000000
#06018:001C4E004J000I00
#06019:4D009T1E9U000Q1E
#06101:00
#06101:00
#06101:00000I000000000000000I00000000000K0L0M0I000000000I0000000I000000
#06101:000000000000000000000J00000J000J
#06101:0000000Q
#06101:00
#06101:1B0000001D001E1F1G1H1C001D001E1F
#06101:00
#06101:00
#06101:00
#06101:00
#06101:00
#06101:00
#06101:00
#06101:00
#06101:00A1
#06101:00AT
#06101:B2
#06101:00
#06101:0000000000000000000000AW00000000
#06101:00
#06101:00
#06101:00
#06101:00
#06101:00
#06101:00
#06101:00
#06101:00
#06101:00
#06101:00
#06101:HRHMHPHOHP000000
#06111:010000000100000000AU000003000300
#06112:000000000J000000000000000J00000000NE0000AV00000000NI0000AZ000000
#06113:4L000000000000009Z0000004N000000000000NF000004000000NJ000000B000
#06114:000000001I0000000Q00000000000000NE00000000NG0000NI0000NJ000000NL
#06115:9Y0000000000000046000000A00000000000NF00000000NH00000000NK000000
#06116:000E
#06118:0000000000000000000000004N000000000000004F000000000000000000000000000000000000000000000000000000010000000000000000000000NG0000000000000000000000AX0000000000000000000000000000NK0000000000000000
#06119:0I000000000000004O0000000I00000000000000000000004P0000000000000000NH0000000000AY0000000000NL0000
#06201:00
#06201:00
#06201:0I0I0000000I0000000I0000000I0000
#06201:00
#06201:00
#06201:00
#06201:1B0000001D00001F1G1H00001D00001F
#06201:00
#06201:00
#06201:00
#06201:00
#06201:00
#06201:00
#06201:00
#06201:00
#06201:00
#06201:00B3
#06201:00
#06201:00
#06201:000000000000009M
#06201:0000000000000000000000000000009N
#06201:00
#06201:00
#06201:00
#06201:00
#06201:00
#06201:00
#06201:00
#06201:00
#06201:00
#06201:HPHLHVHLHV00HUHL
#06211:01010101
#06212:9I000I0J000J000J
#06213:000J0Q000I000I1E
#06214:00470047001C9L00
#06215:460000009J0000009K00004800004C00
#06216:08
#06218:0000004800001E000000HL004B000000
#06219:001C49004A000Q00
#06301:00
#06301:00
#06301:000I0000000I0000000000000I0I0000
#06301:00
#06301:00
#06301:00
#06301:1B0000001D001E1F1G1H00001D00001F
#06301:00
#06301:00
#06301:00
#06301:00
#06301:00
#06301:00
#06301:00
#06301:00
#06301:00B5
#06301:000000B6
#06301:B4000000000000A3
#06301:000000000000000000000000000000A4
#06301:00
#06301:00
#06301:00
#06301:00
#06301:00
#06301:00
#06301:00
#06301:00
#06301:00
#06301:00
#06301:00
#06301:HUHMHSHRHS00HO00
#06311:0100010001000303
#06312:000000000J000000000000000J000000000L00000J0000000000000000000000
#06313:00004D000I004X00000M000400000J00
#06314:9O000000000000004E000000000000004Q00000I000000004R00000000000000
#06315:00000Q000K1C001E
#06318:4B1I009Q0000A200
#06319:0I9P9U0Q
#06401:00
#06401:00
#06401:000I000000000000000I00000I0I0000
#06401:00000000000J000J
#06401:000Q000Q
#06401:00
#06401:1B0000001D001E001G1H1C001D001E1F
#06401:00
#06401:00
#06401:00
#06401:00
#06401:00
#06401:00
#06401:00
#06401:00
#06401:00
#06401:B7B2
#06401:00
#06401:00
#06401:00
#06401:00
#06401:00
#06401:00
#06401:00
#06401:00
#06401:00
#06401:00
#06401:00
#06401:00
#06401:00
#06401:HP00000000HRHSHU
#06411:01010101
#06412:00000J00000I00000000AI0000000000
#06413:0000000J0I00AJ00
#06414:0I000000AD00001F00004L000000AK00
#06415:0000000000AE00000000A6004E000000
#06418:4S1C00AFAH00A74T
#06419:A50000000I0000AG000000000000A800
#06501:00
#06501:00
#06501:0I000I000000000000000I00000000000K0L0M0I000000000I0000000I000000
#06501:000000000000000000000J00000J000J
#06501:0000000Q
#06501:00
#06501:1B00000000001E1F1G1H1C001D001E1F
#06501:00
#06501:00
#06501:00
#06501:00
#06501:00
#06501:00
#06501:00
#06501:00
#06501:00
#06501:B7B8
#06501:00
#06501:00
#06501:00
#06501:00
#06501:00
#06501:00AO
#06501:00000000000000AN0000000000000000
#06501:000000AM0000NO00
#06501:00000000000000000000000000NP0000
#06501:00000000000000NQ
#06501:000000000000000000000000000000NR
#06501:00
#06501:00
#06501:HS0000000000HRHPHR00000000000000
#06511:010000000000000001000000030000000100000000NM00000400000000000000
#06512:000000000J000000000000000000000000000000NM0000NN0000040000000000
#06513:AL00000000000400000000000J000000000000000000NN0000NO000004000000
#06514:000000001I0000000I0000000000AB000000000003000000BB0000NP00000400
#06515:4U0000000000000000000000AA000000AC0000000000BA000000BC0000NQ0000
#06518:A9000000000000000Q00000000004V0000000000B900000000000000BD0000NR
#06519:000000001D004X004W000000000000BE
#06601:00
#06601:00
#06601:0I0I0000000I0000000I0000000I0000
#06601:00
#06601:00
#06601:0N
#06601:1B0000001D00001F001H00001D00001F
#06601:00
#06601:00
#06601:00
#06601:00
#06601:00
#06601:00
#06601:00
#06601:00
#06601:00
#06601:AP
#06601:00
#06601:00
#06601:000000000000009M
#06601:0000000000000000000000000000009N
#06601:00
#06601:00
#06601:00
#06601:00
#06601:00
#06601:00
#06601:00
#06601:00
#06601:00
#06601:HPHV00HU
#06611:0100010J01000100
#06612:9I0J0N000N0J0I0J
#06613:000000000I00HL000I0000480000HL00
#06614:00470Q47HV1C9L00
#06615:461C9J009KHL0N4C
#06616:08
#06618:0000004800001E001G0000004B000000
#06619:00HL49004A000Q1E
#06701:00
#06701:00
#06701:000000000000000000000000000I0000
#06701:00
#06701:00000S00000S0R0U0S0R0U0S00000000
#06701:00
#06701:2O002P2Q2R0000002P0000000000002Q
#06701:00
#06701:00
#06701:00
#06701:004D000000000000
#06701:0000004X00000000
#06701:004E4G00
#06701:4B
#06701:00
#06701:00
#06701:00AR
#06701:AQ0000000000000000AS000000000000
#06701:0000000000ATAV00
#06701:0000000000009Q00000000AU00AW0000
#06701:00009P009R0000AX
#06701:9O0000000000000000000000000000AY
#06701:00
#06701:00
#06701:00
#06701:00
#06701:00
#06701:00
#06701:00
#06701:00
#06701:HUHMHSHRHS000000
#06711:04030004030000000000000003000300
#06712:00000000000004030004030000000000
#06713:NSNT00NSNT00000000000000NW00NX00
#06714:0R0U000R0U00NUNV00NUNV000I000J00
#06715:0000000000002S2T002Q2R002O002P00
#06716:000G00000G00000G00000G000G000G00
#06718:0I0J000I0J0000000000000000000000
#06719:0000000000000I0J000I0J000U000U00
#06801:00
#06801:00
#06801:000I0000000I0000000I0000000I0000
#06801:00
#06801:00
#06801:0N
#06801:000000001D00001F001H00001D00001F
#06801:00
#06801:00
#06801:00
#06801:00
#06801:00
#06801:00
#06801:00
#06801:00
#06801:00
#06801:00
#06801:00
#06801:000000000000009W
#06801:0000000000000000000000000000009X
#06801:00
#06801:00
#06801:00
#06801:00
#06801:00
#06801:00
#06801:00
#06801:00
#06801:00
#06801:00
#06801:HMHS00HR
#06811:0100010001000103
#06812:0I001C000Q0000000I0004040000HN00
#06813:000J0N0J0N0J9V0J
#06814:9S0000009T00HM009U00004K0N000000
#06815:B14H0I4HHSHN0I4M
#06816:08
#06818:4D00004I00001E001G001C004L000000
#06819:1BHJ4E004J000Q1E
#06901:00
#06901:00
#06901:000000000000000000000000000I0000
#06901:00
#06901:00000S00000S00000S00000S00000000
#06901:00
#06901:00002W00000000002U0000000000002Z
#06901:00
#06901:00
#06901:00
#06901:004N004N00000000
#06901:00464P00
#06901:4L000000004F000000000000000000000000000000000000
#06901:004O00000000
#06901:00
#06901:00
#06901:00AT
#06901:B20000000000000000AU000000000000
#06901:000000A000AV0000
#06901:000000009Z000000A10000AW00AY0000
#06901:9Y
#06901:000000000000000000000000000000B0
#06901:00
#06901:00
#06901:00
#06901:00
#06901:00
#06901:00
#06901:00
#06901:00
#06901:HRHMHPHOHP000000
#06911:04030004030000000000000003000300
#06912:0I0J000I0J002Y2Z002V2X000I000J00
#06913:0R0U000R0U00O0O100O0O1000U000000
#06914:0000000000002W0U
#06915:NYNZ00NYNZ0004030004030000002Y00
#06916:000G00000G00000G00000G000G000G00
#06918:2U2V00ZZ2X000I0J000I0J00AX00AZ00
#06919:0000000000000R0U000R0U00O200O300
#07001:00
#07001:00
#07001:000I0000000I0000000I0000000I0000
#07001:00
#07001:00
#07001:00
#07001:000000001D00001F001H00001D00001F
#07001:00
#07001:00
#07001:00
#07001:00
#07001:00
#07001:00
#07001:00
#07001:00
#07001:00
#07001:00
#07001:00
#07001:00
#07001:000000000000009M
#07001:0000000000000000000000000000009N
#07001:00
#07001:00
#07001:00
#07001:00
#07001:00
#07001:00
#07001:00
#07001:00
#07001:00
#07001:00HVHVHU
#07011:01000100010J0100
#07012:0I0J0I0J0I000NHL
#07013:9I1C9J009K000I0J
#07014:0N000N1E0N1C9L00
#07015:1B0047000Q004700BF00004800004C00
#07016:08
#07018:460000480000HL001G00HL004B000000
#07019:HPHL49004A000Q1E
#07101:00
#07101:00
#07101:000I0000000I00000000000000000000
#07101:00
#07101:00
#07101:00
#07101:000000000000001F001H00001D00001F
#07101:00
#07101:00
#07101:00
#07101:00
#07101:00
#07101:00
#07101:00
#07101:00
#07101:00
#07101:BGBH
#07101:00
#07101:00
#07101:00
#07101:00
#07101:00
#07101:00
#07101:00
#07101:000000O6
#07101:00000000000000000000000000O70000
#07101:00
#07101:000000000000000000000000000000O9
#07101:00
#07101:00
#07101:0000HSHRHS00HO00
#07111:01000J00010000000100000403000300
#07112:0I000000000000000I0000000J000000000L0000O40000000I0000000I000000
#07113:0N0000004E004X000K0M00004R001E00
#07114:9O000000HM0000000Q000000000000004Q00000I000000000000BJ0000000000
#07115:1B4D0N000N0JBIBK
#07116:0E
#07118:4B0000001D009Q001G001C000N0000BL
#07119:HU001I009P001E009U0000O50Q00O800
#07201:00
#07201:00
#07201:00
#07201:00
#07201:00
#07201:00
#07201:00
#07201:00
#07201:00
#07201:00
#07201:00
#07201:00
#07201:00
#07201:00
#07201:00
#07201:00
#07201:00
#07201:00
#07201:00BO
#07201:000000BP
#07201:00
#07201:00
#07201:00
#07201:00
#07201:00
#07201:00
#07201:00
#07201:00
#07201:00
#07201:00
#07201:HP000000HPHRHSHU
#07201:ZS
#07211:0102000000000000
#07213:0I0I000000000000
#07214:BMBN000000000000
#07215:OAOB0000OC000000
#07216:0G0G000000000000
#07219:4646000000000000
#07301:00
#07301:00
#07301:00
#07301:00
#07301:00
#07301:00
#07301:00
#07301:00
#07301:00
#07301:00
#07301:00
#07301:00
#07301:00
#07301:00
#07301:00
#07301:00
#07301:00
#07301:00
#07301:00
#07301:00
#07301:BQ
#07301:00BR0000
#07301:00BS
#07301:00
#07301:00
#07301:00
#07301:00
#07301:00
#07301:00
#07301:00
#07301:HS00HRHPHR000000
#07318:OD
#07319:00OE
#07401:00
#07401:00
#07401:0I0I0I0I00000I0I0I0I00000I0I0I0I
#07401:00000J00000J0000
#07401:08
#07401:00
#07401:00
#07401:00
#07401:00
#07401:00
#07401:00
#07401:00
#07401:00
#07401:OF
#07401:00
#07401:00
#07401:CC00CDCC00CDCC00
#07401:00
#07401:00
#07401:00
#07401:00
#07401:0404030404030404
#07401:00040004000000040004000000040004
#07411:OH000000OK0000OI00OI0000OH000000
#07412:0H00OJ000G00000H000H000000OI00OI
#07413:BT000H00BV0000BU00BU00000H00OJ00
#07414:0000BV0000000000OJ000000000H000H
#07415:00OI00OI0000OH000H00OK00BT000H00
#07418:000H000H00000H00BV000G0000BU00BU
#07419:00BU00BU0000BT000000BV000000BV00
#07501:00
#07501:00
#07501:00000I0I0I0I0000000I0000000I0000
#07501:0J00000J00000000
#07501:00
#07501:00
#07501:00
#07501:00
#07501:00
#07501:00
#07501:00
#07501:00
#07501:000000OG
#07501:00
#07501:00
#07501:00
#07501:CDCC00CD00000000
#07501:00
#07501:00
#07501:00
#07501:00
#07501:0304040300000000
#07501:00000004000400000000000000000000
#07511:OK0000OI00OI0000000000000F000000
#07512:00OHOJOK0F030I00
#07513:0G00000H000H00000I000J00OM000000
#07514:000H000GOL00CE00
#07515:BV000H0003000303
#07518:000000BU00BU0000CC000000BW000J00
#07519:00BTBVBVBT000000
#07601:00
#07601:00
#07601:000I0I0I0000000I0I0I0000000I0I0I
#07601:00
#07601:00
#07601:00
#07601:00
#07601:00
#07601:00
#07601:00
#07601:00
#07601:00
#07601:00
#07601:OF
#07601:00
#07601:00
#07601:CC00CDCC00CDCC00
#07601:00
#07601:00
#07601:00
#07601:00
#07601:00040004000000040004000000040004
#07601:0404030404030404
#07611:00OI00OI00000H00OJ000J00OH000000
#07612:000H000H0000OH000H00OK0000OI00OI
#07613:00BU00BU00000I00BV000G000I00OJ00
#07614:OH000000OK00BT000000BV00000H000H
#07615:0H00OJ000G0000OI00OI00000H000H00
#07618:BT000H00BV00000H000H000000BU00BU
#07619:0I00BV000J0000BU00BU0000BT00BV00
#07701:00
#07701:00
#07701:0000000I0I0I0000000I0000000I0000
#07701:00
#07701:00
#07701:00
#07701:00
#07701:00
#07701:00
#07701:00
#07701:00
#07701:00
#07701:00
#07701:00
#07701:00
#07701:00
#07701:CDCC00CD00000000
#07701:00
#07701:00
#07701:00
#07701:00
#07701:00000004000400000000000000000000
#07701:0304040300000000
#07711:OK0I000J0F000000
#07712:00OHOJOK03030F00
#07713:0J0000OI00OI0000OL000000ON000300
#07714:000H0H0GCC000300
#07715:0G00000H000H00000I000J00CF000000
#07718:00BTBVBVBT000I0J
#07719:BV0000BU00BU000000000000BX000000
#07801:00
#07801:00
#07801:000I0I0I0000000I0I0I0000000I0I0I
#07801:00000J00000J0000
#07801:00
#07801:00
#07801:00
#07801:00
#07801:00
#07801:00
#07801:00
#07801:00
#07801:00
#07801:00
#07801:00
#07801:00
#07801:00
#07801:00
#07801:0000CH0000CH0000
#07801:00
#07801:00
#07801:00000400030000040004000000000400
#07801:00040004000000000400030000040004
#07811:OO00OQ00OR000HOP00OP0000OO000H00
#07812:0H000H000G00CG0H000H0000CG0H000H
#07813:BY00C000C0000IBZ00BZ0000BY00OQ00
#07814:0000000000000000000000000HOP00OP
#07815:0IOP00OP0000OO00C000OR000400C000
#07818:CG0H000H000004000H000G000IBZ00BZ
#07819:04BZ00BZ0000BY00OQ00C00000000000
#07901:00
#07901:00
#07901:0000000I0I0I0000000I0000000I0000
#07901:0J00000J00000000
#07901:00
#07901:00
#07901:00
#07901:00
#07901:00
#07901:00
#07901:00
#07901:00
#07901:00
#07901:00
#07901:00
#07901:00
#07901:00
#07901:00
#07901:CH0000CH00000000
#07901:00
#07901:00
#07901:03000004000400000000000000000000
#07901:0000040300000000
#07911:0G00030F
#07912:00000HOP00OP00000F000000OT000300
#07913:OR0IC0OROS030000
#07914:0000OOBZ00BZ000000000000CF000000
#07915:C0CGOQC0CG0J0I00
#07918:0000BY0H000H00000I000000C1000J00
#07919:00040H0GBY000300
#08001:00
#08001:00
#08001:000I0I0I0000000I0I0I0000000I0I0I
#08001:00000J00000J0000
#08001:00
#08001:00
#08001:00
#08001:00
#08001:00
#08001:00
#08001:00
#08001:00
#08001:00
#08001:00
#08001:00
#08001:00
#08001:00
#08001:00
#08001:0000CH0000CH0000
#08001:00
#08001:00
#08001:00040004000000000000000000040004
#08001:00000000000000040004000000000000
#08011:0IOP00OP0000OO00OQ00OR0004000400
#08012:CG0H000H00000H000H000G000IOP00OP
#08013:ZZBZ00BZ0000BY00C000C000ZZ00C000
#08014:040004000300040004000300CG0H000H
#08015:OO00C000OR000IOP00OP0000OO000H00
#08018:0H000H000G00CG0H000H00000HBZ00BZ
#08019:BY00OQ00C000ZZBZ00BZ0000BY00OQ00
#08101:00
#08101:00
#08101:0000000I0I0I0000000I0000000I0000
#08101:0J00000J00000000
#08101:00
#08101:00
#08101:00
#08101:00
#08101:00
#08101:00
#08101:00
#08101:00
#08101:00
#08101:00
#08101:00
#08101:00
#08101:00
#08101:00
#08101:CH0000CH00000000
#08101:00
#08101:00
#08101:00
#08101:00000004000400000000000000000000
#08111:03OOOQOR03000300
#08112:00000IOP00OP00000F0000000F000J00
#08113:ORBYC0C0OS03ZZ00
#08114:0000ZZ0H000H00000I000000OU000300
#08115:0G0H0H0GCG0J0I00
#08118:0000CGBZ00BZ0000BY000000CI000000
#08119:C0040403ZZ00C200
#08201:00
#08201:00
#08201:0I0I0I0I00000I0I0I0I00000I0I0I0I
#08201:00000J00000J0000
#08201:0N0N0N0N
#08201:00
#08201:37003131310036003131310036003131
#08201:00
#08201:00
#08201:00
#08201:00
#08201:00
#08201:00
#08201:00
#08201:00
#08201:00
#08201:00
#08201:CJCKCLCJCKCLCJCK
#08201:00
#08201:00C300C400C500C40000000000C300C400C500C40000000000C300C400C500C4
#08211:0303030303030303
#08212:000000OW000000OW000000000000C4000000C40000000000000000OW00OX0000
#08213:00OW00OW0000OV00OX00OY0000OW00OW
#08214:00OV000000OX00000000000000OV000000OX00000000000000OV0000000000OW
#08215:OV00OX00OY0000OW00OW0000OV00OX00
#08216:08
#08218:0000C4000000C40000000000000000OW000000OW000000000000C4000000C400
#08219:C3C5C5C3C5C5C3C5
#08301:00
#08301:00
#08301:00000I0I0I0I0000000I0000000I0000
#08301:0J00000J0000000J
#08301:0N0N0N00
#08301:00
#08301:3136363137000031
#08301:00
#08301:00
#08301:00
#08301:00
#08301:00
#08301:00
#08301:00
#08301:00
#08301:00
#08301:00
#08301:CLCJCKCL00000000
#08301:00
#08301:0000000000C300C400C500C40000000000000000000000000000000000000000
#08311:0303030303000304
#08312:000000C400C4000000000000P0000004
#08313:00OVOXOY0003CN00
#08314:0000000000OV0000000000OW00000000OZ0000000J000000C600000000000000
#08315:OY0000OW00OW00000I00310000000N00
#08318:00000000000000OW00OX000000000000CM000000000000000000000036000000
#08319:C5C3C5C5C3000I00
#08401:00
#08401:00
#08401:0I0I0I0I00000I0I0I0I00000I0I0I0I
#08401:00000J00000J0000
#08401:0N0N0N0N
#08401:00
#08401:37003131310036003131310036003131
#08401:00
#08401:00
#08401:00
#08401:00
#08401:00
#08401:00
#08401:00
#08401:00
#08401:00
#08401:00
#08401:CJCKCLCJCKCLCJCK
#08401:00C300C400C500C40000000000C300C400C500C40000000000C300C400C500C4
#08411:030003000300OV0000OW000003000300
#08412:0000C40000OX00000000000000OV0000C50000OW000000000000C4000000OW00
#08413:C3000000OX000000C50000000000OW0000000000OY000000000000OW000000OW
#08414:000000OW0000C40000000000000000OW0000C40000000000OV000000C5000000
#08415:0000OW0000000000OY000000C3000000OX000000C500000000OV000000OX0000
#08416:08
#08418:00OV0000C50000OW000000000000C40000OX0000000000000000OW000000C400
#08419:OV0000OW0000030003000300C300OX00
#08501:00
#08501:00
#08501:00000I0I0I0I00000I0I00000I0I0000
#08501:0J00000J00000000
#08501:0N0N0000
#08501:00
#08501:3136363100000000
#08501:00
#08501:00
#08501:00
#08501:00
#08501:00
#08501:00
#08501:00
#08501:00
#08501:00
#08501:00
#08501:CLCJCKCL00000000
#08501:0000000000C300C400C500C400000000CM000000000000000000000000000000
#08501:000000CO
#08511:0303030303000304
#08512:000000OW00OW0000OZ00030000000004
#08513:0000000000OV000000OX0000000000000N000000000000000N00000000000000
#08514:OYOVOXOY000J000J
#08515:00000000000000OW000000OW0000000037000000000000003600000000000000
#08518:000000C400C40000C3003100P1000000
#08519:C5C3C5C50000C731
#08601:000H0H0H0G00000H0H0H0G00000H0H0H
#08601:00
#08601:0I0I0I0I00000I0I0I0I00000I0I0I0I
#08601:00000J00000J0000
#08601:0N0N0N0N
#08601:00
#08601:00
#08601:00
#08601:00
#08601:00
#08601:00
#08601:00
#08601:000000P30000000000000000000000P30000000000000000000000P300000000
#08601:00
#08601:00
#08601:00
#08601:00
#08601:00
#08601:00
#08601:CQ00CQCQ00CQCQ00
#08601:00
#08601:00
#08601:CP
#08601:00
#08601:0404030404030404
#08601:00040004000000040004000000040004
#08611:00P300C90000P200CA00CA00P20000P3
#08612:00P2000000CA00C90000000000P2000000CA00C90000000000P2000000P40000
#08613:P2000000CA000000P50000000000P3000000C900000000000000P300P40000P3
#08614:000000C90000000000000000000000C90000000000000000000000C900000000
#08615:0000C9000000P30000000000C8000000P4000000P50000000000C900CA0000C9
#08616:0H00000H00000H00
#08618:00C8000000P400P30000000000C8000000P400P30000000000C8000000CA0000
#08619:C800P400CA0000C900P30000C80000C9
#08701:0G00000H0H0H0G000000000000000000
#08701:00
#08701:00000I0I0I0I0000000I0000000I0000
#08701:0J00000J00000000
#08701:0N0N0N0N
#08701:00
#08701:00
#08701:00
#08701:00
#08701:00
#08701:00
#08701:00
#08701:0000P20000P300000000000000000000
#08701:00
#08701:00
#08701:00
#08701:00
#08701:00
#08701:00
#08701:CQCQ00CQ00000000
#08701:00
#08701:00
#08701:00
#08701:00
#08701:0304040300000000
#08701:00000004000400000000000000000000
#08711:00000000000000P3000000P3000000000I000000000000000I00000000000000
#08712:P50000P3P400P50000000J00P7000000
#08713:0000000000P2000000P4000000000000P600000000000000000000000J000000
#08714:0000C80000C90000CQ000000CR000000
#08715:0000000000C8000000CA0000000000000000000000000000CB00000003000000
#08716:000H00000F000F00
#08718:CA0000C9CA00CA00C800030000000000
#08719:00000000000000C9000000C90000000003000000000000000300000000000000
#08801:00
#08801:00
#08801:000I0I0I0000000I0I0I0000000I0I0I
#08801:00000J00000J0000
#08801:0N0N0N0N
#08801:00
#08801:00
#08801:00
#08801:00
#08801:00
#08801:P900PAP900PAP900
#08801:00
#08801:00
#08801:00
#08801:00
#08801:00
#08801:00
#08801:00
#08801:00C800C900CA00C90000000000C800C900CA00C90000000000C800C900CA00C9
#08801:CQ00CQCQ00CQCQ00
#08801:00
#08801:00
#08801:CP
#08801:00
#08801:0404030404030404
#08801:00040004000000040004000000040004
#08811:0000P30000000H0000000000C80000P300000H000000000000000H000000P300
#08812:00P200000H000000P50000000I000000P4000000CA0000000000C90000P400P3
#08813:P2000000CA0000P3000000000000C90000P400000G000000C8000000P4000000
#08814:00000H000000P3000000000000000H000000P300000000000I0000P300000H00
#08815:0000C90000P40000CA000000P2000000CA0000P3000000000000P3000000C900
#08816:0H00000H00000H00
#08818:C8000000P40000000G00000000P200000H000000P500000000P200000H000000
#08819:0I0000P30000C900000000000000P3000000C90000000000P2000000CA000000
#08901:00
#08901:00
#08901:0I0I0I0I0I0I0I0I0I0I0I0I0I0I0I0I
#08901:00
#08901:0N0N0N0N
#08901:00
#08901:00
#08901:00
#08901:00
#08901:00
#08901:PBPCPBPCPBPCPBPC
#08901:00
#08901:00
#08901:00
#08901:00
#08901:00
#08901:00
#08901:00
#08901:00CA00C900CA00C900CA00C900CA00C900CA00C900CA00C900CA00C900CA00C9
#08901:CQCQCQCQCQCQCQCQ
#08901:00
#08901:00
#08901:00
#08901:00
#08901:0404040404040404
#08901:00040004000400040004000400040004
#08911:00C900C900P300C9000H00P300C9000H
#08912:00000H0000000H0000P400P300000H000000C90000P400P300000H000000C900
#08913:P4CAP4P4CAP4P40H
#08914:00P400000H0000P30000C90000P400000H0000P30000C90000P40000CA0000P8
#08915:00P300P3000H00P300P3000H00P300P8
#08918:CA0000P300P400000H0000000H0000P300P40000CA0000000H0000P300P40000
#08919:0HP4CACAP40HCAP4
#09001:00
#09001:00
#09001:00
#09001:00
#09001:00
#09001:00
#09001:00
#09001:00
#09001:000000000000000000000000PQ0000PT
#09001:00000000000000000000000000PR0000
#09001:0000000000000000PM0000PP0000PS00
#09001:0000000000PJ00PL0000PO0000000000
#09001:00PF00PH0000PK0000PN000000000000
#09001:00PG000000000000
#09001:00PI0000
#09001:00
#09001:00
#09001:00
#09001:00
#09001:00
#09001:00
#09001:00
#09001:000000UE
#09001:0000000000000000UB0000UB00UB00UF
#09001:0000000000UD00UD
#09001:000000000000000000UC000000000000
#09001:00
#09001:00
#09001:00
#09001:00
#09001:00
#09001:ZT
#09003:AA
#09013:02
#09016:0G
#09018:CS
#09019:PE
#09101:00
#09101:00
#09101:00
#09101:00
#09101:0U0000000R0S0R0S0U00000000000000
#09101:00
#09101:00000000000V0000
#09103:AC
#09111:00020000
#09112:020I0200
#09113:0IPV0I00
#09114:PUPU
#09115:00PX0000
#09116:090C0D0W
#09118:PW6PPW00
#09119:6O6Q
#09201:00
#09201:00
#09201:0I0000000I000I000M0M0M0M0M000I0000000I0000000I000I0000000I000000
#09201:00
#09201:00
#09201:00
#09201:00
#09201:00000000000000000035000000000000
#09201:00
#09201:00
#09201:0000000000000000003100000000000010000000000000000000000000000000001000000000000000000R0000000000
#09201:00303232000Z0X00
#09201:00000000000000000000000000000Z000000000000110000000000000000000000000000000000000000360000000000
#09201:000X0Y1112363300
#09201:0000000X000000330000003700000000
#09201:00
#09201:00
#09201:00
#09201:00
#09201:00
#09201:00
#09201:00
#09201:CT00CVCUCV00CU00CT00CVCUCV00CU00
#09211:PYPY
#09214:0202
#09219:3737
#09301:00
#09301:0000000003030200
#09301:0I000I0I0I000I000I0I0I0I00000000
#09301:00
#09301:00
#09301:00
#09301:00
#09301:00
#09301:00
#09301:00
#09301:0000000R00000S000U00000000000000
#09301:000S000000000000
#09301:00000033H9000000
#09301:0U310U0000000000
#09301:00000033000000000000000000000000
#09301:00
#09301:00
#09301:00
#09301:00
#09301:00
#09301:00
#09301:00
#09301:CW00CUCVCW00CU00CV00000000000000
#09311:PZ0000000000PZ000000000000CY00000000D30000000000
#09312:000000000000000000000000CX00CZ00000000D400000000
#09313:000000000000000000000000000000D000000000D5000000
#09314:02000000000002000000000000000000D100000000D60000
#09315:0000000000000000000000000000000000D200000000D700
#09318:000000000000000000000000PZ00000000000000000000D8
#09319:37373700
#09401:00
#09401:00
#09401:0I0000000I0000000I00000I0I000000
#09401:000J000J000J000J
#09401:0U000R0S0R000S0R0S000R0S0R000U00
#09401:0N0N0N0N
#09401:000000000000QS0000R900000000000000006S00RC00RD00
#09401:00R4QT0000000000
#09401:00QL
#09401:00QN
#09401:00QR0000
#09401:00
#09401:00
#09401:00HA
#09401:00
#09401:00
#09401:00
#09401:00
#09401:00
#09401:000000HG
#09401:00
#09401:00
#09401:00
#09401:006T006T006T006T
#09401:00
#09401:00
#09401:00DX00DY
#09401:DVDV
#09401:00DW00DW00DW0000
#09401:00
#09401:GR
#09411:020002RC02000303
#09412:00HB00R000000000000000HI00HB00R600000000R90000HI
#09413:00000000HC000000000000006S00000000000000HC00000000000000HC00000000R700000000000000000000HC000000
#09414:HAHD00HD00HDRJHD
#09415:6RHEHH6RHEHH
#09416:08
#09418:000000R300HF00HF000000000000000000HF00HF0000RA00
#09419:D900HGREQI00R800
#09501:00
#09501:0000000000000003
#09501:0I0000000I0000000I0I000I0I000000
#09501:000J000J000J000J
#09501:0U000R0S0R000S0R0S000R0S0R000U00
#09501:0N0N0N0N
#09501:0000000000R1QJ00
#09501:00000000000000000000000000000000QH00000000000000000000Q600000000
#09501:00000000QMR80000
#09501:00
#09501:000000QG
#09501:00
#09501:00
#09501:HAHA
#09501:00
#09501:00
#09501:00
#09501:00
#09501:00
#09501:00HG00HG
#09501:00
#09501:00
#09501:00
#09501:006T006T006T006T
#09501:0000006V
#09501:00
#09501:00DX0000
#09501:DVDV
#09501:00DW00DW00DW0000
#09501:000000DZ
#09511:0202026U
#09512:0000HB000000000000000000IW000000000000000000HI000000HB00000000000004000003000000000000000000HI00
#09513:00000000HC00000000IV00000000000000000000HC00000000000000HC000000000000000000000000000000HC000000
#09514:00HD00HD00HD00HD
#09515:6R00000000000000HE00000000000000HH000000000000006R00000000000000HE00000000000000HH00000000QA0000
#09518:000000000000000000000000IU00000000000000HF00000000000000HF00000000000000000000000000000000000000QI00000000000000000000000000000000000000HF00000000000000HF00000000000000Q70000000000000000QB0000
#09519:IT000000000000006S000000IX00000000000000R3000000QO00000000Q80000
#09601:00
#09601:00000000000000000000000003000004
#09601:0I000000000000000I000000000000000K0L0M0I00000I000I00000000000000
#09601:000J000J000J000J
#09601:0U000R0S0R000S0R0S000R0S0R000U00
#09601:0N0N0N0N
#09601:QX0000RB
#09601:0000R4000000000000R4000000000000
#09601:000000000000R80000000000000000R80000000000QZ00000000000000000000R9000000000000000000000000000000
#09601:0000RA
#09601:00
#09601:00
#09601:00
#09601:HA
#09601:00
#09601:00
#09601:00000000000000HD
#09601:00
#09601:00
#09601:000000HG
#09601:00
#09601:00
#09601:00
#09601:006T006T006T006T
#09601:6R
#09601:00
#09601:00DX00DY
#09601:DVDV
#09601:00DW00DW00DW0000
#09611:020000000000RA0000000000000000R50000000000000000HA00000000000000RF0000006S0000000000040000000000
#09612:00HB000000000200000000HI00HB0000RC0000RH000000HI
#09613:00000000HC00000000000000000000RA00000000HC00000000000000HC0000000004000000000000RK000000HC000000
#09614:R0HD6SHD02HD00RM
#09615:0000000000000000HE00000000000000HH00000000R10000000000R800000000HE00000000000000HH000000RN000000
#09618:000000RB00HF00HF000000006R00000000HF00HF000000RQ
#09619:R4000000HG0000R500RA0000RD000000
#09701:00
#09701:00
#09701:0I0000000I0000000I0I000I0I000000
#09701:000J000J000J000J
#09701:0U000R0S0R000S0R0S0T0R0U0U000U00
#09701:0N0N0N0N
#09701:00000000000000000000000000QE0000RF00000000000000
#09701:000000000000000000000000QQ0000000000000000QY00000000000000000000RI000000000000000000000000000000
#09701:000000000000000000000000000000000000000000R000000000QG000000000000000000RP0000000000000000000000
#09701:00
#09701:000000QV
#09701:00
#09701:00
#09701:HAHA
#09701:00
#09701:00
#09701:00000000000000HD
#09701:00
#09701:00
#09701:000000HG
#09701:00
#09701:00
#09701:00
#09701:0000006T006T0000
#09701:00
#09701:00
#09701:00000000DX000000000000E000000000
#09701:DVDV
#09701:00DW00DW00DW00E2
#09701:000000E1
#09711:0200006T0000020000RH000002000000RK00030000030000
#09712:0000HB000000000000QR0000000000QP000000000000HI000000HB0000000000RM00000000000000HH0000000000RB00
#09713:00000000HC000000000000006S00000000000000HC00000000000000HC000000006C00000000HF0000000000RF000000
#09714:6RHD00HD00HD6DRL
#09715:00000000HE000000HH0000006R000000HE000000RQ0000HI
#09718:000000QT000000000000HF000000HF000000000000R100000000QI00000000000000HF000000RR0000000000HC000000
#09719:QS0000000000QU0000000000HG0000000000000000R300000000QK000000000000000000QW00000000006E0000000000
#09801:00
#09801:00
#09801:0I0000000I0000000I00000I0I000000
#09801:000J000J000J000J
#09801:0U000R0S0R000S0R0S000R0S0R000U00
#09801:0N0N0N0N
#09801:00
#09801:00
#09801:Q0
#09801:00
#09801:00
#09801:00
#09801:00
#09801:HAHA
#09801:00
#09801:00
#09801:00
#09801:00
#09801:00
#09801:00
#09801:00
#09801:00
#09801:00
#09801:006T006T006T006T
#09801:006S006S
#09801:00
#09801:00DX00DY
#09801:DVDV
#09801:00DW00DW00DW0000
#09801:00
#09801:GR
#09811:02Q70203
#09812:0000HB0000000000000000000000Q800000000000000HI000000HB000000000000QO0000000000000000QJ000000HI00
#09813:00000000HC0000000000000000000000Q9000000HC00000000000000HC00000000000000000000QL00000000HC000000
#09814:6RHD02HDQIHDQNHD
#09815:0000000000000000HE00000000000000HH00000000000000000000QN00000000HE00000000000000HH00000000QF0000
#09816:08
#09818:0000000000HF00HF00QC00006R00000000HF00HF00030000
#09819:Q1000000HG0000QG0000QR00HG000000
#09901:00
#09901:00
#09901:0I0000000I0000000I0I000I0I000000
#09901:000J000J000J0000
#09901:0U000R0S0R000S0R0S000R0S0R000U00
#09901:0N0N0N0N
#09901:0000R200R8RA0000
#09901:0000R40000RGQ200
#09901:00QD00RD0000Q300
#09901:00
#09901:00
#09901:00
#09901:00
#09901:HAHA
#09901:00
#09901:00
#09901:00
#09901:00
#09901:00
#09901:000000HG
#09901:00
#09901:00
#09901:0000006U
#09901:006T006T006T006T
#09901:006S6R00
#09901:00
#09901:00DX0000
#09901:DVDV
#09901:00DW00DW00DW0000
#09901:000000DZ
#09911:02QH00RG02RJ0303
#09912:0000HB00000000000000000002000000000000000000HI000000HB00000000000004000000000000000000000000HI00
#09913:00HC00R800HC00HC006V00HC
#09914:QCHD00HD00HDQ4HD
#09915:00HEHHRHHEHH
#09918:0000000000HF00HF00000000RJ00000000HF00HF00000000
#09919:6RQJHGRO00RLQ50J
#10001:00
#10001:02000000020000000200000403000000
#10001:0I0000000I0000000I00000I0I000004
#10001:000000000000000J
#10001:0U000R0S0R000T0S0R000S0U0U000R0S
#10001:0N0N0N0N
#10001:00
#10001:00
#10001:00
#10001:00
#10001:0000J8000000000000JD000000000000
#10001:00000000000000000000JE0000JF0000
#10001:000000J90000JA00000000JF00000000
#10001:0000000000J90000000000000000JG00
#10001:00000000000000JB00000000000000JH
#10001:00
#10001:00
#10001:00
#10001:00
#10001:00
#10001:00
#10001:00
#10001:00
#10001:006T006T006T006T
#10001:00
#10001:00
#10001:00000000DX000000000000E3DY000000
#10001:DV000000DV0000E4
#10001:0000DW000000DW000000DW00000000E5
#10011:HA0JJ80JHA0JJG04
#10012:00HA0000000000HD000000006S00000000HH0000000000HI00HA0000000000HD000000006S00000000HH0000000000HI
#10013:00HB0000HE000000HH0000HI00HB0000HE000000HH0000HI
#10014:00HB00HE00HF00HC00HB00HE00HF00HC
#10015:0000HC0000HF00HF0000HC000000HC0000HF00HF0000HC00
#10018:J700000000HC0000000000HF00HG0000000000HD00000000JC00000000HC0000000000HF00HG0000000000HD00000000
#10019:6RHDHGHD6RHDHGHD
#10101:00
#10101:00
#10101:000000000000000I
#10101:00
#10101:0U
#10101:00
#10101:000000000000000000000000000000SG
#10101:000000000000SDSF
#10101:0000000000000000S90000SC00SE0000
#10101:00000000000000S80000SB0000000000
#10101:0000S3000000S70000SA000000000000
#10101:000000S400S600000000000000000000
#10101:00S50000
#10101:S2
#10101:00
#10101:00
#10101:00
#10101:00
#10101:00
#10101:00000000000000DE
#10101:00
#10101:00
#10101:00
#10101:00
#10101:00
#10101:00
#10101:00
#10101:00
#10101:00000000000000GE
#10101:E6
#10101:H8
#10111:0200000000000003
#10114:00000000000000DA
#10116:090000000000000G
#10118:5S
#10119:0I000000000000RS
#10201:00
#10201:00
#10201:0I0I000I0I000I0I000I0I000I000I00
#10201:0N00000N00000N00000N00000O000O00
#10201:0R0U000R0U000R0U000000000R0S0U00
#10201:00
#10201:00
#10201:00
#10201:00
#10201:00
#10201:00
#10201:00
#10201:00
#10201:00
#10201:00
#10201:00
#10201:00
#10201:00
#10201:00
#10201:00
#10201:00
#10201:00
#10201:00
#10201:00
#10201:00
#10201:00
#10201:GNGI0000000000000000000000000000
#10201:00
#10201:00
#10201:GFGG00GFGG0000000000000000000000
#10211:04030004030004030004030003000300
#10212:000000DGDR00DHDS00DFDQ00DI00DJ00
#10213:DFDQ00000000GPGK00GQGL000000GJ00
#10214:000000GOGJ000000000R0U00GI00DD00
#10215:DBDC00000000GFGG00DBDC00DB000000
#10216:0H0G000H0G000H0G000H0G000G000G00
#10218:000000DBDC00DBDC00GFGG00GG00GH00
#10219:RTRU00RTRU00RTRU00RTRU00RV00RW00
#10311:02RXS100
#10312:DK00000000RY00S00000000000000000
#10313:000000RZ00000000
#10314:GM
#10315:DCDLDP00
#10316:0G
#10318:GR00000000DM00DO0000000000000000
#10319:RV0000DN00000000