Files
admin-leaf-alice-in-misanth…/_AliceinMisanthrope_m7_DD.bms

4612 lines
94 KiB
Plaintext
Raw Normal View History

*---------------------- HEADER FIELD
#PLAYER 1
#GENRE GOTHIC CHOIR
#TITLE Alice in Misanthrope -<2D>}<7D><><EFBFBD>A<EFBFBD><41><EFBFBD>X-[Death Drive]
#ARTIST LeaF
#BPM 172
#PLAYLEVEL 12
#RANK 3
#TOTAL 666
#STAGEFILE _title.png
#WAV01 kick1_4g.wav
#WAV02 kick1_4.wav
#WAV03 kick1_8.wav
#WAV04 kick1_16.wav
#WAV05 kick1_32.wav
#WAV06 kick1_sub1.wav
#WAV07 kick1_sub2.wav
#WAV08 cym1_1.wav
#WAV09 cym1_2.wav
#WAV0A cym1_3.wav
#WAV0B cym1_4.wav
#WAV0C cym1_5.wav
#WAV0D cym1_6.wav
#WAV0E cym1_7_spr.wav
#WAV0F cym1_9.wav
#WAV0G cym1_10.wav
#WAV0H cym1_11.wav
#WAV0I hat1.wav
#WAV0J hat2.wav
#WAV0K hat3.wav
#WAV0L hat4.wav
#WAV0M hat5.wav
#WAV0N ride1.wav
#WAV0O ride2.wav
#WAV0P ride3.wav
#WAV0Q snare1.wav
#WAV0R snaredrum1_1.wav
#WAV0S snaredrum1_1.wav
#WAV0T snaredrum1_2.wav
#WAV0U snaredrum1_3.wav
#WAV0V clap1.wav
#WAV0W clap2.wav
#WAV0X tom1.wav
#WAV0Y tom2.wav
#WAV0Z tom3.wav
#WAV10 tom4.wav
#WAV11 tom5.wav
#WAV12 tom6.wav
#WAV13 break1_1.wav
#WAV14 break1_2.wav
#WAV15 break1_3.wav
#WAV16 break1_4.wav
#WAV17 break1_5.wav
#WAV18 break1_6.wav
#WAV19 break1_7.wav
#WAV1A break1_8.wav
#WAV1B break2_1.wav
#WAV1C break2_2.wav
#WAV1D break2_3.wav
#WAV1E break2_4.wav
#WAV1F break2_5.wav
#WAV1G break2_6.wav
#WAV1H break2_7.wav
#WAV1I break2_8.wav
#WAV1J break3_1.wav
#WAV1K break3_2.wav
#WAV1L break3_3.wav
#WAV1M break3_4.wav
#WAV1N break3_5.wav
#WAV1O break3_6.wav
#WAV1P break3_7.wav
#WAV1Q break3_8.wav
#WAV1R break3_9.wav
#WAV1S break3_10.wav
#WAV1T break3_11.wav
#WAV1U break3_12.wav
#WAV1V break3_14.wav
#WAV1W break3_15.wav
#WAV1X break3_16.wav
#WAV1Y break3_17.wav
#WAV1Z break3_18.wav
#WAV20 break3_19.wav
#WAV21 break3_20.wav
#WAV22 break3_21.wav
#WAV23 break3_22.wav
#WAV24 break3_23.wav
#WAV25 break3_24.wav
#WAV26 break3_25.wav
#WAV27 break3_26.wav
#WAV28 break3_27.wav
#WAV29 break3_28.wav
#WAV2A break3_29.wav
#WAV2B break3_30.wav
#WAV2C break3_31.wav
#WAV2D break3_32.wav
#WAV2E break3_33.wav
#WAV2F break3_34.wav
#WAV2G break3_35.wav
#WAV2H break3_36.wav
#WAV2I break3_37.wav
#WAV2J break3_38.wav
#WAV2K break3_39.wav
#WAV2L break3_40.wav
#WAV2M break3_41.wav
#WAV2N break3_42.wav
#WAV2O break4_1.wav
#WAV2P break4_2.wav
#WAV2Q break4_3.wav
#WAV2R break4_4.wav
#WAV2S break4_5.wav
#WAV2T break4_6.wav
#WAV2U break4_7.wav
#WAV2V break4_8.wav
#WAV2W break4_9.wav
#WAV2X break4_10.wav
#WAV2Y break4_11.wav
#WAV2Z break4_12.wav
#WAV30 ens1_1.wav
#WAV31 ens1_2.wav
#WAV32 ens1_3.wav
#WAV33 ens1_4.wav
#WAV34 ens1_5.wav
#WAV35 ens1_6.wav
#WAV36 ens1_7.wav
#WAV37 ens1_8.wav
#WAV38 ens1_9.wav
#WAV39 ens1_10.wav
#WAV3A fx1.wav
#WAV3B synth1_1.wav
#WAV3C synth1_2.wav
#WAV3D synth1_3.wav
#WAV3E synth1_4.wav
#WAV3F synth1_5.wav
#WAV3G synth1_6.wav
#WAV3H synth1_7.wav
#WAV3I synth1_8.wav
#WAV3J synth1_9.wav
#WAV3K synth1_10.wav
#WAV3L synth1_11.wav
#WAV3M synth1_12.wav
#WAV3N synth1_13.wav
#WAV3O synth1_14.wav
#WAV3P synth1_15.wav
#WAV3Q synth1_16.wav
#WAV3R synth1_17.wav
#WAV3S synth1_18.wav
#WAV3T synth1_19.wav
#WAV3U synth1_20.wav
#WAV3V synth1_21.wav
#WAV3W synth1_22.wav
#WAV3X synth1_23.wav
#WAV3Y synth1_24.wav
#WAV3Z synth1_25.wav
#WAV40 synth1_26.wav
#WAV41 synth1_27.wav
#WAV42 synth1_28.wav
#WAV43 synth1_29.wav
#WAV44 synth1_30.wav
#WAV45 synth1_31.wav
#WAV46 synth2_1.wav
#WAV47 synth2_2.wav
#WAV48 synth2_3.wav
#WAV49 synth2_4.wav
#WAV4A synth2_5.wav
#WAV4B synth2_6.wav
#WAV4C synth2_7.wav
#WAV4D synth2_8.wav
#WAV4E synth2_9.wav
#WAV4F synth2_10.wav
#WAV4G synth2_11.wav
#WAV4H synth2_12.wav
#WAV4I synth2_13.wav
#WAV4J synth2_14.wav
#WAV4K synth2_15.wav
#WAV4L synth2_16.wav
#WAV4M synth2_17.wav
#WAV4N synth2_18.wav
#WAV4O synth2_19.wav
#WAV4P synth2_20.wav
#WAV4Q synth2_21.wav
#WAV4R synth2_22.wav
#WAV4S synth2_23.wav
#WAV4T synth2_24.wav
#WAV4U synth2_25.wav
#WAV4V synth2_26.wav
#WAV4W synth2_27.wav
#WAV4X synth2_28.wav
#WAV4Y synth3_1.wav
#WAV4Z synth3_2.wav
#WAV50 synth3_3.wav
#WAV51 synth3_5.wav
#WAV52 synth3_6.wav
#WAV53 synth3_7.wav
#WAV54 synth3_8.wav
#WAV55 synth3_9.wav
#WAV56 synth3_10.wav
#WAV57 synth3_11.wav
#WAV58 synth3_12.wav
#WAV59 synth3_13.wav
#WAV5A synth3_14.wav
#WAV5B synth3_15.wav
#WAV5C synth3_16.wav
#WAV5D synth3_17.wav
#WAV5E synth3_18.wav
#WAV5F synth3_19.wav
#WAV5G synth3_20.wav
#WAV5H synth3_21.wav
#WAV5I synth3_22.wav
#WAV5J synth3_23.wav
#WAV5K synth3_24.wav
#WAV5L synth3_25.wav
#WAV5M synth3_26.wav
#WAV5N synth3_27.wav
#WAV5O synth3_28.wav
#WAV5P synth3_29.wav
#WAV5Q stringsfx1_1.wav
#WAV5R stringsfx1_2.wav
#WAV5S stringsfx1_3.wav
#WAV5T strings1_1.wav
#WAV5U strings1_2.wav
#WAV5V strings1_4.wav
#WAV5W strings1_5.wav
#WAV5X strings1_6.wav
#WAV5Y strings1_7.wav
#WAV5Z strings1_8.wav
#WAV60 strings1_9.wav
#WAV61 strings1_10.wav
#WAV62 strings1_11.wav
#WAV63 strings1_12.wav
#WAV64 strings1_13.wav
#WAV65 strings1_14.wav
#WAV66 strings1_15.wav
#WAV67 strings1_16.wav
#WAV68 strings1_17.wav
#WAV69 strings1_18.wav
#WAV6A strings1_19.wav
#WAV6B strings1_20.wav
#WAV6C strings1_21.wav
#WAV6D strings1_22.wav
#WAV6E strings1_23.wav
#WAV6F strings1_24.wav
#WAV6G strings1_25.wav
#WAV6H strings1_27.wav
#WAV6I strings1_28.wav
#WAV6J strings1_29.wav
#WAV6K strings1_30.wav
#WAV6L strings1_31.wav
#WAV6M strings1_32.wav
#WAV6N strings1_33.wav
#WAV6O strings1_34.wav
#WAV6P strings1_35.wav
#WAV6Q strings1_36.wav
#WAV6R strings1_37.wav
#WAV6S strings1_38.wav
#WAV6T strings1_39.wav
#WAV6U strings1_40.wav
#WAV6V strings1_41.wav
#WAV6W strings2_1.wav
#WAV6X strings2_2.wav
#WAV6Y strings2_3.wav
#WAV6Z strings2_4.wav
#WAV70 strings2_5.wav
#WAV71 strings2_6.wav
#WAV72 strings2_7.wav
#WAV73 strings2_8.wav
#WAV74 strings2_9.wav
#WAV75 strings2_10.wav
#WAV76 strings2_11.wav
#WAV77 strings2_12.wav
#WAV78 strings2_13.wav
#WAV79 strings2_14.wav
#WAV7A strings2_15.wav
#WAV7B strings2_16.wav
#WAV7C strings2_17.wav
#WAV7D strings2_18.wav
#WAV7E strings2_19.wav
#WAV7F strings2_20.wav
#WAV7G strings2_21.wav
#WAV7H strings2_22.wav
#WAV7I strings2_23.wav
#WAV7J strings2_24.wav
#WAV7K strings2_25.wav
#WAV7L strings2_26.wav
#WAV7M strings2_27.wav
#WAV7N strings2_28.wav
#WAV7O strings4_1.wav
#WAV7P strings4_2.wav
#WAV7Q strings4_3.wav
#WAV7R strings4_4.wav
#WAV7S strings4_5.wav
#WAV7T strings4_6.wav
#WAV7U strings4_7.wav
#WAV7V strings4_8.wav
#WAV7W strings4_9.wav
#WAV7X strings4_10.wav
#WAV7Y strings4_11.wav
#WAV7Z strings4_12.wav
#WAV80 strings4_13.wav
#WAV81 strings4_14.wav
#WAV82 strings4_15.wav
#WAV83 strings4_16.wav
#WAV84 strings4_17.wav
#WAV85 strings4_18.wav
#WAV86 strings4_19.wav
#WAV87 strings4_20.wav
#WAV88 strings4_21.wav
#WAV89 strings4_22.wav
#WAV8A strings4_23.wav
#WAV8B strings4_24.wav
#WAV8C strings4_25.wav
#WAV8D strings4_26.wav
#WAV8E strings4_27.wav
#WAV8F strings4_28.wav
#WAV8G strings4_29.wav
#WAV8H strings4_30.wav
#WAV8I strings4_31.wav
#WAV8J strings4_32.wav
#WAV8K strings4_33.wav
#WAV8L strings4_34.wav
#WAV8M strings4_35_bgm.wav
#WAV8N strings4_36.wav
#WAV8O strings4_37.wav
#WAV8P strings4_38.wav
#WAV8Q strings4_39.wav
#WAV8R strings4_40.wav
#WAV8S strings4_41.wav
#WAV8T strings4_42.wav
#WAV8U strings7_1.wav
#WAV8V strings7_2.wav
#WAV8W strings7_3.wav
#WAV8X strings7_4.wav
#WAV8Y strings7_5.wav
#WAV8Z strings7_6.wav
#WAV90 strings7_7.wav
#WAV91 strings7_8.wav
#WAV92 strings7_9.wav
#WAV93 strings7_10.wav
#WAV94 strings7_11.wav
#WAV95 strings7_12.wav
#WAV96 strings7_13.wav
#WAV97 strings7_14.wav
#WAV98 strings7_15.wav
#WAV99 strings7_16.wav
#WAV9A strings7_17.wav
#WAV9B strings7_18.wav
#WAV9C strings7_19.wav
#WAV9D strings7_20.wav
#WAV9E strings7_21.wav
#WAV9F strings7_22.wav
#WAV9G strings7_23.wav
#WAV9H strings7_24.wav
#WAV9I strings8_1.wav
#WAV9J strings8_2.wav
#WAV9K strings8_3.wav
#WAV9L strings8_4.wav
#WAV9M strings8_5.wav
#WAV9N strings8_6.wav
#WAV9O strings8_7.wav
#WAV9P strings8_8.wav
#WAV9Q strings8_9.wav
#WAV9R strings8_10.wav
#WAV9S strings8_11.wav
#WAV9T strings8_12.wav
#WAV9U strings8_13.wav
#WAV9V strings8_14.wav
#WAV9W strings8_15.wav
#WAV9X strings8_16.wav
#WAV9Y strings8_17.wav
#WAV9Z strings8_18.wav
#WAVA0 strings8_19.wav
#WAVA1 strings8_20.wav
#WAVA2 strings8_21.wav
#WAVA3 strings8_22.wav
#WAVA4 strings8_23.wav
#WAVA5 strings8_24.wav
#WAVA6 strings8_25.wav
#WAVA7 strings8_26.wav
#WAVA8 strings8_27.wav
#WAVA9 strings8_28.wav
#WAVAA strings8_29.wav
#WAVAB strings8_30.wav
#WAVAC strings8_31.wav
#WAVAD strings8_32.wav
#WAVAE strings8_33.wav
#WAVAF strings8_34.wav
#WAVAG strings8_35.wav
#WAVAH strings8_36.wav
#WAVAI strings8_37.wav
#WAVAJ strings8_38.wav
#WAVAK strings8_39.wav
#WAVAL strings8_40.wav
#WAVAM strings8_41.wav
#WAVAN strings8_42.wav
#WAVAO strings8_43.wav
#WAVAP strings9_1.wav
#WAVAQ strings9_2.wav
#WAVAR strings9_3.wav
#WAVAS strings9_4.wav
#WAVAT strings9_5.wav
#WAVAU strings9_6.wav
#WAVAV strings9_7.wav
#WAVAW strings9_8.wav
#WAVAX strings9_9.wav
#WAVAY strings9_10.wav
#WAVAZ strings9_11.wav
#WAVB0 strings9_12.wav
#WAVB1 strings9_13.wav
#WAVB2 strings9_14.wav
#WAVB3 strings9_15.wav
#WAVB4 strings9_16.wav
#WAVB5 strings9_17.wav
#WAVB6 strings9_18.wav
#WAVB7 strings9_19.wav
#WAVB8 strings9_20.wav
#WAVB9 strings9_21.wav
#WAVBA strings9_22.wav
#WAVBB strings9_23.wav
#WAVBC strings9_24.wav
#WAVBD strings9_25.wav
#WAVBE strings9_26.wav
#WAVBF strings10_1.wav
#WAVBG strings10_2.wav
#WAVBH strings10_3.wav
#WAVBI strings10_4.wav
#WAVBJ strings10_5.wav
#WAVBK strings10_6.wav
#WAVBL strings10_7.wav
#WAVBM strings10_8.wav
#WAVBN strings10_8.wav
#WAVBO strings10_10.wav
#WAVBP strings10_11.wav
#WAVBQ strings10_12.wav
#WAVBR strings10_13.wav
#WAVBS strings10_14.wav
#WAVBT strings11_1.wav
#WAVBU strings11_2.wav
#WAVBV strings11_3.wav
#WAVBW strings11_5.wav
#WAVBX strings11_6.wav
#WAVBY strings11_7.wav
#WAVBZ strings11_8.wav
#WAVC0 strings11_9.wav
#WAVC1 strings11_11.wav
#WAVC2 strings11_12.wav
#WAVC3 strings11_13.wav
#WAVC4 strings11_14.wav
#WAVC5 strings11_15.wav
#WAVC6 strings11_16.wav
#WAVC7 strings11_17.wav
#WAVC8 strings11_18.wav
#WAVC9 strings11_19.wav
#WAVCA strings11_20.wav
#WAVCB strings11_21.wav
#WAVCC strings12_1.wav
#WAVCD strings12_2.wav
#WAVCE strings12_3.wav
#WAVCF strings12_4.wav
#WAVCG strings12_5.wav
#WAVCH strings12_6.wav
#WAVCI strings12_7.wav
#WAVCJ strings12_8.wav
#WAVCK strings12_9.wav
#WAVCL strings12_10.wav
#WAVCM strings12_11.wav
#WAVCN strings12_12.wav
#WAVCO strings12_13.wav
#WAVCP strings12_14.wav
#WAVCQ strings12_15.wav
#WAVCR strings12_16.wav
#WAVCS strings12_18.wav
#WAVCT strings13_1.wav
#WAVCU strings13_2.wav
#WAVCV strings13_3.wav
#WAVCW strings13_4.wav
#WAVCX strings13_5.wav
#WAVCY strings13_6.wav
#WAVCZ strings13_7.wav
#WAVD0 strings13_8.wav
#WAVD1 strings13_9.wav
#WAVD2 strings13_10.wav
#WAVD3 strings13_11.wav
#WAVD4 strings13_12.wav
#WAVD5 strings13_13.wav
#WAVD6 strings13_14.wav
#WAVD7 strings13_15.wav
#WAVD8 strings13_16.wav
#WAVD9 strings13_17.wav
#WAVDA strings14_1.wav
#WAVDB strings14_2.wav
#WAVDC strings14_3.wav
#WAVDD strings14_4.wav
#WAVDE strings14_5.wav
#WAVDF strings14_6.wav
#WAVDG strings14_7.wav
#WAVDH strings14_8.wav
#WAVDI strings14_9.wav
#WAVDJ strings14_10.wav
#WAVDK strings14_11.wav
#WAVDL strings14_12.wav
#WAVDM strings14_13.wav
#WAVDN strings14_14.wav
#WAVDO strings14_15.wav
#WAVDP strings14_16.wav
#WAVDQ strings14_6.wav
#WAVDR strings14_7.wav
#WAVDS strings14_8.wav
#WAVDT chenvalo1_1.wav
#WAVDU chenvalo1_2.wav
#WAVDV chenvalo1_3.wav
#WAVDW chenvalo1_4.wav
#WAVDX chenvalo1_5.wav
#WAVDY chenvalo1_6.wav
#WAVDZ chenvalo1_7.wav
#WAVE0 chenvalo1_8.wav
#WAVE1 chenvalo1_9.wav
#WAVE2 chenvalo1_10.wav
#WAVE3 chenvalo1_11.wav
#WAVE4 chenvalo1_12.wav
#WAVE5 chenvalo1_13.wav
#WAVE6 chenvalo1_14.wav
#WAVE7 chenvalo1_15.wav
#WAVE8 chenvalo2_1.wav
#WAVE9 chenvalo2_2.wav
#WAVEA chenvalo2_3.wav
#WAVEB chenvalo2_4.wav
#WAVEC chenvalo2_5.wav
#WAVED chenvalo2_6.wav
#WAVEE chenvalo2_7.wav
#WAVEF chenvalo3_1.wav
#WAVEG chenvalo3_2.wav
#WAVEH chenvalo3_3.wav
#WAVEI chenvalo3_4.wav
#WAVEJ chenvalo3_5.wav
#WAVEK chenvalo3_6.wav
#WAVEL chenvalo3_7.wav
#WAVEM chenvalo3_8.wav
#WAVEN chenvalo3_9.wav
#WAVEO chenvalo3_10.wav
#WAVEP chenvalo3_11.wav
#WAVEQ chenvalo3_12.wav
#WAVER chenvalo3_13.wav
#WAVES chenvalo3_14.wav
#WAVET chenvalo3_15.wav
#WAVEU chenvalo3_16.wav
#WAVEV chenvalo3_17.wav
#WAVEW chenvalo3_18.wav
#WAVEX chenvalo3_19.wav
#WAVEY chenvalo3_20.wav
#WAVEZ chenvalo3_21.wav
#WAVF0 chenvalo3_22.wav
#WAVF1 chenvalo3_23.wav
#WAVF2 chenvalo3_24.wav
#WAVF3 chenvalo3_25.wav
#WAVF4 chenvalo3_26.wav
#WAVF5 chenvalo3_27.wav
#WAVF6 chenvalo3_28.wav
#WAVF7 chenvalo3_29.wav
#WAVF8 chenvalo3_30.wav
#WAVF9 chenvalo3_31.wav
#WAVFA chenvalo3_32.wav
#WAVFB chenvalo3_33.wav
#WAVFC chenvalo3_34.wav
#WAVFD chenvalo3_35.wav
#WAVFE chenvalo4_1.wav
#WAVFF chenvalo4_2.wav
#WAVFG chenvalo4_3.wav
#WAVFH chenvalo4_4.wav
#WAVFI chenvalo4_5.wav
#WAVFJ chenvalo4_6.wav
#WAVFK chenvalo4_7.wav
#WAVFL chenvalo4_8.wav
#WAVFM chenvalo4_9.wav
#WAVFN chenvalo4_10.wav
#WAVFO chenvalo5_1.wav
#WAVFP chenvalo5_2.wav
#WAVFQ chenvalo5_3.wav
#WAVFR chenvalo5_4.wav
#WAVFS chenvalo5_5.wav
#WAVFT chenvalo5_6.wav
#WAVFU chenvalo5_7.wav
#WAVFV chenvalo5_8.wav
#WAVFW chenvalo5_9.wav
#WAVFX chenvalo5_10.wav
#WAVFY chenvalo5_11.wav
#WAVFZ chenvalo5_12.wav
#WAVG0 chenvalo5_13.wav
#WAVG1 chenvalo5_14.wav
#WAVG2 chenvalo5_15.wav
#WAVG3 chenvalo5_16.wav
#WAVG4 chenvalo5_17.wav
#WAVG5 chenvalo5_18.wav
#WAVG6 chenvalo5_19.wav
#WAVG7 chenvalo5_20.wav
#WAVG8 chenvalo5_21.wav
#WAVG9 chenvalo5_22.wav
#WAVGA chenvalo5_23.wav
#WAVGB chenvalo5_24.wav
#WAVGC chenvalo5_25.wav
#WAVGD chenvalo5_26.wav
#WAVGE chenvalo6_1.wav
#WAVGF chenvalo6_2.wav
#WAVGG chenvalo6_3.wav
#WAVGH chenvalo6_4.wav
#WAVGI chenvalo6_5.wav
#WAVGJ chenvalo6_6.wav
#WAVGK chenvalo6_7.wav
#WAVGL chenvalo6_8.wav
#WAVGM chenvalo6_9.wav
#WAVGN chenvalo6_10.wav
#WAVGO chenvalo6_11.wav
#WAVGP chenvalo6_12.wav
#WAVGQ chenvalo6_13.wav
#WAVGR chor1_1.wav
#WAVGS chor2_1.wav
#WAVGT chor2_2.wav
#WAVGU chor2_3.wav
#WAVGV chor2_4.wav
#WAVGW chor2_5.wav
#WAVGX chor2_6.wav
#WAVGY chor2_7.wav
#WAVGZ chor2_8.wav
#WAVH0 chor2_9.wav
#WAVH1 chor2_10.wav
#WAVH2 chor2_11.wav
#WAVH3 chor2_12.wav
#WAVH4 chor2_13.wav
#WAVH5 chor2_14.wav
#WAVH6 chor2_15.wav
#WAVH7 chor2_16.wav
#WAVH8 chor3_1.wav
#WAVH9 glissando1.wav
#WAVHA harp1_1.wav
#WAVHB harp1_2.wav
#WAVHC harp1_3.wav
#WAVHD harp1_4.wav
#WAVHE harp1_5.wav
#WAVHF harp1_6.wav
#WAVHG harp1_7.wav
#WAVHH harp1_8.wav
#WAVHI harp1_9.wav
#WAVHJ celesta1_1.wav
#WAVHK celesta1_2.wav
#WAVHL celesta1_3.wav
#WAVHM celesta1_4.wav
#WAVHN celesta1_5.wav
#WAVHO celesta1_6.wav
#WAVHP celesta1_7.wav
#WAVHQ celesta1_8.wav
#WAVHR celesta1_9.wav
#WAVHS celesta1_10.wav
#WAVHT celesta1_11.wav
#WAVHU celesta1_12.wav
#WAVHV celesta1_13.wav
#WAVHW celesta1_14.wav
#WAVHX celesta1_15.wav
#WAVHY piano1_1.wav
#WAVHZ piano1_2.wav
#WAVI0 piano1_3.wav
#WAVI1 piano1_4.wav
#WAVI2 piano1_5.wav
#WAVI3 piano1_6.wav
#WAVI4 piano1_7.wav
#WAVI5 piano1_8.wav
#WAVI6 piano1_9.wav
#WAVI7 piano1_10.wav
#WAVI8 piano1_11.wav
#WAVI9 piano1_12.wav
#WAVIA piano1_13.wav
#WAVIB piano1_14.wav
#WAVIC piano1_15.wav
#WAVID piano1_16.wav
#WAVIE piano1_17.wav
#WAVIF piano1_18.wav
#WAVIG piano1_19.wav
#WAVIH piano1_20.wav
#WAVII piano1_21.wav
#WAVIJ piano1_22.wav
#WAVIK piano1_23.wav
#WAVIL piano1_24.wav
#WAVIM piano2_1.wav
#WAVIN piano2_2.wav
#WAVIO piano2_3.wav
#WAVIP piano2_4.wav
#WAVIQ piano2_5.wav
#WAVIR piano2_6.wav
#WAVIS piano2_7.wav
#WAVIT piano2_8.wav
#WAVIU piano2_9.wav
#WAVIV piano2_10.wav
#WAVIW piano2_11.wav
#WAVIX piano2_12.wav
#WAVIY piano2_13.wav
#WAVIZ piano2_14.wav
#WAVJ0 piano2_15.wav
#WAVJ1 piano2_16.wav
#WAVJ2 piano2_17.wav
#WAVJ3 piano2_18.wav
#WAVJ4 piano2_19.wav
#WAVJ5 piano2_21.wav
#WAVJ6 piano2_23.wav
#WAVJ7 piano2_24.wav
#WAVJ8 piano2_25.wav
#WAVJ9 piano2_26.wav
#WAVJA piano2_27.wav
#WAVJB piano2_28.wav
#WAVJC piano2_29.wav
#WAVJD piano2_30.wav
#WAVJE piano2_31.wav
#WAVJF piano2_32.wav
#WAVJG piano2_33.wav
#WAVJH piano2_34.wav
#WAVJI piano3_1.wav
#WAVJJ piano3_2.wav
#WAVJK piano3_3.wav
#WAVJL piano3_4.wav
#WAVJM piano3_5.wav
#WAVJN piano3_6.wav
#WAVJO piano3_7.wav
#WAVJP piano3_8.wav
#WAVJQ piano3_9.wav
#WAVJR piano3_10.wav
#WAVJS piano3_11.wav
#WAVJT piano3_12.wav
#WAVJU piano3_13.wav
#WAVJV piano3_14.wav
#WAVJW piano3_15.wav
#WAVJX piano3_16.wav
#WAVJY piano3_17.wav
#WAVJZ piano3_18.wav
#WAVK0 piano3_19.wav
#WAVK1 piano3_20.wav
#WAVK2 piano3_21.wav
#WAVK3 piano3_22.wav
#WAVK4 piano3_23.wav
#WAVK5 piano3_24.wav
#WAVK6 piano3_25.wav
#WAVK7 piano3_26.wav
#WAVK8 piano3_27.wav
#WAVK9 piano3_28.wav
#WAVKA piano3_29.wav
#WAVKB piano3_30.wav
#WAVKC piano3_31.wav
#WAVKD piano3_32.wav
#WAVKE piano3_33.wav
#WAVKF piano3_34.wav
#WAVKG piano3_35.wav
#WAVKH piano3_36.wav
#WAVKI piano3_37.wav
#WAVKJ piano3_38.wav
#WAVKK piano3_39.wav
#WAVKL piano3_40.wav
#WAVKM piano3_41.wav
#WAVKN piano3_42.wav
#WAVKO piano3_43.wav
#WAVKP piano4_1.wav
#WAVKQ piano4_2.wav
#WAVKR piano4_3.wav
#WAVKS piano4_4.wav
#WAVKT piano4_5.wav
#WAVKU piano4_6.wav
#WAVKV piano4_7.wav
#WAVKW piano4_8.wav
#WAVKX piano4_9.wav
#WAVKY piano4_10.wav
#WAVKZ piano4_11.wav
#WAVL0 piano4_12.wav
#WAVL1 piano4_13.wav
#WAVL2 piano4_14.wav
#WAVL3 piano4_15.wav
#WAVL4 piano4_16.wav
#WAVL5 piano4_17.wav
#WAVL6 piano4_18.wav
#WAVL7 piano4_19.wav
#WAVL8 piano4_20.wav
#WAVL9 piano4_21.wav
#WAVLA piano4_22.wav
#WAVLB piano4_23.wav
#WAVLC piano4_24.wav
#WAVLD piano4_25.wav
#WAVLE piano4_26.wav
#WAVLF piano4_27.wav
#WAVLG piano4_28.wav
#WAVLH piano4_29.wav
#WAVLI piano4_30.wav
#WAVLJ piano4_31.wav
#WAVLK piano4_32.wav
#WAVLL piano4_33.wav
#WAVLM piano4_34.wav
#WAVLN piano4_35.wav
#WAVLO piano4_36.wav
#WAVLP piano4_37.wav
#WAVLQ piano4_38.wav
#WAVLR piano4_39.wav
#WAVLS piano4_40.wav
#WAVLT piano4_41.wav
#WAVLU piano4_42.wav
#WAVLV piano4_43.wav
#WAVLW piano4_44.wav
#WAVLX piano4_45.wav
#WAVLY piano4_46.wav
#WAVLZ piano4_47.wav
#WAVM0 piano4_48.wav
#WAVM1 piano4_49.wav
#WAVM2 piano5_1.wav
#WAVM3 piano5_2.wav
#WAVM4 piano5_3.wav
#WAVM5 piano5_4.wav
#WAVM6 piano5_5.wav
#WAVM7 piano5_6.wav
#WAVM8 piano5_7.wav
#WAVM9 piano5_8.wav
#WAVMA piano5_9.wav
#WAVMB piano5_10.wav
#WAVMC piano5_11.wav
#WAVMD piano5_12.wav
#WAVME piano5_13.wav
#WAVMF piano5_14.wav
#WAVMG piano6_1.wav
#WAVMH piano6_2.wav
#WAVMI piano6_3.wav
#WAVMJ piano6_4.wav
#WAVMK piano6_5.wav
#WAVML piano6_6.wav
#WAVMM piano6_7.wav
#WAVMN piano6_8.wav
#WAVMO piano6_9.wav
#WAVMP piano6_10.wav
#WAVMQ piano6_11.wav
#WAVMR piano6_12.wav
#WAVMS piano6_13.wav
#WAVMT piano6_14.wav
#WAVMU piano6_15.wav
#WAVMV piano6_16.wav
#WAVMW piano6_17.wav
#WAVMX piano6_18.wav
#WAVMY piano6_19.wav
#WAVMZ piano6_20.wav
#WAVN0 piano6_21.wav
#WAVN1 piano6_22.wav
#WAVN2 piano6_23.wav
#WAVN3 piano6_24.wav
#WAVN4 piano6_25.wav
#WAVN5 piano6_26.wav
#WAVN6 piano6_27.wav
#WAVN7 piano6_28.wav
#WAVN8 piano6_29.wav
#WAVN9 piano6_30.wav
#WAVNA piano6_31.wav
#WAVNB piano6_32.wav
#WAVNC piano7_1.wav
#WAVND piano7_2.wav
#WAVNE piano7_3.wav
#WAVNF piano7_4.wav
#WAVNG piano7_5.wav
#WAVNH piano7_6.wav
#WAVNI piano7_7.wav
#WAVNJ piano7_8.wav
#WAVNK piano7_9.wav
#WAVNL piano7_10.wav
#WAVNM piano7_11.wav
#WAVNN piano7_12.wav
#WAVNO piano7_13.wav
#WAVNP piano7_14.wav
#WAVNQ piano7_15.wav
#WAVNR piano7_16.wav
#WAVNS piano7_17.wav
#WAVNT piano7_18.wav
#WAVNU piano7_19.wav
#WAVNV piano7_20.wav
#WAVNW piano7_21.wav
#WAVNX piano7_22.wav
#WAVNY piano7_23.wav
#WAVNZ piano7_24.wav
#WAVO0 piano7_25.wav
#WAVO1 piano7_26.wav
#WAVO2 piano7_27.wav
#WAVO3 piano7_28.wav
#WAVO4 piano7_29.wav
#WAVO5 piano7_30.wav
#WAVO6 piano7_31.wav
#WAVO7 piano7_32.wav
#WAVO8 piano7_33.wav
#WAVO9 piano7_34.wav
#WAVOA piano7_35.wav
#WAVOB piano7_36.wav
#WAVOC piano7_37.wav
#WAVOD piano7_38.wav
#WAVOE piano7_39.wav
#WAVOF piano8_1.wav
#WAVOG piano8_2.wav
#WAVOH piano8_3.wav
#WAVOI piano8_4.wav
#WAVOJ piano8_5.wav
#WAVOK piano8_6.wav
#WAVOL piano8_7.wav
#WAVOM piano8_8.wav
#WAVON piano8_9.wav
#WAVOO piano8_10.wav
#WAVOP piano8_11.wav
#WAVOQ piano8_12.wav
#WAVOR piano8_14.wav
#WAVOS piano8_15.wav
#WAVOT piano8_16.wav
#WAVOU piano8_17.wav
#WAVOV piano8_18.wav
#WAVOW piano8_19.wav
#WAVOX piano8_20.wav
#WAVOY piano8_21.wav
#WAVOZ piano8_22.wav
#WAVP0 piano8_23.wav
#WAVP1 piano8_24.wav
#WAVP2 piano8_25.wav
#WAVP3 piano8_26.wav
#WAVP4 piano8_27.wav
#WAVP5 piano8_28.wav
#WAVP6 piano8_29.wav
#WAVP7 piano8_30.wav
#WAVP8 piano8_31.wav
#WAVP9 piano8_32.wav
#WAVPA piano8_33.wav
#WAVPB piano8_34.wav
#WAVPC piano8_35.wav
#WAVPD piano8_36.wav
#WAVPE piano9_1.wav
#WAVPF piano9_2.wav
#WAVPG piano9_3.wav
#WAVPH piano9_4.wav
#WAVPI piano9_5.wav
#WAVPJ piano9_6.wav
#WAVPK piano9_7.wav
#WAVPL piano9_8.wav
#WAVPM piano9_9.wav
#WAVPN piano9_10.wav
#WAVPO piano9_11.wav
#WAVPP piano9_12.wav
#WAVPQ piano9_13.wav
#WAVPR piano9_14.wav
#WAVPS piano9_15.wav
#WAVPT piano9_16.wav
#WAVPU piano9_17.wav
#WAVPV piano9_18.wav
#WAVPW piano9_19.wav
#WAVPX piano9_20.wav
#WAVPY piano9_21.wav
#WAVPZ piano9_22.wav
#WAVQ0 pianoadrib1_1.wav
#WAVQ1 pianoadrib1_2.wav
#WAVQ2 pianoadrib1_3.wav
#WAVQ3 pianoadrib1_4.wav
#WAVQ4 pianoadrib1_5.wav
#WAVQ5 pianoadrib1_6.wav
#WAVQ6 pianoadrib1_7.wav
#WAVQ7 pianoadrib1_8.wav
#WAVQ8 pianoadrib1_9.wav
#WAVQ9 pianoadrib1_10.wav
#WAVQA pianoadrib1_11.wav
#WAVQB pianoadrib1_12.wav
#WAVQC pianoadrib1_13.wav
#WAVQD pianoadrib1_14.wav
#WAVQE pianoadrib1_15.wav
#WAVQF pianoadrib1_16.wav
#WAVQG pianoadrib1_17.wav
#WAVQH pianoadrib1_18.wav
#WAVQI pianoadrib1_19.wav
#WAVQJ pianoadrib1_20.wav
#WAVQK pianoadrib1_21.wav
#WAVQL pianoadrib1_22.wav
#WAVQM pianoadrib1_23.wav
#WAVQN pianoadrib1_24.wav
#WAVQO pianoadrib1_25.wav
#WAVQP pianoadrib1_26.wav
#WAVQQ pianoadrib1_27.wav
#WAVQR pianoadrib1_28.wav
#WAVQS pianoadrib1_29.wav
#WAVQT pianoadrib1_30.wav
#WAVQU pianoadrib1_31.wav
#WAVQV pianoadrib1_32.wav
#WAVQW pianoadrib1_33.wav
#WAVQX pianoadrib1_34.wav
#WAVQY pianoadrib1_35.wav
#WAVQZ pianoadrib1_36.wav
#WAVR0 pianoadrib1_37.wav
#WAVR1 pianoadrib1_38.wav
#WAVR2 pianoadrib1_39.wav
#WAVR3 pianoadrib1_40.wav
#WAVR4 pianoadrib1_41.wav
#WAVR5 pianoadrib1_42.wav
#WAVR6 pianoadrib1_43.wav
#WAVR7 pianoadrib1_44.wav
#WAVR8 pianoadrib1_45.wav
#WAVR9 pianoadrib1_46.wav
#WAVRA pianoadrib1_47.wav
#WAVRB pianoadrib1_48.wav
#WAVRC pianoadrib1_49.wav
#WAVRD pianoadrib1_50.wav
#WAVRE pianoadrib1_64.wav
#WAVRF pianoadrib1_51.wav
#WAVRG pianoadrib1_52.wav
#WAVRH pianoadrib1_53.wav
#WAVRI pianoadrib1_54.wav
#WAVRJ pianoadrib1_55.wav
#WAVRK pianoadrib1_56.wav
#WAVRL pianoadrib1_57.wav
#WAVRM pianoadrib1_58.wav
#WAVRN pianoadrib1_59.wav
#WAVRO pianoadrib1_60.wav
#WAVRP pianoadrib1_61.wav
#WAVRQ pianoadrib1_62.wav
#WAVRR pianoadrib1_63.wav
#WAVRS piano10_1.wav
#WAVRT piano10_2.wav
#WAVRU piano10_3.wav
#WAVRV piano10_4.wav
#WAVRW piano10_5.wav
#WAVRX piano10_6.wav
#WAVRY piano10_7.wav
#WAVRZ piano10_8.wav
#WAVS0 piano10_9.wav
#WAVS1 piano10_10.wav
#WAVS2 piano11_1.wav
#WAVS3 piano11_2.wav
#WAVS4 piano11_3.wav
#WAVS5 piano11_4.wav
#WAVS6 piano11_5.wav
#WAVS7 piano11_6.wav
#WAVS8 piano11_7.wav
#WAVS9 piano11_8.wav
#WAVSA piano11_9.wav
#WAVSB piano11_10.wav
#WAVSC piano11_11.wav
#WAVSD piano11_12.wav
#WAVSE piano11_13.wav
#WAVSF piano11_14.wav
#WAVSG piano11_15.wav
#WAVSH synthlo1_168_000.wav
#WAVSI synthlo1_168_001.wav
#WAVSJ synthlo1_168_002.wav
#WAVSK synthlo1_168_003.wav
#WAVSL synthlo1_168_004.wav
#WAVSM synthlo1_168_005.wav
#WAVSN synthlo1_168_006.wav
#WAVSO synthlo1_168_007.wav
#WAVSP synthlo1_168_008.wav
#WAVSQ synthl1_0170_000.wav
#WAVSR synthl1_0170_001.wav
#WAVSS synthl1_0170_002.wav
#WAVST synthl1_0170_003.wav
#WAVSU synthl1_0170_004.wav
#WAVSV synthl1_172_000.wav
#WAVSW synthl1_172_001.wav
#WAVSX synthl1_172_002.wav
#WAVSY synthl1_172_003.wav
#WAVSZ synthl1_172_004.wav
#WAVT0 synthl1_172_005.wav
#WAVT1 synthl1_172_006.wav
#WAVT2 synthl1_172_007.wav
#WAVT3 synthl1_172_008.wav
#WAVT4 synthl1_174_000.wav
#WAVT5 synthl1_174_001.wav
#WAVT6 synthl1_174_002.wav
#WAVT7 synthl1_174_003.wav
#WAVT8 synthl1_174_004.wav
#WAVT9 synthl1_174_005.wav
#WAVTA synthl1_174_006.wav
#WAVTB synthlo2_172_000.wav
#WAVTC synthlo2_172_001.wav
#WAVTD synthlo2_172_002.wav
#WAVTE synthlo2_172_003.wav
#WAVTF synthlo2_172_004.wav
#WAVTG synthlo2_172_005.wav
#WAVTH synthlo2_172_006.wav
#WAVTI synthlo2_172_007.wav
#WAVTJ synthlo2_172_008.wav
#WAVTK synthlo2_172_009.wav
#WAVTL synthlo2_172_010.wav
#WAVTM synthlo2_172_011.wav
#WAVTN synthlo2_172_012.wav
#WAVTO synthlo2_172_013.wav
#WAVTP synthlo2_172_014.wav
#WAVTQ synthlo2_172_015.wav
#WAVTR synthlo2_172_016.wav
#WAVTS synthlo2_172_017.wav
#WAVTT synthlo2_172_018.wav
#WAVTU synthlo2_172_019.wav
#WAVTV synthlo2_172_020.wav
#WAVTW synthlo2_172_021.wav
#WAVTX synthlo2_172_022.wav
#WAVTY slap_000.wav
#WAVTZ slap_001.wav
#WAVU0 slap_002.wav
#WAVU1 slap_003.wav
#WAVU2 slap_004.wav
#WAVU3 slap_005.wav
#WAVU4 slap_006.wav
#WAVU5 slap2_000.wav
#WAVU6 slap2_001.wav
#WAVU7 slap2_002.wav
#WAVU8 slap2_003.wav
#WAVU9 slap2_004.wav
#WAVUA slap2_005.wav
#WAVUB piano9_23.wav
#WAVUC piano9_24.wav
#WAVUD piano9_25.wav
#WAVUE piano9_26.wav
#WAVUF piano9_27.wav
#WAVUG strings34_1_000.wav
#WAVUH strings34_1_001.wav
#WAVUI strings34_1_002.wav
#WAVUJ strings34_1_003.wav
#WAVUK strings34_1_004.wav
#WAVUL strings34_1_005.wav
#WAVUM strings34_1_006.wav
#WAVUN strings34_1_007.wav
#WAVUO strings34_1_008.wav
#WAVUP strings34_1_009.wav
#WAVUQ strings34_1_010.wav
#WAVUR strings34_1_011.wav
#WAVUS strings34_1_012.wav
#WAVUT strings34_1_013.wav
#WAVUU strings34_1_014.wav
#WAVUV strings34_1_015.wav
#WAVUW strings34_1_016.wav
#WAVUX strings34_1_017.wav
#WAVUY strings34_1_018.wav
#WAVUZ strings34_1_019.wav
#WAVV0 strings34_1_020.wav
#WAVV1 strings34_1_021.wav
#WAVV2 strings34_1_022.wav
#WAVV3 strings34_1_023.wav
#WAVV4 strings34_1_024.wav
#WAVV5 strings34_1_025.wav
#WAVV6 strings34_2_000.wav
#WAVV7 strings34_2_001.wav
#WAVV8 strings34_2_002.wav
#WAVV9 strings34_2_003.wav
#WAVVA strings34_2_004.wav
#WAVVB strings34_2_005.wav
#WAVVC strings34_2_006.wav
#WAVVD strings34_2_007.wav
#WAVVE strings34_2_008.wav
#WAVVF strings34_2_009.wav
#WAVVG strings34_2_010.wav
#WAVVH strings34_2_011.wav
#WAVVI strings34_2_012.wav
#WAVVJ strings34_2_013.wav
#WAVVK strings34_2_014.wav
#WAVVL strings34_2_015.wav
#WAVVM strings34_2_016.wav
#WAVVN strings34_2_017.wav
#WAVVO strings34_2_018.wav
#WAVVP strings34_2_019.wav
#WAVVQ strings34_2_020.wav
#WAVVR strings34_2_021.wav
#WAVVS strings34_2_022.wav
#WAVVT strings34_2_023.wav
#WAVVU strings34_2_024.wav
#WAVVV strings34_3_000.wav
#WAVVW strings34_3_001.wav
#WAVVX strings34_3_002.wav
#WAVVY strings34_3_003.wav
#WAVVZ strings34_3_004.wav
#WAVW0 strings34_3_005.wav
#WAVW1 strings34_3_006.wav
#WAVW2 strings34_3_007.wav
#WAVW3 strings34_4_000.wav
#WAVW4 strings34_4_001.wav
#WAVW5 strings34_4_002.wav
#WAVW6 strings34_4_003.wav
#WAVW7 strings34_4_004.wav
#WAVW8 strings34_4_005.wav
#WAVW9 strings34_4_006.wav
#WAVWA strings34_4_007.wav
#WAVWB strings34_5_000.wav
#WAVWC strings34_5_001.wav
#WAVWD strings34_5_002.wav
#WAVWE strings34_5_003.wav
#WAVWF strings34_5_004.wav
#WAVWG strings34_5_005.wav
#WAVWH strings34_5_006.wav
#WAVWI strings34_5_007.wav
#WAVWJ piano34_1_000.wav
#WAVWK piano34_1_001.wav
#WAVWL piano34_1_002.wav
#WAVWM piano34_1_003.wav
#WAVWN piano34_1_004.wav
#WAVWO piano34_1_005.wav
#WAVWP piano34_1_006.wav
#WAVWQ piano34_1_007.wav
#WAVWR piano34_1_008.wav
#WAVWS piano34_1_009.wav
#WAVWT piano34_1_010.wav
#WAVWU piano34_1_011.wav
#WAVWV piano34_1_012.wav
#WAVWW piano34_1_013.wav
#WAVWX piano34_1_014.wav
#WAVWY piano34_1_015.wav
#WAVWZ piano34_1_016.wav
#WAVX0 piano34_1_017.wav
#WAVX1 piano34_1_018.wav
#WAVX2 piano34_1_019.wav
#WAVX3 piano34_1_020.wav
#WAVX4 piano34_1_021.wav
#WAVX5 piano34_1_022.wav
#WAVX6 piano34_1_023.wav
#WAVX7 piano34_1_024.wav
#WAVX8 piano34_1_025.wav
#WAVX9 piano34_1_026.wav
#WAVXA piano34_6_000.wav
#WAVXB piano34_6_001.wav
#WAVXC piano34_6_002.wav
#WAVXD piano34_6_003.wav
#WAVXE piano34_6_004.wav
#WAVXF piano34_6_005.wav
#WAVXG piano34_6_006.wav
#WAVXH piano34_6_007.wav
#WAVXI piano34_6_008.wav
#WAVXJ piano34_6_009.wav
#WAVXK piano34_6_010.wav
#WAVXL piano34_6_011.wav
#WAVXM piano34_6_012.wav
#WAVXN piano34_6_013.wav
#WAVXO piano34_6_014.wav
#WAVXP piano34_6_015.wav
#WAVXQ piano34_6_016.wav
#WAVXR piano34_6_017.wav
#WAVXS piano34_6_018.wav
#WAVXT piano34_6_019.wav
#WAVXU piano34_6_020.wav
#WAVXV piano34_6_021.wav
#WAVXW piano34_6_022.wav
#WAVXX piano34_6_023.wav
#WAVXY piano34_6_024.wav
#WAVXZ piano34_6_025.wav
#WAVY0 piano34_6_026.wav
#WAVY1 piano34_6_027.wav
#WAVY2 piano34_6_028.wav
#WAVY3 piano34_6_029.wav
#WAVY4 piano34_6_030.wav
#WAVY5 piano34_6_031.wav
#WAVY6 piano34_6_032.wav
#WAVY7 piano34_9_000.wav
#WAVY8 piano34_9_001.wav
#WAVY9 piano34_9_002.wav
#WAVYA piano34_9_003.wav
#WAVYB piano34_9_004.wav
#WAVYC piano34_9_005.wav
#WAVYD piano34_9_006.wav
#WAVYE piano34_9_007.wav
#WAVYF piano34_9_008.wav
#WAVYG piano34_9_009.wav
#WAVYH piano34_9_010.wav
#WAVYI piano34_9_011.wav
#WAVYJ piano34_9_012.wav
#WAVYK pianost22_000.wav
#WAVYL pianost22_001.wav
#WAVYM pianost22_002.wav
#WAVYN pianost22_003.wav
#WAVYO pianost22_004.wav
#WAVYP pianost22_005.wav
#WAVYQ pianost22_006.wav
#WAVYR pianost22_007.wav
#WAVYS pianost22_008.wav
#WAVYT pianost22_009.wav
#WAVYU pianost22_010.wav
#WAVYV pianost22_011.wav
#WAVYW pianost22_012.wav
#WAVYX pianost22_013.wav
#WAVYY pianost22_014.wav
#WAVYZ pianost22_015.wav
#WAVZ0 pianost22_016.wav
#WAVZ1 pianost22_017.wav
#WAVZ2 pianost22_018.wav
#WAVZ3 pianost22_019.wav
#WAVZ4 pianost22_020.wav
#WAVZ5 pianost22_021.wav
#WAVZ6 pianost22_022.wav
#WAVZ7 pianost22_023.wav
#WAVZ8 pianost22_024.wav
#WAVZ9 pianost22_025.wav
#WAVZA pianost22_026.wav
#WAVZB pianost22_027.wav
#WAVZC pianost22_028.wav
#WAVZD pianost22_1_000.wav
#WAVZE pianost22_1_001.wav
#WAVZF pianost22_1_002.wav
#WAVZG pianost22_2_000.wav
#WAVZH pianost22_2_001.wav
#WAVZI pianost22_2_002.wav
#WAVZJ pianost22_3_000.wav
#WAVZK pianost22_3_001.wav
#WAVZL pianost22_3_002.wav
#WAVZM bgm2.wav
#WAVZN bgm6.wav
#WAVZO bgm22.wav
#WAVZP bgm34.wav
#WAVZQ bgm50.wav
#WAVZR bgm58.wav
#WAVZS bgm72.wav
#WAVZT bgm90.wav
#WAVZU celesta1_2.wav
#WAVZV celesta1_7.wav
#WAVZW celesta1_1.wav
#WAVZX celesta1_9.wav
#WAVZY celesta1_10.wav
#BMP01 _bga.mpg
#SUBARTIST Movie:<3A>z<EFBFBD>N / Illust:<3A>Z<EFBFBD>V<EFBFBD><56><EFBFBD><EFBFBD><EFBFBD>^<5E>C<EFBFBD>g / obj:monaka
#BACKBMP _backbmp.png
#DIFFICULTY 5
#BANNER _banner.png
*---------------------- MAIN DATA FIELD
#00002:0.0625
#00103:9A
#00104:0001
#00201:00
#00201:00
#00201:00
#00201:00
#00201:00
#00201:00
#00201:00
#00201:00
#00201:00
#00201:00
#00201:00
#00201:00
#00201:00
#00201:00
#00201:00
#00201:00
#00201:00
#00201:00
#00201:00
#00201:00
#00201:00
#00201:00
#00201:00
#00201:00
#00201:00
#00201:00
#00201:00
#00201:00
#00201:00
#00201:00
#00201:00
#00201:ZM
#00203:009C
#00211:3A
#00212:00000000000000ZU
#00213:HP00000000HK0000
#00214:000000ZU00000000
#00215:00HK00000000HR00
#00218:00HS
#00219:00HU0000
#00303:A0A4
#00311:00HK000000000000
#00312:0000000000HK0000
#00313:00ZV0000
#00314:HP000000000000HO
#00315:000000HR00000000
#00318:000000HP
#00319:00HS
#00401:00
#00401:0U00000000000R00000S000000000S000R000S00000R00000000000S00000T00000R00000S00000T00000000000R0000
#00403:A8AC
#00411:020R0200
#00412:000000HS
#00413:00HJ0000HP000000
#00414:000000ZW000000HU
#00415:ZV00000000HR0000
#00416:0A0B
#00418:00HL0000
#00419:HYHY
#00501:00
#00501:0U000S0R0T000R0S0U00000000000000
#00501:00
#00501:00
#00501:00
#00501:00
#00501:00
#00501:00
#00501:00
#00501:00
#00501:00
#00501:00
#00501:00
#00501:00
#00501:00
#00501:00
#00501:00
#00501:00
#00501:00000000000000000000005T00005U00
#00501:00
#00501:00
#00501:00
#00501:00
#00501:00
#00501:00
#00501:00
#00501:00
#00501:00
#00501:00
#00501:0000000000000000U500U6U700U8U9UA
#00503:AD
#00511:02020200
#00512:000000000000HP00000000DT00000000
#00513:I100I100I20000DU
#00515:HZ00HZ00I00000I4
#00516:0C0C0D00
#00518:0000HM0000000000000000I300000000
#00519:ZYHRZX00
#00601:00
#00601:00
#00601:0I000000000000000I00000I0I000000
#00601:00000000000J000J
#00601:00
#00601:0N0N0N0N
#00601:00
#00601:I5I6I7I6I5I6I800
#00601:00
#00601:00
#00601:00
#00601:00
#00601:00
#00601:00
#00601:00
#00601:00
#00601:00
#00601:00
#00601:006T6S6T6R006S00
#00601:6R000000006T006T
#00601:5V
#00601:00
#00601:00
#00601:00
#00601:00
#00601:00
#00601:00
#00601:00
#00601:00
#00601:00
#00601:GR
#00601:ZN
#00603:AC
#00611:0200020002000303
#00612:00000J0000000J000S000R0S000000IQ
#00613:DV0000000I0000IN0000IQ00DY000000
#00614:00000R0S0000DW0000IP00000R000U00
#00615:IM000000DX000000IO0000IR00000000
#00616:08
#00618:0000DW0000000S0R0000DW000000IR00
#00619:0U0RDVIS
#00701:00
#00701:00
#00701:0I0000000I0000000I0I000I0I000000
#00701:000J000J000J000J
#00701:00
#00701:0N0N0N0N
#00701:00
#00701:I5I6I7I6I5I6I900
#00701:00
#00701:00000000000000005V5W000000000000
#00701:000000DZ
#00701:00
#00701:00
#00701:00
#00701:00
#00701:00
#00701:00
#00701:00
#00701:6R6S6R6U
#00701:006T006T006T006T
#00701:00
#00701:0000006V
#00711:02000000020000000200000403000300
#00712:00IU0000DV5X0061
#00713:DV0000000R000S0R0000005Y00000000
#00714:0000DW00DX0000000S000R0000600060
#00715:0U000R0S0000IX00000000005Z000000
#00718:0000IW00IYDW000U
#00719:IT0000IV0000DW000000000S0R000000
#00801:00
#00801:00
#00801:0I000000000000000I000000000000000K0L0M0I00000I000I00000000000000
#00801:000J000J000J000J
#00801:00
#00801:0N0N0N0N
#00801:00
#00801:I5I7I5IA
#00801:00I600I600I60000
#00801:00
#00801:00
#00801:00
#00801:00
#00801:00
#00801:00
#00801:00
#00801:00
#00801:00006S6T6R6T0000
#00801:6R6T000000006S00
#00801:000000000000006T
#00811:02000000020000000200000403000000
#00812:00000R0S000065000000670000006900
#00813:DV0000000R000000DV00000S0R000000
#00814:00DW00DW000RDY0U
#00815:62000000DX000000660000000000IBIC
#00818:0000630000000S0R0000DW0068000000
#00819:0U000000640000000S00000000000404
#00901:00
#00901:00
#00901:0I0000000I0000000I0I000I0I000000
#00901:000J000J000J000J
#00901:00
#00901:0N0N0N0N
#00901:00
#00901:00
#00901:00
#00901:00
#00901:I5I6I7I6I5I6I900
#00901:00
#00901:00
#00901:00
#00901:00
#00901:00
#00901:00
#00901:6A6B6A00
#00901:6R0000006S0000006R006T6C6D006E00
#00911:0200020002000303
#00912:00000R0S00006T000000DW0000000000
#00913:0U000000J00000000S0T00000U000U00
#00914:DV00DW000000DW00000000J100000000
#00915:000000000R000000IZ000R0U0000J200
#00918:IZ006T0000000S0R00000000E1000000
#00919:00000000DX000000DV0000E00000E200
#01001:00
#01001:00
#01001:0I0000000I0000000I00000I00000000
#01001:00
#01001:00
#01001:0N0N0N0N
#01001:000000DY
#01001:00
#01001:00
#01001:00
#01001:I5I6I7I6I5I6I800
#01001:00
#01001:00
#01001:00
#01001:6R6T6S6T6R6T0000
#01001:00
#01001:00
#01001:00
#01001:00
#01001:00
#01001:00
#01001:00
#01001:000000000000000000000000000000000000000000000000000000000000000000000000000000000000000000000000000000000000000000000000000000000000000000000000000000000000000000000000000000006F006G00006H0000
#01001:00
#01001:00
#01001:00
#01001:00
#01001:00
#01001:00
#01001:00
#01001:GR
#01011:0200020002000303
#01012:00DW0000000J000J
#01013:DV0000000R000S0R000000000I000000
#01014:00000J0000000J0000000R0S00000000
#01015:0U000R0S000000000S0000006S000000
#01016:08
#01018:000000DW00DW006T
#01019:J300DX00DV000R0U
#01101:00
#01101:00
#01101:0I0000000I0000000I0I000I0I000000
#01101:000J000J000J000J
#01101:000R0S00
#01101:0N0N0N0N
#01101:00
#01101:00
#01101:00
#01101:00
#01101:I5I6I7I6I5I6I900
#01101:00
#01101:00
#01101:00
#01101:00
#01101:00
#01101:00
#01101:00
#01101:00006R6U
#01101:6R6T6S6T006T006T
#01101:0000006V
#01111:02000000020000000200000403000300
#01112:0000DW0000000S0R00000R0000000000
#01113:DV00006K000000006N000000DZ000000
#01114:006J006M00DW00IX
#01115:0U6LJ4J5
#01118:00000R0S0000DW000000IW0000000000
#01119:6I000000DX000000DV00000S0R000U00
#01201:00
#01201:00
#01201:0I000000000000000000000I0I000000
#01201:000J000J000J000J
#01201:00
#01201:0N0N0N0N
#01201:00
#01201:00
#01201:I5000000I700000000000000000000IG
#01201:0000000000000000I50000ID0000IF00
#01201:00I600I600I6IE00
#01201:00
#01201:00
#01201:00
#01201:00
#01201:00
#01201:00
#01201:00
#01201:6R6S6R6S
#01201:006T006T006T006T
#01201:00
#01201:00
#01201:00
#01201:00
#01201:00000000DX000000000000E3DY000000
#01201:DV000000DV0000E4
#01201:0000DW000000DW000000DW00000000E5
#01211:02000000020000000200000403000000
#01212:0000J80000000T0S00000S000000JG00
#01213:0U000000J80000000R00000U0U0000JH
#01214:000000J900J9000000JD000000JF0000
#01215:J70000000R00JA000I0000JF00000R0S
#01218:00000R0S000000JB0000JE00JG000000
#01219:J60000000I000000JC00000000000404
#01301:00
#01301:6O6P6Q00
#01301:00
#01301:00
#01301:0U0000000R0S0R0S0U00000000000000
#01301:00
#01301:00000000000V0000
#01301:000000IL
#01301:00
#01301:00
#01301:00
#01301:00
#01301:00
#01301:00
#01301:00
#01301:00
#01301:00
#01301:00
#01301:00
#01301:00
#01301:00
#01301:00
#01301:00
#01301:00
#01301:00
#01301:00
#01301:00E70000
#01301:E6E6
#01311:02020200
#01313:00IK0000
#01314:IJIJ
#01315:00II0000
#01316:090C0D0W
#01318:IHIH
#01401:797A
#01401:00
#01401:00
#01401:00
#01401:00
#01401:13001400150016171819140015001617
#01401:00
#01401:00
#01401:00
#01401:00
#01401:00
#01401:00
#01401:00
#01401:00
#01401:00
#01401:00
#01401:6W
#01403:A6A8
#01411:02000000000000JS
#01412:00JS000000JS0000
#01413:JJ0000JS00000000
#01414:00JJ00JL
#01415:JIJK
#01416:08
#01418:00HP00HV
#01419:HSHW
#01501:7B7C
#01501:00
#01501:00
#01501:00
#01501:00
#01501:13001A00150016171819140015001617
#01501:00
#01501:00
#01501:00
#01501:00
#01501:00
#01501:00
#01501:00
#01501:00
#01501:00
#01501:00
#01501:006Y
#01501:6X
#01503:AA
#01511:00000000JN0000KO
#01512:00HU0000
#01513:HV00HTJQ
#01514:0000JM00000000JL
#01515:JL0000HU
#01518:000000JT000000HV
#01519:00JT000000KO0000
#01601:7D7E
#01601:00
#01601:00
#01601:00
#01601:00
#01601:13001400150016171819140015001617
#01601:00
#01601:00
#01601:00
#01601:00
#01601:00
#01601:00
#01601:00
#01601:00
#01601:00
#01601:00
#01601:00
#01601:6Z
#01603:AC
#01611:00KO000000000000
#01612:JM0000JJ000000JJ
#01613:0000JO0000JJ0000
#01614:000000JK
#01615:JKJP
#01618:00HQ00HW
#01619:HWHX
#01701:7F7G
#01701:00
#01701:00
#01701:00
#01701:00
#01701:13001A00150016171819140015001617
#01701:00
#01701:00
#01701:00
#01701:00
#01701:00
#01701:00
#01701:00
#01701:00
#01701:00
#01701:00
#01701:70
#01701:0071
#01703:AE
#01711:00JO00JO00000000
#01712:0000000000HR0000
#01713:000000JM0000HU00
#01714:0000JL00JL0000HV
#01715:JK0000HU00JU0000
#01718:00HVHVJQ
#01719:HW000000000000JR
#01801:00
#01801:00
#01801:00
#01801:00
#01801:00
#01801:13001400150016171819140015001617
#01801:00
#01801:00
#01801:00
#01801:00
#01801:00
#01801:00
#01801:00
#01801:00
#01801:00
#01801:00
#01801:72
#01801:00
#01801:00
#01801:00
#01801:00
#01801:00
#01801:7H
#01803:ACAA
#01811:00KI
#01812:KH00000000K00000
#01813:00000000000000JZ00000000K1000000
#01814:0000000000HP00K2
#01815:HW0000JYJY00HT00
#01818:00000000000000HU
#01819:JV0000JWJX0000000000000000000000
#01901:00
#01901:00
#01901:00
#01901:00
#01901:00
#01901:13001A00150016171819140015001617
#01901:00
#01901:00
#01901:00
#01901:00
#01901:00
#01901:00
#01901:00
#01901:00
#01901:00
#01901:00
#01901:00
#01901:73
#01901:00
#01901:00
#01901:00
#01901:7I
#01903:A8A7
#01911:0000KJKK
#01912:0000000000K00000
#01913:00000000000000K600000000K1000000
#01914:0000000000HP00K2
#01915:HV0000JZJZ00HT00
#01918:00000000000000HU
#01919:K30000K4K50000000000000000000000
#02001:00
#02001:00
#02001:00
#02001:00
#02001:0U00000000000R00000S00000R000S000R000S00000R00000000000S00000T00000R00000S00000T00000000000R0000
#02001:13001400150016171819140015001617
#02001:00
#02001:00
#02001:00
#02001:HYHY
#02001:00
#02001:00
#02001:00
#02001:00
#02001:00
#02001:00
#02001:00
#02001:00750000
#02001:74000077
#02001:0076
#02003:ACAD
#02011:0202
#02012:00HR007M
#02013:HSHX
#02014:007K00HW
#02015:7J7L
#02016:0A0B
#02018:00K800KA
#02019:K7K9
#02101:00
#02101:00
#02101:00
#02101:00
#02101:0U000S0R0T000R0S0000000000000000
#02101:00
#02101:005K
#02101:00
#02101:I1I1I200
#02101:00
#02101:00I0
#02101:00
#02101:00
#02101:00
#02101:00
#02101:00
#02101:00
#02101:00
#02101:78
#02101:00
#02101:7N
#02101:00
#02101:00
#02101:EDEDEE00
#02101:00
#02101:00
#02101:00
#02101:00
#02101:HW
#02101:0000000000000000TY00TZU0U1U2U3U4
#02103:00AC
#02111:0202EB00
#02112:000000EB00KL0000
#02113:E80000E9EA0000EC00000000KM000000
#02114:00000000030000KN
#02115:KB0000KCKD0000KF00005L0000000000
#02116:0C000C00005Q0000
#02118:000000KE00005M00
#02119:HZ00HZ00KG00005N
#02201:00
#02201:00
#02201:0I0I00000I0I00000I0I00000I0I0000
#02201:000J000J000J000J
#02201:000Q000Q
#02201:00
#02201:1B001C001D001E1F1G1H1C001D001E1F
#02201:00000607000006070000060700000607
#02201:00
#02201:00
#02201:00
#02201:00
#02201:00
#02201:00
#02201:00
#02201:00
#02201:00
#02201:00
#02201:00
#02201:00
#02201:00
#02201:00
#02201:00
#02201:00
#02201:00
#02201:00
#02201:00
#02201:00
#02201:00
#02201:00
#02201:00
#02201:ZO
#02211:01010101
#02212:EI00005P000000EN0000ZD000000ZF00
#02213:00004Z00EI00EO00EO0000EG00EL0000
#02214:00EL00EL005100YO00EI0000ZE0000EL
#02215:4Y0050YNYPEL0056
#02216:08
#02218:0000EQ0000EL005300005400EI000000
#02219:YK0000YLYM005200520000005500EQ00
#02301:00
#02301:00
#02301:0I000I00000000000I000I00000000000K0L0M0I000000000I0000000I000000
#02301:00000J0000000J0000000J00000J000J
#02301:000Q000Q
#02301:00
#02301:1B001I001D001E1F1G1H1C001D001E1F
#02301:00000607000006070000060700000607
#02311:01010101
#02312:00EH005900EF00EJ0000ZG000000EN00
#02313:EF000000EJ0000YU00EJ0000EI00ZI00
#02314:000000EN0000EH00EN00EG00ZH000000
#02315:570058005700YT00YV0000EK00005700
#02318:YQ0000YRYS00005B00005C0000EM0000
#02319:0000EJ0000005A00530000005D0000EQ
#02401:00
#02401:00
#02401:0I0I00000I0I00000I0I00000I0I0000
#02401:000J000J000J000J
#02401:000Q000Q
#02401:00
#02401:1B001C001D001E1F1G1H1C001D001E1F
#02401:00000607000006070000060700000607
#02411:01010101
#02412:EI000000YX005H0000005H000000004Z
#02413:0000EO0000EM0000EJ0000005E00Z000
#02414:5E0000ER0000EL000000EQ00YZ0000ES
#02415:00EK0000EO0000005I0000ER0000EV00
#02418:YW00005F000000EM00EO0000ES0000Z1
#02419:000000005G000000YY00000000EO0000
#02501:00
#02501:00
#02501:0I000I00000000000I000I00000000000K0L0M0I000000000I0000000I000000
#02501:00000J0000000J0000000J00000J000J
#02501:000Q000Q
#02501:00
#02501:1B001I001D001E1F1G1H1C001D001E1F
#02501:00000607000006070000060700000607
#02501:00
#02501:00
#02501:00
#02501:00
#02501:00
#02501:00
#02501:00
#02501:00
#02501:0000000000ZJ0000
#02501:000000ZK
#02501:00000000000000ZL
#02511:01010101
#02512:005O57EM005JZ957
#02513:EM0000500000Z400ER00Z70000ES00ZC
#02514:00EQ0000ET0000EQ00ES00Z80000ZB00
#02515:4Y00ER0000ER0000Z500ET005D0000ET
#02518:000000ES0000560000Z600EU00ZA0000
#02519:Z200Z3005200EWEU
#02601:00
#02601:00
#02601:0I0I00000I0I00000I0I00000I0I0000
#02601:000J000J000J000J
#02601:000Q000Q
#02601:00
#02601:1B001C001D001E1F1G1H1C001D001E1F
#02601:00000607000006070000060700000607
#02611:01010101
#02612:0000005P000000EQ0000F000EP00EL00
#02613:000000000000EI0000EO0000EZ00000000EQ000000ZF0000
#02614:4Y0000EY00EL00YO0000ZD00ZE000000
#02615:0000004Z0000500000YN0000YP000000ER00000000560000
#02616:08
#02618:EX000000005100530000540000EI0000
#02619:YK0000YLYM00520052000000550000EP
#02701:00
#02701:00
#02701:0I000I00000000000I000I00000000000K0L0M0I000000000I000I0000000000
#02701:000J000J000J000J
#02701:000Q000Q
#02701:00
#02701:1B001I001D001E1F1G1H1C001D001E1F
#02701:00000607000006070000060700000607
#02711:0100010001000103
#02712:000000EH000000EP0000ZD0000000000
#02713:EH0057ELF300ZE00
#02714:YQ0000YRYS00005B000054000000ZF00
#02715:00005800000000YU0000F40055000000
#02718:5700F25A53000056
#02719:00F100590000YT00YV000000F5000000
#02801:00
#02801:00
#02801:0I0I0I0I
#02801:00
#02801:00
#02801:0N0N0N0N
#02801:00
#02801:00
#02801:00
#02801:00
#02801:00
#02801:00
#02801:00
#02801:00
#02801:00
#02801:00
#02801:0000007R
#02801:007P0000
#02801:007Q
#02801:7O
#02801:00
#02801:00
#02801:00
#02801:00
#02801:00
#02801:00
#02801:00
#02801:00
#02801:00
#02801:HSHRHXHW
#02811:01010101
#02812:000JKQ00000JLA00
#02813:KP8DKRKS
#02814:00000607000006070000060700000607
#02815:8CF7L98F
#02816:08
#02818:F600000J8E00000J
#02819:L7L8F8F9
#02901:00
#02901:00
#02901:0I0I0I0I
#02901:000J000J00000000
#02901:00
#02901:0N0N0N0N
#02901:00
#02901:00000000000000000000060700000607
#02901:00
#02901:00
#02901:00
#02901:00
#02901:00
#02901:00
#02901:00
#02901:00
#02901:007T0000
#02901:7S7U
#02901:0000007V
#02901:000000000000007W
#02901:008H
#02901:00
#02901:00
#02901:00
#02901:00
#02901:00
#02901:00
#02901:00
#02901:00
#02901:00HV
#02911:01010101
#02912:KT0000000000000700008I0000000J00
#02913:FA000006LDKW8J00
#02914:00000607000000KV00000000KX008K00
#02915:8G0000KUKULE00KY
#02918:LB000000000000FC00000J00LF000000
#02919:HW00LCFBFD0000LG
#03001:00
#03001:00
#03001:00
#03001:00
#03001:00
#03001:0N0N0N0N
#03001:35003131350031313134353136363136
#03001:00
#03001:00
#03001:00
#03001:00
#03001:00
#03001:00
#03001:00
#03001:00
#03001:00
#03001:00
#03001:00
#03001:00
#03001:00
#03001:00
#03001:00
#03001:8L
#03001:00
#03001:00
#03001:00
#03001:00
#03001:00
#03001:00
#03001:00
#03001:00
#03001:008M0000
#03011:02020202
#03013:7X000080
#03014:007Y0000
#03015:LH007ZLK
#03016:08
#03018:00LI0000
#03019:KZLJ
#03101:00
#03101:00
#03101:00
#03101:00
#03101:00
#03101:0N0N0N0N
#03101:37003030313236003700303036003733
#03101:000E
#03111:02020202
#03112:00820084
#03113:0083
#03114:81LM00LO
#03115:00LN
#03118:LL
#03201:00
#03201:00
#03201:00000I0I00000I0I00000I0I00000I0I
#03201:00
#03201:00
#03201:0N0N0N0N
#03201:37333633
#03201:00070607000706070007060700070607
#03201:00
#03201:00
#03201:00
#03201:00
#03201:00
#03201:00
#03201:00
#03201:00
#03201:00860000
#03201:85
#03201:008O8700
#03201:8N000088
#03201:008P
#03201:0000008Q
#03211:02020202
#03212:00FF0000
#03213:FEFG
#03214:00LQ00FH
#03215:LPL1LR00
#03218:0000L2LS
#03219:L00000L3
#03301:00
#03301:00
#03301:000000000I000I00000000000I000I000I000I000M0M0I000M0M0I000I000I00
#03301:00
#03301:0000000000000000000000001J001K1L
#03301:0N0N0N00
#03301:31323600370031003700000000000000
#03301:00070607000706070000000000000000
#03301:00
#03301:00
#03301:00
#03301:00
#03301:00
#03301:00
#03301:00
#03301:00
#03301:00
#03301:00
#03301:89
#03301:008A0000
#03301:8R8B
#03301:008S0000
#03301:008T
#03301:00
#03301:00
#03301:00
#03301:00
#03301:0000000000000000000000000000FNFN
#03301:000000000000000000000000FMFM0000
#03301:00000000000000000000FLFL00000000
#03311:0200020003040504
#03312:FI000000LT000000000000000000000000000000000000000005000000000000
#03313:00000000LU00LU000000000400040004
#03314:LTFJLVLY
#03315:L4000000FKLW00M0
#03318:00000000L50000000000000000LZ0000
#03319:0000000000000000L60000LX000000M1
#03401:00
#03401:00
#03401:00
#03401:00
#03401:000000000000000000000000001T001V
#03401:00
#03401:00
#03401:00
#03401:3B
#03401:003D00003I000000000000003K000000
#03401:00003E00003M00000000003M003O0000
#03401:0000003H00003R0000003Q0000003R00
#03401:000000000000003U003T00000000003W
#03401:003Y
#03401:00
#03401:00
#03401:00
#03401:00
#03401:00
#03401:00
#03401:00
#03401:00
#03401:00
#03401:00
#03401:00
#03401:00
#03401:00
#03401:00
#03401:00
#03401:00
#03401:00
#03401:ZP
#03411:02020202
#03412:WJWK000J1Q00000J
#03413:000JWLWM001RWPWQ
#03414:UG001O00WNWO0000
#03415:00UH00UJUK0000UN
#03416:0F0F0F0F
#03418:1M00UI0000ULUM00
#03419:001N001P000J1S1U
#03501:00
#03501:00
#03501:00
#03501:00
#03501:0000001Y000000212223240025252525
#03501:00
#03501:00
#03501:00
#03501:00
#03501:3J
#03501:003O00003K000000000000003M000000
#03501:00003R00003O00000000003O003Q0000
#03501:0000003V00003T0000003S0000003T00
#03501:000000000000003W003V00000000003Y
#03501:0040
#03501:00
#03501:00
#03501:00
#03501:00
#03501:00000000WVWW0000
#03501:00
#03501:00
#03501:00
#03501:00FO
#03511:020202VZ
#03512:WR00WS0000000J00VV00000000W00000
#03513:00000J00WT00WU0000VW0000FS00W100
#03514:1W000000UQ000000US00VX0000FT00W2
#03515:UO001X000000000000FP00VY0000FU00
#03516:0F0F0F00
#03518:0000UP000000UR000000FQ00000000FV
#03519:000000001Z002000000000FR00000000
#03601:GSGTGUGV
#03601:00
#03601:00
#03601:000J000J000J000J
#03601:26272727282929292A2B2B2B2C2D2D2D
#03601:00
#03601:00
#03601:00
#03601:00
#03601:00
#03601:00
#03601:00
#03601:00
#03601:00
#03601:00
#03601:00
#03601:00
#03601:00
#03601:00000000000000V0
#03601:000000UW00000000
#03601:0000000000UY0000
#03601:00UU000000000000
#03611:02020202
#03612:3N00003U0000X0000000X200X3000000
#03613:003R00003K0000003M00003V0000X400
#03614:0000WY00003P0000X1000000UZ00003P
#03615:WX000000WZ00003S00003Y00003M0000
#03616:0F0F0F0F
#03618:00003Z0000003W00003R000000003T00
#03619:UTUVUX3H
#03701:GWGXGY00
#03701:00
#03701:00
#03701:000J000J00000000
#03701:2E002F002G002H002I002J2J1J001K1L
#03701:00
#03701:00
#03701:0E
#03701:00
#03701:0000000000000000000000000000003F
#03701:000000000000003K
#03701:000000000000000000000000003O0000
#03701:0000003R
#03701:00
#03701:00
#03701:00
#03701:00W3
#03701:000000000000V40000W4000000000000
#03701:0000000000W50000
#03701:0000V20000000000V50000W600000000
#03701:00
#03701:00
#03701:00
#03701:00
#03701:00
#03701:00FW
#03711:0200000002000000020000FZ00000000
#03712:3J00X6000000X8000000FY00000000G3
#03713:003O00003P00000000FX00000000G200
#03714:00003R00003T0000X900003Q00G100WA
#03715:X500003V00003W0000003V00G000W900
#03716:0F0F0F00
#03718:00000000X7000041003Y000000W80000
#03719:V1V342W7
#03801:00
#03801:00
#03801:00
#03801:00
#03801:000000000000000000000000001T001V
#03801:00
#03801:00
#03801:00
#03801:3B
#03801:003D00003I000000000000003K000000
#03801:00003E00003M00000000003M003O0000
#03801:0000003H00003R0000003Q0000003R00
#03801:000000000000003U003T00000000003W
#03801:003Y
#03811:02020202
#03812:000J1O0000WO000J
#03813:WJWK000JWN00WP00
#03814:0000WLWM000J00WQ
#03815:00UHUI00UKUL1S00
#03816:0F0F0F0F
#03818:UG0000UJ0000UMUN
#03819:1M1N001P1Q1R001U
#03901:00
#03901:00
#03901:00
#03901:00
#03901:0000001Y000000212223240025252525
#03901:00
#03901:00
#03901:00
#03901:00
#03901:3J
#03901:003O00003K000000000000003M000000
#03901:00003R00003O00000000003O003Q0000
#03901:0000003V00003T0000003S0000003T00
#03901:000000000000003W003V00000000003Y
#03901:0040
#03901:00
#03901:00
#03901:00
#03901:00
#03901:00000000WVWW0000
#03901:00
#03901:00
#03901:00
#03901:00FO
#03911:020202VZ
#03912:0000UP000000WU0000VW000000W00000
#03913:WR00WT00VVVXFSW1
#03914:00000J00UQ00UR00000000VY00FT00W2
#03915:UO00WS0000000J0000FP00000000FU00
#03916:0F0F0F00
#03918:000000001Z000000US00FQ00000000FV
#03919:1W001X0000002000000000FR00000000
#04001:GSGTGUGV
#04001:00
#04001:00
#04001:000J000J000J000J
#04001:26272727282929292A2B2B2B2C2D2D2D
#04001:00
#04001:00
#04001:00
#04001:00
#04001:00
#04001:00
#04001:00
#04001:00
#04001:00
#04001:00
#04001:00
#04001:00
#04001:00
#04001:00000000000000V0
#04001:000000UW00000000
#04001:0000000000UY0000
#04001:00UU000000000000
#04011:02020202
#04012:003R00003K0000003M0000003H00003P
#04013:3N00003U0000X0000000X200003M0000
#04014:0000WY00003P0000X100003V00003T00
#04015:WX000000WZ00003S00003Y00X3000000
#04016:0F0F0F0F
#04018:00003Z0000003W00003R00000000X400
#04019:UTUVUXUZ
#04101:GWGXGY00
#04101:00
#04101:00
#04101:000J000J00000000
#04101:2E002F002G002H002I002J2J1J001K1L
#04101:00
#04101:00000000000000003536003637003600
#04101:0E
#04101:00
#04101:0000000000000000V50000000000003F
#04101:000000000000003K
#04101:000000000000000000000000003O0000
#04101:0000003R
#04101:00
#04101:00
#04101:00W3
#04101:000000000000000000W4000000000000
#04101:000000V400W50000
#04101:0000000000000000000000W600000000
#04101:00V2000000000000
#04101:00
#04101:00
#04101:00
#04101:00
#04101:00
#04101:00FW
#04111:02020200
#04112:0000X6000000X800000000FZ000000WA
#04113:3J00X700X9FY00W9
#04114:00003R00003T000000FX003Q00W800G3
#04115:X500V33W003VW7G2
#04116:0F0F0F00
#04118:003O00003P000041003Y000000G10000
#04119:V100003V0000000042000000G0000000
#04201:00
#04201:00
#04201:00
#04201:00
#04201:000000000000000000000000001T001V
#04201:0N0N0N0N
#04201:37000000000000000000000000003435
#04201:00
#04201:3C
#04201:003E00003L000000000000003N000000
#04201:00003G00003P00000000003P003R0000
#04201:0000003K00003U0000003T0000003U00
#04201:000000000000003X003W00000000003Z
#04201:0041
#04211:02020202
#04212:000J00XD000J00XH
#04213:XAV7V800XE00XG00
#04214:0000XCV900XF000J
#04215:00XB000J1Q00VCVD
#04216:0F0F0F0F
#04218:V6001O00VAVB0000
#04219:1M1N001P001R1S1U
#04301:00
#04301:00
#04301:00
#04301:00
#04301:0000001Y000000212223240025252525
#04301:0N0000000N0000000N0000000P0P0P0P
#04301:36000000000034353600000034343535
#04301:00
#04301:00
#04301:3M
#04301:003R00003N000000000000003P000000
#04301:00003U00003R00000000003R003T0000
#04301:0000003Y00003W0000003V0000003W00
#04301:000000000000003Z003Y000000000041
#04301:0043
#04301:00
#04301:00
#04301:00
#04301:00
#04301:00000000XMXN0000
#04301:00
#04301:00
#04301:00
#04301:00G4
#04311:0200020002000404
#04312:00000J00XK00000000G5000000040004
#04313:XIXJ000J00G6G8GA
#04314:1W000000VG00XL00VI0000G700G900GB
#04315:0000VF000000000000WC0000WF00WH00
#04316:0F0F0F00
#04318:VE0000001Z0020000000WD0000WG00WI
#04319:00001X000000VH00WB0000WE00000000
#04401:GZH0H1H2
#04401:00
#04401:00
#04401:000J000J000J000J
#04401:26272727282929292A2B2B2B2C2D2D2D
#04401:0N0N0N0N
#04401:36353535
#04401:00
#04401:00
#04401:00
#04401:00
#04401:00
#04401:00
#04401:00
#04401:00
#04401:00
#04401:00
#04401:00
#04401:00000000000000VQ
#04401:000000VM00000000
#04401:0000000000VO0000
#04401:00VK000000000000
#04411:02020202
#04412:0000XP00XQ00003V0000XT000000XV00
#04413:3Q00003X0000XR00003U0000XU00003S
#04414:003U0000003S00003P00003Y00003W00
#04415:XOVLXSVP
#04416:0F0F0F0F
#04418:0000420000003Z0000004100003P0000
#04419:VJ3NVN3K
#04501:H3H40000
#04501:00
#04501:00
#04501:000J000J00000000
#04501:2E2F2G2H00000000
#04501:0N0000000N0000000P0P0P0P0P000P0P
#04501:35350000
#04501:0E
#04501:00
#04501:0000000000000000000000003P00003H
#04501:000000000000003M
#04501:00000000000000000000003T00000000
#04501:00000000003Y0000
#04501:00000000000000000041000000000000
#04501:0045
#04501:00
#04501:00
#04501:00
#04501:00
#04501:0000VS0000000000000000005R005R5R
#04501:000000VU00000000
#04501:00
#04501:00
#04501:00
#04501:0000000000000000GDGDGDGDGC00GDGD
#04511:02000000020000000404040400000000
#04512:003R00000000XZ000000000004000404
#04513:00003U003S000000Y0Y1Y2Y300000000
#04514:XW00003Y003W000000000000Y400Y5Y6
#04515:VR00XX0000003Z005R5R5R5R00000000
#04516:0F0000000F0000000H0H0H0H0H000H0H
#04518:00000000XY000044000000002M002N2N
#04519:3M000000VT0000002K2L2K2L00000000
#04601:00
#04601:00
#04601:00
#04601:00
#04601:00000000000000001Q001R00001T001V
#04601:0N0N000N
#04601:36000000000000000000000000003435
#04601:00
#04601:3C
#04601:003E00003L000000000000003N000000
#04601:00003G00003P00000000003P003R0000
#04601:0000003K00003U0000003T0000003U00
#04601:000000000000003X003W00000000003Z
#04601:0041
#04611:02020202
#04612:000J000J00XFXG0J
#04613:XA00XC00XE0000XH
#04614:00XB00XDVAVB0000
#04615:V600V8000000VCVD
#04616:0F0F0F0F
#04618:00V71OV9000J0000
#04619:1M1N001P0N001S1U
#04701:00
#04701:00
#04701:00
#04701:00
#04701:0000001Y00000021WB00000000000000
#04701:0N0000000N00000000WC0000WF000000
#04701:36000000343434340000WD0000WG0000
#04701:0000000000000000VI0000WE0000WH00
#04701:000000000000000000000000000000WI
#04701:3M
#04701:003R00003N000000000000003P000000
#04701:00003U00003R00000000003R003T0000
#04701:0000003Y00003W0000003V0000003W00
#04701:000000000000003Z003Y000000000041
#04701:0043
#04701:00
#04701:00
#04701:00
#04701:00
#04701:00000000XMXN0000
#04701:00
#04701:00
#04701:00
#04701:00G4
#04701:000000000000000000G50000G8000000
#04701:00000000000000000000G60000G90000
#04701:0000000000000000000000G70000GA00
#04701:000000000000000000000000000000GB
#04711:02000000020000000404000000000400
#04712:VE0000000000XL000000002N2M000000
#04713:00000J00XK0000000P0P000000000O00
#04714:XI00XJ0000000J00353600363600002N
#04715:00000000VG00VH000000000P0P003600
#04716:0F0000000F0000000H0H000H0H000H00
#04718:1W001X00000000002N2M000000000000
#04719:0000VF001Z0020000000000404002N00
#04801:GZH0H1H5
#04801:00
#04801:00
#04801:000J000J000J000J
#04801:26272727282929292A2B2B2B2C2D2D2D
#04801:0N0N0N0N
#04801:36363636
#04801:00
#04801:00
#04801:00
#04801:00
#04801:00
#04801:00
#04801:00
#04801:00
#04801:00
#04801:00
#04801:00
#04801:00000000000000VQ
#04801:000000VM00000000
#04801:0000000000VO0000
#04801:00VK000000000000
#04811:0303030303030303
#04812:3Q00003X000000003P0000003K000000
#04813:003U00003N00YA000000003Y0000YE00
#04814:0000Y800003S0000YB000000YD00003S
#04815:Y7000000Y900003V0000YC00003P0000
#04816:0F0F0F0F
#04818:0000420000003Z00003U0000VP003W00
#04819:VJ00VL00VN410000
#04901:H6H70I00
#04901:00
#04901:00
#04901:000J000J00000000
#04901:2E002F002G002H002I002J2J00000000
#04901:0N0N0N00
#04901:36000000360000003600343435353535
#04901:0E
#04901:00
#04901:00
#04901:00
#04901:00
#04901:00
#04901:00
#04901:00
#04901:00
#04901:00
#04901:00
#04901:00
#04901:00VS000000000000
#04901:000000VU00000000
#04911:0303030302000000
#04912:3M000000000000003P000000003K003K
#04913:003R0000YH00YI0000000V0000000000
#04914:00003U003N000000003U000000003R00
#04915:YF00003Y003S0000YJ0000003S000000
#04916:0F0F000W
#04918:00YG003W003Y0000
#04919:VR000000VT00003Z0000004100000000
#05001:00
#05001:00
#05001:00
#05001:00
#05001:00
#05001:00
#05001:00
#05001:00SI00SL00000000
#05001:SH0000SJ00000000000000SN0000SP00
#05001:00
#05001:00
#05001:00
#05001:000000SO
#05001:00SKSM00
#05001:00
#05001:00
#05001:00
#05001:00
#05001:98
#05001:00
#05001:00
#05001:8U
#05001:008V
#05001:00
#05001:00
#05001:00
#05001:00
#05001:00
#05001:00
#05001:00
#05001:00
#05001:ZQ
#05003:A8
#05011:HP
#05012:0000000000HL00HL
#05013:00HL00HL00000000
#05016:3A
#05018:000000HU
#05019:00HVHV00
#05101:00
#05101:00
#05101:00
#05101:00
#05101:00
#05101:00
#05101:00
#05101:00
#05101:00
#05101:00SR000000000000
#05101:000000ST00000000
#05101:00SSSU00
#05101:SQ
#05101:00
#05101:00
#05101:00
#05101:00
#05101:00
#05101:00
#05101:00
#05101:8W
#05101:008X
#05103:AA
#05111:00HM000000000000
#05113:000000HR00000000
#05115:00HSHS00
#05118:HU
#05201:00
#05201:00
#05201:00
#05201:00
#05201:00
#05201:00
#05201:00
#05201:00SW00SZ00000000
#05201:0000000000000000000000T10000T300
#05201:SV0000SX000000000000000000000000
#05201:00
#05201:00
#05201:00SYT0T2
#05201:00
#05201:00
#05201:00
#05201:00
#05201:99
#05201:00
#05201:8Y
#05201:008Z
#05203:AC
#05211:00HJ000000000000
#05212:0000000000HN00HN
#05213:HM0000HM00000000
#05215:000000HR
#05218:00HSHS00
#05301:00
#05301:00
#05301:00
#05301:00
#05301:00
#05301:00
#05301:00
#05301:00
#05301:000000T900000000
#05301:00TA
#05301:00T5T80000000000
#05301:T400000000T7000000000000000000000000000000000000
#05301:00T600000000
#05301:00
#05301:00
#05301:00
#05301:00
#05301:00
#05301:009B
#05301:9A
#05301:00
#05301:0091
#05301:90
#05303:AE
#05311:00MG
#05312:00000000000000000000000000MH00000000MM0000000000
#05313:000000HM00000000000000000000MI00000000MN00000000
#05314:000000000000000000000000000000MJ00000000MO000000
#05315:HR0000000000000000HO000000000000MK00000000MP0000
#05318:0000000000000000000000000000000000ML00000000MQ00
#05319:000000000000HP0000000000HP00000000000000000000MR
#05401:0202
#05401:M2M3
#05401:TBTETGTI
#05401:9293
#05401:00
#05401:36000031310031003700003131003500
#05401:00
#05401:00TC00TF00000000
#05401:0000000000000000000000TH0000TJ00
#05401:000000TD000000000000000000000000
#05401:00
#05401:00
#05401:00
#05401:00
#05401:HPHLHVHLHVHLHUHL
#05401:00
#05401:00
#05401:9C
#05401:009D
#05403:AC
#05411:MSMS
#05412:00MV000000000000000000MW00MT000000000000000000MT
#05413:00MX000000MX00MW000000MW
#05414:000000MZ00000000MZ000000000000MZ00000000MY000000
#05415:00000000N300000000N0000000000000N100000000MZ0000
#05416:0A0B
#05418:0000000000N500N3000000000000000000N500N100000000
#05419:00N700N6
#05501:0202
#05501:M4M2
#05501:TK00TMTNTO00TP00
#05501:9492
#05501:00
#05501:37000031310031003700000035003500
#05501:000E
#05501:00
#05501:00
#05501:00TL000000000000
#05501:00
#05501:00
#05501:00
#05501:00
#05501:HUHMHSHRHS00HO00
#05501:00
#05501:9E
#05501:009C
#05511:MS00MSM6
#05512:00MU000000000000000000MW00MV00000000000000MV0000
#05513:00MW000000MX00MX000000MX
#05514:000000MX0000000000MZ0000000000MZ00000000MZ0000MZ
#05515:00000000MZ000000N200000000000000N30000N500000000
#05516:0A0A
#05518:0000000000N200N4000000000000000000N4000000000000
#05519:00N500N7
#05601:0202
#05601:M5M2
#05601:TQ00000000TRTSTT
#05601:9592
#05601:0U00000000000R00000S00000R000S000R000S00000R00000000000S00000T00000R00000S00000T00000000000R0000
#05601:37003839380039380039380039383700
#05601:00
#05601:00
#05601:00
#05601:00
#05601:00
#05601:00
#05601:00
#05601:00
#05601:HP00000000HRHSHU
#05601:9F
#05601:00
#05601:009C
#05611:00000000MS000000000000000000000000N5000000000000
#05612:0000000000MV000000000000N500000000000000000000N2
#05613:000000MX000000N8000000N3
#05614:00000000000000MZ000000N800000000N900000000N40000
#05615:M700000000000000N300000000NA000000000000N5000000
#05616:0A0B
#05618:000000000000000000N50000000000NB000000N600000000
#05619:0000000000N7000000N70000
#05701:00
#05701:M2
#05701:0I0I000I0I000I0I0I000I0I0I0I0I0I
#05701:9697
#05701:0U000S0R0T000R0S0U00000000000000
#05701:3735363636000000
#05701:00
#05701:00
#05701:00
#05701:00MD
#05701:00
#05701:00
#05701:00
#05701:00
#05701:HS0000000000HRHPHR00000000000000
#05701:00
#05701:009H
#05701:9G
#05703:00A8
#05711:02020300
#05712:00000000000000TW0000003500350035
#05713:0000000000000000M9000000000000MB0000000000000000000000000000360000000000360000000000360000000000
#05714:TU00000000000000M40000MF00MF00MF
#05715:0000M9000000000000TV0000000000ME0000ME0000ME0000
#05716:0A0A
#05718:00000000MA000000TX00000400040004
#05719:M8000000000000MC0000040004000400
#05801:00
#05801:00
#05801:0I0I00000I0I00000I0I00000I0I0000
#05801:00
#05801:00
#05801:00
#05801:1B001C001D001E1F1G1H1C001D001E1F
#05801:00
#05801:AP
#05801:00
#05801:00
#05801:00
#05801:00
#05801:00
#05801:00
#05801:00
#05801:00
#05801:00
#05801:00
#05801:00
#05801:00
#05801:00
#05801:00
#05801:00
#05801:00
#05801:00
#05801:00
#05801:00
#05801:00
#05801:00
#05801:HPHLHVHLHVHLHUHL
#05801:ZR
#05803:AC
#05811:01010101
#05812:000J000J0000009M
#05813:46000Q00000J0Q00
#05814:0000470000004700000000009L00009N
#05815:9I0000009J0000009K00004800004C00
#05816:08
#05818:00000048000000000000000000000J00
#05819:3A494A4B
#05901:00
#05901:004G
#05901:0I000I00000000000I000I00000000000K0L0M0I000000000I000I0000000000
#05901:00000000000J000J
#05901:0000000Q
#05901:00
#05901:1B001I001D001E1F1G1H1C001D001E1F
#05901:00
#05901:00
#05901:AQ
#05901:00
#05901:00
#05901:00
#05901:00
#05901:00
#05901:00
#05901:00
#05901:00
#05901:00
#05901:00
#05901:00
#05901:00
#05901:00
#05901:00
#05901:00
#05901:00
#05901:00
#05901:00
#05901:00
#05901:00
#05901:HUHMHSHRHS000000
#05911:0100010001000303
#05912:00000J0000000000AR00000400AW0000
#05913:9O0000000Q000J0000AS0000NG00AX00
#05914:00004D004E000000NC00AT0000NH00AY
#05915:0000000000004X0000ND00AU0000NI00
#05918:4B0000009P009Q000000NE00AV0000NJ
#05919:00000000000000009R0000NF00000000
#06001:00
#06001:00
#06001:0I0I00000I0I00000I0I00000I0I0000
#06001:00
#06001:00
#06001:00
#06001:1B001C001D001E1F1G1H1C001D001E1F
#06001:00
#06001:B1
#06001:00
#06001:00
#06001:00
#06001:00
#06001:00
#06001:00
#06001:00
#06001:00
#06001:00
#06001:00
#06001:00
#06001:00
#06001:00
#06001:00
#06001:00
#06001:00
#06001:00
#06001:00
#06001:00
#06001:00
#06001:00
#06001:HMHJHSHMHSHNHRHN
#06011:01010101
#06012:000J000J000J000J
#06013:9S0Q004L
#06014:00004H0000004H000000004K00009W00
#06015:4D00004I00000000000000009V00009X
#06018:00004E004J00004M
#06019:009T9U0Q
#06101:004P
#06101:00
#06101:0I000I00000000000I000I00000000000K0L0M0I000000000I0000000I000000
#06101:000000000000000000000J00000J000J
#06101:0000000Q
#06101:00
#06101:1B001I001D001E1F1G1H1C001D001E1F
#06101:000E
#06101:B2
#06101:00
#06101:00
#06101:00
#06101:00
#06101:00
#06101:00
#06101:00
#06101:00
#06101:00
#06101:00
#06101:00
#06101:00
#06101:00
#06101:00
#06101:00
#06101:00
#06101:00
#06101:00
#06101:00
#06101:00
#06101:00
#06101:HRHMHPHOHP000000
#06111:0100010001000303
#06112:00000J0000000J00AT00000400AY0000
#06113:4L0000000Q004N0000AU0000NI00AZ00
#06114:0000000046000000NE00AV0000NJ00B0
#06115:000000000000000000004F00000000000000A00000000000000000NF0000000000AW0000000000000000NK0000000000
#06118:00004N009Z0000000000NG00AX0000NL
#06119:9Y000000000000004O000000000000000000000000000000A10000000000000000NH0000000000000000000000000000
#06201:00
#06201:00
#06201:0I0I00000I0I00000I0I00000I0I0000
#06201:00
#06201:00
#06201:00
#06201:1B001C001D001E1F1G1H1C001D001E1F
#06201:00
#06201:00B3
#06201:00
#06201:00
#06201:00
#06201:00
#06201:00
#06201:00
#06201:00
#06201:00
#06201:00
#06201:00
#06201:00
#06201:00
#06201:00
#06201:00
#06201:00
#06201:00
#06201:00
#06201:00
#06201:00
#06201:00
#06201:00
#06201:HPHLHVHLHVHLHUHL
#06211:01010101
#06212:000J000J000J009M
#06213:9I0Q000Q
#06214:0000470000004700000000009L00009N
#06215:460000009J0000009K00004800004C00
#06216:08
#06218:0000004800000000000000004B000000
#06219:000049004A00000J
#06301:00
#06301:00
#06301:0I000I00000000000I000I00000000000K0L0M0I000000000I000I0000000000
#06301:00
#06301:00
#06301:00
#06301:1B001I001D001E1F1G1H1C001D001E1F
#06301:00
#06301:B400B5B6
#06301:00
#06301:00
#06301:00
#06301:00
#06301:00
#06301:00
#06301:00
#06301:00
#06301:00
#06301:00
#06301:00
#06301:00
#06301:00
#06301:00
#06301:00
#06301:00
#06301:00
#06301:00
#06301:00
#06301:00
#06301:00
#06301:HUHMHSHRHS00HO00
#06311:0100010001000303
#06312:00000J0000000J000000000400000000
#06313:9O4D004X000J000J
#06314:004E4Q4R
#06315:00000Q00000000A3
#06318:4B00000000009Q0000000000A20000A4
#06319:009P9U0Q
#06401:00
#06401:00
#06401:0I0I00000I0I00000I0I00000I0I0000
#06401:00000000000J000J
#06401:0000000Q
#06401:00
#06401:1B001C001D001E1F1G1H1C001D001E1F
#06401:00
#06401:B7B2
#06401:00
#06401:00
#06401:00
#06401:00
#06401:00
#06401:00
#06401:00
#06401:00
#06401:00
#06401:00
#06401:00
#06401:00
#06401:00
#06401:00
#06401:00
#06401:00
#06401:00
#06401:00
#06401:00
#06401:00
#06401:00
#06401:HP00000000HRHSHU
#06411:01010101
#06412:000J000J00AI00AK
#06413:00000Q00004LAJ00
#06414:00AD004E
#06415:4S00000000AE00000000A60000004T00
#06418:000000AFAH00A700
#06419:A5000000000000AG000000000000A800
#06501:00
#06501:00
#06501:0I000I00000000000I000I00000000000K0L0M0I000000000I0000000I000000
#06501:0000000000000J0000000J00000J000J
#06501:0000000Q
#06501:00
#06501:1B001I001D001E1F1G1H1C001D001E1F
#06501:00
#06501:B7B8
#06501:00
#06501:00
#06501:00
#06501:00
#06501:00
#06501:00
#06501:00
#06501:00
#06501:00
#06501:00
#06501:00
#06501:00
#06501:00
#06501:00
#06501:00
#06501:00
#06501:00
#06501:00
#06501:00
#06501:00
#06501:00
#06501:HS0000000000HRHPHR00000000000000
#06511:0100010301030404
#06512:00000J00000000AB0000NM0000040004
#06513:AL0000000000AA00AC0000NN00NP0000
#06514:4U0000000Q0000AN00000000NO00NQ00
#06515:000000000000AM00AO00B90000BC00NR
#06518:A90000000000004V000000BA0000BD00
#06519:0000000400004X004W000000BB0000BE
#06601:00
#06601:00
#06601:0I0I00000I0I00000I0I00000I0I0000
#06601:00
#06601:00
#06601:0N0N0N0N
#06601:1B001C001D001E1F1G1H1C001D001E1F
#06601:00
#06601:AP
#06601:00
#06601:00
#06601:00
#06601:00
#06601:00
#06601:00
#06601:00
#06601:00
#06601:00
#06601:00
#06601:00
#06601:00
#06601:00
#06601:00
#06601:00
#06601:00
#06601:00
#06601:00
#06601:00
#06601:00
#06601:00
#06601:HPHLHVHLHVHLHUHL
#06611:01010101
#06612:000J000J0000009M
#06613:9I0Q9K0Q
#06614:0000470000004700000000009L00009N
#06615:000000009J0000000000004800004C00
#06616:08
#06618:46000048000000004A0000004B000000
#06619:00004900000J000J
#06701:2O002P2Q2R002S2T2P2Q2R002O002P2Q
#06701:00
#06701:00
#06701:00
#06701:0R0U0S0R0U0S0R0U0S0R0U0S00000000
#06701:00
#06701:00
#06701:00
#06701:00
#06701:00
#06701:004D000000000000
#06701:0000004X00000000
#06701:004E4G00
#06701:4B
#06701:00
#06701:00
#06701:00AR
#06701:AQ0000000000000000AS000000000000
#06701:0000000000ATAV00
#06701:0000000000009Q00000000AU00AW0000
#06701:00009P009R0000AX
#06701:9O0000000000000000000000000000AY
#06701:00
#06701:00
#06701:00
#06701:00
#06701:00
#06701:00
#06701:00
#06701:00
#06701:HUHMHSHRHS000000
#06711:040300000G00000000000J0003000300
#06712:0000000I00000403000I00000I000000
#06713:NSNT00000J00000000000G00NW00NX00
#06714:000000000000NUNV00NUNV00000I0000
#06715:000J00NSNT00000J000000000G000G00
#06718:0I00000000000I000004030000000J00
#06719:000G00040300000G000000000U000U00
#06801:00
#06801:00
#06801:0I0I00000I0I00000I0I00000I0I0000
#06801:00
#06801:00
#06801:0N0N0N0N
#06801:1B001C001D001E1F1G1H1C001D001E1F
#06801:00
#06801:00
#06801:00
#06801:00
#06801:00
#06801:00
#06801:00
#06801:00
#06801:00
#06801:B1
#06801:00
#06801:00
#06801:00
#06801:00
#06801:00
#06801:00
#06801:00
#06801:00
#06801:00
#06801:00
#06801:00
#06801:00
#06801:00
#06801:HMHJHSHMHSHNHRHN
#06811:0100010001040103
#06812:000000000Q0000000000000400009W00
#06813:000J000J000J0000
#06814:9S0000009T0000009U0000009V00009X
#06815:00004H0000004H000000004K00004M00
#06816:08
#06818:4D00004I00000000000000004L000000
#06819:00004E004J000Q0J
#06901:2U2V2W002X002Y2Z2U2V2X002W002Y2Z
#06901:00
#06901:00
#06901:00
#06901:0R0U0S0R0U0S0R0U0S0R0U0S00000000
#06901:00
#06901:00
#06901:00
#06901:00
#06901:00
#06901:004N004N00000000
#06901:00464P00
#06901:4L000000004F000000000000000000000000000000000000
#06901:004O00000000
#06901:00
#06901:00
#06901:00AT
#06901:B20000000000000000AU000000000000
#06901:000000A000AVAX00
#06901:000000009Z000000A10000AW00AY0000
#06901:9Y000000000000AZ
#06901:000000000000000000000000000000B0
#06901:00
#06901:00
#06901:00
#06901:00
#06901:00
#06901:00
#06901:00
#06901:00
#06901:HRHMHPHOHP000000
#06911:040300000G00000000000G0003000300
#06912:0000000I00000403000I00000I000000
#06913:NYNZ00000J00000000000J000G000G00
#06914:000000000000O0O100O0O100000I0000
#06915:000J00NYNZ00000J00000000O200O300
#06918:0I00000000000I000004030000000J00
#06919:000G00040300000G000000000U000U00
#07001:00
#07001:00
#07001:0I0I00000I0I00000I0I00000I0I0000
#07001:00
#07001:00
#07001:0N0N0N0N
#07001:1B001C001D001E1F1G1H1C001D001E1F
#07001:00
#07001:00
#07001:00
#07001:00
#07001:00
#07001:00
#07001:00
#07001:00
#07001:00
#07001:00
#07001:00
#07001:00BF
#07001:00
#07001:00
#07001:00
#07001:00
#07001:00
#07001:00
#07001:00
#07001:00
#07001:00
#07001:00
#07001:00
#07001:HPHLHVHLHVHLHUHL
#07011:01010101
#07012:000J000J000J000J
#07013:9I009J009K00009M
#07014:000Q009L
#07015:00004700000047000000004800004C00
#07016:08
#07018:4600004800000000000000004B000000
#07019:00000000490000004A0000000Q00009N
#07101:00
#07101:00
#07101:0I000I00000000000I000I00000000000K0L0M0I000000000I0000000I000000
#07101:0000000Q
#07101:00000000000J0000
#07101:0N0N0N0N
#07101:1B001I001D001E1F1G1H1C001D001E1F
#07101:0E
#07101:00
#07101:00
#07101:00
#07101:00
#07101:00
#07101:00
#07101:00
#07101:00
#07101:BGBH
#07101:00
#07101:00
#07101:00
#07101:00
#07101:00
#07101:00
#07101:00
#07101:00
#07101:00
#07101:00
#07101:00
#07101:00
#07101:00
#07101:HUHMHSHRHS00HO00
#07111:0100010001000303
#07112:00000J0000000J000000000400O70000
#07113:00004E004Q00BIO8
#07114:9O00000000004X000000O40000BJ00O9
#07115:00004D0000009Q00000000O50000BK00
#07118:4B0000000Q00000000000000O60000BL
#07119:009P9U4R
#07201:00
#07201:00
#07201:0I0I000000000000
#07201:00
#07201:00
#07201:00
#07201:00
#07201:00
#07201:00
#07201:00
#07201:00
#07201:00
#07201:00
#07201:00
#07201:00
#07201:00
#07201:00
#07201:00
#07201:00BO
#07201:000000BP
#07201:00
#07201:00
#07201:00
#07201:00
#07201:00
#07201:00
#07201:00
#07201:00
#07201:00
#07201:00
#07201:HP000000HPHRHSHU
#07201:ZS
#07211:0102000000000000
#07212:00OC
#07213:BMBN000000000000
#07215:OAOB000000000000
#07216:0G0G000000000000
#07219:4646000000000000
#07301:00
#07301:00
#07301:00
#07301:00
#07301:00
#07301:00
#07301:00
#07301:00
#07301:00
#07301:00
#07301:00
#07301:00
#07301:00
#07301:00
#07301:00
#07301:00
#07301:00
#07301:00
#07301:00
#07301:00
#07301:BQ
#07301:00BR0000
#07301:00BS
#07301:00
#07301:00
#07301:00
#07301:00
#07301:00
#07301:00
#07301:00
#07301:HS00HRHPHR000000
#07314:OD
#07318:00OE
#07401:08
#07401:00
#07401:0I0I0I0I00000I0I0I0I00000I0I0I0I
#07401:00000J00000J0000
#07401:00
#07401:00
#07401:00
#07401:00
#07401:00
#07401:00
#07401:00
#07401:00
#07401:00
#07401:OF
#07401:00
#07401:00
#07401:CC00CDCC00CDCC00
#07401:00
#07401:00
#07401:00
#07401:00
#07401:0404030404030404
#07401:00040004000000040004000000040004
#07411:OH000000OK0000OI00OI0000OH000000
#07412:0H00OJ000G00000H000H00000H00OJ00
#07413:BT000H00BV0000BU00BU0000BT000H00
#07414:00BV0000OJ0000BV
#07415:00OI00OI0000OH000H00OK0000OI00OI
#07418:000H000H00000H00BV000G00000H000H
#07419:00BU00BU0000BT000000BV0000BU00BU
#07501:00
#07501:0000000000030003
#07501:00000I0I0I0I00000I0I00000I0I0000
#07501:0J00000J000J000J
#07501:00
#07501:00
#07501:00
#07501:00
#07501:00
#07501:00
#07501:00
#07501:00
#07501:000000OG
#07501:00
#07501:00
#07501:00
#07501:CDCC00CD00000000
#07501:00
#07501:00
#07501:00
#07501:00
#07501:0304040300000000
#07501:00000004000400000000000000000000
#07511:OK0000OI00OI0000030000000F000000
#07512:0G00000H000H00000F00000000000000
#07513:BV0000BU00BU000000000000OM000000
#07514:00OJOLCE
#07515:00OH0HOK00000000
#07518:000HBV0GCC00BW00
#07519:00BT00BVBT000300
#07601:00
#07601:00
#07601:0I0I0I0I00000I0I0I0I00000I0I0I0I
#07601:00000J00000J0000
#07601:00
#07601:00
#07601:00
#07601:00
#07601:00
#07601:00
#07601:00
#07601:00
#07601:00
#07601:OF
#07601:00
#07601:00
#07601:CC00CDCC00CDCC00
#07601:00
#07601:00
#07601:00
#07601:00
#07601:00040004000000040004000000040004
#07601:0404030404030404
#07611:0H000H000G00BT00BV00BV00000H000H
#07612:000H000H000000BU00BU00000H000H00
#07613:000000000000OH00OJ00OK0000OI00OI
#07614:00OI00OI000000OI00OI0000OH00OJ00
#07615:OH00OJ00OK0000000000000000BU00BU
#07618:00BU00BU0000000H000H0000BT00BV00
#07619:BTBVBV0H0H0G0000
#07701:00
#07701:0000000000030003
#07701:00000I0I0I0I00000I0I00000I0I0000
#07701:0J00000J000J000J
#07701:00
#07701:00
#07701:00
#07701:00
#07701:00
#07701:00
#07701:00
#07701:00
#07701:00
#07701:00
#07701:00
#07701:00
#07701:CDCC00CD00000000
#07701:00
#07701:00
#07701:00
#07701:00
#07701:00000004000400000000000000000000
#07701:0304040300000000
#07711:00000F03
#07712:0GOHOJOK00000F00
#07713:000000OI00OI0000OL000000ON000000
#07714:OKBTBVBVCC000000
#07715:000000BU00BU000000000000CF000000
#07718:BV0H0H0GBT000000
#07719:0000000H000H000003000000BX000000
#07801:00
#07801:00
#07801:0I0I0I0I00000I0I0I0I00000I0I0I0I
#07801:00000J00000J0000
#07801:00
#07801:00
#07801:00
#07801:00
#07801:00
#07801:00
#07801:00
#07801:00
#07801:00
#07801:00
#07801:00
#07801:00
#07801:00
#07801:00
#07801:CG00CHCG00CHCG00
#07801:00
#07801:00
#07801:04000400030000040004000004000400
#07801:00040004000004000400030000040004
#07811:0H000H000G0000OP00OP00000H000H00
#07812:BY00C000C000000000000000000H000H
#07813:000H000H0000OO00OQ00OR00OO00OQ00
#07814:00BZ00BZ000000BZ00BZ0000BY00C000
#07815:OO00OQ00OR00000H000H000000OP00OP
#07818:000000000000BY00C000C00000BZ00BZ
#07819:00OP00OP00000H000H000G0000000000
#07901:00
#07901:0000000000030003
#07901:00000I0I0I0I00000I0I00000I0I0000
#07901:0J00000J000J000J
#07901:00
#07901:00
#07901:00
#07901:00
#07901:00
#07901:00
#07901:00
#07901:00
#07901:00
#07901:00
#07901:00
#07901:00
#07901:00
#07901:00
#07901:CHCG00CH00000000
#07901:00
#07901:00
#07901:03000004000400000000000000000000
#07901:0004040300000000
#07911:0G00030F
#07912:000000OP00OP00000F000000OT000000
#07913:OR0000BZ00BZ0000OS00000000000000
#07914:C0OOOQOR0000CF00
#07915:00BYC0C0CG000000
#07918:0000000H000H000000000000C1000000
#07919:000H0H0GBY000300
#08001:00
#08001:00
#08001:0I0I0I0I00000I0I0I0I00000I0I0I0I
#08001:00000J00000J0000
#08001:00
#08001:00
#08001:00
#08001:00
#08001:00
#08001:00
#08001:00
#08001:00
#08001:00
#08001:00
#08001:00
#08001:00
#08001:00
#08001:00
#08001:CG00CHCG00CHCG00
#08001:00
#08001:00
#08001:00040004000004000400030000040004
#08001:04000400030000040004000004000400
#08011:0H000H000G00000H000H00000H000H00
#08012:BYC0C0000000BYC0
#08013:00OP00OP000000BZ00BZ000000OP00OP
#08014:OOOQOROOOQOR0000
#08015:00BZ00BZ000000OP00OP000000BZ00BZ
#08018:000000000000BY00C000C000000H000H
#08019:000H000H00000H000H000G00OO00OQ00
#08101:00
#08101:0000000000030003
#08101:00000I0I0I0I00000I0I00000I0I0000
#08101:0J00000J000J000J
#08101:00
#08101:00
#08101:00
#08101:00
#08101:00
#08101:00
#08101:00
#08101:00
#08101:00
#08101:00
#08101:00
#08101:00
#08101:00
#08101:00
#08101:CHCG00CH00000000
#08101:00
#08101:00
#08101:0004040300000000
#08101:03000004000400000000000000000000
#08111:0GOOOQOR03000000
#08112:C000000H000H00000F0000000F000000
#08113:000000BZ00BZ0000OS000000OU000000
#08115:000000OP00OP0000CG000000CI000000
#08118:00BYC0C0BY00C200
#08119:OR0H0H0G00000300
#08201:CJCKCLCJCKCLCJCK
#08201:00
#08201:0I0I0I0I00000I0I0I0I00000I0I0I0I
#08201:00000J00000J0000
#08201:0N0N0N0N
#08201:00
#08201:37003131310036003131310036003131
#08211:0303030303030303
#08212:C3C5C5C3C5C50000
#08213:00000000000000000000000000C400C4
#08214:00C400C4000000C400C40000C300C500
#08215:00OW00OW0000OV00OX00OY0000OW00OW
#08216:08
#08218:000000000000OVOX
#08219:OV00OX00OY0000OW00OW000000000000
#08301:CLCJCKCL00000000
#08301:00
#08301:00000I0I0I0I00000I0I00000I0I0000
#08301:0J00000J000J000J
#08301:0N0N0000
#08301:00
#08301:3136363137313631
#08311:0303030303030300
#08312:0000000000000N04
#08313:00C3C5C50N00P000
#08314:C50000C400C40000OZ00000000000000
#08315:00OVOXOY0000CN00
#08318:OY0000OW00OW0000CM000000C6000004
#08319:00C3
#08401:00
#08401:00
#08401:0I0I0I0I00000I0I0I0I00000I0I0I0I
#08401:00000J00000J0000
#08401:0N0N0N0N
#08401:00
#08401:37003131310036003131310036003131
#08401:00
#08401:00
#08401:00
#08401:00
#08401:00
#08401:00
#08401:00
#08401:00
#08401:00
#08401:00
#08401:CJCKCLCJCKCLCJCK
#08411:0303030303030303
#08412:C300C500C50000C400C4000000000000
#08413:000000000000C3C5
#08414:00C400C40000C300C500C50000C400C4
#08415:00OW00OW0000OV00OX00OY0000000000
#08416:08
#08418:00000000000000000000000000OW00OW
#08419:OV00OX00OY0000OW00OW0000OV00OX00
#08501:00
#08501:00
#08501:00000I0I0I0I00000I0I00000I0I0000
#08501:0J00000J000J000J
#08501:0N0N0000
#08501:00
#08501:3136363137313631
#08501:00
#08501:00
#08501:00
#08501:00
#08501:00
#08501:00
#08501:00
#08501:00
#08501:00
#08501:00
#08501:CLCJCKCL00000000
#08511:0303030303030300
#08512:000000000N000004
#08513:C50000C400C40000000000000N000000
#08514:00C3C5C5CM000000
#08515:0000OZCO
#08518:0000OV00OX00OY00C3000000P1000004
#08519:OY0000OW00OW000000000000C7000000
#08601:00
#08601:00
#08601:0I0I0I0I00000I0I0I0I00000I0I0I0I
#08601:00000J00000J0000
#08601:0N0N0N0N
#08601:00
#08601:00
#08601:00
#08601:00
#08601:00
#08601:00
#08601:00
#08601:00
#08601:00
#08601:00
#08601:00
#08601:00
#08601:00
#08601:00
#08601:CQ00CQCQ00CQCQ00
#08601:00
#08601:00
#08601:CP
#08601:00
#08601:0404030404030404
#08601:00040004000000040004000000040004
#08611:P2P4P5000000P2P4
#08612:0H000H000G0000P300P30000000H000H
#08613:00P300P30000000H000H000000P300P3
#08614:C8CACAP2P4P5C8CA
#08615:000H000H000000C900C9000000000000
#08618:00C900C900000H000H000G0000C900C9
#08619:000000C8CACA0H0H
#08701:00
#08701:0000000000030003
#08701:00000I0I0I0I00000I0I00000I0I0000
#08701:0J00000J000J000J
#08701:0N0N0N0N
#08701:00
#08701:00
#08701:00
#08701:00
#08701:00
#08701:00
#08701:00
#08701:00
#08701:00
#08701:00
#08701:00
#08701:00
#08701:00
#08701:00
#08701:CQCQ00CQ00000000
#08701:00
#08701:00
#08701:00
#08701:00
#08701:0304040300000000
#08701:00000004000400000000000000000000
#08711:P50H0H0G0F000F00
#08712:000000P300P3000000000000P7000000
#08713:00P6
#08714:CAP2P4P5CQ00CR00
#08715:000000C900C9000000000000CB000000
#08718:0000000H000H0000C800000000000000
#08719:0GC8CACA03000300
#08801:00
#08801:00
#08801:0I0I0I0I00000I0I0I0I00000I0I0I0I
#08801:00000J00000J0000
#08801:0N0N0N0N
#08801:00
#08801:00
#08801:00
#08801:00
#08801:00
#08801:P900PAP900PAP900
#08801:00
#08801:00
#08801:00
#08801:00
#08801:00
#08801:00
#08801:00
#08801:00
#08801:CQ00CQCQ00CQCQ00
#08801:00
#08801:00
#08801:CP
#08801:00
#08801:0404030404030404
#08801:00040004000000040004000000040004
#08811:000000P2P4P50000
#08812:000H000H000000P300P30000000H000H
#08813:P2P4P5C8CACA0H0H
#08814:00P300P3000000C900C9000000P300P3
#08815:C8CACA0H0H0GP2P4
#08818:00C900C90000000H000H000000C900C9
#08819:0H0H0G000000C8CA
#08901:00
#08901:00
#08901:0I0I0I0I0I0I0I0I0I0I0I0I0I0I0I0I
#08901:00
#08901:0N0N0N0N
#08901:00
#08901:00
#08901:00
#08901:00
#08901:00
#08901:PBPCPBPCPBPCPBPC
#08901:00
#08901:00
#08901:00
#08901:00
#08901:00
#08901:00
#08901:00
#08901:00
#08901:CQCQCQCQCQCQCQCQ
#08901:00
#08901:00
#08901:00
#08901:00
#08901:0404040404040404
#08901:00040004000400040004000400040004
#08911:CACA0000CACA0000
#08912:000H000H000H000H000H000H000H000H
#08913:0H0H0H0H0H0H0H0H
#08914:00P300P300P300P300P300P300P300P8
#08915:P4P4P4P4P4P4P4P4
#08918:00C900C900C900C900C900C900C900C9
#08919:0000CACA0000CACA
#09001:00
#09001:00
#09001:00
#09001:00
#09001:00
#09001:00
#09001:00
#09001:00
#09001:00
#09001:00
#09001:00
#09001:00
#09001:00
#09001:00
#09001:00
#09001:00
#09001:00
#09001:CS
#09001:00
#09001:00
#09001:00
#09001:00
#09001:00
#09001:00
#09001:00
#09001:00
#09001:00
#09001:00
#09001:00
#09001:00
#09001:00
#09001:ZT
#09003:AA
#09011:0200UBUE
#09012:0000000000PJ00PL000000UB00UB0000
#09013:00PF00PH000000000000UD000000UD00
#09014:000000000000PK0000UC0000PQ0000UF
#09015:0000PG0000000000PM0000PP00PR0000
#09016:0G
#09018:0000PI0000PO00PS
#09019:PE0000000000000000PN0000000000PT
#09101:00
#09101:00
#09101:0I0I0I00
#09101:00
#09101:0U0000000R0S0R0S0U00000000000000
#09101:00
#09101:00000000000V0000
#09103:AC
#09111:02020200
#09112:00PV0000
#09113:PUPU
#09114:006P0000
#09115:6OPX6Q00
#09116:090C0D0W
#09118:PWPW
#09201:00
#09201:00
#09201:0I0000000I000I000M0M0M0M0M000I0000000I0000000I000I0000000I000000
#09201:00
#09201:00
#09201:00
#09201:00
#09201:00
#09201:00
#09201:00
#09201:00
#09201:00
#09201:00
#09201:00
#09201:00
#09201:00
#09201:00
#09201:00
#09201:00
#09201:00
#09201:00
#09201:00
#09201:CT00CVCUCV00CU00CT00CVCUCV00CU00
#09211:0202
#09212:0000000000000000003100000000000010000000000000000000003500000000000000000000000000000R0000000000
#09213:0000300032003200PY00001000000000
#09214:PY000000000000000000000000000Z0000000000001100000000000000000Z00000000000X0000000000000000000000
#09215:000X0Y1112000036
#09218:0000000X000000330000360033000000
#09219:37000000000000003700003700000000
#09301:00
#09301:0000000003030200
#09301:0I000I0I0I000I000I0I0I0I00000000
#09301:00
#09301:00
#09301:00
#09301:00
#09301:00
#09301:00
#09301:00
#09301:00
#09301:00
#09301:00
#09301:00
#09301:00
#09301:00
#09301:00
#09301:00
#09301:00
#09301:00
#09301:00
#09301:00
#09301:CW00CUCVCW00CU00CV00000000000000
#09311:0202CXD3
#09312:0000000000000000000R00000000000000000S00000000000000CY0000000000000000000000D4000000000000000000
#09313:PZ00000S0000PZ0000000000PZ00CZ0000000000D5000000
#09314:0000000000D000D6
#09315:0U00003100000U00000000000U000000D10000000000D700
#09316:00H9
#09318:00000000000000000033000000000000000033000000000000000000000000000000D20000000000000000000000D800
#09319:37373700
#09401:0200020002000303
#09401:00
#09401:0I0000000I0000000I00000I0I000000
#09401:000J000J000J000J
#09401:0U000R0S0R000S0R0S000R0S0R000U00
#09401:0N00000N00000N00000NR900
#09401:00R000R90000R800
#09401:000000R30000000000000000QI00000000006S000000RA00
#09401:6R6S6R00
#09401:0000QSRCQL000000
#09401:00QR0000
#09401:00
#09401:00
#09401:00
#09401:00
#09401:00
#09401:00
#09401:00
#09401:00
#09401:00
#09401:00
#09401:00
#09401:00
#09401:006T006T006T006T
#09401:00
#09401:00
#09401:00DX00DY
#09401:DVDV
#09401:00DW00DW00DW0000
#09401:00
#09401:GR
#09411:HA00QTRE00R600HD
#09412:000000HD00000000HH000000HA0000000000RJ000000HC00
#09413:00HB0000000000HF000000HI00000000HE000000HH000000
#09414:00000000HE0000000000HC000000HC0000HF0000000000HI
#09415:0000HC000000HG000000000000HB00000000HG000000RD00
#09416:08
#09418:000000R40000000000HD0000000000HD000000HF00000000
#09419:D9000000000000000000HF00000000000000000000000000QN0000000000000000R7000000000000RC00000000000000
#09501:02000000020000000200000403000300
#09501:00
#09501:0I0000000I0000000I0I000I0I000000
#09501:000J000J000J000J
#09501:0U000R0S0R000S0R0S000R0S0R000U00
#09501:0N0N0N0N
#09501:00000000QIR1QJ00
#09501:00000000000000006S000000000000006R000000R30000006U000000000000QB
#09501:6R000000QH0000Q7
#09501:00
#09501:000000QG
#09501:00
#09501:00
#09501:00
#09501:00
#09501:00
#09501:00
#09501:00
#09501:00
#09501:00
#09501:00
#09501:00
#09501:00
#09501:006T006T006T006T
#09501:0000006V
#09501:00
#09501:00DX0000
#09501:DVDV
#09501:00DW00DW00DW0000
#09501:000000DZ
#09511:00000000HB00000000000000000000000000IV0000000000000000000000000000000000IX0000000000000000000000000000000000000000000000HD0000000000000000000000000000000000000000000000000000Q80000000000000000
#09512:000000000000000000000000HD0000000000000000000000IW0000000000000000000000000000000000000000000000HA000000000000000000000000000000HE00000000000000000000000000000000Q60000000000000000000000000000
#09513:HA00000000HF000000HD000000HB00000000QO00000000HI
#09514:00000000HE000000000000HI0000000000HF000000HD0000
#09515:0000HC0000000000HH0000000000HC00000000HF0000HC00
#09518:IT0000000000HG000000HC00000000R800000000HH000000
#09519:000000000000IU00000000000000HF000000000000000000QM0000000000000000000000HG0000000000000000QA0000
#09601:02000000020000000200000403000404
#09601:00
#09601:0I000000000000000I000000000000000K0L0M0I00000I000I00000000000000
#09601:000J000J000J6S0J
#09601:0U000R0S0R000S0R0S000R0S0R000U00
#09601:0N0N0N0N
#09601:QX6S00RB
#09601:0000R40000R500R16RR4000000000000
#09601:6R0000000000R80000000000000000R80000000000QZ0000000000R800000000R9000000000000000000000000000000
#09601:R00000RA000000000000000000000000RA00000000000000
#09601:0000RC
#09601:00
#09601:00
#09601:00
#09601:00
#09601:00
#09601:00
#09601:00
#09601:00
#09601:00
#09601:00
#09601:00
#09601:00
#09601:006T006T006T006T
#09601:00
#09601:00
#09601:00DX00DY
#09601:DVDV
#09601:00DW00DW00DW0000
#09611:000000HD0000000000HD00000000HC000000RD0000RM0000
#09612:HA00000000000000HH000000HA000000HE0000RH0000RN00
#09613:00000000HE000000000000HI000000HD00000000RK0000RQ
#09614:0000HB0000000000000000000000HF000000000000000000000000RA000000000000HF00000000000000000000000000
#09615:0000HC0000HF00000000HC0000000000RF000000HH0000HI
#09618:R40000000000RB0000000000000000RA00000000000000000000HB0000000000000000000000HF0000000000HC000000
#09619:00000000HG0000R500000000HG00HD00
#09701:0200020002000303
#09701:0000000000006D6E
#09701:0I0000000I0000000I0I000I0I000000
#09701:000J000J000J000J
#09701:0U000R0S0R000S0R0S0T0R0U0U000U00
#09701:0N0000000N0000R00N0000000N000000
#09701:0000000000000000000000006S0000000000000000R100000000QE0000000000RF000000000000000000000000000000
#09701:000000000000000000000000000000000000000000QY00000000QI0000000000RI000000000000000000000000000000
#09701:6R00000000000000000000000000000000000000000000006R00QG0000000000006C0000RP0000000000000000000000
#09701:0000RK
#09701:000000QV
#09701:00
#09701:00
#09701:00
#09701:00
#09701:00
#09701:00
#09701:00
#09701:00
#09701:00
#09701:00
#09701:00
#09701:00
#09701:006T006T006T0000
#09701:00
#09701:00
#09701:00000000DX000000000000E000000000
#09701:DVDV
#09701:00DW00DW00DW00E2
#09701:000000E1
#09711:HA0000000000000000QR0000000000000000RH000000000000000000HC0000000000000000000000HH0000000000HI00
#09712:000000000000HD0000000000000000QP0000000000000000HA000000000000000000HF000000HF0000000000HC000000
#09713:00HB00000000QQ00000000HI000000HD0000HG0000HD0000
#09714:QS000000HE000000HH00000000HB000000000000RQ000000
#09715:0000HC00000000HF0000HC0000000000HE0000RR000000RB
#09718:000000QT000000000000HF00000000000000HD00000000000000QK000000000000000000QW00000000000000RF000000
#09719:000000000000QU0000000000HG0000000000000000R300000000000000000000RM000000000000000000RL0000000000
#09801:0200020002000303
#09801:6R6S6R6S
#09801:0I0000000I0000000I00000I0I000000
#09801:000J000J000J000J
#09801:0U000R0S0R000S0R0S000R0S0R000U00
#09801:0N0N0N0N
#09801:00
#09801:Q0
#09801:00
#09801:00
#09801:00
#09801:00
#09801:00
#09801:00
#09801:00
#09801:00
#09801:00
#09801:00
#09801:00
#09801:00
#09801:00
#09801:00
#09801:00
#09801:006T006T006T006T
#09801:00
#09801:00
#09801:00DX00DY
#09801:DVDV
#09801:00DW00DW00DW0000
#09801:00
#09801:GR
#09811:00000000Q700QC0000QN000000QL0000
#09812:000000000000HD00000000000000Q8000000000000QG0000000000000000HD0000000000QN0000000000000000QF0000
#09813:HA000000HE000000Q9000000HA000000HE00000000QJ0000
#09814:00HB00000000000000HD000000HB000000HF0000HH000000
#09815:0000000000HF0000HH0000HI0000HC00000000HF000000HI
#09816:08
#09818:0000HC00000000HF0000HC00000000QR0000HG000000HC00
#09819:Q1000000HG000000QI0000QO0000HD00
#09901:02000000020000000200000403000300
#09901:6R6S6R6V
#09901:0I0000000I0000000I0I000I0I000000
#09901:000J000J000J000J
#09901:0U000R0S0R000S0R0S000R0S0R000U00
#09901:0N0N0N0N
#09901:0000R200R8RAQ400
#09901:00QH00RGRHRGQ200
#09901:00QD00RD00RJQ300
#09901:00
#09901:00
#09901:00
#09901:00
#09901:00
#09901:00
#09901:00
#09901:00
#09901:00
#09901:00
#09901:00
#09901:00
#09901:00
#09901:0000006U
#09901:006T006T006T006T
#09901:00
#09901:00
#09901:00DX0000
#09901:DVDV
#09901:00DW00DW00DW0000
#09901:000000DZ
#09911:HA0000000000R800000000HI000000HD0000000000000000
#09912:000000HD00000000HH000000HA000000000000HF00000000
#09913:00HB00000000R4000000HC00000000RL0000000000HD0000
#09914:QC000000HE0000HF00000000RJ0000000000HG00000000HI
#09915:0000000000HF000000HD000000000000HE000000HH000000
#09918:0000HC000000HG000000000000HB000000HF00000000HC00
#09919:000000QJ0000000000RO00000000HC000000Q50000000000
#10001:0200020002000304
#10001:6R0000006S0000006R0000046S000004
#10001:0I0000000I0000000I00000I0I000000
#10001:000J000J000J000J
#10001:0U000R0S0R000T0S0R000S0U0U000R0S
#10001:0N0N0N0N
#10001:00
#10001:00
#10001:00
#10001:00
#10001:00
#10001:00
#10001:00
#10001:00
#10001:00
#10001:00
#10001:00
#10001:00
#10001:00
#10001:00
#10001:00
#10001:00
#10001:00
#10001:006T006T006T006T
#10001:00
#10001:00
#10001:00000000DX000000000000E3DY000000
#10001:DV000000DV0000E4
#10001:0000DW000000DW000000DW00000000E5
#10011:HA0000000000000000000000J800000000000000HC00000000000000HC00000000000000000000JF0000000000000000
#10012:0000HD000000HD00HA0000JF0000JG00
#10013:00HB0000000000HF000000HI000000JE0000JG00000000HI
#10014:00000000HE00000000JA000000HB000000HF000000HD0000
#10015:0000HC0000HF0000HH000000JC000000HE0000HF0000HC00
#10018:000000000000J80000000000HG0000000000000000JB0000000000000000HD000000000000000000HH00000000000000
#10019:J70000J900J9000000JD0000HG0000JH
#10101:5S
#10101:00000000000000DA
#10101:0I0000000000000I
#10101:00
#10101:0U
#10101:00
#10101:00
#10101:00
#10101:00
#10101:00
#10101:00
#10101:00
#10101:00
#10101:00
#10101:00
#10101:00
#10101:00
#10101:00
#10101:00
#10101:00000000000000DE
#10101:00
#10101:00
#10101:00
#10101:00
#10101:00
#10101:00
#10101:00
#10101:00
#10101:00000000000000GE
#10101:E6
#10101:H8
#10111:0200000000000003
#10112:000000000000000000000000SD0000SG
#10113:0000000000000000S90000SC00SE0000
#10114:00000000000000S80000SB000000SF00
#10115:0000S3000000S70000SA000000000000
#10116:090000000000000G
#10118:S20000S400S60000000000000000RS00
#10119:00S50000
#10201:00
#10201:00
#10201:0I0I000I0I000I0I000I0I000I000I00
#10201:0N00000N00000N00000N00000O000O00
#10201:000000000000000000000000000S0000
#10201:00
#10201:00
#10201:00
#10201:00
#10201:00
#10201:00
#10201:00
#10201:00
#10201:00
#10201:00
#10201:00
#10201:00
#10201:00
#10201:00
#10201:00
#10201:00
#10201:00
#10201:00
#10201:00
#10201:000000000000GPGK0000000000000000
#10201:000000000000000000GQGL0000000000
#10201:GNGI00000000000000000000GI000000
#10201:000000GOGJ000000000000000000GJ00
#10201:00000000000000GH
#10201:GFGG00GFGG00GFGG00GFGG00GG000000
#10211:04030004030004030004030003000300
#10212:000000DGDR00000000000000DI000000
#10213:0R0U000R0U000R0U000R0U000000DJ00
#10214:000000000000DHDS000000000R00DD00
#10215:DBDC00DBDC00DBDC00DBDC00DB000000
#10216:0H0G000H0G000H0G000H0G000G000G00
#10218:DFDQ00000000000000DFDQ000000RW00
#10219:RTRU00RTRU00RTRU00RTRU00RV000U00
#10301:00
#10301:00
#10301:00
#10301:00
#10301:00
#10301:00
#10301:00
#10301:00
#10301:00
#10301:00
#10301:00
#10301:00
#10301:00
#10301:00
#10301:00
#10301:00
#10301:00
#10301:00
#10301:00
#10301:00
#10301:00
#10301:00
#10301:00
#10301:00
#10301:00
#10301:00
#10301:00
#10301:00
#10301:00
#10301:00
#10301:GR
#10311:02
#10312:DK00DLDNDP000000
#10313:GM00000000DM00DO0000000000000000
#10315:DC00000000RY00S00000000000000000
#10316:0G
#10318:0000RXRZS1000000
#10319:RV