*---------------------- HEADER FIELD
#PLAYER 1
#GENRE GOTHIC CHOIR
#TITLE Alice in Misanthrope -厭世アリス-[絶対少女領域]
#ARTIST LeaF
#BPM 172
#PLAYLEVEL 20
#RANK 3
#TOTAL 666
#STAGEFILE _title.png
#WAV01 kick1_4g.wav
#WAV02 kick1_4.wav
#WAV03 kick1_8.wav
#WAV04 kick1_16.wav
#WAV05 kick1_32.wav
#WAV06 kick1_sub1.wav
#WAV07 kick1_sub2.wav
#WAV08 cym1_1.wav
#WAV09 cym1_2.wav
#WAV0A cym1_3.wav
#WAV0B cym1_4.wav
#WAV0C cym1_5.wav
#WAV0D cym1_6.wav
#WAV0E cym1_7_spr.wav
#WAV0F cym1_9.wav
#WAV0G cym1_10.wav
#WAV0H cym1_11.wav
#WAV0I hat1.wav
#WAV0J hat2.wav
#WAV0K hat3.wav
#WAV0L hat4.wav
#WAV0M hat5.wav
#WAV0N ride1.wav
#WAV0O ride2.wav
#WAV0P ride3.wav
#WAV0Q snare1.wav
#WAV0R snaredrum1_1.wav
#WAV0S snaredrum1_1.wav
#WAV0T snaredrum1_2.wav
#WAV0U snaredrum1_3.wav
#WAV0V clap1.wav
#WAV0W clap2.wav
#WAV0X tom1.wav
#WAV0Y tom2.wav
#WAV0Z tom3.wav
#WAV10 tom4.wav
#WAV11 tom5.wav
#WAV12 tom6.wav
#WAV13 break1_1.wav
#WAV14 break1_2.wav
#WAV15 break1_3.wav
#WAV16 break1_4.wav
#WAV17 break1_5.wav
#WAV18 break1_6.wav
#WAV19 break1_7.wav
#WAV1A break1_8.wav
#WAV1B break2_1.wav
#WAV1C break2_2.wav
#WAV1D break2_3.wav
#WAV1E break2_4.wav
#WAV1F break2_5.wav
#WAV1G break2_6.wav
#WAV1H break2_7.wav
#WAV1I break2_8.wav
#WAV1J break3_1.wav
#WAV1K break3_2.wav
#WAV1L break3_3.wav
#WAV1M break3_4.wav
#WAV1N break3_5.wav
#WAV1O break3_6.wav
#WAV1P break3_7.wav
#WAV1Q break3_8.wav
#WAV1R break3_9.wav
#WAV1S break3_10.wav
#WAV1T break3_11.wav
#WAV1U break3_12.wav
#WAV1V break3_14.wav
#WAV1W break3_15.wav
#WAV1X break3_16.wav
#WAV1Y break3_17.wav
#WAV1Z break3_18.wav
#WAV20 break3_19.wav
#WAV21 break3_20.wav
#WAV22 break3_21.wav
#WAV23 break3_22.wav
#WAV24 break3_23.wav
#WAV25 break3_24.wav
#WAV26 break3_25.wav
#WAV27 break3_26.wav
#WAV28 break3_27.wav
#WAV29 break3_28.wav
#WAV2A break3_29.wav
#WAV2B break3_30.wav
#WAV2C break3_31.wav
#WAV2D break3_32.wav
#WAV2E break3_33.wav
#WAV2F break3_34.wav
#WAV2G break3_35.wav
#WAV2H break3_36.wav
#WAV2I break3_37.wav
#WAV2J break3_38.wav
#WAV2K break3_39.wav
#WAV2L break3_40.wav
#WAV2M break3_41.wav
#WAV2N break3_42.wav
#WAV2O break4_1.wav
#WAV2P break4_2.wav
#WAV2Q break4_3.wav
#WAV2R break4_4.wav
#WAV2S break4_5.wav
#WAV2T break4_6.wav
#WAV2U break4_7.wav
#WAV2V break4_8.wav
#WAV2W break4_9.wav
#WAV2X break4_10.wav
#WAV2Y break4_11.wav
#WAV2Z break4_12.wav
#WAV30 ens1_1.wav
#WAV31 ens1_2.wav
#WAV32 ens1_3.wav
#WAV33 ens1_4.wav
#WAV34 ens1_5.wav
#WAV35 ens1_6.wav
#WAV36 ens1_7.wav
#WAV37 ens1_8.wav
#WAV38 ens1_9.wav
#WAV39 ens1_10.wav
#WAV3A fx1.wav
#WAV3B synth1_1.wav
#WAV3C synth1_2.wav
#WAV3D synth1_3.wav
#WAV3E synth1_4.wav
#WAV3F synth1_5.wav
#WAV3G synth1_6.wav
#WAV3H synth1_7.wav
#WAV3I synth1_8.wav
#WAV3J synth1_9.wav
#WAV3K synth1_10.wav
#WAV3L synth1_11.wav
#WAV3M synth1_12.wav
#WAV3N synth1_13.wav
#WAV3O synth1_14.wav
#WAV3P synth1_15.wav
#WAV3Q synth1_16.wav
#WAV3R synth1_17.wav
#WAV3S synth1_18.wav
#WAV3T synth1_19.wav
#WAV3U synth1_20.wav
#WAV3V synth1_21.wav
#WAV3W synth1_22.wav
#WAV3X synth1_23.wav
#WAV3Y synth1_24.wav
#WAV3Z synth1_25.wav
#WAV40 synth1_26.wav
#WAV41 synth1_27.wav
#WAV42 synth1_28.wav
#WAV43 synth1_29.wav
#WAV44 synth1_30.wav
#WAV45 synth1_31.wav
#WAV46 synth2_1.wav
#WAV47 synth2_2.wav
#WAV48 synth2_3.wav
#WAV49 synth2_4.wav
#WAV4A synth2_5.wav
#WAV4B synth2_6.wav
#WAV4C synth2_7.wav
#WAV4D synth2_8.wav
#WAV4E synth2_9.wav
#WAV4F synth2_10.wav
#WAV4G synth2_11.wav
#WAV4H synth2_12.wav
#WAV4I synth2_13.wav
#WAV4J synth2_14.wav
#WAV4K synth2_15.wav
#WAV4L synth2_16.wav
#WAV4M synth2_17.wav
#WAV4N synth2_18.wav
#WAV4O synth2_19.wav
#WAV4P synth2_20.wav
#WAV4Q synth2_21.wav
#WAV4R synth2_22.wav
#WAV4S synth2_23.wav
#WAV4T synth2_24.wav
#WAV4U synth2_25.wav
#WAV4V synth2_26.wav
#WAV4W synth2_27.wav
#WAV4X synth2_28.wav
#WAV4Y synth3_1.wav
#WAV4Z synth3_2.wav
#WAV50 synth3_3.wav
#WAV51 synth3_5.wav
#WAV52 synth3_6.wav
#WAV53 synth3_7.wav
#WAV54 synth3_8.wav
#WAV55 synth3_9.wav
#WAV56 synth3_10.wav
#WAV57 synth3_11.wav
#WAV58 synth3_12.wav
#WAV59 synth3_13.wav
#WAV5A synth3_14.wav
#WAV5B synth3_15.wav
#WAV5C synth3_16.wav
#WAV5D synth3_17.wav
#WAV5E synth3_18.wav
#WAV5F synth3_19.wav
#WAV5G synth3_20.wav
#WAV5H synth3_21.wav
#WAV5I synth3_22.wav
#WAV5J synth3_23.wav
#WAV5K synth3_24.wav
#WAV5L synth3_25.wav
#WAV5M synth3_26.wav
#WAV5N synth3_27.wav
#WAV5O synth3_28.wav
#WAV5P synth3_29.wav
#WAV5Q stringsfx1_1.wav
#WAV5R stringsfx1_2.wav
#WAV5S stringsfx1_3.wav
#WAV5T strings1_1.wav
#WAV5U strings1_2.wav
#WAV5V strings1_4.wav
#WAV5W strings1_5.wav
#WAV5X strings1_6.wav
#WAV5Y strings1_7.wav
#WAV5Z strings1_8.wav
#WAV60 strings1_9.wav
#WAV61 strings1_10.wav
#WAV62 strings1_11.wav
#WAV63 strings1_12.wav
#WAV64 strings1_13.wav
#WAV65 strings1_14.wav
#WAV66 strings1_15.wav
#WAV67 strings1_16.wav
#WAV68 strings1_17.wav
#WAV69 strings1_18.wav
#WAV6A strings1_19.wav
#WAV6B strings1_20.wav
#WAV6C strings1_21.wav
#WAV6D strings1_22.wav
#WAV6E strings1_23.wav
#WAV6F strings1_24.wav
#WAV6G strings1_25.wav
#WAV6H strings1_27.wav
#WAV6I strings1_28.wav
#WAV6J strings1_29.wav
#WAV6K strings1_30.wav
#WAV6L strings1_31.wav
#WAV6M strings1_32.wav
#WAV6N strings1_33.wav
#WAV6O strings1_34.wav
#WAV6P strings1_35.wav
#WAV6Q strings1_36.wav
#WAV6R strings1_37.wav
#WAV6S strings1_38.wav
#WAV6T strings1_39.wav
#WAV6U strings1_40.wav
#WAV6V strings1_41.wav
#WAV6W strings2_1.wav
#WAV6X strings2_2.wav
#WAV6Y strings2_3.wav
#WAV6Z strings2_4.wav
#WAV70 strings2_5.wav
#WAV71 strings2_6.wav
#WAV72 strings2_7.wav
#WAV73 strings2_8.wav
#WAV74 strings2_9.wav
#WAV75 strings2_10.wav
#WAV76 strings2_11.wav
#WAV77 strings2_12.wav
#WAV78 strings2_13.wav
#WAV79 strings2_14.wav
#WAV7A strings2_15.wav
#WAV7B strings2_16.wav
#WAV7C strings2_17.wav
#WAV7D strings2_18.wav
#WAV7E strings2_19.wav
#WAV7F strings2_20.wav
#WAV7G strings2_21.wav
#WAV7H strings2_22.wav
#WAV7I strings2_23.wav
#WAV7J strings2_24.wav
#WAV7K strings2_25.wav
#WAV7L strings2_26.wav
#WAV7M strings2_27.wav
#WAV7N strings2_28.wav
#WAV7O strings4_1.wav
#WAV7P strings4_2.wav
#WAV7Q strings4_3.wav
#WAV7R strings4_4.wav
#WAV7S strings4_5.wav
#WAV7T strings4_6.wav
#WAV7U strings4_7.wav
#WAV7V strings4_8.wav
#WAV7W strings4_9.wav
#WAV7X strings4_10.wav
#WAV7Y strings4_11.wav
#WAV7Z strings4_12.wav
#WAV80 strings4_13.wav
#WAV81 strings4_14.wav
#WAV82 strings4_15.wav
#WAV83 strings4_16.wav
#WAV84 strings4_17.wav
#WAV85 strings4_18.wav
#WAV86 strings4_19.wav
#WAV87 strings4_20.wav
#WAV88 strings4_21.wav
#WAV89 strings4_22.wav
#WAV8A strings4_23.wav
#WAV8B strings4_24.wav
#WAV8C strings4_25.wav
#WAV8D strings4_26.wav
#WAV8E strings4_27.wav
#WAV8F strings4_28.wav
#WAV8G strings4_29.wav
#WAV8H strings4_30.wav
#WAV8I strings4_31.wav
#WAV8J strings4_32.wav
#WAV8K strings4_33.wav
#WAV8L strings4_34.wav
#WAV8M strings4_35_bgm.wav
#WAV8N strings4_36.wav
#WAV8O strings4_37.wav
#WAV8P strings4_38.wav
#WAV8Q strings4_39.wav
#WAV8R strings4_40.wav
#WAV8S strings4_41.wav
#WAV8T strings4_42.wav
#WAV8U strings7_1.wav
#WAV8V strings7_2.wav
#WAV8W strings7_3.wav
#WAV8X strings7_4.wav
#WAV8Y strings7_5.wav
#WAV8Z strings7_6.wav
#WAV90 strings7_7.wav
#WAV91 strings7_8.wav
#WAV92 strings7_9.wav
#WAV93 strings7_10.wav
#WAV94 strings7_11.wav
#WAV95 strings7_12.wav
#WAV96 strings7_13.wav
#WAV97 strings7_14.wav
#WAV98 strings7_15.wav
#WAV99 strings7_16.wav
#WAV9A strings7_17.wav
#WAV9B strings7_18.wav
#WAV9C strings7_19.wav
#WAV9D strings7_20.wav
#WAV9E strings7_21.wav
#WAV9F strings7_22.wav
#WAV9G strings7_23.wav
#WAV9H strings7_24.wav
#WAV9I strings8_1.wav
#WAV9J strings8_2.wav
#WAV9K strings8_3.wav
#WAV9L strings8_4.wav
#WAV9M strings8_5.wav
#WAV9N strings8_6.wav
#WAV9O strings8_7.wav
#WAV9P strings8_8.wav
#WAV9Q strings8_9.wav
#WAV9R strings8_10.wav
#WAV9S strings8_11.wav
#WAV9T strings8_12.wav
#WAV9U strings8_13.wav
#WAV9V strings8_14.wav
#WAV9W strings8_15.wav
#WAV9X strings8_16.wav
#WAV9Y strings8_17.wav
#WAV9Z strings8_18.wav
#WAVA0 strings8_19.wav
#WAVA1 strings8_20.wav
#WAVA2 strings8_21.wav
#WAVA3 strings8_22.wav
#WAVA4 strings8_23.wav
#WAVA5 strings8_24.wav
#WAVA6 strings8_25.wav
#WAVA7 strings8_26.wav
#WAVA8 strings8_27.wav
#WAVA9 strings8_28.wav
#WAVAA strings8_29.wav
#WAVAB strings8_30.wav
#WAVAC strings8_31.wav
#WAVAD strings8_32.wav
#WAVAE strings8_33.wav
#WAVAF strings8_34.wav
#WAVAG strings8_35.wav
#WAVAH strings8_36.wav
#WAVAI strings8_37.wav
#WAVAJ strings8_38.wav
#WAVAK strings8_39.wav
#WAVAL strings8_40.wav
#WAVAM strings8_41.wav
#WAVAN strings8_42.wav
#WAVAO strings8_43.wav
#WAVAP strings9_1.wav
#WAVAQ strings9_2.wav
#WAVAR strings9_3.wav
#WAVAS strings9_4.wav
#WAVAT strings9_5.wav
#WAVAU strings9_6.wav
#WAVAV strings9_7.wav
#WAVAW strings9_8.wav
#WAVAX strings9_9.wav
#WAVAY strings9_10.wav
#WAVAZ strings9_11.wav
#WAVB0 strings9_12.wav
#WAVB1 strings9_13.wav
#WAVB2 strings9_14.wav
#WAVB3 strings9_15.wav
#WAVB4 strings9_16.wav
#WAVB5 strings9_17.wav
#WAVB6 strings9_18.wav
#WAVB7 strings9_19.wav
#WAVB8 strings9_20.wav
#WAVB9 strings9_21.wav
#WAVBA strings9_22.wav
#WAVBB strings9_23.wav
#WAVBC strings9_24.wav
#WAVBD strings9_25.wav
#WAVBE strings9_26.wav
#WAVBF strings10_1.wav
#WAVBG strings10_2.wav
#WAVBH strings10_3.wav
#WAVBI strings10_4.wav
#WAVBJ strings10_5.wav
#WAVBK strings10_6.wav
#WAVBL strings10_7.wav
#WAVBM strings10_8.wav
#WAVBN strings10_8.wav
#WAVBO strings10_10.wav
#WAVBP strings10_11.wav
#WAVBQ strings10_12.wav
#WAVBR strings10_13.wav
#WAVBS strings10_14.wav
#WAVBT strings11_1.wav
#WAVBU strings11_2.wav
#WAVBV strings11_3.wav
#WAVBW strings11_5.wav
#WAVBX strings11_6.wav
#WAVBY strings11_7.wav
#WAVBZ strings11_8.wav
#WAVC0 strings11_9.wav
#WAVC1 strings11_11.wav
#WAVC2 strings11_12.wav
#WAVC3 strings11_13.wav
#WAVC4 strings11_14.wav
#WAVC5 strings11_15.wav
#WAVC6 strings11_16.wav
#WAVC7 strings11_17.wav
#WAVC8 strings11_18.wav
#WAVC9 strings11_19.wav
#WAVCA strings11_20.wav
#WAVCB strings11_21.wav
#WAVCC strings12_1.wav
#WAVCD strings12_2.wav
#WAVCE strings12_3.wav
#WAVCF strings12_4.wav
#WAVCG strings12_5.wav
#WAVCH strings12_6.wav
#WAVCI strings12_7.wav
#WAVCJ strings12_8.wav
#WAVCK strings12_9.wav
#WAVCL strings12_10.wav
#WAVCM strings12_11.wav
#WAVCN strings12_12.wav
#WAVCO strings12_13.wav
#WAVCP strings12_14.wav
#WAVCQ strings12_15.wav
#WAVCR strings12_16.wav
#WAVCS strings12_18.wav
#WAVCT strings13_1.wav
#WAVCU strings13_2.wav
#WAVCV strings13_3.wav
#WAVCW strings13_4.wav
#WAVCX strings13_5.wav
#WAVCY strings13_6.wav
#WAVCZ strings13_7.wav
#WAVD0 strings13_8.wav
#WAVD1 strings13_9.wav
#WAVD2 strings13_10.wav
#WAVD3 strings13_11.wav
#WAVD4 strings13_12.wav
#WAVD5 strings13_13.wav
#WAVD6 strings13_14.wav
#WAVD7 strings13_15.wav
#WAVD8 strings13_16.wav
#WAVD9 strings13_17.wav
#WAVDA strings14_1.wav
#WAVDB strings14_2.wav
#WAVDC strings14_3.wav
#WAVDD strings14_4.wav
#WAVDE strings14_5.wav
#WAVDF strings14_6.wav
#WAVDG strings14_7.wav
#WAVDH strings14_8.wav
#WAVDI strings14_9.wav
#WAVDJ strings14_10.wav
#WAVDK strings14_11.wav
#WAVDL strings14_12.wav
#WAVDM strings14_13.wav
#WAVDN strings14_14.wav
#WAVDO strings14_15.wav
#WAVDP strings14_16.wav
#WAVDQ strings14_6.wav
#WAVDR strings14_7.wav
#WAVDS strings14_8.wav
#WAVDT chenvalo1_1.wav
#WAVDU chenvalo1_2.wav
#WAVDV chenvalo1_3.wav
#WAVDW chenvalo1_4.wav
#WAVDX chenvalo1_5.wav
#WAVDY chenvalo1_6.wav
#WAVDZ chenvalo1_7.wav
#WAVE0 chenvalo1_8.wav
#WAVE1 chenvalo1_9.wav
#WAVE2 chenvalo1_10.wav
#WAVE3 chenvalo1_11.wav
#WAVE4 chenvalo1_12.wav
#WAVE5 chenvalo1_13.wav
#WAVE6 chenvalo1_14.wav
#WAVE7 chenvalo1_15.wav
#WAVE8 chenvalo2_1.wav
#WAVE9 chenvalo2_2.wav
#WAVEA chenvalo2_3.wav
#WAVEB chenvalo2_4.wav
#WAVEC chenvalo2_5.wav
#WAVED chenvalo2_6.wav
#WAVEE chenvalo2_7.wav
#WAVEF chenvalo3_1.wav
#WAVEG chenvalo3_2.wav
#WAVEH chenvalo3_3.wav
#WAVEI chenvalo3_4.wav
#WAVEJ chenvalo3_5.wav
#WAVEK chenvalo3_6.wav
#WAVEL chenvalo3_7.wav
#WAVEM chenvalo3_8.wav
#WAVEN chenvalo3_9.wav
#WAVEO chenvalo3_10.wav
#WAVEP chenvalo3_11.wav
#WAVEQ chenvalo3_12.wav
#WAVER chenvalo3_13.wav
#WAVES chenvalo3_14.wav
#WAVET chenvalo3_15.wav
#WAVEU chenvalo3_16.wav
#WAVEV chenvalo3_17.wav
#WAVEW chenvalo3_18.wav
#WAVEX chenvalo3_19.wav
#WAVEY chenvalo3_20.wav
#WAVEZ chenvalo3_21.wav
#WAVF0 chenvalo3_22.wav
#WAVF1 chenvalo3_23.wav
#WAVF2 chenvalo3_24.wav
#WAVF3 chenvalo3_25.wav
#WAVF4 chenvalo3_26.wav
#WAVF5 chenvalo3_27.wav
#WAVF6 chenvalo3_28.wav
#WAVF7 chenvalo3_29.wav
#WAVF8 chenvalo3_30.wav
#WAVF9 chenvalo3_31.wav
#WAVFA chenvalo3_32.wav
#WAVFB chenvalo3_33.wav
#WAVFC chenvalo3_34.wav
#WAVFD chenvalo3_35.wav
#WAVFE chenvalo4_1.wav
#WAVFF chenvalo4_2.wav
#WAVFG chenvalo4_3.wav
#WAVFH chenvalo4_4.wav
#WAVFI chenvalo4_5.wav
#WAVFJ chenvalo4_6.wav
#WAVFK chenvalo4_7.wav
#WAVFL chenvalo4_8.wav
#WAVFM chenvalo4_9.wav
#WAVFN chenvalo4_10.wav
#WAVFO chenvalo5_1.wav
#WAVFP chenvalo5_2.wav
#WAVFQ chenvalo5_3.wav
#WAVFR chenvalo5_4.wav
#WAVFS chenvalo5_5.wav
#WAVFT chenvalo5_6.wav
#WAVFU chenvalo5_7.wav
#WAVFV chenvalo5_8.wav
#WAVFW chenvalo5_9.wav
#WAVFX chenvalo5_10.wav
#WAVFY chenvalo5_11.wav
#WAVFZ chenvalo5_12.wav
#WAVG0 chenvalo5_13.wav
#WAVG1 chenvalo5_14.wav
#WAVG2 chenvalo5_15.wav
#WAVG3 chenvalo5_16.wav
#WAVG4 chenvalo5_17.wav
#WAVG5 chenvalo5_18.wav
#WAVG6 chenvalo5_19.wav
#WAVG7 chenvalo5_20.wav
#WAVG8 chenvalo5_21.wav
#WAVG9 chenvalo5_22.wav
#WAVGA chenvalo5_23.wav
#WAVGB chenvalo5_24.wav
#WAVGC chenvalo5_25.wav
#WAVGD chenvalo5_26.wav
#WAVGE chenvalo6_1.wav
#WAVGF chenvalo6_2.wav
#WAVGG chenvalo6_3.wav
#WAVGH chenvalo6_4.wav
#WAVGI chenvalo6_5.wav
#WAVGJ chenvalo6_6.wav
#WAVGK chenvalo6_7.wav
#WAVGL chenvalo6_8.wav
#WAVGM chenvalo6_9.wav
#WAVGN chenvalo6_10.wav
#WAVGO chenvalo6_11.wav
#WAVGP chenvalo6_12.wav
#WAVGQ chenvalo6_13.wav
#WAVGR chor1_1.wav
#WAVGS chor2_1.wav
#WAVGT chor2_2.wav
#WAVGU chor2_3.wav
#WAVGV chor2_4.wav
#WAVGW chor2_5.wav
#WAVGX chor2_6.wav
#WAVGY chor2_7.wav
#WAVGZ chor2_8.wav
#WAVH0 chor2_9.wav
#WAVH1 chor2_10.wav
#WAVH2 chor2_11.wav
#WAVH3 chor2_12.wav
#WAVH4 chor2_13.wav
#WAVH5 chor2_14.wav
#WAVH6 chor2_15.wav
#WAVH7 chor2_16.wav
#WAVH8 chor3_1.wav
#WAVH9 glissando1.wav
#WAVHA harp1_1.wav
#WAVHB harp1_2.wav
#WAVHC harp1_3.wav
#WAVHD harp1_4.wav
#WAVHE harp1_5.wav
#WAVHF harp1_6.wav
#WAVHG harp1_7.wav
#WAVHH harp1_8.wav
#WAVHI harp1_9.wav
#WAVHJ celesta1_1.wav
#WAVHK celesta1_2.wav
#WAVHL celesta1_3.wav
#WAVHM celesta1_4.wav
#WAVHN celesta1_5.wav
#WAVHO celesta1_6.wav
#WAVHP celesta1_7.wav
#WAVHQ celesta1_8.wav
#WAVHR celesta1_9.wav
#WAVHS celesta1_10.wav
#WAVHT celesta1_11.wav
#WAVHU celesta1_12.wav
#WAVHV celesta1_13.wav
#WAVHW celesta1_14.wav
#WAVHX celesta1_15.wav
#WAVHY piano1_1.wav
#WAVHZ piano1_2.wav
#WAVI0 piano1_3.wav
#WAVI1 piano1_4.wav
#WAVI2 piano1_5.wav
#WAVI3 piano1_6.wav
#WAVI4 piano1_7.wav
#WAVI5 piano1_8.wav
#WAVI6 piano1_9.wav
#WAVI7 piano1_10.wav
#WAVI8 piano1_11.wav
#WAVI9 piano1_12.wav
#WAVIA piano1_13.wav
#WAVIB piano1_14.wav
#WAVIC piano1_15.wav
#WAVID piano1_16.wav
#WAVIE piano1_17.wav
#WAVIF piano1_18.wav
#WAVIG piano1_19.wav
#WAVIH piano1_20.wav
#WAVII piano1_21.wav
#WAVIJ piano1_22.wav
#WAVIK piano1_23.wav
#WAVIL piano1_24.wav
#WAVIM piano2_1.wav
#WAVIN piano2_2.wav
#WAVIO piano2_3.wav
#WAVIP piano2_4.wav
#WAVIQ piano2_5.wav
#WAVIR piano2_6.wav
#WAVIS piano2_7.wav
#WAVIT piano2_8.wav
#WAVIU piano2_9.wav
#WAVIV piano2_10.wav
#WAVIW piano2_11.wav
#WAVIX piano2_12.wav
#WAVIY piano2_13.wav
#WAVIZ piano2_14.wav
#WAVJ0 piano2_15.wav
#WAVJ1 piano2_16.wav
#WAVJ2 piano2_17.wav
#WAVJ3 piano2_18.wav
#WAVJ4 piano2_19.wav
#WAVJ5 piano2_21.wav
#WAVJ6 piano2_23.wav
#WAVJ7 piano2_24.wav
#WAVJ8 piano2_25.wav
#WAVJ9 piano2_26.wav
#WAVJA piano2_27.wav
#WAVJB piano2_28.wav
#WAVJC piano2_29.wav
#WAVJD piano2_30.wav
#WAVJE piano2_31.wav
#WAVJF piano2_32.wav
#WAVJG piano2_33.wav
#WAVJH piano2_34.wav
#WAVJI piano3_1.wav
#WAVJJ piano3_2.wav
#WAVJK piano3_3.wav
#WAVJL piano3_4.wav
#WAVJM piano3_5.wav
#WAVJN piano3_6.wav
#WAVJO piano3_7.wav
#WAVJP piano3_8.wav
#WAVJQ piano3_9.wav
#WAVJR piano3_10.wav
#WAVJS piano3_11.wav
#WAVJT piano3_12.wav
#WAVJU piano3_13.wav
#WAVJV piano3_14.wav
#WAVJW piano3_15.wav
#WAVJX piano3_16.wav
#WAVJY piano3_17.wav
#WAVJZ piano3_18.wav
#WAVK0 piano3_19.wav
#WAVK1 piano3_20.wav
#WAVK2 piano3_21.wav
#WAVK3 piano3_22.wav
#WAVK4 piano3_23.wav
#WAVK5 piano3_24.wav
#WAVK6 piano3_25.wav
#WAVK7 piano3_26.wav
#WAVK8 piano3_27.wav
#WAVK9 piano3_28.wav
#WAVKA piano3_29.wav
#WAVKB piano3_30.wav
#WAVKC piano3_31.wav
#WAVKD piano3_32.wav
#WAVKE piano3_33.wav
#WAVKF piano3_34.wav
#WAVKG piano3_35.wav
#WAVKH piano3_36.wav
#WAVKI piano3_37.wav
#WAVKJ piano3_38.wav
#WAVKK piano3_39.wav
#WAVKL piano3_40.wav
#WAVKM piano3_41.wav
#WAVKN piano3_42.wav
#WAVKO piano3_43.wav
#WAVKP piano4_1.wav
#WAVKQ piano4_2.wav
#WAVKR piano4_3.wav
#WAVKS piano4_4.wav
#WAVKT piano4_5.wav
#WAVKU piano4_6.wav
#WAVKV piano4_7.wav
#WAVKW piano4_8.wav
#WAVKX piano4_9.wav
#WAVKY piano4_10.wav
#WAVKZ piano4_11.wav
#WAVL0 piano4_12.wav
#WAVL1 piano4_13.wav
#WAVL2 piano4_14.wav
#WAVL3 piano4_15.wav
#WAVL4 piano4_16.wav
#WAVL5 piano4_17.wav
#WAVL6 piano4_18.wav
#WAVL7 piano4_19.wav
#WAVL8 piano4_20.wav
#WAVL9 piano4_21.wav
#WAVLA piano4_22.wav
#WAVLB piano4_23.wav
#WAVLC piano4_24.wav
#WAVLD piano4_25.wav
#WAVLE piano4_26.wav
#WAVLF piano4_27.wav
#WAVLG piano4_28.wav
#WAVLH piano4_29.wav
#WAVLI piano4_30.wav
#WAVLJ piano4_31.wav
#WAVLK piano4_32.wav
#WAVLL piano4_33.wav
#WAVLM piano4_34.wav
#WAVLN piano4_35.wav
#WAVLO piano4_36.wav
#WAVLP piano4_37.wav
#WAVLQ piano4_38.wav
#WAVLR piano4_39.wav
#WAVLS piano4_40.wav
#WAVLT piano4_41.wav
#WAVLU piano4_42.wav
#WAVLV piano4_43.wav
#WAVLW piano4_44.wav
#WAVLX piano4_45.wav
#WAVLY piano4_46.wav
#WAVLZ piano4_47.wav
#WAVM0 piano4_48.wav
#WAVM1 piano4_49.wav
#WAVM2 piano5_1.wav
#WAVM3 piano5_2.wav
#WAVM4 piano5_3.wav
#WAVM5 piano5_4.wav
#WAVM6 piano5_5.wav
#WAVM7 piano5_6.wav
#WAVM8 piano5_7.wav
#WAVM9 piano5_8.wav
#WAVMA piano5_9.wav
#WAVMB piano5_10.wav
#WAVMC piano5_11.wav
#WAVMD piano5_12.wav
#WAVME piano5_13.wav
#WAVMF piano5_14.wav
#WAVMG piano6_1.wav
#WAVMH piano6_2.wav
#WAVMI piano6_3.wav
#WAVMJ piano6_4.wav
#WAVMK piano6_5.wav
#WAVML piano6_6.wav
#WAVMM piano6_7.wav
#WAVMN piano6_8.wav
#WAVMO piano6_9.wav
#WAVMP piano6_10.wav
#WAVMQ piano6_11.wav
#WAVMR piano6_12.wav
#WAVMS piano6_13.wav
#WAVMT piano6_14.wav
#WAVMU piano6_15.wav
#WAVMV piano6_16.wav
#WAVMW piano6_17.wav
#WAVMX piano6_18.wav
#WAVMY piano6_19.wav
#WAVMZ piano6_20.wav
#WAVN0 piano6_21.wav
#WAVN1 piano6_22.wav
#WAVN2 piano6_23.wav
#WAVN3 piano6_24.wav
#WAVN4 piano6_25.wav
#WAVN5 piano6_26.wav
#WAVN6 piano6_27.wav
#WAVN7 piano6_28.wav
#WAVN8 piano6_29.wav
#WAVN9 piano6_30.wav
#WAVNA piano6_31.wav
#WAVNB piano6_32.wav
#WAVNC piano7_1.wav
#WAVND piano7_2.wav
#WAVNE piano7_3.wav
#WAVNF piano7_4.wav
#WAVNG piano7_5.wav
#WAVNH piano7_6.wav
#WAVNI piano7_7.wav
#WAVNJ piano7_8.wav
#WAVNK piano7_9.wav
#WAVNL piano7_10.wav
#WAVNM piano7_11.wav
#WAVNN piano7_12.wav
#WAVNO piano7_13.wav
#WAVNP piano7_14.wav
#WAVNQ piano7_15.wav
#WAVNR piano7_16.wav
#WAVNS piano7_17.wav
#WAVNT piano7_18.wav
#WAVNU piano7_19.wav
#WAVNV piano7_20.wav
#WAVNW piano7_21.wav
#WAVNX piano7_22.wav
#WAVNY piano7_23.wav
#WAVNZ piano7_24.wav
#WAVO0 piano7_25.wav
#WAVO1 piano7_26.wav
#WAVO2 piano7_27.wav
#WAVO3 piano7_28.wav
#WAVO4 piano7_29.wav
#WAVO5 piano7_30.wav
#WAVO6 piano7_31.wav
#WAVO7 piano7_32.wav
#WAVO8 piano7_33.wav
#WAVO9 piano7_34.wav
#WAVOA piano7_35.wav
#WAVOB piano7_36.wav
#WAVOC piano7_37.wav
#WAVOD piano7_38.wav
#WAVOE piano7_39.wav
#WAVOF piano8_1.wav
#WAVOG piano8_2.wav
#WAVOH piano8_3.wav
#WAVOI piano8_4.wav
#WAVOJ piano8_5.wav
#WAVOK piano8_6.wav
#WAVOL piano8_7.wav
#WAVOM piano8_8.wav
#WAVON piano8_9.wav
#WAVOO piano8_10.wav
#WAVOP piano8_11.wav
#WAVOQ piano8_12.wav
#WAVOR piano8_14.wav
#WAVOS piano8_15.wav
#WAVOT piano8_16.wav
#WAVOU piano8_17.wav
#WAVOV piano8_18.wav
#WAVOW piano8_19.wav
#WAVOX piano8_20.wav
#WAVOY piano8_21.wav
#WAVOZ piano8_22.wav
#WAVP0 piano8_23.wav
#WAVP1 piano8_24.wav
#WAVP2 piano8_25.wav
#WAVP3 piano8_26.wav
#WAVP4 piano8_27.wav
#WAVP5 piano8_28.wav
#WAVP6 piano8_29.wav
#WAVP7 piano8_30.wav
#WAVP8 piano8_31.wav
#WAVP9 piano8_32.wav
#WAVPA piano8_33.wav
#WAVPB piano8_34.wav
#WAVPC piano8_35.wav
#WAVPD piano8_36.wav
#WAVPE piano9_1.wav
#WAVPF piano9_2.wav
#WAVPG piano9_3.wav
#WAVPH piano9_4.wav
#WAVPI piano9_5.wav
#WAVPJ piano9_6.wav
#WAVPK piano9_7.wav
#WAVPL piano9_8.wav
#WAVPM piano9_9.wav
#WAVPN piano9_10.wav
#WAVPO piano9_11.wav
#WAVPP piano9_12.wav
#WAVPQ piano9_13.wav
#WAVPR piano9_14.wav
#WAVPS piano9_15.wav
#WAVPT piano9_16.wav
#WAVPU piano9_17.wav
#WAVPV piano9_18.wav
#WAVPW piano9_19.wav
#WAVPX piano9_20.wav
#WAVPY piano9_21.wav
#WAVPZ piano9_22.wav
#WAVQ0 pianoadrib1_1.wav
#WAVQ1 pianoadrib1_2.wav
#WAVQ2 pianoadrib1_3.wav
#WAVQ3 pianoadrib1_4.wav
#WAVQ4 pianoadrib1_5.wav
#WAVQ5 pianoadrib1_6.wav
#WAVQ6 pianoadrib1_7.wav
#WAVQ7 pianoadrib1_8.wav
#WAVQ8 pianoadrib1_9.wav
#WAVQ9 pianoadrib1_10.wav
#WAVQA pianoadrib1_11.wav
#WAVQB pianoadrib1_12.wav
#WAVQC pianoadrib1_13.wav
#WAVQD pianoadrib1_14.wav
#WAVQE pianoadrib1_15.wav
#WAVQF pianoadrib1_16.wav
#WAVQG pianoadrib1_17.wav
#WAVQH pianoadrib1_18.wav
#WAVQI pianoadrib1_19.wav
#WAVQJ pianoadrib1_20.wav
#WAVQK pianoadrib1_21.wav
#WAVQL pianoadrib1_22.wav
#WAVQM pianoadrib1_23.wav
#WAVQN pianoadrib1_24.wav
#WAVQO pianoadrib1_25.wav
#WAVQP pianoadrib1_26.wav
#WAVQQ pianoadrib1_27.wav
#WAVQR pianoadrib1_28.wav
#WAVQS pianoadrib1_29.wav
#WAVQT pianoadrib1_30.wav
#WAVQU pianoadrib1_31.wav
#WAVQV pianoadrib1_32.wav
#WAVQW pianoadrib1_33.wav
#WAVQX pianoadrib1_34.wav
#WAVQY pianoadrib1_35.wav
#WAVQZ pianoadrib1_36.wav
#WAVR0 pianoadrib1_37.wav
#WAVR1 pianoadrib1_38.wav
#WAVR2 pianoadrib1_39.wav
#WAVR3 pianoadrib1_40.wav
#WAVR4 pianoadrib1_41.wav
#WAVR5 pianoadrib1_42.wav
#WAVR6 pianoadrib1_43.wav
#WAVR7 pianoadrib1_44.wav
#WAVR8 pianoadrib1_45.wav
#WAVR9 pianoadrib1_46.wav
#WAVRA pianoadrib1_47.wav
#WAVRB pianoadrib1_48.wav
#WAVRC pianoadrib1_49.wav
#WAVRD pianoadrib1_50.wav
#WAVRE pianoadrib1_64.wav
#WAVRF pianoadrib1_51.wav
#WAVRG pianoadrib1_52.wav
#WAVRH pianoadrib1_53.wav
#WAVRI pianoadrib1_54.wav
#WAVRJ pianoadrib1_55.wav
#WAVRK pianoadrib1_56.wav
#WAVRL pianoadrib1_57.wav
#WAVRM pianoadrib1_58.wav
#WAVRN pianoadrib1_59.wav
#WAVRO pianoadrib1_60.wav
#WAVRP pianoadrib1_61.wav
#WAVRQ pianoadrib1_62.wav
#WAVRR pianoadrib1_63.wav
#WAVRS piano10_1.wav
#WAVRT piano10_2.wav
#WAVRU piano10_3.wav
#WAVRV piano10_4.wav
#WAVRW piano10_5.wav
#WAVRX piano10_6.wav
#WAVRY piano10_7.wav
#WAVRZ piano10_8.wav
#WAVS0 piano10_9.wav
#WAVS1 piano10_10.wav
#WAVS2 piano11_1.wav
#WAVS3 piano11_2.wav
#WAVS4 piano11_3.wav
#WAVS5 piano11_4.wav
#WAVS6 piano11_5.wav
#WAVS7 piano11_6.wav
#WAVS8 piano11_7.wav
#WAVS9 piano11_8.wav
#WAVSA piano11_9.wav
#WAVSB piano11_10.wav
#WAVSC piano11_11.wav
#WAVSD piano11_12.wav
#WAVSE piano11_13.wav
#WAVSF piano11_14.wav
#WAVSG piano11_15.wav
#WAVSH synthlo1_168_000.wav
#WAVSI synthlo1_168_001.wav
#WAVSJ synthlo1_168_002.wav
#WAVSK synthlo1_168_003.wav
#WAVSL synthlo1_168_004.wav
#WAVSM synthlo1_168_005.wav
#WAVSN synthlo1_168_006.wav
#WAVSO synthlo1_168_007.wav
#WAVSP synthlo1_168_008.wav
#WAVSQ synthl1_0170_000.wav
#WAVSR synthl1_0170_001.wav
#WAVSS synthl1_0170_002.wav
#WAVST synthl1_0170_003.wav
#WAVSU synthl1_0170_004.wav
#WAVSV synthl1_172_000.wav
#WAVSW synthl1_172_001.wav
#WAVSX synthl1_172_002.wav
#WAVSY synthl1_172_003.wav
#WAVSZ synthl1_172_004.wav
#WAVT0 synthl1_172_005.wav
#WAVT1 synthl1_172_006.wav
#WAVT2 synthl1_172_007.wav
#WAVT3 synthl1_172_008.wav
#WAVT4 synthl1_174_000.wav
#WAVT5 synthl1_174_001.wav
#WAVT6 synthl1_174_002.wav
#WAVT7 synthl1_174_003.wav
#WAVT8 synthl1_174_004.wav
#WAVT9 synthl1_174_005.wav
#WAVTA synthl1_174_006.wav
#WAVTB synthlo2_172_000.wav
#WAVTC synthlo2_172_001.wav
#WAVTD synthlo2_172_002.wav
#WAVTE synthlo2_172_003.wav
#WAVTF synthlo2_172_004.wav
#WAVTG synthlo2_172_005.wav
#WAVTH synthlo2_172_006.wav
#WAVTI synthlo2_172_007.wav
#WAVTJ synthlo2_172_008.wav
#WAVTK synthlo2_172_009.wav
#WAVTL synthlo2_172_010.wav
#WAVTM synthlo2_172_011.wav
#WAVTN synthlo2_172_012.wav
#WAVTO synthlo2_172_013.wav
#WAVTP synthlo2_172_014.wav
#WAVTQ synthlo2_172_015.wav
#WAVTR synthlo2_172_016.wav
#WAVTS synthlo2_172_017.wav
#WAVTT synthlo2_172_018.wav
#WAVTU synthlo2_172_019.wav
#WAVTV synthlo2_172_020.wav
#WAVTW synthlo2_172_021.wav
#WAVTX synthlo2_172_022.wav
#WAVTY slap_000.wav
#WAVTZ slap_001.wav
#WAVU0 slap_002.wav
#WAVU1 slap_003.wav
#WAVU2 slap_004.wav
#WAVU3 slap_005.wav
#WAVU4 slap_006.wav
#WAVU5 slap2_000.wav
#WAVU6 slap2_001.wav
#WAVU7 slap2_002.wav
#WAVU8 slap2_003.wav
#WAVU9 slap2_004.wav
#WAVUA slap2_005.wav
#WAVUB piano9_23.wav
#WAVUC piano9_24.wav
#WAVUD piano9_25.wav
#WAVUE piano9_26.wav
#WAVUF piano9_27.wav
#WAVUG strings34_1_000.wav
#WAVUH strings34_1_001.wav
#WAVUI strings34_1_002.wav
#WAVUJ strings34_1_003.wav
#WAVUK strings34_1_004.wav
#WAVUL strings34_1_005.wav
#WAVUM strings34_1_006.wav
#WAVUN strings34_1_007.wav
#WAVUO strings34_1_008.wav
#WAVUP strings34_1_009.wav
#WAVUQ strings34_1_010.wav
#WAVUR strings34_1_011.wav
#WAVUS strings34_1_012.wav
#WAVUT strings34_1_013.wav
#WAVUU strings34_1_014.wav
#WAVUV strings34_1_015.wav
#WAVUW strings34_1_016.wav
#WAVUX strings34_1_017.wav
#WAVUY strings34_1_018.wav
#WAVUZ strings34_1_019.wav
#WAVV0 strings34_1_020.wav
#WAVV1 strings34_1_021.wav
#WAVV2 strings34_1_022.wav
#WAVV3 strings34_1_023.wav
#WAVV4 strings34_1_024.wav
#WAVV5 strings34_1_025.wav
#WAVV6 strings34_2_000.wav
#WAVV7 strings34_2_001.wav
#WAVV8 strings34_2_002.wav
#WAVV9 strings34_2_003.wav
#WAVVA strings34_2_004.wav
#WAVVB strings34_2_005.wav
#WAVVC strings34_2_006.wav
#WAVVD strings34_2_007.wav
#WAVVE strings34_2_008.wav
#WAVVF strings34_2_009.wav
#WAVVG strings34_2_010.wav
#WAVVH strings34_2_011.wav
#WAVVI strings34_2_012.wav
#WAVVJ strings34_2_013.wav
#WAVVK strings34_2_014.wav
#WAVVL strings34_2_015.wav
#WAVVM strings34_2_016.wav
#WAVVN strings34_2_017.wav
#WAVVO strings34_2_018.wav
#WAVVP strings34_2_019.wav
#WAVVQ strings34_2_020.wav
#WAVVR strings34_2_021.wav
#WAVVS strings34_2_022.wav
#WAVVT strings34_2_023.wav
#WAVVU strings34_2_024.wav
#WAVVV strings34_3_000.wav
#WAVVW strings34_3_001.wav
#WAVVX strings34_3_002.wav
#WAVVY strings34_3_003.wav
#WAVVZ strings34_3_004.wav
#WAVW0 strings34_3_005.wav
#WAVW1 strings34_3_006.wav
#WAVW2 strings34_3_007.wav
#WAVW3 strings34_4_000.wav
#WAVW4 strings34_4_001.wav
#WAVW5 strings34_4_002.wav
#WAVW6 strings34_4_003.wav
#WAVW7 strings34_4_004.wav
#WAVW8 strings34_4_005.wav
#WAVW9 strings34_4_006.wav
#WAVWA strings34_4_007.wav
#WAVWB strings34_5_000.wav
#WAVWC strings34_5_001.wav
#WAVWD strings34_5_002.wav
#WAVWE strings34_5_003.wav
#WAVWF strings34_5_004.wav
#WAVWG strings34_5_005.wav
#WAVWH strings34_5_006.wav
#WAVWI strings34_5_007.wav
#WAVWJ piano34_1_000.wav
#WAVWK piano34_1_001.wav
#WAVWL piano34_1_002.wav
#WAVWM piano34_1_003.wav
#WAVWN piano34_1_004.wav
#WAVWO piano34_1_005.wav
#WAVWP piano34_1_006.wav
#WAVWQ piano34_1_007.wav
#WAVWR piano34_1_008.wav
#WAVWS piano34_1_009.wav
#WAVWT piano34_1_010.wav
#WAVWU piano34_1_011.wav
#WAVWV piano34_1_012.wav
#WAVWW piano34_1_013.wav
#WAVWX piano34_1_014.wav
#WAVWY piano34_1_015.wav
#WAVWZ piano34_1_016.wav
#WAVX0 piano34_1_017.wav
#WAVX1 piano34_1_018.wav
#WAVX2 piano34_1_019.wav
#WAVX3 piano34_1_020.wav
#WAVX4 piano34_1_021.wav
#WAVX5 piano34_1_022.wav
#WAVX6 piano34_1_023.wav
#WAVX7 piano34_1_024.wav
#WAVX8 piano34_1_025.wav
#WAVX9 piano34_1_026.wav
#WAVXA piano34_6_000.wav
#WAVXB piano34_6_001.wav
#WAVXC piano34_6_002.wav
#WAVXD piano34_6_003.wav
#WAVXE piano34_6_004.wav
#WAVXF piano34_6_005.wav
#WAVXG piano34_6_006.wav
#WAVXH piano34_6_007.wav
#WAVXI piano34_6_008.wav
#WAVXJ piano34_6_009.wav
#WAVXK piano34_6_010.wav
#WAVXL piano34_6_011.wav
#WAVXM piano34_6_012.wav
#WAVXN piano34_6_013.wav
#WAVXO piano34_6_014.wav
#WAVXP piano34_6_015.wav
#WAVXQ piano34_6_016.wav
#WAVXR piano34_6_017.wav
#WAVXS piano34_6_018.wav
#WAVXT piano34_6_019.wav
#WAVXU piano34_6_020.wav
#WAVXV piano34_6_021.wav
#WAVXW piano34_6_022.wav
#WAVXX piano34_6_023.wav
#WAVXY piano34_6_024.wav
#WAVXZ piano34_6_025.wav
#WAVY0 piano34_6_026.wav
#WAVY1 piano34_6_027.wav
#WAVY2 piano34_6_028.wav
#WAVY3 piano34_6_029.wav
#WAVY4 piano34_6_030.wav
#WAVY5 piano34_6_031.wav
#WAVY6 piano34_6_032.wav
#WAVY7 piano34_9_000.wav
#WAVY8 piano34_9_001.wav
#WAVY9 piano34_9_002.wav
#WAVYA piano34_9_003.wav
#WAVYB piano34_9_004.wav
#WAVYC piano34_9_005.wav
#WAVYD piano34_9_006.wav
#WAVYE piano34_9_007.wav
#WAVYF piano34_9_008.wav
#WAVYG piano34_9_009.wav
#WAVYH piano34_9_010.wav
#WAVYI piano34_9_011.wav
#WAVYJ piano34_9_012.wav
#WAVYK pianost22_000.wav
#WAVYL pianost22_001.wav
#WAVYM pianost22_002.wav
#WAVYN pianost22_003.wav
#WAVYO pianost22_004.wav
#WAVYP pianost22_005.wav
#WAVYQ pianost22_006.wav
#WAVYR pianost22_007.wav
#WAVYS pianost22_008.wav
#WAVYT pianost22_009.wav
#WAVYU pianost22_010.wav
#WAVYV pianost22_011.wav
#WAVYW pianost22_012.wav
#WAVYX pianost22_013.wav
#WAVYY pianost22_014.wav
#WAVYZ pianost22_015.wav
#WAVZ0 pianost22_016.wav
#WAVZ1 pianost22_017.wav
#WAVZ2 pianost22_018.wav
#WAVZ3 pianost22_019.wav
#WAVZ4 pianost22_020.wav
#WAVZ5 pianost22_021.wav
#WAVZ6 pianost22_022.wav
#WAVZ7 pianost22_023.wav
#WAVZ8 pianost22_024.wav
#WAVZ9 pianost22_025.wav
#WAVZA pianost22_026.wav
#WAVZB pianost22_027.wav
#WAVZC pianost22_028.wav
#WAVZD pianost22_1_000.wav
#WAVZE pianost22_1_001.wav
#WAVZF pianost22_1_002.wav
#WAVZG pianost22_2_000.wav
#WAVZH pianost22_2_001.wav
#WAVZI pianost22_2_002.wav
#WAVZJ pianost22_3_000.wav
#WAVZK pianost22_3_001.wav
#WAVZL pianost22_3_002.wav
#WAVZM bgm2.wav
#WAVZN bgm6.wav
#WAVZO bgm22.wav
#WAVZP bgm34.wav
#WAVZQ bgm50.wav
#WAVZR bgm58.wav
#WAVZS bgm72.wav
#WAVZT bgm90.wav
#WAVZU celesta1_2.wav
#WAVZV celesta1_7.wav
#WAVZW celesta1_1.wav
#WAVZX celesta1_9.wav
#WAVZY celesta1_10.wav
#BMP01 _bga.mpg
#SUBARTIST Movie:想起 / Illust:セシル◇タイト / obj.sitoras
#BACKBMP _backbmp.png
#DIFFICULTY 5
#BANNER _banner.png *---------------------- MAIN DATA FIELD
#00002:0.0625
#00103:9A
#00104:0001
#00201:00
#00201:00
#00201:00
#00201:00
#00201:00
#00201:00
#00201:00
#00201:00
#00201:00
#00201:00
#00201:00
#00201:00
#00201:00
#00201:00
#00201:00
#00201:00
#00201:00
#00201:00
#00201:00
#00201:00
#00201:00
#00201:00
#00201:00
#00201:00
#00201:00
#00201:00
#00201:00
#00201:00
#00201:00
#00201:00
#00201:00
#00201:ZM
#00203:009C
#00212:00000000000000ZU
#00213:HP00000000HK0000
#00214:000000ZU00000000
#00215:00HK00000000HR00
#00216:3A
#00218:00HS
#00219:00HU0000
#00303:A0A4
#00311:00HK000000HK0000
#00312:00000000000000HO
#00313:00ZV00HP
#00314:HP0000HR00000000
#00315:00HS
#00403:A8AC
#00411:02000000020T0000
#00412:0000HJ000000ZW00000S00000S00000R
#00413:0U000000HL000000ZZ00000R00000000
#00414:00000R0000000S0000000000000T0000
#00415:HY000R00HYHR0000
#00416:0A0B
#00418:0000000000000000000S000000000S0000000000000R0000000000000000000000000000HS0000000000000000000000
#00419:ZV000000000000000R000000HP0000000000000000HU0000
#00501:00
#00501:00
#00501:00
#00501:00
#00501:00
#00501:00
#00501:00
#00501:00
#00501:00
#00501:00
#00501:00
#00501:00
#00501:00
#00501:00
#00501:00
#00501:00
#00501:00
#00501:00
#00501:00
#00501:00
#00501:00
#00501:00
#00501:00
#00501:00
#00501:00
#00501:00
#00501:0000000000000000000000DT00000000
#00501:00000000000000DU
#00501:00
#00501:0000000000000000U500U6U700U8U9UA
#00503:AD
#00511:02020200
#00512:00HZI200
#00513:I100000R00000R000U0000I300000000
#00514:0000HM000000HP000000005T0000I400
#00515:0U000S00HR00000S0000000000005U00
#00516:0C0C0D00
#00518:HZ0TZX00
#00519:ZYI1I000
#00601:00
#00601:000000006RDW0000
#00601:0I0000000I0000000I00000I0I000000
#00601:000R000J000J000J
#00601:00000J0S0R000S0R0S000R0S0R000U00
#00601:000N0N0N
#00601:00
#00601:00
#00601:000000I60000I800
#00601:I5
#00601:0000000000I60000
#00601:00
#00601:IM
#00601:00
#00601:00
#00601:00
#00601:00
#00601:00
#00601:00
#00601:00
#00601:5V
#00601:00
#00601:DV
#00601:00
#00601:00
#00601:00
#00601:00
#00601:00
#00601:00
#00601:00
#00601:00
#00601:ZN
#00603:AC
#00611:0200020002000303
#00612:0000I600000000IN00006T0000000000
#00613:6R6SIO6S
#00614:0000DW0000006T0000IP000000006T00
#00615:0U006T000000DW000000IQ00IS0000IQ
#00616:08
#00618:0N000000I7000000DV0000IR0000IR00
#00619:GRDXI5DY
#00701:00
#00701:00
#00701:0I0I0I0I
#00701:000J000J000J000J
#00701:0U000R000R000S0R0S000R0S0R000U00
#00701:0N0N0N0N
#00701:00
#00701:00
#00701:00I70000
#00701:I5I5
#00701:00I600I600I60000
#00701:000000I9
#00701:00
#00701:00
#00701:00
#00701:00
#00701:00
#00701:00
#00701:00
#00701:00
#00701:0000006V
#00701:00
#00701:00
#00701:00
#00701:00
#00701:00DV
#00701:0000000000DW0000
#00701:000000DZ
#00711:02000000020000000200000403000300
#00712:6R0000IV0000IX00000I000000ZZ0000
#00713:006T6S006R6T6U6T
#00714:IT00000S00006T005V00000I006000ZZ
#00715:0000IU00DX000000005W00005Z006100
#00718:00000000IW000000IY005X0000000060
#00719:DV00DW000000DW000000005Y00000000
#00801:00
#00801:00
#00801:0I000000000000000I000000000000000K0L0M0I00000I000I00000000000000
#00801:000J000J000J000U
#00801:0U000R0S0R000S0R0S000R0S0R000000
#00801:0N0N0N0N
#00801:00
#00801:00
#00801:00000000I700000000000000IA00IBIC
#00801:I5I5
#00801:00
#00801:00
#00801:00
#00801:00
#00801:00
#00801:00
#00801:00
#00801:00
#00801:00
#00801:00000000006T0000
#00811:02020203
#00812:0000I60000006T000000000400000400
#00813:6R006S006R006S69
#00814:000063000000DW000000DW0068000004
#00815:620064656667000J
#00818:006TDX00DV00DY6T
#00819:DVDW00I600I60000
#00901:00
#00901:00
#00901:0I0000000I0000000I0I000I0I000000
#00901:000J000J00000000
#00901:0U000R0S0R000S0R0S0T0R0U0U000U00
#00901:0N0N0N00
#00901:006B0000
#00901:00
#00901:00
#00901:00I5
#00901:00I600I600000000
#00901:00
#00901:00
#00901:00
#00901:00
#00901:00
#00901:00
#00901:00
#00901:00
#00901:006T006T00000000
#00901:00
#00901:00
#00901:00
#00901:00
#00901:0000000000000000000000E000000000
#00901:00
#00901:00DW00DW00DW00E2
#00901:00
#00901:000000E1
#00911:0200000002000303
#00912:6R006S00000J0000
#00913:I50002006RI66D00
#00914:00000000I7000000IZ0000J10000J200
#00915:IZ00DX006A6T0N00
#00918:6A000000J00000000000006C00006E00
#00919:DV000000DV00I90J
#01001:00
#01001:00
#01001:0I0000000I0000000I00000I0I000000
#01001:000J0000000J0000
#01001:0U000R0S0R000S0R0S000R0S0R000U00
#01001:0N0N0N0N
#01001:00
#01001:00
#01001:00
#01001:00
#01001:00
#01001:I5
#01001:00
#01001:00
#01001:00
#01001:00
#01001:00
#01001:00
#01001:00
#01001:00
#01001:00
#01001:00
#01001:00
#01001:00
#01001:00
#01001:00
#01001:00
#01001:00
#01001:00
#01001:00
#01001:GR
#01011:0200020002000303
#01012:0000006T00000000000J00000000000000006S0000006F00
#01013:6R006S006R00006T
#01014:0000I600DX006T0000006T00I800006G
#01015:J300I700I500DY0J
#01016:08
#01018:00000000DW00000000000000DW000000DV000000I6000000000000000000006H
#01019:DV0000I600DW0000
#01101:00
#01101:00
#01101:0I0000000I0000000I0I000I0I000000
#01101:000J000J000J000J
#01101:0U000R000R000S0R0S000R0S0R000U00
#01101:0N0N0N0N
#01101:00
#01101:00
#01101:00I70000
#01101:I5I5
#01101:00I600I600I60000
#01101:000000I9
#01101:00
#01101:00
#01101:00
#01101:00
#01101:00
#01101:00
#01101:00
#01101:006T000000000000
#01111:02000000020000000200000403000300
#01112:00006S6M00IW00IX
#01113:6R00006K00006T006R0000006U000000
#01114:006J6L00J46T006T
#01115:DV00000S0000DW00DV0000006V000000
#01118:00DW000000DWJ500
#01119:6IDX6NDZ
#01201:00
#01201:00
#01201:0I0000000I0000000I00000I0I000000
#01201:000J000J000J000J
#01201:0U000R0S0R000T0S0R000S0U0U000R0S
#01201:0N0N0N0N
#01201:00
#01201:00
#01201:00000000I700000000000000000000IG
#01201:I500000000000000I50000ID0000IF00
#01201:00I600I600I6IE00
#01201:00
#01201:00
#01201:00
#01201:00
#01201:006S6R6S
#01201:00
#01201:00
#01201:00
#01201:006T006T006T006T
#01201:00
#01201:00
#01201:00
#01201:00
#01201:00000000DX000000000000E3DY000000
#01201:DV000000DV0000E4
#01201:0000DW000000DW000000DW00000000E5
#01211:02000000020000000200000400000400
#01212:0000J80000J90000JC00000003000004
#01213:J70000J90000JA0000JD00JF00JF0000
#01214:00000000J80000JB0000JE00JG00JG00
#01215:J600J80000J90000JC0000JF00JF00JH
#01218:6R0000J90000JA0000JD0000JG00JG00
#01219:00000000J80000JB0000JE00000000JH
#01301:00
#01301:00
#01301:00
#01301:00
#01301:0U0000000R0S0R0S0U00000000000000
#01301:00
#01301:00000000000V0000
#01301:00
#01301:000000IL
#01301:00
#01301:00
#01301:00
#01301:00
#01301:00
#01301:00
#01301:00
#01301:00
#01301:00
#01301:00
#01301:00
#01301:00
#01301:00
#01301:00
#01301:00
#01301:00
#01301:00
#01301:00
#01301:E6
#01311:02020200
#01312:00E70000
#01313:6O6P6Q00
#01314:IJIK0000
#01315:00IIIJ00
#01316:090C0D0W
#01318:IHIH
#01319:00E6
#01401:00
#01401:00
#01401:00
#01401:00
#01401:00
#01401:13001400150016171819140015001617
#01401:00
#01401:00
#01401:00JS00JS00JS00JS
#01401:JJ
#01401:00JJ0000
#01401:JI
#01401:000000JL
#01401:00JK
#01401:00
#01401:00
#01401:6W
#01403:A6A8
#01411:02
#01412:007A
#01413:00HP0000
#01414:790000HV
#01416:08
#01418:HS
#01419:00HW
#01501:00
#01501:00
#01501:00
#01501:00
#01501:00
#01501:13001A00150016171819140015001617
#01501:00
#01501:00
#01501:0000000000KO00KO
#01501:00JT00JT00000000
#01501:00JN
#01501:00JM00JQ
#01501:JL000000000000JL
#01501:00
#01501:00
#01501:00
#01501:006Y
#01501:6X
#01503:AA
#01511:00HT
#01512:00HU00HU
#01513:HV0000007C0000HV
#01518:7B
#01601:00
#01601:00
#01601:00
#01601:00
#01601:00
#01601:13001400150016171819140015001617
#01601:00
#01601:00
#01601:00KO000000000000
#01601:000000JJ00JJ00JJ
#01601:00JO0000
#01601:JM
#01601:00
#01601:JK0000JK
#01601:00JP
#01601:00
#01601:00
#01601:6Z
#01603:AC
#01612:00HQ0000
#01613:007E
#01614:HW
#01615:000000HW
#01618:7DHX
#01701:00
#01701:00
#01701:00
#01701:00
#01701:00
#01701:13001A00150016171819140015001617
#01701:00
#01701:00
#01701:00JO00JO00000000
#01701:0000000000JU0000
#01701:00
#01701:000000JM0000JQ00
#01701:0000JL00JL0000JR
#01701:JK
#01701:00
#01701:00
#01701:70
#01701:0071
#01703:AE
#01711:0000000000HR0000
#01712:000000HU00000000
#01713:00HVHVHU
#01714:7F000000000000HV
#01715:007G
#01718:HW
#01801:00
#01801:00
#01801:00
#01801:00
#01801:00
#01801:13001400150016171819140015001617
#01801:00
#01801:00
#01801:00
#01801:00
#01801:00
#01801:00
#01801:00
#01801:00
#01801:00
#01801:00
#01801:72
#01803:ACAA
#01811:00KI
#01812:00000000000000JZ0000K00000000000
#01813:KH0000K1
#01814:000000JYJYHP00K2
#01815:HW0000JWJX00000000000000HT000000
#01818:JV000000000000HU
#01819:7H
#01901:00
#01901:00
#01901:00
#01901:00
#01901:00
#01901:13001A00150016171819140015001617
#01901:00
#01901:00
#01901:000000KK
#01901:00
#01901:00
#01901:00
#01901:00
#01901:00
#01901:00
#01901:00
#01901:00
#01901:73
#01903:A8A7
#01911:00KJ
#01912:00000000000000K60000K00000000000
#01913:7I0000JZJZ00K100
#01914:0000000000HP00K2
#01915:K30000K4K500000000000000HT000000
#01918:00000000000000HU
#01919:HV
#02001:00
#02001:00
#02001:HS
#02001:00
#02001:00
#02001:13001400150016171819140015001617
#02001:00
#02001:00
#02001:00
#02001:00
#02001:00
#02001:00K80000
#02001:00
#02001:00
#02001:00
#02001:00
#02001:00
#02001:00
#02001:7J
#02001:00
#02001:00
#02001:00HR0000
#02001:000000HW
#02001:00HX
#02003:ACAD
#02011:020R0R0002007700
#02012:00000000000000000000000000000S0000000000000R00000000000000000000000000007M0000000000000000000000
#02013:0U00000S00000S00HY000000KA000000
#02014:740000000000000000000000000000000R000000000000000000000S00000000000R00000000000T0000000000000000
#02015:00757L00
#02016:0A0B
#02018:HY0000007K00000076000T000S00000R
#02019:K7K9
#02101:00
#02101:00
#02101:00
#02101:00
#02101:0000000000000R0S0000000000000000
#02101:00
#02101:00
#02101:00
#02101:00I10000
#02101:00
#02101:00
#02101:00
#02101:00
#02101:KB0000KC000000000000000000000000
#02101:00
#02101:00
#02101:78
#02101:00000000005Q0000
#02101:7N
#02101:00EDEE00
#02101:ED000000000000EC0000000000000000
#02101:000000E90000EB000000000000000000
#02101:HW
#02101:00TY
#02101:00000000000000000000TZU0U1U2U3U4
#02103:00AC
#02111:02020300
#02112:00000T0000KL0000
#02113:E8KDEBKM
#02114:00000S00000000KF00005L000000KN00
#02115:I1HZI25M
#02116:0C0C5K00
#02118:0U00000R0000KE00KG00000000005N00
#02119:HZEAI000
#02201:0000000Q
#02201:00
#02201:0I0I00000I0I00000I0I00000I0I0000
#02201:000J000J000J000J
#02201:00
#02201:0000000000000000001H1C001D000000
#02201:0000060000001E1F0000000000001E1F
#02201:00000000000006070000060700000607
#02201:00
#02201:004Z000000000000
#02201:00000000005100000000000000000000
#02201:001C000000000000
#02201:00000007000000000000000000000000
#02201:00
#02201:00
#02201:00
#02201:00
#02201:00
#02201:00
#02201:00
#02201:00
#02201:00
#02201:00
#02201:00
#02201:00
#02201:EI000000EI00000000EI000000000000
#02201:0000000000EL00000000000000000000
#02201:00000000000000EN0000000000000000
#02201:000000EOEO000000
#02201:00
#02201:00
#02201:ZO
#02211:01010101
#02212:1B001D00005400EQ
#02213:00EL00EL000000001G00ZD00550000EL
#02214:0000EQ005000005300000000ZE005600
#02215:4Y00005P00005200520000EG0000ZF00
#02216:08
#02218:000000000Q0000YO0000EL00EI000000
#02219:YK0000YLYM00YN00YP00000000EL0000
#02301:0000000Q
#02301:00
#02301:0I0000000000000000000I00000000000K0L0M0I000000000I0000000I000000
#02301:00000J0000000J0000000J00000J000J
#02301:00
#02301:00
#02301:1B001I001D001E1F1G1H1C001D001E1F
#02301:00000607000006070000060700000607
#02301:00
#02301:0058000000000000
#02301:00
#02301:00
#02301:00
#02301:00
#02301:00
#02301:00
#02301:00
#02301:00
#02301:00
#02301:00
#02301:00
#02301:00
#02301:00
#02301:0000000000EF00000000000000000000
#02301:00
#02301:00EJ0000
#02301:000000EN0000000000EJ000000000000
#02311:01010101
#02312:EF000059570000EJ0000000000EM0000
#02313:000I0000YS00005B00005C000000EN00
#02314:570000YR000000YU0000ZG005D0000EQ
#02315:00EJ0QEHEN00ZH57
#02318:00EH000000005A00530000EK0000ZI00
#02319:YQ000IYTYVEGEI00
#02401:000Q000Q
#02401:00
#02401:0I0I00000I0I00000I0I00000I0I0000
#02401:000J000J000J000J
#02401:00
#02401:00
#02401:1B0000001D001E1F1G1H1C001D001E1F
#02401:00000607000006000000060700000607
#02401:00
#02401:0000005F00005H000000000000000000
#02401:0000000000000000000000000000004Z
#02411:01010101
#02412:00YXEJES
#02413:EI001C000000000700EO000000EO0000
#02414:00EK00005G00EL000000EQ005E00EV00
#02415:0000EO0000EM00EM000000ER000000ES
#02418:5E00EO00YY5HYZZ0
#02419:YW0000ER000000005I000000000000Z1
#02501:000Q000Q
#02501:00
#02501:0I000I00000000000I000I00000000000K0L0M0I000000000I0000000I000000
#02501:00000J0000000J0000000J00000J000J
#02501:00
#02501:00
#02501:1B001I001D001E1F1G1H1C001D001E1F
#02501:00000607000006070000060700000607
#02501:00
#02501:00
#02501:00
#02501:00
#02501:00
#02501:00
#02501:000000EM00000000
#02501:0000000000Z70000
#02501:00
#02501:00
#02501:000000000000000000Z6000000000000
#02501:00
#02501:0000000000000000000000Z800000000
#02501:00
#02501:00
#02501:00
#02501:00
#02501:00000000000000000000000000ES0000
#02501:00
#02501:000000000000000000000000000000ET
#02501:00000000000000EU
#02501:000000EW
#02511:01010101
#02512:EM005O000000Z40000ES000000ZA00ZC
#02513:00EQ00ES0000560000005J000000ZB00
#02514:4YERET00ERZJ5D00
#02515:0000005000ER00EQ00000000ZK005700
#02518:Z2000000Z3000000520000EU0000ZL00
#02519:00005700Z5ETZ900
#02601:0000000Q
#02601:00
#02601:0I0000000I0I00000I0I00000I0I0000
#02601:000J000J000J000J
#02601:00
#02601:00
#02601:1B001C001D001E1F1G1H1C001D001E1F
#02601:00000607000006070000060000000607
#02601:00
#02601:00
#02601:00
#02601:00
#02601:00000000005100000000000000000000
#02601:00
#02601:00
#02601:00
#02601:00
#02601:00
#02601:00
#02601:00
#02601:00
#02601:00
#02601:00
#02601:00
#02601:00
#02601:0000000000EL00000000000000000000
#02601:00
#02601:0000000000000000000000000000000000EQ000000000000
#02601:0000ER
#02611:EX0050EOEZ00EPEL
#02612:000I005P000000EQ0000540000EI00EP
#02613:00004Z000Q0000530000ZD0055000000
#02614:4Y0000EY000000YO00000000ZE005600
#02615:00000000EI005200520000070000ZF00
#02616:08
#02618:YK0000YLYM00YN00YP00F00000000000
#02619:01010101
#02701:0000000Q
#02701:00
#02701:0I000000000000000I000I00000000000K0L0M0I000000000I000I0000000000
#02701:000J000J000J000J
#02701:00
#02701:00
#02701:1B001I001D001E1F1G1H1C001D001E1F
#02701:00000607000006070000060700000607
#02711:YQ0000YRYS00EL005300540000000000
#02712:000I0000570000EP0000F40055000000
#02713:5700005900005A00F300ZD00F5005600
#02714:000058000Q00005B00000000ZE000300
#02715:00F100EH000000YU000000000000ZF00
#02718:EH00F2YTYV000000
#02719:01010101
#02801:08
#02801:00
#02801:0I
#02801:00
#02801:00
#02801:0N
#02801:00
#02801:00000007000000070000000700000007
#02801:00
#02801:00
#02801:00L80000
#02801:L70000LA
#02801:00
#02801:00L9
#02801:00
#02801:00
#02801:0000007R
#02801:007P0000
#02801:007Q
#02801:00
#02801:008D0000
#02801:0000008F
#02801:008E
#02801:00
#02801:00
#02801:00
#02801:00
#02801:00
#02801:00
#02801:HSHRHXHW
#02811:01010101
#02812:0006000000000006
#02813:00KQ0N0N
#02814:F60J0N060006KS0J
#02815:7OF70I0I
#02818:8C00000JKR0J0000
#02819:KP0IF8F9
#02901:00
#02901:00
#02901:0000000000060N06
#02901:00
#02901:00000000000J0I0J
#02901:00
#02901:00
#02901:00000007000000070000000700000007
#02901:00
#02901:00LC0000
#02901:00LD
#02901:00
#02901:LB000000000000KV0000000000000000
#02901:000000KU00000000
#02901:00
#02901:00
#02901:007T0000
#02901:7S7U
#02901:0000007V
#02901:00000000008I007W
#02901:00008H8J
#02901:8G0000000000008K
#02901:00
#02901:00
#02901:00000000000000FC0000000000000000
#02901:000000FB00000000
#02901:00
#02901:00
#02901:00
#02901:HWHV
#02911:01010101
#02912:00000000KULE0000
#02913:0N060N060N00LF00
#02914:0000000000KW00LG
#02915:0I0J0I0J0I00KX00
#02918:KT000000000000KY
#02919:FAFD
#03001:08
#03001:00
#03001:00
#03001:00
#03001:00
#03001:00
#03001:00003131000031310034353100363136
#03001:00
#03001:00
#03001:00
#03001:00
#03001:00
#03001:00
#03001:00
#03001:00
#03001:00
#03001:00
#03001:00
#03001:00
#03001:00
#03001:00
#03001:00
#03001:00
#03001:00
#03001:00
#03001:00
#03001:00
#03001:00
#03001:00
#03001:00
#03001:00
#03001:008M0000
#03011:02020202
#03012:8L000080
#03013:0N00LJLK
#03014:35LI0N0N
#03015:LH0N3136
#03016:7X
#03018:00350000
#03019:KZ7Y7Z00
#03101:00
#03101:00
#03101:00
#03101:00
#03101:00
#03101:00
#03101:00003030003236000000303000003733
#03111:02020202
#03112:0N000084
#03113:00LM37LO
#03114:370N0E0N
#03115:0031LN36
#03118:LL83
#03119:81820N00
#03201:00
#03201:00
#03201:0000000I0000000I0000000I0000000I
#03201:00
#03201:00
#03201:00
#03201:37333633
#03201:00
#03201:00070007000700070007000700070007
#03201:00LQ0000
#03201:LP
#03201:00LR
#03201:000000LS
#03201:00
#03201:00
#03201:00
#03201:00
#03201:00
#03201:00
#03201:00
#03201:00
#03201:00
#03201:00
#03201:00
#03201:00
#03201:00
#03201:00FF0000
#03201:00FG
#03201:FE
#03201:000000FH
#03211:02020202
#03212:000I8600000I0000
#03213:85L18788
#03214:L006000IL206000I
#03215:8N8O8PL3
#03218:0000000600008Q06
#03219:0N0N0N0N
#03301:00
#03301:000000000000000000000000000000000000000000000000000M000000000000
#03301:00000I0I00000I0I0I0I000000000000
#03301:00
#03301:0000000000000000000000001J001K1L
#03301:0N0N0000
#03301:31323600370031003700000000000000
#03301:00
#03301:00
#03301:00000000000000M0
#03301:000000LY
#03301:LT00LT00000000000000LW00000000M1
#03301:00000000LU00LU000000000000LZ0000
#03301:0000000000000000LV0000LX00000000
#03301:00
#03301:00
#03301:00
#03301:00
#03301:00
#03301:00
#03301:00
#03301:00
#03301:00
#03301:00
#03301:00
#03301:00
#03301:00
#03301:0000000000000000000000000000FNFN
#03301:FI0000000000000000000000FMFM0000
#03301:00000000FJ0000000000FLFL00000000
#03301:00FK
#03311:0200020003040000
#03312:00070007000006000000000400000004
#03313:L4000600000700000N00000005000400
#03314:890000008A00000700000M000004000I
#03315:8R000000000000008S000000000000008B000000000M0000000500000I000000
#03318:00000000L50000008T00000I000I0000
#03319:0000L60M
#03401:0F0F0F0F
#03401:00
#03401:00
#03401:000J000J000J000J
#03401:1M001N001O001P001Q001R001S1T1U1V
#03401:00
#03401:00
#03401:00
#03401:00
#03401:00
#03401:00
#03401:00
#03401:00
#03401:00
#03401:00
#03401:00
#03401:00
#03401:00UH000000000000
#03401:000000UJ000000WQ
#03401:0000000000UL0000
#03401:00000000000000UN
#03401:00
#03401:00
#03401:00
#03401:00
#03401:00
#03401:00
#03401:00
#03401:00
#03401:00
#03401:00
#03401:ZP
#03411:UGWL3Y02
#03412:003D0000UI000000WN000000WP000000
#03413:00003E00003M0000UK003Q003K003R00
#03414:0000003H00003R00003T0000UM00003W
#03415:3B00WK00003M003U0000WO00003O0000
#03418:WJ0000003I00WM0000ZZ003M0000003W
#03419:020000000200000002000000003O0000
#03501:0F0F0F00
#03501:00
#03501:00
#03501:000J000J00000000
#03501:1W001X1Y1Z0020212223240025252525
#03501:00
#03501:00
#03501:00
#03501:00
#03501:00
#03501:00
#03501:00
#03501:00
#03501:00
#03501:00
#03501:00VV
#03501:000000000000000000VW0000VZ000000
#03501:0000WS00000000000000VX0000W00000
#03501:000000000000UR00000000VY0000W100
#03501:0000UP00000000000000WW00000000W2
#03501:00
#03501:00
#03501:00
#03501:00FO
#03511:WRWTUSFS
#03512:3J000000UQ00WU0000FP00FR00FT0000
#03513:UO00003V0000003W000000003M00FU00
#03514:00003R0000003T00003V003O003Q00FV
#03515:003O003V003O0000WV00FQ0000003T00
#03518:0000ZZ003K000000400000000000003Y
#03519:02000200023S0000
#03601:00
#03601:00
#03601:00
#03601:000J000J000J000J
#03601:26272727282929292A2B2B2B2C2D2D2D
#03601:00
#03601:00
#03601:00
#03601:003M
#03601:00
#03601:3N00000000000000003R000000000000
#03601:3N0000000000003S0000000000000000
#03601:000000000000003T
#03601:00
#03601:00
#03601:00
#03601:00000000000000X4
#03601:000000X000000000
#03601:0000000000X200V0
#03601:00WY00UW00000000
#03601:0000000000UY0000
#03601:00UU000000000000
#03611:02020202
#03612:003R003U003P00000F00003V003M0000
#03613:0F003Z000F003W0000003Y000F00003P
#03614:000000003K00003S003R00003H003T00
#03615:WX003Z00WZ003W0000003Y00X300003P
#03616:GSGTGUGV
#03618:003R003U003P0000X100003V003M0000
#03619:UTUVUXUZ
#03701:00
#03701:00
#03701:00
#03701:000J000J00000000
#03701:2E002F002G002H002I002J2J1J001K1L
#03701:00
#03701:00
#03701:0E
#03701:3J3P0000
#03701:00
#03701:00
#03701:00
#03701:00
#03701:00
#03701:0042
#03701:000000X800000000
#03701:00W3
#03701:0000X6000000V40000W40000000000WA
#03701:0000000000W500W9
#03701:0000V20000000000000000W600W80000
#03701:000000W7
#03701:00
#03701:00
#03701:00
#03701:00
#03701:00FW
#03701:000000000000000000FX0000000000G3
#03701:0000000000FY00G2
#03701:0000000000000000000000FZ00G10000
#03701:000000G0
#03711:02020200
#03712:003O003V003T00000F0000000000003F
#03713:003R0F3WX900003K
#03714:0F000000X70000410000003Q003O0000
#03715:003O003V00003W0000003V003R000000
#03716:GWGXGY00
#03718:X5003R00003T0041003Y000000000000
#03719:V1V3V500
#03801:0F0F0F0F
#03801:00
#03801:00
#03801:0000000J000J000J
#03801:1M001N001O001P001Q001R001S1T1U1V
#03801:00
#03801:00
#03801:00
#03801:00
#03801:00
#03801:00
#03801:00
#03801:00
#03801:00
#03801:00
#03801:00WK000000000000
#03801:000000WM00000000
#03801:00UH000000WO0000
#03801:000000UJ000000WQ
#03801:0000000000UL0000
#03801:00000000000000UN
#03811:UGWL3Y02
#03812:003D0000UI000000WN0000003K000000
#03813:00003E00003M0000UK00ZZ00WP003R00
#03814:0000003H00003R00003T0000UM00003W
#03815:WJ000J0000ZZ003U00003Q00003O0000
#03818:3B0000003I00ZZ0000ZZ003M000000ZZ
#03819:02000000020000000200000000ZZ0000
#03901:0F0F0F00
#03901:00
#03901:00
#03901:000J000J00000000
#03901:1W001X1Y1Z0020212223240025252525
#03901:00
#03901:00
#03901:00
#03901:00
#03901:00
#03901:00
#03901:00
#03901:00
#03901:00
#03901:00
#03901:00VV
#03901:000000000000WU0000VW0000VZ000000
#03901:0000WS00000000000000VX0000W00000
#03901:000000000000UR00000000VY0000W100
#03901:0000UP00000000000000WW00000000W2
#03901:00
#03901:00
#03901:00
#03901:00FO
#03911:3JWTUS3M
#03912:WR000000UQ00ZZ0000FP00FR003Q0000
#03913:UO00003V0000003W00000000FS003T00
#03914:00003R0000003T00003V003O00FT003Y
#03915:003O00ZZ003O00004000FQ000000FU00
#03918:0000ZZ003K000000WV000000000000FV
#03919:02000200023S0000
#04001:0F0F
#04001:00
#04001:00
#04001:000J00000000000J
#04001:26272727282929292A2B2B2B2C2D2D2D
#04001:00
#04001:00
#04001:00
#04001:00
#04001:00
#04001:00
#04001:00
#04001:00
#04001:00
#04001:00
#04001:00
#04001:00000000000000X4
#04001:000000X000000000
#04001:0000000000X200V0
#04001:00WY00UW00000000
#04001:0000000000UY0000
#04001:00UU000000000000
#04011:02020202
#04012:003R003U003P00003M00003V003M0000
#04013:3N003Z00WZ003W0000003Y003H00003P
#04014:00000000UV00003S003R00000F003T00
#04015:WX003Z003K000J0000000J00X300003P
#04016:GSGTGUGV
#04018:003R003U00ZZ0000X10000ZZ003M0000
#04019:UT0FUXUZ
#04101:0F0F0F00
#04101:00
#04101:00
#04101:000J000J00000000
#04101:2E002F002G002H002I002J2J1J001K1L
#04101:00
#04101:00000000000000003536003637003600
#04101:0E
#04101:00
#04101:00
#04101:00
#04101:00
#04101:00
#04101:00
#04101:00
#04101:000000X8W3000000
#04101:000000000000000000W40000000000WA
#04101:00X600V400W500W9
#04101:0000000000000000000000W600W80000
#04101:00V200000000W700
#04101:00
#04101:00
#04101:00
#04101:00
#04101:00
#04101:00FW
#04101:000000000000000000FX0000000000G3
#04101:0000000000FY00G2
#04101:0000000000000000000000FZ00G10000
#04101:000000G0
#04111:02020200
#04112:003O003V003T00000000003Q00000000
#04113:003R3P3WV5000000
#04114:3J000000V300004100003V000000003F
#04115:003O003V00003W00X900000000003K00
#04116:GWGXGY00
#04118:X5003R00003T0041003Y0000003O0000
#04119:V1X7423R
#04201:0F0F0F0F
#04201:00
#04201:00
#04201:0000000J000J000J
#04201:1M001N001O001P001Q001R001S1T1U1V
#04201:0N0N0N0N
#04201:37000000000000000000000000003435
#04201:00
#04201:00
#04201:00
#04201:00
#04201:00
#04201:00
#04201:00
#04201:00
#04201:00
#04201:00XB000000000000
#04201:000000XD00000000
#04201:00V7000000XF0000
#04201:000000V900000000
#04201:0000000000VB0000
#04201:00000000000000VD
#04211:02000000020000000200003P0000XH00
#04212:XA0000003L00003X003W0000003R003Z
#04213:3C00003K003P000000003T0000003U00
#04214:003E000000003U00003W0000VC00003Z
#04215:00003G00003P0000VA000000XG000000
#04218:0000V83U41003N00
#04219:V60JXC00XE000200
#04301:0F0F0F00
#04301:00000000000000000000000004040404
#04301:00
#04301:000J000J00000000
#04301:1W001X1Y1Z0020212223240025252525
#04301:0N0000000N0000000N0000000P0P0P0P
#04301:36000000000034353600000034343535
#04301:00
#04301:00
#04301:00
#04301:00
#04301:00
#04301:00
#04301:00
#04301:00
#04301:00WB
#04301:000000000000000000WC0000WF000000
#04301:000000000000XL000000WD0000WG0000
#04301:0000XJ0000000000000000WE0000WH00
#04301:000000000000VH000000XN00000000WI
#04301:00VF000000000000
#04301:00
#04301:00
#04301:00G4
#04311:0202023P
#04312:003R00003N000000XM00003R003T0000
#04313:00003U00003R000043003V00G8003W00
#04314:0000003Y00003W00003Y00G700G90041
#04315:VE003U000000003Z0000G6000000GA00
#04318:XI000000VG003W0000G50000000000GB
#04319:3MXKVI00
#04401:0F0F0F0F
#04401:00
#04401:00
#04401:000J000J000J000J
#04401:26272727282929292A2B2B2B2C2D2D2D
#04401:0N0N0N0N
#04401:36353535
#04401:00
#04401:00
#04401:00
#04401:00
#04401:00
#04401:00
#04401:00
#04401:00
#04401:00
#04401:00000000000000XV
#04401:000000XR00000000
#04401:0000000000XT00VQ
#04401:00XP00VM00000000
#04401:0000000000VO0000
#04401:00VK000000000000
#04411:0242023Z3P000200
#04412:00000000VL00003V003U003Y00003W00
#04413:3Q004200XQ003Z00000000003K00003S
#04414:003U00000000003V003U003Y003P0000
#04415:XO00003X003S0000VN004100XU00003S
#04416:GZH0H1H2
#04418:003U00003N000000XS00000000003W00
#04419:VJ00003X003S000002004100VP000000
#04501:0F0000000F0000000H0H0H0H0H000H0H
#04501:00
#04501:00
#04501:000J000J00000000
#04501:2E002F002G002H002K2L2K2L2M002N2N
#04501:0N0000000N0000000P0P0P0P0P000P0P
#04501:35350000
#04501:0E
#04501:00
#04501:0000000000000000000000000000003H
#04501:000000000000003M
#04501:00000000000000000000003T00000000
#04501:00000000003Y0000
#04501:00000000000000000041000000000000
#04501:00
#04501:00
#04501:00
#04501:00XX000000000000
#04501:000000XZ00000000
#04501:00VS000000000000
#04501:000000VU00000000
#04501:00
#04501:00
#04501:00
#04501:0000000000000000GDGD00GDGC00GDGD
#04511:020002005R045R04
#04512:3M00003Y003W000045005R003P00Y500
#04513:003R00003S000044005R005R00005R00
#04514:00003U0000003Z000004000400000004
#04515:003R0000XY00004400Y100Y3000000Y6
#04516:H3H40000
#04518:VR00003Y003W00000400Y2000400005R
#04519:XW00VT00Y0GDY400
#04601:0F0F0F0F
#04601:00
#04601:00
#04601:000J000J000J000J
#04601:1M001N001O001P001Q001R001S1T1U1V
#04601:0N0N0N0N
#04601:36000000000000000000000000003435
#04601:00
#04601:00
#04601:00
#04601:00
#04601:00
#04601:00
#04601:00
#04601:00
#04601:00
#04601:00XB000000000000
#04601:000000XD00000000
#04601:00V7000000XF0000
#04601:000000V900000000
#04601:0000000000VB0000
#04601:00000000000000VD
#04611:02000000020000000200003P0000XH00
#04612:XA0000003L00003X003W0000003R003Z
#04613:3C00003K003P000000003T0000003U00
#04614:003E000000003U00003W0000VC00003Z
#04615:00003G00003P0000VA000000XG000000
#04618:0000V83U41003N00
#04619:V63GXC00XE000200
#04701:0F0000000F0000000H00000H0H000H00
#04701:00
#04701:00
#04701:000J000J00000000
#04701:1W001X1Y1Z0020212N2M002N2M002N2N
#04701:0N0000000N0000000P0P000P0P000O00
#04701:36000000343434343536003636003600
#04701:00
#04701:00
#04701:00
#04701:0000003P
#04701:00
#04701:00000000003V0000
#04701:00
#04701:00
#04701:00WB
#04701:000000000000000000WC000000000000
#04701:000000XL00WD0000
#04701:00XJ0000000000WH
#04701:000000VH00XN0000
#04701:00VF000000000000
#04701:00
#04701:00
#04701:00G4
#04701:00
#04701:00000000000000000000G60000G90000
#04701:00000000000000GA
#04701:000000000000000000000000000000GB
#04711:02000000020000000404000404000400
#04712:003R00003N000000XM0H00WE00000000
#04713:00003U00003R00004300000000003W00
#04714:0000003Y00003W00003Y003R00WG0041
#04715:VE003U000000003Z00000000WF000000
#04718:XI000000VG003W0000G500G7003T00WI
#04719:3MXKVIG8
#04801:0F0F0F0F
#04801:00
#04801:00
#04801:000J000J000J000J
#04801:26272727282929292A2B2B2B2C2D2D2D
#04801:0N0N0N0N
#04801:36363636
#04801:00
#04801:00
#04801:00
#04801:00
#04801:00
#04801:00
#04801:00
#04801:00
#04801:00
#04801:00000000000000YE
#04801:000000YA00000000
#04801:0000000000YC00VQ
#04801:00Y800VM00000000
#04801:0000000000VO0000
#04801:00VK000000000000
#04811:0303030303003K00
#04812:00000000Y900003V003U003Y003P003S
#04813:3Q42VL3Z0000YD00
#04814:003U00003N00003V003U003Y00000000
#04815:Y700003X003S00003P004100VP003W00
#04816:GZH0H1H5
#04818:003U000000000000YB00000000000000
#04819:VJ00003X003S0000VN00030003000300
#04901:0F0F0I00
#04901:00
#04901:003U0000000V0000
#04901:000J000J00000000
#04901:2E002F002G0000002I002J2J00000000
#04901:0N0N0N00
#04901:00000000000000000000343435350035
#04901:0E
#04901:00000000003S003Z0000000000000000
#04901:000000000000000000000000003K003K
#04901:00
#04901:0000000000000000003U000000000000
#04901:00000000003Y0000
#04901:00000000000000000000004100000000
#04901:00
#04901:00
#04901:00
#04901:00YG000000000000
#04901:000000YI00000000
#04901:00VS000000000000
#04901:000000VU00000000
#04911:0300032H36000000
#04912:003R000036003W000000000000003500
#04913:YF00003Y00000000000000000W000000
#04914:VR033N030200003R
#04915:3600003Y00000000000000003S000000
#04916:H6H70000
#04918:003R0000YH0000003P00000000000000
#04919:3MVTYJ00
#05001:00
#05001:00
#05001:00
#05001:00
#05001:00
#05001:00
#05001:00
#05001:00SI000000000000
#05001:000000SJ00000000000000SN0000SP00
#05001:00
#05001:00
#05001:00
#05001:00
#05001:00
#05001:00HL000000HL00HL
#05001:00
#05001:00
#05001:00
#05001:98
#05001:00
#05001:00
#05001:8U
#05001:008V
#05001:00
#05001:00
#05001:00
#05001:00
#05001:00
#05001:00
#05001:00
#05001:00
#05001:ZQ
#05003:A8
#05011:SH0000SL00000000
#05013:HP0000HL0000SO00
#05015:00HVHVHU
#05016:3A
#05019:00SKSM00
#05101:00
#05101:00
#05101:00
#05101:00
#05101:00
#05101:00
#05101:00
#05101:00
#05101:00
#05101:00SR000000000000
#05101:00
#05101:00
#05101:00
#05101:00
#05101:00HM000000000000
#05101:00
#05101:00
#05101:00
#05101:00
#05101:00
#05101:8W
#05101:008X
#05103:AA
#05111:SQSS0000
#05112:00SU
#05113:HU0000ST00000000
#05115:000000HR00000000
#05118:00HS
#05119:00HS0000
#05201:00
#05201:00
#05201:00
#05201:00
#05201:00
#05201:00
#05201:00
#05201:00
#05201:00
#05201:00
#05201:00
#05201:00
#05201:00
#05201:00
#05201:00HJ000000HN0000
#05201:00
#05201:00
#05201:99
#05201:00
#05201:8Y
#05201:008Z
#05203:AC
#05211:00SW00SZ0000HR00
#05212:000000HM0000T200
#05213:SV0000SX00000000000000T10000T300
#05214:00SYT000
#05215:HM000000000000HN
#05218:00HSHS00
#05301:00
#05301:00
#05301:00
#05301:00
#05301:00
#05301:00
#05301:00
#05301:00
#05301:00
#05301:00
#05301:00
#05301:00
#05301:00
#05301:00
#05301:00
#05301:00
#05301:00
#05301:00
#05301:009B
#05301:9A
#05301:00
#05301:0091
#05301:90
#05301:00
#05301:00MG
#05301:00000000000000000000000000MH00000000MM0000000000
#05301:0000000000000000000000000000MI00000000MN00000000
#05301:000000000000000000000000000000MJ00000000MO000000
#05301:00000000000000000000000000000000MK00000000MP0000
#05301:0000000000000000000000000000000000ML00000000MQ00
#05301:0000000000000000000000000000000000000000000000MR
#05303:AE
#05311:00HM00T900000000
#05312:00HP0000
#05313:00T500HO00000000
#05314:T4T80000
#05315:0000000000T7000000000000TA0000000000000000000000
#05318:HRT600000000
#05319:00HP
#05401:00
#05401:00
#05401:00
#05401:00
#05401:00
#05401:36000031310031003700000031003500
#05401:00
#05401:00
#05401:00
#05401:00
#05401:00
#05401:00
#05401:00
#05401:00
#05401:00
#05401:00
#05401:00
#05401:00
#05401:00
#05401:00
#05401:00
#05401:M2
#05401:00M3
#05401:00
#05401:MSMS
#05401:00MV000000000000000000MW00MT000000000000000000MT
#05401:00MX000000MX00MW000000MW
#05401:000000MZ00000000MZ000000000000MZ00000000MY000000
#05401:00000000N300000000N0000000000000N100000000MZ0000
#05401:0000000000N500N3000000000000000000N500N100000000
#05401:00N700N6
#05403:AC
#05411:02000000000000000200003100000000
#05412:00TC00TFHV000000
#05413:9C0000TD000000009D0000TH0000TJ00
#05414:00HL00HL0000TI00
#05415:TB00TE00TGHL00HL
#05416:0A0B
#05418:920000HU
#05419:HPHV9300
#05501:00
#05501:00
#05501:00
#05501:00
#05501:00
#05501:37000031310031003700000035003500
#05501:000E
#05501:00
#05501:00
#05501:00
#05501:00
#05501:00
#05501:00
#05501:00
#05501:00
#05501:00
#05501:00
#05501:00
#05501:00
#05501:00
#05501:M4
#05501:00M2
#05501:00
#05501:00
#05501:MS00MSM6
#05501:00MU000000000000000000MW00MV00000000000000MV0000
#05501:00MW000000MX00MX000000MX
#05501:000000MX0000000000MZ0000000000MZ00000000MZ0000MZ
#05501:00000000MZ000000N200000000000000N30000N500000000
#05501:0000000000N200N4000000000000000000N4000000000000
#05501:00N500N7
#05511:0202
#05512:9ETMTO00
#05513:00TL00TN0000TP00
#05514:949C
#05515:00HM00HR0000HO00
#05516:0A0A
#05518:HUHS9200
#05519:TKHS
#05601:00
#05601:00
#05601:00
#05601:00
#05601:0U
#05601:37000000000000000039380039383700
#05601:00
#05601:00
#05601:00
#05601:00
#05601:00
#05601:00
#05601:00
#05601:00
#05601:00
#05601:00
#05601:00
#05601:00
#05601:00
#05601:M5
#05601:00
#05601:00
#05601:00
#05601:00
#05601:00000000MS00000000000000N500000000N5000000000000
#05601:0000000000MV0000000000000000000000000000000000N2
#05601:000000000000MX00000000N80000N800000000000000N300
#05601:00000000000000MZ0000000000000000N900000000N40000
#05601:M700000000000000N300000000NA000000000000N5000000
#05601:000000000000000000N50000000000NB000000N600000000
#05601:0000000000N7000000N70000
#05611:020R0R00020T0S00
#05612:HP000000000000000000000000000S0000000000000R00000000000S00000000000000000000000000000000000R0000
#05613:0000000S00000S009C00000R000T0000
#05614:9F000000000000000R000000M20000TR0000000000000000
#05615:00000039000000380000HR00TS000000
#05616:0A0B
#05618:950000390000HSTT
#05619:TQ383800920000HU
#05701:00
#05701:00
#05701:0I0I000000000I0I0000000000000000
#05701:0000000I000000000000000000000000
#05701:0U000000000000000U000I0I0I0I0I0I
#05701:3700363636000000
#05701:00
#05701:00
#05701:00
#05701:00
#05701:00
#05701:00
#05701:00
#05701:00
#05701:HS0000000000HRHPHR00000000000000
#05701:00
#05701:00
#05701:00
#05701:00
#05701:00
#05701:00M4
#05701:M2
#05701:00
#05701:00
#05701:00
#05701:00000000000000000000MEMFMEMFMEMF
#05701:00
#05701:00000000000000MCMD00000000000000
#05701:M8000000M9000000M9000000MA0000MB0000000000000000000000000000000000000000000000000000000000000000
#05703:00A8
#05711:0200020003040404
#05712:000000TV9H000000
#05713:9G0035000I0000TW0000000400040004
#05714:0000000R000000000I00000000000000
#05715:TU000S000T00000S0000003500350035
#05716:0A0A
#05718:0000000RTX000000
#05719:9600000097363636
#05801:00
#05801:00
#05801:0I000000000I0000000I000000000000
#05801:000I0000000000000000000000000J00
#05801:00
#05801:00
#05801:00001D0000001D1E
#05801:00
#05801:00
#05801:00
#05801:00
#05801:00
#05801:00
#05801:00
#05801:00
#05801:00
#05801:AP
#05801:00
#05801:00
#05801:00
#05801:9I
#05801:0000009L
#05801:009J0000
#05801:00
#05801:00
#05801:00
#05801:00
#05801:00
#05801:00
#05801:00
#05801:HPHLHVHLHVHLHUHL
#05801:ZR
#05803:AC
#05811:01010101
#05812:460J0047000J004C
#05813:00001C0000000J009K000048000I001F
#05814:1B0000000I00001F001H00000I000000
#05815:00470Q000I004B9M
#05816:08
#05818:3A00004800001E001G001C000000009N
#05819:00494A0Q
#05901:00000000000I001F0000000000000000
#05901:00000000000I001F0000000000000000
#05901:0I0000000J0000000I000000000000000K0L0M0I000000000I000I0000000000
#05901:00000000000J000J
#05901:0000000Q
#05901:00
#05901:000000001D000J001G1H1C001D001E1F
#05901:00
#05901:00
#05901:00
#05901:00
#05901:00
#05901:00
#05901:00
#05901:00
#05901:00
#05901:00AR
#05901:AQ
#05901:00
#05901:00
#05901:00
#05901:00
#05901:00
#05901:00
#05901:00
#05901:00
#05901:00
#05901:00
#05901:00
#05901:00
#05901:HUHMHSHRHS000000
#05911:01000000010000000100000403000300
#05912:00004D000000000000AS0000AV000000
#05913:00001I004E001E004G00AT0000AW00NJ
#05914:1B00000000004X0000ND00AU0000AX00
#05915:4B0000000Q009Q00NC00NE00NG0000AY
#05918:000I00ZZ00000000000000NF00NH0000
#05919:9O009P009R0000NI
#06001:00
#06001:00
#06001:00000I0I
#06001:00000000000J000J
#06001:000Q0000
#06001:00
#06001:00001D1E00001D00
#06001:00
#06001:00
#06001:000000000000004M
#06001:00
#06001:00
#06001:00
#06001:00
#06001:00
#06001:00
#06001:B1
#06001:00
#06001:00
#06001:9S
#06001:00
#06001:00
#06001:00
#06001:00
#06001:00
#06001:00
#06001:00
#06001:00
#06001:00
#06001:00
#06001:HMHJHSHMHSHNHRHN
#06011:01010101
#06012:4D001C000I000J00000I0000000I0000
#06013:000I004I0000001F0000004K00000000
#06014:1B004H0000004H00001H00004L009W00
#06015:000000009T0000001G0000000Q00009X
#06018:0I004E004J1C001E
#06019:00000J00000I00009U0000009V00001F
#06101:00
#06101:00
#06101:0I000000000000000I000000000000000K0L0M0I000000000I0000000I000000
#06101:00000000000I001F00000J00000J000J
#06101:0000000Q
#06101:001I000000000000
#06101:1B0000001D0000001G1H1C001D001E1F
#06101:000Q0E00
#06101:00
#06101:00
#06101:00
#06101:00
#06101:00
#06101:00AT
#06101:00
#06101:00
#06101:00
#06101:00
#06101:00
#06101:00
#06101:00
#06101:00
#06101:00NE
#06101:00
#06101:00
#06101:00
#06101:00
#06101:00
#06101:00
#06101:00
#06101:HRHMHPHOHP000000
#06111:01000000010000000100000403000300
#06112:000I00ZZ00004N0000AU0000AX000000
#06113:B2000J000000A0000000AV0000AY00NL
#06114:4L00000000001E0000NF00AW0000AZ00
#06115:00004N009Z000000A100NG00NI0000B0
#06118:9Y0000000000000000004F000000000000000J0000000000000000000000000000NH0000000000NJ0000000000000000
#06119:000000004O004600000000004P0000000000000000NK0000
#06201:00
#06201:00
#06201:00000000000J0000
#06201:00
#06201:000Q000Q
#06201:00
#06201:1B001D001G001D1E
#06201:00
#06201:00
#06201:000000000000004C
#06201:00
#06201:00
#06201:00
#06201:00
#06201:00
#06201:00
#06201:00B3
#06201:00
#06201:00
#06201:00
#06201:00
#06201:00
#06201:00
#06201:00
#06201:00
#06201:00
#06201:00
#06201:00
#06201:00
#06201:00
#06201:HPHLHVHLHVHLHUHL
#06211:01010101
#06212:0I00470000000J00000I0048000I001F
#06213:000I00000I0000000I001C000I000000
#06214:4600004800004700000000ZZ00000J00
#06215:00000J00000I001F001H00004B009M00
#06216:08
#06218:9I009J1E9K009L00
#06219:00001C00490000004A0000000000009N
#06301:00
#06301:00
#06301:0I0000000I0I00000K0000000I000000
#06301:00
#06301:0000000Q
#06301:00
#06301:000000001D00001F1G1H1C001D001E00
#06301:00
#06301:00
#06301:00
#06301:00
#06301:00
#06301:00
#06301:00
#06301:00
#06301:00
#06301:00
#06301:00
#06301:00
#06301:00
#06301:00
#06301:9O
#06301:00
#06301:00
#06301:00
#06301:00
#06301:00
#06301:00
#06301:00
#06301:00
#06301:HUHMHSHRHS00HO00
#06311:01000000010000000100000403000300
#06312:000000000J000000000000004X000000000L0000000000004R00000000001F00
#06313:1B4E4QB6
#06314:000I00ZZ00009Q00000M00000000A300
#06315:B4001I000Q000J00B5000000A20000A4
#06318:4B000000000000009P000000000000009U00000I0000000000000I0000000000
#06319:004D001E000J000J
#06401:00
#06401:00
#06401:0I0I0000000000000I0I00000I000000
#06401:0000000J000J000J
#06401:000Q000Q
#06401:00
#06401:1B0000001D000000001H1C001D001E00
#06401:00
#06401:00
#06401:00
#06401:00
#06401:00
#06401:00
#06401:00
#06401:00
#06401:00
#06401:00B2
#06401:00
#06401:00
#06401:00
#06401:00
#06401:00
#06401:00
#06401:00
#06401:00
#06401:00
#06401:00
#06401:00
#06401:00
#06401:00
#06401:HP00000000HRHSHU
#06411:01010101
#06412:00000J00000I00000000A600000I001F
#06413:B700001E1G00A700
#06414:4S000000AD00001F0000AI000000A800
#06415:0000000000AE000000004L00AJ000000
#06418:A5000IAFAH004EAK
#06419:00001C00000000AG0000000000004T00
#06501:00
#06501:00
#06501:0I000I000000000000000000000000000K0L000I000000000I0000000I000000
#06501:0000000000000J0000000J00000J000J
#06501:00000000000I0000000000000Q000000
#06501:00
#06501:1B00000000001E1F1G1H1C001D001E1F
#06501:00
#06501:00
#06501:00
#06501:00
#06501:00
#06501:00
#06501:00
#06501:00
#06501:00
#06501:B7B8
#06501:00
#06501:00
#06501:00
#06501:00
#06501:00
#06501:00
#06501:00000000000000AN0000000000000000
#06501:00
#06501:00
#06501:00
#06501:00
#06501:00
#06501:00
#06501:HS0000000000HRHPHR00000000000000
#06511:01000004010003000100030004000400
#06512:00000J000000004V000M000000040004
#06513:A90000000I004X004W00000000BC0000
#06514:001I000000B9BBBD
#06515:AL0000000Q00AM00AO0000BA00NP00BE
#06518:4U000000000000AB0000NM00NO00NQ00
#06519:000000001D00AA00AC0000NN000000NR
#06601:00
#06601:000I0000000000000000000000000000
#06601:0I0I0000
#06601:00000000000I0000000I000000000J00
#06601:0000000Q
#06601:0N0N000N
#06601:1B001D001G001D1E
#06601:00
#06601:00
#06601:00
#06601:00
#06601:00
#06601:00
#06601:00
#06601:00
#06601:00
#06601:00
#06601:00
#06601:00
#06601:00
#06601:00
#06601:00
#06601:00
#06601:00
#06601:00
#06601:00
#06601:00
#06601:00
#06601:00
#06601:00
#06601:HPHLHVHLHVHLHUHL
#06611:01010101
#06612:00470047000J004C
#06613:460J000J0N000I00
#06614:AP0000000Q00001F001H0048000I001F
#06615:001C9J000I009L00
#06616:08
#06618:9I00004800001E009K0000004B009M00
#06619:00000000490000004A001C000000009N
#06701:000J0000
#06701:00
#06701:0000000I
#06701:000000000000000J
#06701:0R000S000U0S0R0U0S0R0U0S0U000U00
#06701:00
#06701:00
#06701:2O002P2Q00002S2T2P2Q2R002O002P00
#06701:00
#06701:00
#06701:004D000000000000
#06701:00
#06701:00
#06701:00
#06701:00
#06701:00
#06701:00AR
#06701:AQ
#06701:00
#06701:0000009Q00000000
#06701:009P9R00
#06701:9O
#06701:00
#06701:00
#06701:00
#06701:00
#06701:00
#06701:00
#06701:00
#06701:00
#06701:HUHMHSHRHS000000
#06711:0403000403000I00000I000003000300
#06712:0I0J00000000000J00000J00000I0000
#06713:NS00000INT004X0000AS0000NW00NX00
#06714:00NT000R000000004G00AT00AV000000
#06715:4B0000002R00NUNV000000AU00AW002Q
#06716:000G00000G00000G00000G000G000G00
#06718:000U00NS0000000000NUNV000000AX00
#06719:000000004E00040300040300000000AY
#06801:00
#06801:00
#06801:000000000I0000000I0000000I0I0000
#06801:004H000000000000
#06801:00
#06801:000N000N
#06801:1B0000001D001E001G1H00001D001E1F
#06801:00
#06801:00
#06801:00
#06801:00
#06801:00
#06801:00
#06801:00
#06801:00
#06801:00
#06801:B1
#06801:00
#06801:000000000000009W
#06801:9S
#06801:00
#06801:00
#06801:00
#06801:00
#06801:00
#06801:00
#06801:00
#06801:00
#06801:00
#06801:00
#06801:HMHJHSHMHSHNHRHN
#06811:0100010001040103
#06812:000I004I00004H00000I00000Q000000
#06813:4D000J000Q0000000N00000400004M00
#06814:0N000000000I001F00001C009V00009X
#06815:00001C009T000J000000004K00000J00
#06816:08
#06818:0I004E009U0J4L00
#06819:004J
#06901:00
#06901:00
#06901:00
#06901:00
#06901:0R000S000U0S0R0U0S0R0U0S0U000U00
#06901:00
#06901:00
#06901:2U2V2W002X002Y2Z2U2V2X002W002Y00
#06901:00
#06901:00
#06901:004N000000000000
#06901:00
#06901:00000000004F000000000000000000000000000000000000
#06901:004O00000000
#06901:00
#06901:00
#06901:00AT
#06901:B2
#06901:000000A000000000
#06901:009ZA100
#06901:9Y
#06901:00
#06901:00
#06901:00
#06901:00
#06901:00
#06901:000000000000O2O3
#06901:00
#06901:00
#06901:00
#06901:HRHMHPHOHP000000
#06911:0403000403004N00000I000003000300
#06912:NYNZ00000000000J00000J00000I0000
#06913:0I0000NYNZ000I0000AU00000I000J00
#06914:000J000R000000004P00AV00AX000000
#06915:4L0000004600O0O1000000AW00AY002Z
#06916:000G00000G00000G00000G000G000G00
#06918:000U000I0000000000O0O1000000AZ00
#06919:000000000J00040300040300000000B0
#07001:00
#07001:00
#07001:0I0I0I0I
#07001:00
#07001:00
#07001:0N0N0N0N
#07001:00001D001G1C1D1E
#07001:00
#07001:00
#07001:00
#07001:00
#07001:00
#07001:00
#07001:00
#07001:00
#07001:00
#07001:00
#07001:00
#07001:00
#07001:000000000000009M
#07001:00
#07001:00
#07001:00
#07001:00
#07001:00
#07001:00
#07001:00
#07001:00
#07001:00
#07001:00
#07001:HPHLHVHLHVHLHUHL
#07011:01010101
#07012:46000J0000001E00000I0048000I001F
#07013:000I00000Q000000BF000J000Q000000
#07014:9I00004800004700000000ZZ00000J00
#07015:00001C00000I001F001H00009L004C00
#07016:08
#07018:1B009J0J9K004B00
#07019:00004700490000004A0000000000009N
#07101:00
#07101:00
#07101:0I0000000000000000000I00000000000K0L0M0I000000000I0000000I000000
#07101:00
#07101:000Q000Q
#07101:0N0N000N
#07101:1B0000001D00001F1G1H1C001D001E1F
#07101:0E
#07101:00
#07101:00
#07101:00
#07101:00
#07101:00
#07101:00
#07101:00
#07101:00
#07101:000000BI
#07101:00BH
#07101:00
#07101:00
#07101:00
#07101:00
#07101:00
#07101:00
#07101:00
#07101:00
#07101:00
#07101:00
#07101:00
#07101:00
#07101:HUHMHSHRHS00HO00
#07111:01000000010000000100000403000300
#07112:00000J0000000J0000000J0000BJ0000
#07113:BG000I000N004RBK
#07114:000I00ZZ00004X000000O40000O700BL
#07115:9O001I004E009Q004Q0000O50000O800
#07118:4B0000009P0000009U000000O60000O9
#07119:00004D0000001E000000000000ZZ0000
#07201:00
#07201:00
#07201:00
#07201:00
#07201:00
#07201:00
#07201:00
#07201:00
#07201:00
#07201:00
#07201:00
#07201:00
#07201:00
#07201:00
#07201:00
#07201:00
#07201:00
#07201:00
#07201:00BO
#07201:000000BP
#07201:00
#07201:00
#07201:00
#07201:00
#07201:00OC
#07201:00
#07201:00
#07201:00
#07201:OAOB000000000000
#07201:00
#07201:HP000000HPHRHSHU
#07201:ZS
#07211:0102000000000000
#07213:4646000000000000
#07215:BMBN000000000000
#07216:0G0G000000000000
#07219:0I0I000000000000
#07301:00
#07301:00
#07301:00
#07301:00
#07301:00
#07301:00
#07301:00
#07301:00
#07301:00
#07301:00
#07301:00
#07301:00
#07301:00
#07301:00
#07301:00
#07301:00
#07301:00
#07301:00
#07301:00
#07301:00
#07301:BQ
#07301:00BR0000
#07301:00BS
#07301:00
#07301:00
#07301:OD
#07301:00OE
#07301:00
#07301:00
#07301:00
#07301:HS00HRHPHR000000
#07401:0H0H0H0H0G000H0H000H0G000H0H000H
#07401:00
#07401:0I0I0I0I00000I0I0I0I00000I0I0I0I
#07401:00000J00000J0000
#07401:00
#07401:00
#07401:00
#07401:00
#07401:00
#07401:00
#07401:00
#07401:00
#07401:00
#07401:OF
#07401:00
#07401:00
#07401:000000CC00CDCC00
#07411:0400030404030404
#07412:00040004000000040004000000040004
#07413:OHOJCD000HOKOH0H
#07414:00OI04OI000000OI00OI000000OI00OI
#07415:CCBVOKOHOJ0000OJ
#07416:08
#07418:00BU00BU000000BU00BU000000BU00BU
#07419:BT00BVBTBVBVBTBV
#07501:0G00000H0H0H00000000000000000000
#07501:00000004040400000000000000000000
#07501:0000000I0I0I0000000I0000000I0000
#07501:0J
#07501:00
#07501:00
#07501:00
#07501:00
#07501:00
#07501:00
#07501:00
#07501:00
#07501:000000OG
#07501:00
#07501:00
#07501:000000CE
#07501:CDCC00CDCC000000
#07511:030400030I000F00
#07512:000000BU00OI000000000000BW000000
#07513:000IBVOK03030303
#07514:000H000G00000000
#07515:OKOHOJ0JOL0J0I0J
#07518:000000OI00BU00000F00000000000000
#07519:BVBT00BVBT00OM00
#07601:0H0H0H0H0G00000H0H0H0000000H0H0H
#07601:00
#07601:0I0I0I0I00000I0I0I0I00000I0I0I0I
#07601:00000J00000J0000
#07601:00
#07601:00
#07601:00
#07601:00
#07601:00
#07601:00
#07601:00
#07601:00
#07601:00
#07601:OF
#07601:00
#07601:00
#07601:CC00CDCC00CDCC00
#07611:040004000300000400040000OH000000
#07612:00040004000004000400030000OI00OI
#07613:OH000000OK0000OI00OI00000H00BV00
#07614:00OI00OI0000OH00OJ00OK00BT00OJ00
#07615:0000OJ0000000H00BV000G0000BU00BU
#07618:BT00BV00BV0000BU00BU000004000400
#07619:00BU00BU0000BT000000BV0000040004
#07701:00000H0H0H0H0G000000000000000000
#07701:00
#07701:00000I0I0I0I00000I0I00000I0I0000
#07701:0J00000J00000000
#07701:00
#07701:00
#07701:00
#07701:00
#07701:00
#07701:00
#07701:00
#07701:00
#07701:00
#07701:00
#07701:00
#07701:00
#07701:CDCC00CD00000000
#07711:OK0000BU00OI0000CC000000ON000000
#07712:00BTOJOKBT000000
#07713:0G00BV0003030303
#07714:BV0000OI00BU00000000000000000000
#07715:00OH00BV0F0J0F0J
#07718:030000040004000000000000CF000000
#07719:00040403OL00BX00
#07801:0H000H000G00000H0H0H00000H000H00
#07801:00
#07801:0I0I0I0I00000I0I0I0I00000I0I0I0I
#07801:00000J00000J0000
#07801:00
#07801:00
#07801:00
#07801:00
#07801:00
#07801:00
#07801:00
#07801:00
#07801:00
#07801:00
#07801:00
#07801:00
#07801:00
#07801:00
#07801:CG00CHCG00CHCG00
#07811:OO00OQ00OR0004000400030000040004
#07812:00OP00OP000000040004000004000400
#07813:00BZ00BZ00000H0000000G00000H000H
#07814:BY00C000C00000OP00OP0000OO00OQ00
#07815:000400040000OO00OQ00OR0000OP00OP
#07818:040004000300BY00C000C00000BZ00BZ
#07819:000H000H000000BZ00BZ0000BY00C000
#07901:0G00000H0H0H00000000000000000000
#07901:00
#07901:00000I0I0I0I00000I0I00000I0I0000
#07901:0J00000J00000000
#07901:00
#07901:00
#07901:00
#07901:00
#07901:00
#07901:00
#07901:00
#07901:00
#07901:00
#07901:00
#07901:00
#07901:00
#07901:00
#07901:00
#07901:CHCG00CH00000000
#07911:000000OP00OP0000OS000000CF000000
#07912:03OOOQOR0000C100
#07913:00BYC0C00F0J0F0J
#07914:OR0000BZ00BZ00000000000000000000
#07915:0004000303030303
#07918:0000000400040000CG00000000000000
#07919:C00H040GBY00OT00
#08001:000H000H0000000H0H0H0000000H0H0H
#08001:000H000000000000
#08001:0I0I0I0I00000I0I0I0I00000I0I0I0I
#08001:00000J00000J0000
#08001:00
#08001:00
#08001:00
#08001:00
#08001:00
#08001:00
#08001:00
#08001:00
#08001:00
#08001:00
#08001:00
#08001:00
#08001:00
#08001:00
#08001:CG00CHCG00CHCG00
#08011:OOOQOR0H040GOOOQ
#08012:BY00C000C000000400040000BY00C000
#08013:00BZ00BZ000004000000030000BZ00BZ
#08014:00OP00OP000000OP00BZ000000OP00OP
#08015:04000400030000BZ00OP00000H000000
#08018:000400040000OO00OQ00OR0000040004
#08019:0H000GBYC0C00404
#08101:0000000H0H0H00000000000000000000
#08101:00
#08101:00000I0I0I0I00000I0I00000I0I0000
#08101:0J00000J00000000
#08101:00
#08101:00
#08101:00
#08101:00
#08101:00
#08101:00
#08101:00
#08101:00
#08101:00
#08101:00
#08101:00
#08101:00
#08101:00
#08101:00
#08101:CHCG00CH00000000
#08111:OR0H000GCG00OU00
#08112:C000000400040000BY00000000000000
#08113:000404030F0J0F0J
#08114:000000OP00OP00000000000000000000
#08115:0G0000BZ00BZ00000300030003000300
#08118:00BYC0C00000CI00
#08119:03OOOQOROS00C200
#08201:00
#08201:00
#08201:0I0I0I0I00000I0I0I0I00000I0I0I0I
#08201:00000J00000J0000
#08201:00
#08201:00
#08201:37003131310036003131310036003131
#08201:00
#08201:00
#08201:00
#08201:00
#08201:00
#08201:00
#08201:00
#08201:00
#08201:00
#08201:00
#08201:CJCKCLCJCKCLCJCK
#08211:0N0000000N0000C400C4000000000000
#08212:C3C5C5C3C5C5C3C5
#08213:00C400C4000000OW00OW000000C400C4
#08214:0303030303030303
#08215:00OW00OW000000000000000000OW00OW
#08216:08
#08218:OVOXOYOVOXOYOVOX
#08219:00000N0N
#08301:00
#08301:00
#08301:00000I0I0I0I00000N0000000N000000
#08301:0J00000J00000000
#08301:00
#08301:00
#08301:3136363137003600
#08301:00
#08301:00
#08301:00
#08301:00
#08301:00
#08301:00
#08301:00
#08301:00
#08301:00
#08301:00
#08301:CLCJCKCL00000000
#08311:0N0N00CN
#08312:C5C3C5C50I0JC631
#08313:0000000000000000000I0000P0000000
#08314:03000300030003000300030003000404
#08315:000000C400C40000CM000000000I0000
#08318:OYOVOXOYOZ310I0J
#08319:000000OW00OW0000C300000000000000
#08401:00
#08401:00
#08401:0I0I0I0I00000I0I0I0I00000I0I0I0I
#08401:00000J00000J0000
#08401:00
#08401:00
#08401:37003131310036003131310036003131
#08401:00
#08401:00
#08401:00
#08401:00
#08401:00
#08401:00
#08401:00
#08401:00
#08401:00
#08401:00
#08401:CJCKCLCJCKCLCJCK
#08411:0N0000000N0000C400C4000000000000
#08412:C3C5C5C3C5C5C3C5
#08413:00C400C4000000OW00OW000000C400C4
#08414:0303030303030303
#08415:00OW00OW000000000000000000OW00OW
#08416:08
#08418:OVOXOYOVOXOYOVOX
#08419:00000N0N
#08501:00
#08501:00
#08501:00000I0I0I0I00000I0000000I000000
#08501:0J00000J00000000
#08501:00
#08501:00
#08501:3136363137003600
#08501:00
#08501:00
#08501:00
#08501:00
#08501:00
#08501:00
#08501:00
#08501:00
#08501:00
#08501:00
#08501:CLCJCKCL00000000
#08511:0N0NCM00
#08512:C5C3C5C5C30J0N0J
#08513:00000000000000000N000000000I0000
#08514:03000300030003000300030003000404
#08515:000000C400C40000000I0000P1000000
#08518:OYOVOXOYOZ31CO31
#08519:000000OW00OW000000000000C7000000
#08601:000H000H0000000000000000000H000H
#08601:00
#08601:0I0I0I0I00000I0I0I0I00000I0I0I0I
#08601:00000J00000J0000
#08601:0N0N0N0N
#08601:00
#08601:00
#08601:00
#08601:0000000H0H0G0000
#08601:00
#08601:00
#08601:00
#08601:00
#08601:00
#08601:00
#08601:00
#08601:00
#08601:00
#08601:00
#08601:CQ00CQCQ00CQCQ00
#08601:00
#08601:00
#08601:CP
#08611:040004000300000H000H000000040004
#08612:0H000H000G0000040004000000C900C9
#08613:00C900P30000C800CA00CA0000P300P3
#08614:00P300C90000P200P400P500P200P400
#08615:000400040000040004000300C800CA00
#08618:P200P400P50000P300P300000H000H00
#08619:C800CA00CA0000C900C9000004000400
#08701:000F
#08701:00
#08701:00000I0I0I0I00000I0I00000I0I0000
#08701:0J00000J00000000
#08701:0N0N000N
#08701:0000000H000H00000000000000000000
#08701:00
#08701:00
#08701:00
#08701:00
#08701:00
#08701:00
#08701:00
#08701:00
#08701:00
#08701:00
#08701:00
#08701:00
#08701:00
#08701:CQCQ00CQ00000000
#08711:000404030N000000
#08712:00P2P4P5CQ0JP70J
#08713:00C8CACA00000F00
#08714:P50H0H0G03030303
#08715:CA0000040004000000000000CR000000
#08718:0G0000P300P30000P6000J00CB000J00
#08719:030000C900C90000C800000000000000
#08801:0H0H000H0G000H0H000H0G000H0H000H
#08801:00
#08801:0I0I0I0I00000I0I0I0I00000I0I0I0I
#08801:00000J00000J0000
#08801:0N0N0N0N
#08801:00
#08801:00
#08801:00
#08801:00
#08801:00
#08801:00
#08801:00
#08801:00
#08801:00
#08801:00
#08801:00
#08801:00
#08801:00
#08801:00
#08801:CQ00CQCQ00CQCQ00
#08801:00
#08801:00
#08801:CP
#08811:P90HPAP90HPAP90H
#08812:00P300P3000000P300P3000000P300P3
#08813:P2P4P5P2P4P5P2P4
#08814:00C900C9000000C900C9000000C900C9
#08815:C8CACAC8CACAC8CA
#08818:00040004000000040004000000040004
#08819:0404030404030404
#08901:0H0H0H0H0H0H0H0H0H0H0H0H0H0H0H0H
#08901:00
#08901:0I0I0I0I0I0I0I0I0I0I0I0I0I0I0I0I
#08901:00
#08901:0N0N0N0N
#08901:00
#08901:00
#08901:00
#08901:00
#08901:00
#08901:PBPCPBPCPBPCPBPC
#08901:00
#08901:00
#08901:00
#08901:00
#08901:00
#08901:00
#08901:00
#08901:00
#08901:CQCQCQCQCQCQCQCQ
#08911:00000404040000000000040404000000
#08912:000400P300040000000400P300040000
#08913:04P4P40404P4P404
#08914:00P300C900P3000400P300C900P30004
#08915:P4CACAP4P4CACAP4
#08918:00C9000000C900P300C9000000C900P8
#08919:CA0000000000CAC9CA0000000000CAC9
#09001:0G
#09001:00
#09001:00
#09001:00
#09001:00
#09001:00
#09001:00
#09001:00
#09001:00
#09001:00
#09001:00
#09001:00
#09001:00
#09001:00
#09001:00
#09001:00
#09001:00
#09001:CS
#09001:00
#09001:00
#09001:00
#09001:00
#09001:000000UE
#09001:0000000000000000UB0000UB00UB00UF
#09001:0000000000UD00UD
#09001:000000000000000000UC000000000000
#09001:00
#09001:00
#09001:00
#09001:00
#09001:00
#09001:ZT
#09003:AA
#09012:000000PQ
#09013:0000000000000000PM0000PP00PR00PT
#09014:0000000000PJ00PL0000PO000000PS00
#09015:PE0000PH0000PK0000PN000000000000
#09018:00PF0000PI0000000000000000000000
#09019:02PG000000000000
#09101:00
#09101:00
#09101:00
#09101:00
#09101:0U0000000R0S0R0S0000000000000000
#09101:00
#09101:00000000000V0000
#09103:AC
#09111:02020200
#09112:PUPU
#09113:00PVPW00
#09114:PWPX0000
#09115:000I0I00
#09116:090C0D0W
#09118:0I0U
#09119:6O6P6Q00
#09201:00
#09201:00
#09201:00
#09201:00
#09201:00
#09201:0000000000000X00000X00000Y000Z0010001100001100001200000000000000001000000X0000000000000000000000
#09201:00
#09201:00003031320032330035363733003600
#09201:00
#09201:00
#09201:00
#09201:00
#09201:00
#09201:00
#09201:00
#09201:00
#09201:00
#09201:00
#09201:00
#09201:00
#09201:00
#09201:00
#09201:CT00CVCUCV00CU00CT00CVCUCV00CU00
#09211:0202
#09212:PYPY
#09213:3737
#09214:000000000I000000000M00000M0000000000000000000I00000000000I000000
#09215:0I
#09218:00000000000000000M00000M00000000000000000Z0000000I0000000R000000
#09219:0000000I000M000I000I000000000000
#09301:00
#09301:00
#09301:00000000000000000I0I0I0I00000000
#09301:00
#09301:0U000S0R0U0000000U00000000000000
#09301:00
#09301:0000000000030000
#09301:00003133000033000000000000000000
#09301:00
#09301:00H9
#09301:00
#09301:00
#09301:00
#09301:00
#09301:00
#09301:00
#09301:00
#09301:00
#09301:00
#09301:00
#09301:00
#09301:00
#09301:CW00CUCVCW00CU00CV00000000000000
#09311:02020302
#09312:PZ0000000000PZ0000000000PZ00000000D20000000000D8
#09313:3700003700003700D10000D7
#09314:0000000000D000D6
#09315:0000000000000000000I00000000000000000I000000000000000000CZ0000000000000000000000D500000000000000
#09318:0I000000000000000000000000CY0000000000D400000000
#09319:000I0I0SCX00D300
#09401:006S6R6S
#09401:00
#09401:000000000I0000000I00000I0I000000
#09401:000J000J000J000J
#09401:0U000R000R000S0R0S000R0S0R000U00
#09401:000N0N0N
#09401:000000R900000000
#09401:00
#09401:00
#09401:00
#09401:000000RJ
#09401:00
#09401:00
#09401:HAHA
#09401:00HB000000000000000000HI000000000000000000000000
#09401:00HC000000000000000000HC
#09401:00HD00HD00000000
#09401:00HE000000HH
#09401:0000000000HF00HF00000000000000000000000000000000
#09401:00HG00HG
#09401:00
#09401:00
#09401:00
#09401:006T006T006T006T
#09401:D9
#09401:00
#09401:00DX00DY
#09401:DVDV
#09401:00DW00DW00DW0000
#09401:00
#09401:GR
#09411:0200020002000303
#09412:000000R0000000000000HC0000HB000000000000R9000000
#09413:0000000000000000000S0000000000000000RC0000000000000000000000R60000000000R800000000000000RA000000
#09414:000000000000R3000000000000000000HH00000000000000QI000000HC00000000R7000000000000RC00000000000000
#09415:6R0000R40000QR0000RE0000000000HD000000HF0000RD00
#09416:08
#09418:0I0000000000QS0000000000QL000000HE00000000HD0000
#09419:0N0000000000QT0000000000QN00000000HF0000000000HI
#09501:6R6S6R6U
#09501:00
#09501:0I0000000I0000000I00000I0I000000
#09501:000J000J000J000J
#09501:0U0000000000000R0S000R0S0R000U00
#09501:0N0N0N0N
#09501:0000000000R10000
#09501:0000000000R30000
#09501:0000000000000000000I000000000000
#09501:0000000000R80000
#09501:000000QG
#09501:00QM
#09501:000000QO
#09501:00
#09501:00HB000000000000000000HI0000000000000000000000HI
#09501:00HC000000HC0000000000HC
#09501:000000HD000000HD
#09501:00HEHH000000
#09501:00000000000000HF00000000000000000000000000000000
#09501:00HG0000
#09501:00
#09501:00
#09501:00
#09501:006T006T006T006T
#09501:0000006V
#09501:00
#09501:00DX0000
#09501:DVDV
#09501:00DW00DW00DW0000
#09501:000000DZ
#09511:0200020002000303
#09512:IT00000000000000000000000000000000000000HF0000000000000000000000000000000S000000000000000000000000000000HB00000000000000000000000000040000000000000000000000000000Q60000000000000000000000000000
#09513:000000HD0000IW0000000000HA00HC000000QJ0000Q70000
#09514:HA0000000000IV0000000000IX00000000000000HD0000000000000000Q80000
#09515:000000000000IU00000000000R0000000000000000000000QH00000000000000HE00000000000000HH00000000QA0000
#09518:0000000000000000000000000000000000000S0000000000000000000000000000000000000000000000000000000000QI00000000000000000000000000000000000000HF00000000000000HF00000000000000000000000000000000QB0000
#09519:000R00000000HG00
#09601:6R6S6R6S
#09601:00
#09601:0I0000000000000000000000000000000K0L0M0I00000I000I00000000000000
#09601:000J000J000J000J
#09601:0U000R0S0R000S0R0S000R0S0R000U00
#09601:0N0N0N0N
#09601:000000RB
#09601:00
#09601:00HB00000000000000000000HG000000
#09601:00
#09601:HAHC00000000000000000000
#09601:00
#09601:00
#09601:00HA
#09601:0000000000000000000000HI00HB000000000000000000HI
#09601:00000000HE0000000000HC000000HCHD000000000000HC00
#09601:000000HD0000000000HD000000000000HE00000000HD0000
#09601:0000000000000000HH0000000000000000HF0000HH000000
#09601:0000000000HF00000000000000000000000000HF00000000
#09601:00
#09601:00
#09601:00
#09601:00
#09601:006T006T006T006T
#09601:00
#09601:00
#09601:00DX00DY
#09601:DVDV
#09601:00DW00DW00DW0000
#09611:02000000020000000200000403000400
#09612:QX0000000000R400000000000000HF000000000000QZ0000000000000000000000000000RD0000000000000000040000
#09613:000000000000000000000000HG0000000000000000R10000000000R400000000000000000000RH000000000000000000
#09614:R00000000000RA0000000000000000R50000000000000000000000R800000000R900000000000000RK00000000000000
#09615:000000000000000000000000000000R80000000000R500000000000000000000RA000000000000000000RM0000000000
#09618:000000000000R800000000000I0000000000000000000000000000RA00000000RC0000000000000000000000RN000000
#09619:R40000000000RB0000000000000000RA00000000000000000000000000000000RF00000000000000000000000000RQ00
#09701:6R6S6R6D
#09701:00
#09701:0I0000000I0000000I0I000I0I000000
#09701:000J000J000J000J
#09701:0U000R000R000S000S0T0R0U0U000U00
#09701:0N0N0N0N
#09701:00000000000000000000000000QE0000RF00000000000000
#09701:0000000000000000HE0000000000000000000000000R00000000000000000000RI000000000000000000000000000000
#09701:00
#09701:0000000000HF00000000000000000000RK00000000000000
#09701:00HC00000000000000RP0000
#09701:00
#09701:00
#09701:00HA
#09701:0000000000000000000000HI00HB00000000000000000000
#09701:0000000000HC000000000000
#09701:00
#09701:00
#09701:00000000000000HF0000000000000000000000HF00000000
#09701:000000HG
#09701:00000000000000000000006C00000000
#09701:00
#09701:000000000000006E
#09701:006T006T006T0000
#09701:00
#09701:00
#09701:00000000DX000000000000E000000000
#09701:DVDV
#09701:00DW00DW00DW00E2
#09701:000000E1
#09711:020002RH02000303
#09712:000000000000000000000000000000QP0000000000QY00000000QG0000000000RM00000000000000HH0000000000RB00
#09713:HA0000000000QQ0000HD00000000HC000000QV000000RF00
#09714:0000HB0000000000000S000000000000HH00000000R00000000000000000HD0000000000000000000000RL0000000000
#09715:QS0000000000HD0000000000HG0000000000000000R100000000QI0000000000HE00000000000000RQ0000000000HI00
#09718:000000QT0000000000QR00000000000000000000000000000000QK00000000000000HF000000RR0000000000HC000000
#09719:0000QU00000000R300000000QW00HD00
#09801:6R6S6R6S
#09801:Q0
#09801:000000000I0000000I00000I0I000000
#09801:0000000J000J000J
#09801:0U00000S0R000S0R0S000R0S0R000U00
#09801:0N0N0N0N
#09801:00
#09801:00
#09801:00
#09801:00
#09801:00
#09801:00
#09801:0000000000HC000000000000
#09801:HAHA
#09801:00HB00000000000000000000000000000000000000000000
#09801:00HC000000000000000000HC
#09801:00
#09801:00HE000000HH
#09801:0000000000HF00HF00000000000000000000000000000000
#09801:00HG00HG
#09801:00
#09801:00
#09801:00
#09801:006T006T006T006T
#09801:00
#09801:00
#09801:00DX00DY
#09801:DVDV
#09801:00DW00DW00DW0000
#09801:00
#09801:GR
#09811:0200020002000303
#09812:0000000000000J000000000000000000HH000000000000000000HB00000000000000HF00000000000000000000QF0000
#09813:0000000R0000Q70000HD00000000HC00HE00000000QJ0000
#09814:0I00000000000000000000000000Q800000000000000HI00000000000000HD0000000000000000QL0000000000000000
#09815:000000HD00000000Q9000000QI0000000000QN00000000HI
#09816:08
#09818:000000000000QC0000QN00QO0000HD00
#09819:Q10000000000000000000000000000000000000000QG0000000000000000QR00000000000000HF000000000000000000
#09901:6R6S6R6U
#09901:00
#09901:0I0000000I0000000I0I000I0I000000
#09901:000J000J000J000J
#09901:0U000R0S0R000S0R0S000R0S0R000U00
#09901:0N0N0N0N
#09901:00
#09901:00
#09901:00
#09901:00
#09901:00
#09901:00
#09901:00
#09901:00HA
#09901:00HB000000000000000000HI00HB000000000000000000HI
#09901:0000000000HC00HC000000HC
#09901:00HD00HD00HD00HD
#09901:00HE0000HEHH
#09901:0000000000HF00HF000000000000000000HF00HF00000000
#09901:00HG00HG
#09901:00
#09901:00
#09901:00
#09901:006T006T006T006T
#09901:0000006V
#09901:00
#09901:00DX0000
#09901:DVDV
#09901:00DW00DW00DW0000
#09901:000000DZ
#09911:02000000020000000200000403000300
#09912:0000HC000000R20000000000R80000RA0000000000000000
#09913:QC00R40000RGQ200
#09914:HAQD00RDRH00Q300
#09915:0000R8RG00RJ0000
#09918:000000QH00000000HH000000RJ0000000000Q40000000000
#09919:00QJ00RO00RLQ500
#10001:00
#10001:00
#10001:0I0000000I0000000I00000I0I000000
#10001:000J000J000J000J
#10001:0U000R0S0R000T0S0R000S0U0U000R0S
#10001:0N0N000N
#10001:000N
#10001:00
#10001:006S006S
#10001:000000J900000000000000JF00000000
#10001:0000000000JE0000
#10001:006R
#10001:000000000000000000000000000000JH
#10001:00000000000000JB0000000000000000
#10001:00
#10001:00
#10001:00
#10001:006T006T006T0000
#10001:000000000000006T
#10001:00
#10001:00
#10001:00
#10001:00
#10001:00
#10001:00
#10001:00
#10001:00000000DX000000000000E3DY000000
#10001:DV000000DV0000E4
#10001:0000DW000000DW000000DW00000000E5
#10011:02000000020000000200000403000400
#10012:0000HB0000000000000000000000HF0000000000000000000000HB0000000000000000000000HF000000000000040000
#10013:J7HDJ8HDJCHDJGJG
#10014:00000000HC00000000000000000000J900000000HC00000000000000HC00000000000000000000JF0000000000000000
#10015:HA00000000000000HE00000000000000HH00000000000000000000JD00000000HE00000000000000HH000000HC000000
#10018:6R0000J800HF000000JA00HI0000000000HF000000HD00HI
#10019:00HGHAHG
#10101:00
#10101:00
#10101:00
#10101:00
#10101:0U
#10101:00
#10101:000000000000000000000000000000SG
#10101:00000000000000SF
#10101:00
#10101:00
#10101:00
#10101:00
#10101:00
#10101:00
#10101:00
#10101:00
#10101:00
#10101:00
#10101:00
#10101:00
#10101:00
#10101:00
#10101:00
#10101:00
#10101:00
#10101:00
#10101:00
#10101:00
#10101:00000000000000GE
#10101:E6
#10101:H8
#10111:0200000000000003
#10112:000000000000SDRS
#10113:5S00000000000000S90000SC00SE0000
#10114:0I000000000000S80000SB0000000I00
#10115:0000S3000000S70000SA000000000000
#10116:090000000000000G
#10118:000000S400S60000000000000000DE00
#10119:S200S500000000DA
#10201:00
#10201:00
#10201:0I0I000I0I000I0I000I0I000I000I00
#10201:0N00000N00000N00000N00000O000O00
#10201:0R0U000R0U000R0U000R0U000R0S0U00
#10201:00
#10201:00
#10201:00
#10201:00
#10201:00
#10201:00
#10201:00
#10201:00
#10201:00
#10201:00
#10201:00
#10201:00
#10201:00
#10201:00
#10201:00
#10201:00
#10201:00
#10201:00000000000000GH
#10201:00
#10201:00
#10201:00
#10201:00
#10201:00
#10201:00
#10201:GFGG00GFGG00GFGG00GFGG0000000000
#10211:00000004030004030000000003000000
#10212:000000DGDR00DHDS00040300DI000300
#10213:040300GOGJ00000000DFDQ00GI00RW00
#10214:DFDQ00DBDC00GPGK00GQGL000000DJ00
#10215:DBDC00RTRU00000000DBDC00DB00GJ00
#10216:0H0G000H0G000H0G000H0G000G000G00
#10218:GNGI00000000DBDC00RTRU00GG00DD00
#10219:RTRU00000000RTRU00000000RV000000
#10311:02
#10312:RV00RXRZS1000000
#10313:DK00000000RY00S00000000000000000
#10314:00DLDP00
#10315:GR00000000DM00DO0000000000000000
#10316:0G
#10318:GM00DLDNDP000000
#10319:DC
