Files
admin-leaf-alice-in-misanth…/_7ensei_m7.bms

4536 lines
92 KiB
Plaintext
Raw Permalink Blame History

This file contains ambiguous Unicode characters
This file contains Unicode characters that might be confused with other characters. If you think that this is intentional, you can safely ignore this warning. Use the Escape button to reveal them.
*---------------------- HEADER FIELD
#PLAYER 1
#GENRE GOTHIC CHOIR
#TITLE Alice in Misanthrope -‰}<7D>¢ƒAƒŠƒX- [Todestrieb]
#ARTIST LeaF
#BPM 172
#PLAYLEVEL 15
#RANK 3
#TOTAL 593
#STAGEFILE _title.png
#WAV01 kick1_4g.wav
#WAV02 kick1_4.wav
#WAV03 kick1_8.wav
#WAV04 kick1_16.wav
#WAV05 kick1_32.wav
#WAV06 kick1_sub1.wav
#WAV07 kick1_sub2.wav
#WAV08 cym1_1.wav
#WAV09 cym1_2.wav
#WAV0A cym1_3.wav
#WAV0B cym1_4.wav
#WAV0C cym1_5.wav
#WAV0D cym1_6.wav
#WAV0E cym1_7_spr.wav
#WAV0F cym1_9.wav
#WAV0G cym1_10.wav
#WAV0H cym1_11.wav
#WAV0I hat1.wav
#WAV0J hat2.wav
#WAV0K hat3.wav
#WAV0L hat4.wav
#WAV0M hat5.wav
#WAV0N ride1.wav
#WAV0O ride2.wav
#WAV0P ride3.wav
#WAV0Q snare1.wav
#WAV0R snaredrum1_1.wav
#WAV0S snaredrum1_1.wav
#WAV0T snaredrum1_2.wav
#WAV0U snaredrum1_3.wav
#WAV0V clap1.wav
#WAV0W clap2.wav
#WAV0X tom1.wav
#WAV0Y tom2.wav
#WAV0Z tom3.wav
#WAV10 tom4.wav
#WAV11 tom5.wav
#WAV12 tom6.wav
#WAV13 break1_1.wav
#WAV14 break1_2.wav
#WAV15 break1_3.wav
#WAV16 break1_4.wav
#WAV17 break1_5.wav
#WAV18 break1_6.wav
#WAV19 break1_7.wav
#WAV1A break1_8.wav
#WAV1B break2_1.wav
#WAV1C break2_2.wav
#WAV1D break2_3.wav
#WAV1E break2_4.wav
#WAV1F break2_5.wav
#WAV1G break2_6.wav
#WAV1H break2_7.wav
#WAV1I break2_8.wav
#WAV1J break3_1.wav
#WAV1K break3_2.wav
#WAV1L break3_3.wav
#WAV1M break3_4.wav
#WAV1N break3_5.wav
#WAV1O break3_6.wav
#WAV1P break3_7.wav
#WAV1Q break3_8.wav
#WAV1R break3_9.wav
#WAV1S break3_10.wav
#WAV1T break3_11.wav
#WAV1U break3_12.wav
#WAV1V break3_14.wav
#WAV1W break3_15.wav
#WAV1X break3_16.wav
#WAV1Y break3_17.wav
#WAV1Z break3_18.wav
#WAV20 break3_19.wav
#WAV21 break3_20.wav
#WAV22 break3_21.wav
#WAV23 break3_22.wav
#WAV24 break3_23.wav
#WAV25 break3_24.wav
#WAV26 break3_25.wav
#WAV27 break3_26.wav
#WAV28 break3_27.wav
#WAV29 break3_28.wav
#WAV2A break3_29.wav
#WAV2B break3_30.wav
#WAV2C break3_31.wav
#WAV2D break3_32.wav
#WAV2E break3_33.wav
#WAV2F break3_34.wav
#WAV2G break3_35.wav
#WAV2H break3_36.wav
#WAV2I break3_37.wav
#WAV2J break3_38.wav
#WAV2K break3_39.wav
#WAV2L break3_40.wav
#WAV2M break3_41.wav
#WAV2N break3_42.wav
#WAV2O break4_1.wav
#WAV2P break4_2.wav
#WAV2Q break4_3.wav
#WAV2R break4_4.wav
#WAV2S break4_5.wav
#WAV2T break4_6.wav
#WAV2U break4_7.wav
#WAV2V break4_8.wav
#WAV2W break4_9.wav
#WAV2X break4_10.wav
#WAV2Y break4_11.wav
#WAV2Z break4_12.wav
#WAV30 ens1_1.wav
#WAV31 ens1_2.wav
#WAV32 ens1_3.wav
#WAV33 ens1_4.wav
#WAV34 ens1_5.wav
#WAV35 ens1_6.wav
#WAV36 ens1_7.wav
#WAV37 ens1_8.wav
#WAV38 ens1_9.wav
#WAV39 ens1_10.wav
#WAV3A fx1.wav
#WAV3B synth1_1.wav
#WAV3C synth1_2.wav
#WAV3D synth1_3.wav
#WAV3E synth1_4.wav
#WAV3F synth1_5.wav
#WAV3G synth1_6.wav
#WAV3H synth1_7.wav
#WAV3I synth1_8.wav
#WAV3J synth1_9.wav
#WAV3K synth1_10.wav
#WAV3L synth1_11.wav
#WAV3M synth1_12.wav
#WAV3N synth1_13.wav
#WAV3O synth1_14.wav
#WAV3P synth1_15.wav
#WAV3Q synth1_16.wav
#WAV3R synth1_17.wav
#WAV3S synth1_18.wav
#WAV3T synth1_19.wav
#WAV3U synth1_20.wav
#WAV3V synth1_21.wav
#WAV3W synth1_22.wav
#WAV3X synth1_23.wav
#WAV3Y synth1_24.wav
#WAV3Z synth1_25.wav
#WAV40 synth1_26.wav
#WAV41 synth1_27.wav
#WAV42 synth1_28.wav
#WAV43 synth1_29.wav
#WAV44 synth1_30.wav
#WAV45 synth1_31.wav
#WAV46 synth2_1.wav
#WAV47 synth2_2.wav
#WAV48 synth2_3.wav
#WAV49 synth2_4.wav
#WAV4A synth2_5.wav
#WAV4B synth2_6.wav
#WAV4C synth2_7.wav
#WAV4D synth2_8.wav
#WAV4E synth2_9.wav
#WAV4F synth2_10.wav
#WAV4G synth2_11.wav
#WAV4H synth2_12.wav
#WAV4I synth2_13.wav
#WAV4J synth2_14.wav
#WAV4K synth2_15.wav
#WAV4L synth2_16.wav
#WAV4M synth2_17.wav
#WAV4N synth2_18.wav
#WAV4O synth2_19.wav
#WAV4P synth2_20.wav
#WAV4Q synth2_21.wav
#WAV4R synth2_22.wav
#WAV4S synth2_23.wav
#WAV4T synth2_24.wav
#WAV4U synth2_25.wav
#WAV4V synth2_26.wav
#WAV4W synth2_27.wav
#WAV4X synth2_28.wav
#WAV4Y synth3_1.wav
#WAV4Z synth3_2.wav
#WAV50 synth3_3.wav
#WAV51 synth3_5.wav
#WAV52 synth3_6.wav
#WAV53 synth3_7.wav
#WAV54 synth3_8.wav
#WAV55 synth3_9.wav
#WAV56 synth3_10.wav
#WAV57 synth3_11.wav
#WAV58 synth3_12.wav
#WAV59 synth3_13.wav
#WAV5A synth3_14.wav
#WAV5B synth3_15.wav
#WAV5C synth3_16.wav
#WAV5D synth3_17.wav
#WAV5E synth3_18.wav
#WAV5F synth3_19.wav
#WAV5G synth3_20.wav
#WAV5H synth3_21.wav
#WAV5I synth3_22.wav
#WAV5J synth3_23.wav
#WAV5K synth3_24.wav
#WAV5L synth3_25.wav
#WAV5M synth3_26.wav
#WAV5N synth3_27.wav
#WAV5O synth3_28.wav
#WAV5P synth3_29.wav
#WAV5Q stringsfx1_1.wav
#WAV5R stringsfx1_2.wav
#WAV5S stringsfx1_3.wav
#WAV5T strings1_1.wav
#WAV5U strings1_2.wav
#WAV5V strings1_4.wav
#WAV5W strings1_5.wav
#WAV5X strings1_6.wav
#WAV5Y strings1_7.wav
#WAV5Z strings1_8.wav
#WAV60 strings1_9.wav
#WAV61 strings1_10.wav
#WAV62 strings1_11.wav
#WAV63 strings1_12.wav
#WAV64 strings1_13.wav
#WAV65 strings1_14.wav
#WAV66 strings1_15.wav
#WAV67 strings1_16.wav
#WAV68 strings1_17.wav
#WAV69 strings1_18.wav
#WAV6A strings1_19.wav
#WAV6B strings1_20.wav
#WAV6C strings1_21.wav
#WAV6D strings1_22.wav
#WAV6E strings1_23.wav
#WAV6F strings1_24.wav
#WAV6G strings1_25.wav
#WAV6H strings1_27.wav
#WAV6I strings1_28.wav
#WAV6J strings1_29.wav
#WAV6K strings1_30.wav
#WAV6L strings1_31.wav
#WAV6M strings1_32.wav
#WAV6N strings1_33.wav
#WAV6O strings1_34.wav
#WAV6P strings1_35.wav
#WAV6Q strings1_36.wav
#WAV6R strings1_37.wav
#WAV6S strings1_38.wav
#WAV6T strings1_39.wav
#WAV6U strings1_40.wav
#WAV6V strings1_41.wav
#WAV6W strings2_1.wav
#WAV6X strings2_2.wav
#WAV6Y strings2_3.wav
#WAV6Z strings2_4.wav
#WAV70 strings2_5.wav
#WAV71 strings2_6.wav
#WAV72 strings2_7.wav
#WAV73 strings2_8.wav
#WAV74 strings2_9.wav
#WAV75 strings2_10.wav
#WAV76 strings2_11.wav
#WAV77 strings2_12.wav
#WAV78 strings2_13.wav
#WAV79 strings2_14.wav
#WAV7A strings2_15.wav
#WAV7B strings2_16.wav
#WAV7C strings2_17.wav
#WAV7D strings2_18.wav
#WAV7E strings2_19.wav
#WAV7F strings2_20.wav
#WAV7G strings2_21.wav
#WAV7H strings2_22.wav
#WAV7I strings2_23.wav
#WAV7J strings2_24.wav
#WAV7K strings2_25.wav
#WAV7L strings2_26.wav
#WAV7M strings2_27.wav
#WAV7N strings2_28.wav
#WAV7O strings4_1.wav
#WAV7P strings4_2.wav
#WAV7Q strings4_3.wav
#WAV7R strings4_4.wav
#WAV7S strings4_5.wav
#WAV7T strings4_6.wav
#WAV7U strings4_7.wav
#WAV7V strings4_8.wav
#WAV7W strings4_9.wav
#WAV7X strings4_10.wav
#WAV7Y strings4_11.wav
#WAV7Z strings4_12.wav
#WAV80 strings4_13.wav
#WAV81 strings4_14.wav
#WAV82 strings4_15.wav
#WAV83 strings4_16.wav
#WAV84 strings4_17.wav
#WAV85 strings4_18.wav
#WAV86 strings4_19.wav
#WAV87 strings4_20.wav
#WAV88 strings4_21.wav
#WAV89 strings4_22.wav
#WAV8A strings4_23.wav
#WAV8B strings4_24.wav
#WAV8C strings4_25.wav
#WAV8D strings4_26.wav
#WAV8E strings4_27.wav
#WAV8F strings4_28.wav
#WAV8G strings4_29.wav
#WAV8H strings4_30.wav
#WAV8I strings4_31.wav
#WAV8J strings4_32.wav
#WAV8K strings4_33.wav
#WAV8L strings4_34.wav
#WAV8M strings4_35_bgm.wav
#WAV8N strings4_36.wav
#WAV8O strings4_37.wav
#WAV8P strings4_38.wav
#WAV8Q strings4_39.wav
#WAV8R strings4_40.wav
#WAV8S strings4_41.wav
#WAV8T strings4_42.wav
#WAV8U strings7_1.wav
#WAV8V strings7_2.wav
#WAV8W strings7_3.wav
#WAV8X strings7_4.wav
#WAV8Y strings7_5.wav
#WAV8Z strings7_6.wav
#WAV90 strings7_7.wav
#WAV91 strings7_8.wav
#WAV92 strings7_9.wav
#WAV93 strings7_10.wav
#WAV94 strings7_11.wav
#WAV95 strings7_12.wav
#WAV96 strings7_13.wav
#WAV97 strings7_14.wav
#WAV98 strings7_15.wav
#WAV99 strings7_16.wav
#WAV9A strings7_17.wav
#WAV9B strings7_18.wav
#WAV9C strings7_19.wav
#WAV9D strings7_20.wav
#WAV9E strings7_21.wav
#WAV9F strings7_22.wav
#WAV9G strings7_23.wav
#WAV9H strings7_24.wav
#WAV9I strings8_1.wav
#WAV9J strings8_2.wav
#WAV9K strings8_3.wav
#WAV9L strings8_4.wav
#WAV9M strings8_5.wav
#WAV9N strings8_6.wav
#WAV9O strings8_7.wav
#WAV9P strings8_8.wav
#WAV9Q strings8_9.wav
#WAV9R strings8_10.wav
#WAV9S strings8_11.wav
#WAV9T strings8_12.wav
#WAV9U strings8_13.wav
#WAV9V strings8_14.wav
#WAV9W strings8_15.wav
#WAV9X strings8_16.wav
#WAV9Y strings8_17.wav
#WAV9Z strings8_18.wav
#WAVA0 strings8_19.wav
#WAVA1 strings8_20.wav
#WAVA2 strings8_21.wav
#WAVA3 strings8_22.wav
#WAVA4 strings8_23.wav
#WAVA5 strings8_24.wav
#WAVA6 strings8_25.wav
#WAVA7 strings8_26.wav
#WAVA8 strings8_27.wav
#WAVA9 strings8_28.wav
#WAVAA strings8_29.wav
#WAVAB strings8_30.wav
#WAVAC strings8_31.wav
#WAVAD strings8_32.wav
#WAVAE strings8_33.wav
#WAVAF strings8_34.wav
#WAVAG strings8_35.wav
#WAVAH strings8_36.wav
#WAVAI strings8_37.wav
#WAVAJ strings8_38.wav
#WAVAK strings8_39.wav
#WAVAL strings8_40.wav
#WAVAM strings8_41.wav
#WAVAN strings8_42.wav
#WAVAO strings8_43.wav
#WAVAP strings9_1.wav
#WAVAQ strings9_2.wav
#WAVAR strings9_3.wav
#WAVAS strings9_4.wav
#WAVAT strings9_5.wav
#WAVAU strings9_6.wav
#WAVAV strings9_7.wav
#WAVAW strings9_8.wav
#WAVAX strings9_9.wav
#WAVAY strings9_10.wav
#WAVAZ strings9_11.wav
#WAVB0 strings9_12.wav
#WAVB1 strings9_13.wav
#WAVB2 strings9_14.wav
#WAVB3 strings9_15.wav
#WAVB4 strings9_16.wav
#WAVB5 strings9_17.wav
#WAVB6 strings9_18.wav
#WAVB7 strings9_19.wav
#WAVB8 strings9_20.wav
#WAVB9 strings9_21.wav
#WAVBA strings9_22.wav
#WAVBB strings9_23.wav
#WAVBC strings9_24.wav
#WAVBD strings9_25.wav
#WAVBE strings9_26.wav
#WAVBF strings10_1.wav
#WAVBG strings10_2.wav
#WAVBH strings10_3.wav
#WAVBI strings10_4.wav
#WAVBJ strings10_5.wav
#WAVBK strings10_6.wav
#WAVBL strings10_7.wav
#WAVBM strings10_8.wav
#WAVBN strings10_8.wav
#WAVBO strings10_10.wav
#WAVBP strings10_11.wav
#WAVBQ strings10_12.wav
#WAVBR strings10_13.wav
#WAVBS strings10_14.wav
#WAVBT strings11_1.wav
#WAVBU strings11_2.wav
#WAVBV strings11_3.wav
#WAVBW strings11_5.wav
#WAVBX strings11_6.wav
#WAVBY strings11_7.wav
#WAVBZ strings11_8.wav
#WAVC0 strings11_9.wav
#WAVC1 strings11_11.wav
#WAVC2 strings11_12.wav
#WAVC3 strings11_13.wav
#WAVC4 strings11_14.wav
#WAVC5 strings11_15.wav
#WAVC6 strings11_16.wav
#WAVC7 strings11_17.wav
#WAVC8 strings11_18.wav
#WAVC9 strings11_19.wav
#WAVCA strings11_20.wav
#WAVCB strings11_21.wav
#WAVCC strings12_1.wav
#WAVCD strings12_2.wav
#WAVCE strings12_3.wav
#WAVCF strings12_4.wav
#WAVCG strings12_5.wav
#WAVCH strings12_6.wav
#WAVCI strings12_7.wav
#WAVCJ strings12_8.wav
#WAVCK strings12_9.wav
#WAVCL strings12_10.wav
#WAVCM strings12_11.wav
#WAVCN strings12_12.wav
#WAVCO strings12_13.wav
#WAVCP strings12_14.wav
#WAVCQ strings12_15.wav
#WAVCR strings12_16.wav
#WAVCS strings12_18.wav
#WAVCT strings13_1.wav
#WAVCU strings13_2.wav
#WAVCV strings13_3.wav
#WAVCW strings13_4.wav
#WAVCX strings13_5.wav
#WAVCY strings13_6.wav
#WAVCZ strings13_7.wav
#WAVD0 strings13_8.wav
#WAVD1 strings13_9.wav
#WAVD2 strings13_10.wav
#WAVD3 strings13_11.wav
#WAVD4 strings13_12.wav
#WAVD5 strings13_13.wav
#WAVD6 strings13_14.wav
#WAVD7 strings13_15.wav
#WAVD8 strings13_16.wav
#WAVD9 strings13_17.wav
#WAVDA strings14_1.wav
#WAVDB strings14_2.wav
#WAVDC strings14_3.wav
#WAVDD strings14_4.wav
#WAVDE strings14_5.wav
#WAVDF strings14_6.wav
#WAVDG strings14_7.wav
#WAVDH strings14_8.wav
#WAVDI strings14_9.wav
#WAVDJ strings14_10.wav
#WAVDK strings14_11.wav
#WAVDL strings14_12.wav
#WAVDM strings14_13.wav
#WAVDN strings14_14.wav
#WAVDO strings14_15.wav
#WAVDP strings14_16.wav
#WAVDQ strings14_6.wav
#WAVDR strings14_7.wav
#WAVDS strings14_8.wav
#WAVDT chenvalo1_1.wav
#WAVDU chenvalo1_2.wav
#WAVDV chenvalo1_3.wav
#WAVDW chenvalo1_4.wav
#WAVDX chenvalo1_5.wav
#WAVDY chenvalo1_6.wav
#WAVDZ chenvalo1_7.wav
#WAVE0 chenvalo1_8.wav
#WAVE1 chenvalo1_9.wav
#WAVE2 chenvalo1_10.wav
#WAVE3 chenvalo1_11.wav
#WAVE4 chenvalo1_12.wav
#WAVE5 chenvalo1_13.wav
#WAVE6 chenvalo1_14.wav
#WAVE7 chenvalo1_15.wav
#WAVE8 chenvalo2_1.wav
#WAVE9 chenvalo2_2.wav
#WAVEA chenvalo2_3.wav
#WAVEB chenvalo2_4.wav
#WAVEC chenvalo2_5.wav
#WAVED chenvalo2_6.wav
#WAVEE chenvalo2_7.wav
#WAVEF chenvalo3_1.wav
#WAVEG chenvalo3_2.wav
#WAVEH chenvalo3_3.wav
#WAVEI chenvalo3_4.wav
#WAVEJ chenvalo3_5.wav
#WAVEK chenvalo3_6.wav
#WAVEL chenvalo3_7.wav
#WAVEM chenvalo3_8.wav
#WAVEN chenvalo3_9.wav
#WAVEO chenvalo3_10.wav
#WAVEP chenvalo3_11.wav
#WAVEQ chenvalo3_12.wav
#WAVER chenvalo3_13.wav
#WAVES chenvalo3_14.wav
#WAVET chenvalo3_15.wav
#WAVEU chenvalo3_16.wav
#WAVEV chenvalo3_17.wav
#WAVEW chenvalo3_18.wav
#WAVEX chenvalo3_19.wav
#WAVEY chenvalo3_20.wav
#WAVEZ chenvalo3_21.wav
#WAVF0 chenvalo3_22.wav
#WAVF1 chenvalo3_23.wav
#WAVF2 chenvalo3_24.wav
#WAVF3 chenvalo3_25.wav
#WAVF4 chenvalo3_26.wav
#WAVF5 chenvalo3_27.wav
#WAVF6 chenvalo3_28.wav
#WAVF7 chenvalo3_29.wav
#WAVF8 chenvalo3_30.wav
#WAVF9 chenvalo3_31.wav
#WAVFA chenvalo3_32.wav
#WAVFB chenvalo3_33.wav
#WAVFC chenvalo3_34.wav
#WAVFD chenvalo3_35.wav
#WAVFE chenvalo4_1.wav
#WAVFF chenvalo4_2.wav
#WAVFG chenvalo4_3.wav
#WAVFH chenvalo4_4.wav
#WAVFI chenvalo4_5.wav
#WAVFJ chenvalo4_6.wav
#WAVFK chenvalo4_7.wav
#WAVFL chenvalo4_8.wav
#WAVFM chenvalo4_9.wav
#WAVFN chenvalo4_10.wav
#WAVFO chenvalo5_1.wav
#WAVFP chenvalo5_2.wav
#WAVFQ chenvalo5_3.wav
#WAVFR chenvalo5_4.wav
#WAVFS chenvalo5_5.wav
#WAVFT chenvalo5_6.wav
#WAVFU chenvalo5_7.wav
#WAVFV chenvalo5_8.wav
#WAVFW chenvalo5_9.wav
#WAVFX chenvalo5_10.wav
#WAVFY chenvalo5_11.wav
#WAVFZ chenvalo5_12.wav
#WAVG0 chenvalo5_13.wav
#WAVG1 chenvalo5_14.wav
#WAVG2 chenvalo5_15.wav
#WAVG3 chenvalo5_16.wav
#WAVG4 chenvalo5_17.wav
#WAVG5 chenvalo5_18.wav
#WAVG6 chenvalo5_19.wav
#WAVG7 chenvalo5_20.wav
#WAVG8 chenvalo5_21.wav
#WAVG9 chenvalo5_22.wav
#WAVGA chenvalo5_23.wav
#WAVGB chenvalo5_24.wav
#WAVGC chenvalo5_25.wav
#WAVGD chenvalo5_26.wav
#WAVGE chenvalo6_1.wav
#WAVGF chenvalo6_2.wav
#WAVGG chenvalo6_3.wav
#WAVGH chenvalo6_4.wav
#WAVGI chenvalo6_5.wav
#WAVGJ chenvalo6_6.wav
#WAVGK chenvalo6_7.wav
#WAVGL chenvalo6_8.wav
#WAVGM chenvalo6_9.wav
#WAVGN chenvalo6_10.wav
#WAVGO chenvalo6_11.wav
#WAVGP chenvalo6_12.wav
#WAVGQ chenvalo6_13.wav
#WAVGR chor1_1.wav
#WAVGS chor2_1.wav
#WAVGT chor2_2.wav
#WAVGU chor2_3.wav
#WAVGV chor2_4.wav
#WAVGW chor2_5.wav
#WAVGX chor2_6.wav
#WAVGY chor2_7.wav
#WAVGZ chor2_8.wav
#WAVH0 chor2_9.wav
#WAVH1 chor2_10.wav
#WAVH2 chor2_11.wav
#WAVH3 chor2_12.wav
#WAVH4 chor2_13.wav
#WAVH5 chor2_14.wav
#WAVH6 chor2_15.wav
#WAVH7 chor2_16.wav
#WAVH8 chor3_1.wav
#WAVH9 glissando1.wav
#WAVHA harp1_1.wav
#WAVHB harp1_2.wav
#WAVHC harp1_3.wav
#WAVHD harp1_4.wav
#WAVHE harp1_5.wav
#WAVHF harp1_6.wav
#WAVHG harp1_7.wav
#WAVHH harp1_8.wav
#WAVHI harp1_9.wav
#WAVHJ celesta1_1.wav
#WAVHK celesta1_2.wav
#WAVHL celesta1_3.wav
#WAVHM celesta1_4.wav
#WAVHN celesta1_5.wav
#WAVHO celesta1_6.wav
#WAVHP celesta1_7.wav
#WAVHQ celesta1_8.wav
#WAVHR celesta1_9.wav
#WAVHS celesta1_10.wav
#WAVHT celesta1_11.wav
#WAVHU celesta1_12.wav
#WAVHV celesta1_13.wav
#WAVHW celesta1_14.wav
#WAVHX celesta1_15.wav
#WAVHY piano1_1.wav
#WAVHZ piano1_2.wav
#WAVI0 piano1_3.wav
#WAVI1 piano1_4.wav
#WAVI2 piano1_5.wav
#WAVI3 piano1_6.wav
#WAVI4 piano1_7.wav
#WAVI5 piano1_8.wav
#WAVI6 piano1_9.wav
#WAVI7 piano1_10.wav
#WAVI8 piano1_11.wav
#WAVI9 piano1_12.wav
#WAVIA piano1_13.wav
#WAVIB piano1_14.wav
#WAVIC piano1_15.wav
#WAVID piano1_16.wav
#WAVIE piano1_17.wav
#WAVIF piano1_18.wav
#WAVIG piano1_19.wav
#WAVIH piano1_20.wav
#WAVII piano1_21.wav
#WAVIJ piano1_22.wav
#WAVIK piano1_23.wav
#WAVIL piano1_24.wav
#WAVIM piano2_1.wav
#WAVIN piano2_2.wav
#WAVIO piano2_3.wav
#WAVIP piano2_4.wav
#WAVIQ piano2_5.wav
#WAVIR piano2_6.wav
#WAVIS piano2_7.wav
#WAVIT piano2_8.wav
#WAVIU piano2_9.wav
#WAVIV piano2_10.wav
#WAVIW piano2_11.wav
#WAVIX piano2_12.wav
#WAVIY piano2_13.wav
#WAVIZ piano2_14.wav
#WAVJ0 piano2_15.wav
#WAVJ1 piano2_16.wav
#WAVJ2 piano2_17.wav
#WAVJ3 piano2_18.wav
#WAVJ4 piano2_19.wav
#WAVJ5 piano2_21.wav
#WAVJ6 piano2_23.wav
#WAVJ7 piano2_24.wav
#WAVJ8 piano2_25.wav
#WAVJ9 piano2_26.wav
#WAVJA piano2_27.wav
#WAVJB piano2_28.wav
#WAVJC piano2_29.wav
#WAVJD piano2_30.wav
#WAVJE piano2_31.wav
#WAVJF piano2_32.wav
#WAVJG piano2_33.wav
#WAVJH piano2_34.wav
#WAVJI piano3_1.wav
#WAVJJ piano3_2.wav
#WAVJK piano3_3.wav
#WAVJL piano3_4.wav
#WAVJM piano3_5.wav
#WAVJN piano3_6.wav
#WAVJO piano3_7.wav
#WAVJP piano3_8.wav
#WAVJQ piano3_9.wav
#WAVJR piano3_10.wav
#WAVJS piano3_11.wav
#WAVJT piano3_12.wav
#WAVJU piano3_13.wav
#WAVJV piano3_14.wav
#WAVJW piano3_15.wav
#WAVJX piano3_16.wav
#WAVJY piano3_17.wav
#WAVJZ piano3_18.wav
#WAVK0 piano3_19.wav
#WAVK1 piano3_20.wav
#WAVK2 piano3_21.wav
#WAVK3 piano3_22.wav
#WAVK4 piano3_23.wav
#WAVK5 piano3_24.wav
#WAVK6 piano3_25.wav
#WAVK7 piano3_26.wav
#WAVK8 piano3_27.wav
#WAVK9 piano3_28.wav
#WAVKA piano3_29.wav
#WAVKB piano3_30.wav
#WAVKC piano3_31.wav
#WAVKD piano3_32.wav
#WAVKE piano3_33.wav
#WAVKF piano3_34.wav
#WAVKG piano3_35.wav
#WAVKH piano3_36.wav
#WAVKI piano3_37.wav
#WAVKJ piano3_38.wav
#WAVKK piano3_39.wav
#WAVKL piano3_40.wav
#WAVKM piano3_41.wav
#WAVKN piano3_42.wav
#WAVKO piano3_43.wav
#WAVKP piano4_1.wav
#WAVKQ piano4_2.wav
#WAVKR piano4_3.wav
#WAVKS piano4_4.wav
#WAVKT piano4_5.wav
#WAVKU piano4_6.wav
#WAVKV piano4_7.wav
#WAVKW piano4_8.wav
#WAVKX piano4_9.wav
#WAVKY piano4_10.wav
#WAVKZ piano4_11.wav
#WAVL0 piano4_12.wav
#WAVL1 piano4_13.wav
#WAVL2 piano4_14.wav
#WAVL3 piano4_15.wav
#WAVL4 piano4_16.wav
#WAVL5 piano4_17.wav
#WAVL6 piano4_18.wav
#WAVL7 piano4_19.wav
#WAVL8 piano4_20.wav
#WAVL9 piano4_21.wav
#WAVLA piano4_22.wav
#WAVLB piano4_23.wav
#WAVLC piano4_24.wav
#WAVLD piano4_25.wav
#WAVLE piano4_26.wav
#WAVLF piano4_27.wav
#WAVLG piano4_28.wav
#WAVLH piano4_29.wav
#WAVLI piano4_30.wav
#WAVLJ piano4_31.wav
#WAVLK piano4_32.wav
#WAVLL piano4_33.wav
#WAVLM piano4_34.wav
#WAVLN piano4_35.wav
#WAVLO piano4_36.wav
#WAVLP piano4_37.wav
#WAVLQ piano4_38.wav
#WAVLR piano4_39.wav
#WAVLS piano4_40.wav
#WAVLT piano4_41.wav
#WAVLU piano4_42.wav
#WAVLV piano4_43.wav
#WAVLW piano4_44.wav
#WAVLX piano4_45.wav
#WAVLY piano4_46.wav
#WAVLZ piano4_47.wav
#WAVM0 piano4_48.wav
#WAVM1 piano4_49.wav
#WAVM2 piano5_1.wav
#WAVM3 piano5_2.wav
#WAVM4 piano5_3.wav
#WAVM5 piano5_4.wav
#WAVM6 piano5_5.wav
#WAVM7 piano5_6.wav
#WAVM8 piano5_7.wav
#WAVM9 piano5_8.wav
#WAVMA piano5_9.wav
#WAVMB piano5_10.wav
#WAVMC piano5_11.wav
#WAVMD piano5_12.wav
#WAVME piano5_13.wav
#WAVMF piano5_14.wav
#WAVMG piano6_1.wav
#WAVMH piano6_2.wav
#WAVMI piano6_3.wav
#WAVMJ piano6_4.wav
#WAVMK piano6_5.wav
#WAVML piano6_6.wav
#WAVMM piano6_7.wav
#WAVMN piano6_8.wav
#WAVMO piano6_9.wav
#WAVMP piano6_10.wav
#WAVMQ piano6_11.wav
#WAVMR piano6_12.wav
#WAVMS piano6_13.wav
#WAVMT piano6_14.wav
#WAVMU piano6_15.wav
#WAVMV piano6_16.wav
#WAVMW piano6_17.wav
#WAVMX piano6_18.wav
#WAVMY piano6_19.wav
#WAVMZ piano6_20.wav
#WAVN0 piano6_21.wav
#WAVN1 piano6_22.wav
#WAVN2 piano6_23.wav
#WAVN3 piano6_24.wav
#WAVN4 piano6_25.wav
#WAVN5 piano6_26.wav
#WAVN6 piano6_27.wav
#WAVN7 piano6_28.wav
#WAVN8 piano6_29.wav
#WAVN9 piano6_30.wav
#WAVNA piano6_31.wav
#WAVNB piano6_32.wav
#WAVNC piano7_1.wav
#WAVND piano7_2.wav
#WAVNE piano7_3.wav
#WAVNF piano7_4.wav
#WAVNG piano7_5.wav
#WAVNH piano7_6.wav
#WAVNI piano7_7.wav
#WAVNJ piano7_8.wav
#WAVNK piano7_9.wav
#WAVNL piano7_10.wav
#WAVNM piano7_11.wav
#WAVNN piano7_12.wav
#WAVNO piano7_13.wav
#WAVNP piano7_14.wav
#WAVNQ piano7_15.wav
#WAVNR piano7_16.wav
#WAVNS piano7_17.wav
#WAVNT piano7_18.wav
#WAVNU piano7_19.wav
#WAVNV piano7_20.wav
#WAVNW piano7_21.wav
#WAVNX piano7_22.wav
#WAVNY piano7_23.wav
#WAVNZ piano7_24.wav
#WAVO0 piano7_25.wav
#WAVO1 piano7_26.wav
#WAVO2 piano7_27.wav
#WAVO3 piano7_28.wav
#WAVO4 piano7_29.wav
#WAVO5 piano7_30.wav
#WAVO6 piano7_31.wav
#WAVO7 piano7_32.wav
#WAVO8 piano7_33.wav
#WAVO9 piano7_34.wav
#WAVOA piano7_35.wav
#WAVOB piano7_36.wav
#WAVOC piano7_37.wav
#WAVOD piano7_38.wav
#WAVOE piano7_39.wav
#WAVOF piano8_1.wav
#WAVOG piano8_2.wav
#WAVOH piano8_3.wav
#WAVOI piano8_4.wav
#WAVOJ piano8_5.wav
#WAVOK piano8_6.wav
#WAVOL piano8_7.wav
#WAVOM piano8_8.wav
#WAVON piano8_9.wav
#WAVOO piano8_10.wav
#WAVOP piano8_11.wav
#WAVOQ piano8_12.wav
#WAVOR piano8_14.wav
#WAVOS piano8_15.wav
#WAVOT piano8_16.wav
#WAVOU piano8_17.wav
#WAVOV piano8_18.wav
#WAVOW piano8_19.wav
#WAVOX piano8_20.wav
#WAVOY piano8_21.wav
#WAVOZ piano8_22.wav
#WAVP0 piano8_23.wav
#WAVP1 piano8_24.wav
#WAVP2 piano8_25.wav
#WAVP3 piano8_26.wav
#WAVP4 piano8_27.wav
#WAVP5 piano8_28.wav
#WAVP6 piano8_29.wav
#WAVP7 piano8_30.wav
#WAVP8 piano8_31.wav
#WAVP9 piano8_32.wav
#WAVPA piano8_33.wav
#WAVPB piano8_34.wav
#WAVPC piano8_35.wav
#WAVPD piano8_36.wav
#WAVPE piano9_1.wav
#WAVPF piano9_2.wav
#WAVPG piano9_3.wav
#WAVPH piano9_4.wav
#WAVPI piano9_5.wav
#WAVPJ piano9_6.wav
#WAVPK piano9_7.wav
#WAVPL piano9_8.wav
#WAVPM piano9_9.wav
#WAVPN piano9_10.wav
#WAVPO piano9_11.wav
#WAVPP piano9_12.wav
#WAVPQ piano9_13.wav
#WAVPR piano9_14.wav
#WAVPS piano9_15.wav
#WAVPT piano9_16.wav
#WAVPU piano9_17.wav
#WAVPV piano9_18.wav
#WAVPW piano9_19.wav
#WAVPX piano9_20.wav
#WAVPY piano9_21.wav
#WAVPZ piano9_22.wav
#WAVQ0 pianoadrib1_1.wav
#WAVQ1 pianoadrib1_2.wav
#WAVQ2 pianoadrib1_3.wav
#WAVQ3 pianoadrib1_4.wav
#WAVQ4 pianoadrib1_5.wav
#WAVQ5 pianoadrib1_6.wav
#WAVQ6 pianoadrib1_7.wav
#WAVQ7 pianoadrib1_8.wav
#WAVQ8 pianoadrib1_9.wav
#WAVQ9 pianoadrib1_10.wav
#WAVQA pianoadrib1_11.wav
#WAVQB pianoadrib1_12.wav
#WAVQC pianoadrib1_13.wav
#WAVQD pianoadrib1_14.wav
#WAVQE pianoadrib1_15.wav
#WAVQF pianoadrib1_16.wav
#WAVQG pianoadrib1_17.wav
#WAVQH pianoadrib1_18.wav
#WAVQI pianoadrib1_19.wav
#WAVQJ pianoadrib1_20.wav
#WAVQK pianoadrib1_21.wav
#WAVQL pianoadrib1_22.wav
#WAVQM pianoadrib1_23.wav
#WAVQN pianoadrib1_24.wav
#WAVQO pianoadrib1_25.wav
#WAVQP pianoadrib1_26.wav
#WAVQQ pianoadrib1_27.wav
#WAVQR pianoadrib1_28.wav
#WAVQS pianoadrib1_29.wav
#WAVQT pianoadrib1_30.wav
#WAVQU pianoadrib1_31.wav
#WAVQV pianoadrib1_32.wav
#WAVQW pianoadrib1_33.wav
#WAVQX pianoadrib1_34.wav
#WAVQY pianoadrib1_35.wav
#WAVQZ pianoadrib1_36.wav
#WAVR0 pianoadrib1_37.wav
#WAVR1 pianoadrib1_38.wav
#WAVR2 pianoadrib1_39.wav
#WAVR3 pianoadrib1_40.wav
#WAVR4 pianoadrib1_41.wav
#WAVR5 pianoadrib1_42.wav
#WAVR6 pianoadrib1_43.wav
#WAVR7 pianoadrib1_44.wav
#WAVR8 pianoadrib1_45.wav
#WAVR9 pianoadrib1_46.wav
#WAVRA pianoadrib1_47.wav
#WAVRB pianoadrib1_48.wav
#WAVRC pianoadrib1_49.wav
#WAVRD pianoadrib1_50.wav
#WAVRE pianoadrib1_64.wav
#WAVRF pianoadrib1_51.wav
#WAVRG pianoadrib1_52.wav
#WAVRH pianoadrib1_53.wav
#WAVRI pianoadrib1_54.wav
#WAVRJ pianoadrib1_55.wav
#WAVRK pianoadrib1_56.wav
#WAVRL pianoadrib1_57.wav
#WAVRM pianoadrib1_58.wav
#WAVRN pianoadrib1_59.wav
#WAVRO pianoadrib1_60.wav
#WAVRP pianoadrib1_61.wav
#WAVRQ pianoadrib1_62.wav
#WAVRR pianoadrib1_63.wav
#WAVRS piano10_1.wav
#WAVRT piano10_2.wav
#WAVRU piano10_3.wav
#WAVRV piano10_4.wav
#WAVRW piano10_5.wav
#WAVRX piano10_6.wav
#WAVRY piano10_7.wav
#WAVRZ piano10_8.wav
#WAVS0 piano10_9.wav
#WAVS1 piano10_10.wav
#WAVS2 piano11_1.wav
#WAVS3 piano11_2.wav
#WAVS4 piano11_3.wav
#WAVS5 piano11_4.wav
#WAVS6 piano11_5.wav
#WAVS7 piano11_6.wav
#WAVS8 piano11_7.wav
#WAVS9 piano11_8.wav
#WAVSA piano11_9.wav
#WAVSB piano11_10.wav
#WAVSC piano11_11.wav
#WAVSD piano11_12.wav
#WAVSE piano11_13.wav
#WAVSF piano11_14.wav
#WAVSG piano11_15.wav
#WAVSH synthlo1_168_000.wav
#WAVSI synthlo1_168_001.wav
#WAVSJ synthlo1_168_002.wav
#WAVSK synthlo1_168_003.wav
#WAVSL synthlo1_168_004.wav
#WAVSM synthlo1_168_005.wav
#WAVSN synthlo1_168_006.wav
#WAVSO synthlo1_168_007.wav
#WAVSP synthlo1_168_008.wav
#WAVSQ synthl1_0170_000.wav
#WAVSR synthl1_0170_001.wav
#WAVSS synthl1_0170_002.wav
#WAVST synthl1_0170_003.wav
#WAVSU synthl1_0170_004.wav
#WAVSV synthl1_172_000.wav
#WAVSW synthl1_172_001.wav
#WAVSX synthl1_172_002.wav
#WAVSY synthl1_172_003.wav
#WAVSZ synthl1_172_004.wav
#WAVT0 synthl1_172_005.wav
#WAVT1 synthl1_172_006.wav
#WAVT2 synthl1_172_007.wav
#WAVT3 synthl1_172_008.wav
#WAVT4 synthl1_174_000.wav
#WAVT5 synthl1_174_001.wav
#WAVT6 synthl1_174_002.wav
#WAVT7 synthl1_174_003.wav
#WAVT8 synthl1_174_004.wav
#WAVT9 synthl1_174_005.wav
#WAVTA synthl1_174_006.wav
#WAVTB synthlo2_172_000.wav
#WAVTC synthlo2_172_001.wav
#WAVTD synthlo2_172_002.wav
#WAVTE synthlo2_172_003.wav
#WAVTF synthlo2_172_004.wav
#WAVTG synthlo2_172_005.wav
#WAVTH synthlo2_172_006.wav
#WAVTI synthlo2_172_007.wav
#WAVTJ synthlo2_172_008.wav
#WAVTK synthlo2_172_009.wav
#WAVTL synthlo2_172_010.wav
#WAVTM synthlo2_172_011.wav
#WAVTN synthlo2_172_012.wav
#WAVTO synthlo2_172_013.wav
#WAVTP synthlo2_172_014.wav
#WAVTQ synthlo2_172_015.wav
#WAVTR synthlo2_172_016.wav
#WAVTS synthlo2_172_017.wav
#WAVTT synthlo2_172_018.wav
#WAVTU synthlo2_172_019.wav
#WAVTV synthlo2_172_020.wav
#WAVTW synthlo2_172_021.wav
#WAVTX synthlo2_172_022.wav
#WAVTY slap_000.wav
#WAVTZ slap_001.wav
#WAVU0 slap_002.wav
#WAVU1 slap_003.wav
#WAVU2 slap_004.wav
#WAVU3 slap_005.wav
#WAVU4 slap_006.wav
#WAVU5 slap2_000.wav
#WAVU6 slap2_001.wav
#WAVU7 slap2_002.wav
#WAVU8 slap2_003.wav
#WAVU9 slap2_004.wav
#WAVUA slap2_005.wav
#WAVUB piano9_23.wav
#WAVUC piano9_24.wav
#WAVUD piano9_25.wav
#WAVUE piano9_26.wav
#WAVUF piano9_27.wav
#WAVUG strings34_1_000.wav
#WAVUH strings34_1_001.wav
#WAVUI strings34_1_002.wav
#WAVUJ strings34_1_003.wav
#WAVUK strings34_1_004.wav
#WAVUL strings34_1_005.wav
#WAVUM strings34_1_006.wav
#WAVUN strings34_1_007.wav
#WAVUO strings34_1_008.wav
#WAVUP strings34_1_009.wav
#WAVUQ strings34_1_010.wav
#WAVUR strings34_1_011.wav
#WAVUS strings34_1_012.wav
#WAVUT strings34_1_013.wav
#WAVUU strings34_1_014.wav
#WAVUV strings34_1_015.wav
#WAVUW strings34_1_016.wav
#WAVUX strings34_1_017.wav
#WAVUY strings34_1_018.wav
#WAVUZ strings34_1_019.wav
#WAVV0 strings34_1_020.wav
#WAVV1 strings34_1_021.wav
#WAVV2 strings34_1_022.wav
#WAVV3 strings34_1_023.wav
#WAVV4 strings34_1_024.wav
#WAVV5 strings34_1_025.wav
#WAVV6 strings34_2_000.wav
#WAVV7 strings34_2_001.wav
#WAVV8 strings34_2_002.wav
#WAVV9 strings34_2_003.wav
#WAVVA strings34_2_004.wav
#WAVVB strings34_2_005.wav
#WAVVC strings34_2_006.wav
#WAVVD strings34_2_007.wav
#WAVVE strings34_2_008.wav
#WAVVF strings34_2_009.wav
#WAVVG strings34_2_010.wav
#WAVVH strings34_2_011.wav
#WAVVI strings34_2_012.wav
#WAVVJ strings34_2_013.wav
#WAVVK strings34_2_014.wav
#WAVVL strings34_2_015.wav
#WAVVM strings34_2_016.wav
#WAVVN strings34_2_017.wav
#WAVVO strings34_2_018.wav
#WAVVP strings34_2_019.wav
#WAVVQ strings34_2_020.wav
#WAVVR strings34_2_021.wav
#WAVVS strings34_2_022.wav
#WAVVT strings34_2_023.wav
#WAVVU strings34_2_024.wav
#WAVVV strings34_3_000.wav
#WAVVW strings34_3_001.wav
#WAVVX strings34_3_002.wav
#WAVVY strings34_3_003.wav
#WAVVZ strings34_3_004.wav
#WAVW0 strings34_3_005.wav
#WAVW1 strings34_3_006.wav
#WAVW2 strings34_3_007.wav
#WAVW3 strings34_4_000.wav
#WAVW4 strings34_4_001.wav
#WAVW5 strings34_4_002.wav
#WAVW6 strings34_4_003.wav
#WAVW7 strings34_4_004.wav
#WAVW8 strings34_4_005.wav
#WAVW9 strings34_4_006.wav
#WAVWA strings34_4_007.wav
#WAVWB strings34_5_000.wav
#WAVWC strings34_5_001.wav
#WAVWD strings34_5_002.wav
#WAVWE strings34_5_003.wav
#WAVWF strings34_5_004.wav
#WAVWG strings34_5_005.wav
#WAVWH strings34_5_006.wav
#WAVWI strings34_5_007.wav
#WAVWJ piano34_1_000.wav
#WAVWK piano34_1_001.wav
#WAVWL piano34_1_002.wav
#WAVWM piano34_1_003.wav
#WAVWN piano34_1_004.wav
#WAVWO piano34_1_005.wav
#WAVWP piano34_1_006.wav
#WAVWQ piano34_1_007.wav
#WAVWR piano34_1_008.wav
#WAVWS piano34_1_009.wav
#WAVWT piano34_1_010.wav
#WAVWU piano34_1_011.wav
#WAVWV piano34_1_012.wav
#WAVWW piano34_1_013.wav
#WAVWX piano34_1_014.wav
#WAVWY piano34_1_015.wav
#WAVWZ piano34_1_016.wav
#WAVX0 piano34_1_017.wav
#WAVX1 piano34_1_018.wav
#WAVX2 piano34_1_019.wav
#WAVX3 piano34_1_020.wav
#WAVX4 piano34_1_021.wav
#WAVX5 piano34_1_022.wav
#WAVX6 piano34_1_023.wav
#WAVX7 piano34_1_024.wav
#WAVX8 piano34_1_025.wav
#WAVX9 piano34_1_026.wav
#WAVXA piano34_6_000.wav
#WAVXB piano34_6_001.wav
#WAVXC piano34_6_002.wav
#WAVXD piano34_6_003.wav
#WAVXE piano34_6_004.wav
#WAVXF piano34_6_005.wav
#WAVXG piano34_6_006.wav
#WAVXH piano34_6_007.wav
#WAVXI piano34_6_008.wav
#WAVXJ piano34_6_009.wav
#WAVXK piano34_6_010.wav
#WAVXL piano34_6_011.wav
#WAVXM piano34_6_012.wav
#WAVXN piano34_6_013.wav
#WAVXO piano34_6_014.wav
#WAVXP piano34_6_015.wav
#WAVXQ piano34_6_016.wav
#WAVXR piano34_6_017.wav
#WAVXS piano34_6_018.wav
#WAVXT piano34_6_019.wav
#WAVXU piano34_6_020.wav
#WAVXV piano34_6_021.wav
#WAVXW piano34_6_022.wav
#WAVXX piano34_6_023.wav
#WAVXY piano34_6_024.wav
#WAVXZ piano34_6_025.wav
#WAVY0 piano34_6_026.wav
#WAVY1 piano34_6_027.wav
#WAVY2 piano34_6_028.wav
#WAVY3 piano34_6_029.wav
#WAVY4 piano34_6_030.wav
#WAVY5 piano34_6_031.wav
#WAVY6 piano34_6_032.wav
#WAVY7 piano34_9_000.wav
#WAVY8 piano34_9_001.wav
#WAVY9 piano34_9_002.wav
#WAVYA piano34_9_003.wav
#WAVYB piano34_9_004.wav
#WAVYC piano34_9_005.wav
#WAVYD piano34_9_006.wav
#WAVYE piano34_9_007.wav
#WAVYF piano34_9_008.wav
#WAVYG piano34_9_009.wav
#WAVYH piano34_9_010.wav
#WAVYI piano34_9_011.wav
#WAVYJ piano34_9_012.wav
#WAVYK pianost22_000.wav
#WAVYL pianost22_001.wav
#WAVYM pianost22_002.wav
#WAVYN pianost22_003.wav
#WAVYO pianost22_004.wav
#WAVYP pianost22_005.wav
#WAVYQ pianost22_006.wav
#WAVYR pianost22_007.wav
#WAVYS pianost22_008.wav
#WAVYT pianost22_009.wav
#WAVYU pianost22_010.wav
#WAVYV pianost22_011.wav
#WAVYW pianost22_012.wav
#WAVYX pianost22_013.wav
#WAVYY pianost22_014.wav
#WAVYZ pianost22_015.wav
#WAVZ0 pianost22_016.wav
#WAVZ1 pianost22_017.wav
#WAVZ2 pianost22_018.wav
#WAVZ3 pianost22_019.wav
#WAVZ4 pianost22_020.wav
#WAVZ5 pianost22_021.wav
#WAVZ6 pianost22_022.wav
#WAVZ7 pianost22_023.wav
#WAVZ8 pianost22_024.wav
#WAVZ9 pianost22_025.wav
#WAVZA pianost22_026.wav
#WAVZB pianost22_027.wav
#WAVZC pianost22_028.wav
#WAVZD pianost22_1_000.wav
#WAVZE pianost22_1_001.wav
#WAVZF pianost22_1_002.wav
#WAVZG pianost22_2_000.wav
#WAVZH pianost22_2_001.wav
#WAVZI pianost22_2_002.wav
#WAVZJ pianost22_3_000.wav
#WAVZK pianost22_3_001.wav
#WAVZL pianost22_3_002.wav
#WAVZM bgm2.wav
#WAVZN bgm6.wav
#WAVZO bgm22.wav
#WAVZP bgm34.wav
#WAVZQ bgm50.wav
#WAVZR bgm58.wav
#WAVZS bgm72.wav
#WAVZT bgm90.wav
#WAVZU celesta1_2.wav
#WAVZV celesta1_7.wav
#WAVZW celesta1_1.wav
#WAVZX celesta1_9.wav
#WAVZY celesta1_10.wav
#BMP01 _bga.mpg
#SUBARTIST Movie:zN / Illust:ƒZƒVƒ<C692>žƒ^ƒCƒg / obj:monaka
#BACKBMP _backbmp.png
#DIFFICULTY 4
#BANNER _banner.png
*---------------------- MAIN DATA FIELD
#00002:0.0625
#00103:9A
#00104:0001
#00201:00
#00201:00
#00201:00
#00201:00
#00201:00
#00201:00
#00201:00
#00201:00
#00201:00
#00201:00
#00201:00
#00201:3A
#00201:00
#00201:00
#00201:00
#00201:00
#00201:00
#00201:00
#00201:00
#00201:00
#00201:00
#00201:00
#00201:00
#00201:00
#00201:00
#00201:00
#00201:00
#00201:00
#00201:00
#00201:00
#00201:00
#00201:ZM
#00203:009C
#00211:0000000000HK0000
#00212:00HK0000000000ZU
#00213:000000ZU00000000
#00214:HP
#00215:000000HR
#00218:00HS
#00219:00HU0000
#00303:A0A4
#00311:00HK000000000000
#00312:0000000000HK0000
#00313:00ZV0000
#00314:HP000000000000HO
#00315:000000HR00000000
#00318:000000HP
#00319:00HS
#00401:00
#00401:00
#00401:00
#00401:00
#00401:00
#00401:00
#00401:00
#00401:00
#00401:00
#00401:00
#00401:00
#00401:00
#00401:00
#00401:00
#00401:00
#00401:00
#00401:00
#00401:00
#00401:00
#00401:00
#00401:00
#00401:00
#00401:00
#00401:00
#00401:00
#00401:0U00000000000R00000S00000R000S000R000S00000R00000000000S00000T00000R00000S00000T00000000000R0000
#00403:A8AC
#00411:0202
#00412:00HJ000000HR0000
#00413:HYHY
#00414:000000ZW00000000
#00415:00HL00HS
#00416:0A0B
#00418:00HP
#00419:ZV000000000000HU
#00501:00000000000000000000005T00005U00
#00501:00
#00501:00
#00501:00
#00501:00
#00501:00
#00501:00
#00501:00
#00501:00
#00501:00
#00501:00
#00501:00
#00501:00
#00501:00
#00501:00
#00501:00
#00501:00
#00501:00
#00501:00
#00501:00
#00501:00
#00501:00
#00501:00
#00501:00
#00501:00
#00501:0U000S0R0T000R0S0U00000000000000
#00501:00
#00501:00
#00501:00
#00501:0000000000000000U500U6U700U8U9UA
#00503:AD
#00511:02020200
#00512:00HM0000I20000I4
#00513:I10000000000HP00000000I300000000
#00514:HZI1I000
#00515:00000000HR000000000000DT00000000
#00516:0C0C0D00
#00518:ZYZX
#00519:0000HZ00000000DU
#00601:00
#00601:00
#00601:00
#00601:00
#00601:0U000R0S0R000S0R0S000R0S0R000U00
#00601:0N0N0N0N
#00601:00
#00601:00
#00601:00
#00601:00
#00601:00
#00601:6R6T6S6T6R006S00
#00601:00
#00601:0I0000000I0000000I00000I0I000000
#00601:000J000J000J000J
#00601:00
#00601:00
#00601:00
#00601:00
#00601:00000000006T006T
#00601:5V
#00601:00
#00601:00
#00601:00
#00601:00
#00601:00
#00601:00
#00601:00
#00601:00
#00601:00
#00601:GR
#00601:ZN
#00603:AC
#00611:0200020002000303
#00612:00I60000I5I60000
#00613:I50000I600IQI800
#00614:DV000000I7000000IO0000IR00000000
#00615:0000DW00000000IN00IP0000DY0000IQ
#00616:08
#00618:IM0000DW00DW00IR
#00619:00DXDVIS
#00701:00
#00701:00
#00701:00
#00701:00
#00701:0U000R0S0R000S0R0S000R0S0R000U00
#00701:0N0N0N0N
#00701:00
#00701:00
#00701:00
#00701:00
#00701:00
#00701:6R6S6R6U
#00701:00
#00701:0I0000000I0000000I0I000I0I000000
#00701:000J000J000J000J
#00701:00
#00701:00
#00701:00
#00701:00
#00701:006T006T006T006T
#00701:0000006V
#00701:00
#00701:00000000000000005V5W000000000000
#00711:02000000020000000200000403000300
#00712:00I600I600I60000
#00713:I5I7I5I9
#00714:IT0000IV0000IX0000005X0000006100
#00715:0000IU000000DW000000005Y00600000
#00718:00DWIW00IYDW5Z00
#00719:DV000000DX000000DV000000DZ000060
#00801:00
#00801:00
#00801:00
#00801:00
#00801:0U000R0S0R000S0R0S000R0S0R000U00
#00801:0N0N0N0N
#00801:00
#00801:00
#00801:00
#00801:00
#00801:00
#00801:6R6T6S6T6R6T6S00
#00801:00
#00801:0I000000000000000I000000000000000K0L0M0I00000I000I00000000000000
#00801:000J000J000J000J
#00801:00
#00801:000000000000006T
#00811:02000000020000000200000403000000
#00812:00I600I600I600IB
#00813:I5I7I5IA
#00814:00DW00DW00DW0069
#00815:DV000000DX00650000006700DY0000IC
#00818:6264DV68
#00819:00006300000000006600000000000404
#00901:00
#00901:00
#00901:00
#00901:00
#00901:0U000R0S0R000S0R0S0T0R0U0U000U00
#00901:0N0N0N0N
#00901:0I0000000I0000000I0I000I0I000000
#00901:000J000J000J000J
#00901:00
#00901:00
#00901:00
#00901:6R006T006S006T006R006T6C6D006E00
#00901:00
#00901:IZJ0IZ00
#00911:0200020002000303
#00912:00I600I600I60000
#00913:I5I7I5I9
#00914:6A000000DX000000000000J10000J200
#00915:0000DW0000000000DV0000E000000000
#00918:DV0000DW00DW00E2
#00919:006B6AE1
#01001:00
#01001:00
#01001:00
#01001:00
#01001:0U000R0S0R000S0R0S000R0S0R000U00
#01001:0N0N0N0N
#01001:0I0000000I0000000I00000I0I000000
#01001:000J000J000J000J
#01001:00
#01001:00
#01001:00
#01001:6R6T6S6T6R6T6S6T
#01001:00
#01001:00
#01001:00
#01001:00
#01001:00
#01001:00
#01001:00
#01001:00
#01001:00
#01001:00
#01001:00
#01001:00
#01001:00
#01001:00
#01001:00
#01001:00
#01001:00
#01001:00
#01001:GR
#01011:0200020002000303
#01012:I5I5
#01013:000000I60000000000I60000000000000000I80000006F00
#01014:0000I70000I60000
#01015:DV00000000000000DV0000000000006G
#01016:08
#01018:00000000DW00000000000000DW0000000000000000000000DY0000000000006H
#01019:J300DX0000DW0000
#01101:00
#01101:00
#01101:00
#01101:00
#01101:0U000R0S0R000S0R0S000R0S0R000U00
#01101:0N0N0N0N
#01101:0I0000000I0000000I0I000I0I000000
#01101:000J000J000J000J
#01101:00
#01101:00
#01101:00
#01101:6R6S6R6U
#01101:00
#01101:00
#01101:00
#01101:00
#01101:00
#01101:00
#01101:00
#01101:006T006T006T006T
#01101:0000006V
#01101:00
#01101:006N
#01111:02000000020000000200000403000300
#01112:I500I700I5I60000
#01113:00I600I60000I900
#01114:DVDXDVDZ
#01115:00DW6L0000DW00IX
#01118:0000006K00006M00J4000000J5000000
#01119:6I6J00DW00IW0000
#01201:00
#01201:00
#01201:00
#01201:00
#01201:0U000R0S0R000T0S0R000S0U0U000R0S
#01201:0N0N0N0N
#01201:0I0000000I0000000I00000I0I000000
#01201:000J000J000J000J
#01201:000000000000000000000000000000IG
#01201:0000000000000000000000ID0000IF00
#01201:0000000000I60000
#01201:6R6S6R6S
#01201:00
#01201:00
#01201:00
#01201:00
#01201:00
#01201:00
#01201:00
#01201:006T006T006T006T
#01211:02000000020000000200000403000000
#01212:I500I7I600DW00JG
#01213:0000I600J8000000I50000E300JF00JH
#01214:J70000000000JA0000JD0000IE00E400
#01215:0000J80000J900JB0000JE00DY0000E5
#01218:DV0000J900000000DV0000JF00000000
#01219:J600DW00DX00DW00JC000000JG000404
#01301:00
#01301:00
#01301:00
#01301:00
#01301:0U0000000R0S0R0S0U00000000000000
#01301:00
#01301:00000000000V0000
#01301:00
#01301:00
#01301:00
#01301:6O6P6Q00
#01311:02020200
#01312:IJ0000IL
#01313:00IK0000
#01314:IHE7IJ00
#01315:00E6
#01316:090C0D0W
#01318:E6II0000
#01319:00IH
#01401:797A
#01401:00
#01401:00
#01401:00
#01401:00
#01401:00
#01401:00
#01401:00
#01401:00
#01401:00
#01401:00
#01401:00
#01401:00
#01401:00
#01401:00
#01401:00
#01401:6W
#01401:00
#01401:00
#01401:00
#01401:00
#01401:00
#01401:00
#01401:00
#01401:00
#01401:00
#01401:13001400150016171819140015001617
#01403:A6A8
#01411:02
#01412:00JS00JS00JS00JS
#01413:JJ0000JL
#01414:JIJK
#01415:00JJ00HV
#01416:08
#01418:HSHW
#01419:00HP0000
#01501:7B7C
#01501:00
#01501:00
#01501:00
#01501:00
#01501:00
#01501:00
#01501:00
#01501:00
#01501:00
#01501:00
#01501:00
#01501:00
#01501:00
#01501:00
#01501:00
#01501:006Y
#01501:6X
#01501:00
#01501:00
#01501:00
#01501:00
#01501:00
#01501:00
#01501:00
#01501:00
#01501:13001A00150016171819140015001617
#01503:AA
#01511:00JT00JT00KO00KO
#01512:00JN
#01513:00JM00JQ
#01514:JL000000HT0000JL
#01515:000000HU
#01518:0000HU00000000HV
#01519:HV
#01601:7D7E
#01601:00
#01601:00
#01601:00
#01601:00
#01601:00
#01601:00
#01601:00
#01601:00
#01601:00
#01601:00
#01601:00
#01601:00
#01601:00
#01601:00
#01601:00
#01601:00
#01601:6Z
#01601:00
#01601:00
#01601:00
#01601:00
#01601:00
#01601:00
#01601:00
#01601:00
#01601:13001400150016171819140015001617
#01603:AC
#01611:00KO000000000000
#01612:JM0000JJ00JJ00JJ
#01614:00JO00JK
#01615:JKJP
#01618:00HQ00HW
#01619:HWHX
#01701:7F7G
#01701:00
#01701:00
#01701:00
#01701:00
#01701:00
#01701:00
#01701:00
#01701:00
#01701:00
#01701:00
#01701:00
#01701:00
#01701:00
#01701:00
#01701:00
#01701:70
#01701:0071
#01701:00
#01701:00
#01701:00
#01701:00
#01701:00
#01701:00
#01701:00
#01701:00
#01701:13001A00150016171819140015001617
#01703:AE
#01711:00JO00JO00JU0000
#01712:000000JQ
#01713:JK0000JM00HR00JR
#01714:00JLJL00
#01715:HW0000HU
#01718:000000HU000000HV
#01719:00HVHV00
#01801:00
#01801:00
#01801:00
#01801:00
#01801:00
#01801:00
#01801:00
#01801:00
#01801:00
#01801:00
#01801:00
#01801:00
#01801:00
#01801:00
#01801:00
#01801:00
#01801:72
#01801:00
#01801:00
#01801:00
#01801:00
#01801:00
#01801:7H
#01801:00
#01801:00
#01801:00
#01801:13001400150016171819140015001617
#01803:ACAA
#01811:KHKI
#01812:0000000000K00000
#01813:00000000000000JZ00000000K1000000
#01814:JV00000000HP00K2
#01815:000000JYJY00HT00
#01818:000000JWJX000000000000000000HU00
#01819:HW
#01901:00
#01901:00
#01901:00
#01901:00
#01901:00
#01901:00
#01901:00
#01901:00
#01901:00
#01901:00
#01901:00
#01901:00
#01901:00
#01901:00
#01901:00
#01901:00
#01901:00
#01901:73
#01901:00
#01901:00
#01901:00
#01901:7I
#01901:00
#01901:00
#01901:00
#01901:00
#01901:13001A00150016171819140015001617
#01903:A8A7
#01911:K30000KK
#01912:000000K4K5000000KJ00000000000000
#01913:0000000000K00000
#01914:00000000000000K600000000K1000000
#01915:0000000000HP00K2
#01918:000000JZJZ00HT00
#01919:HV000000000000HU
#02001:00
#02001:00
#02001:00
#02001:00
#02001:0U
#02001:13001400150016171819140015001617
#02001:00
#02001:00
#02001:00
#02001:00
#02001:7J7K7L7M
#02001:00
#02001:00
#02001:00
#02001:00
#02001:00
#02001:00
#02001:00750000
#02001:74000077
#02001:0076
#02003:ACAD
#02011:020R020S
#02012:00000R0S0000000R000000000000000R
#02013:HY000000000000000000000000000S0000000000000000000000000S00000000000R0000000000000000000000000000
#02014:K70000000000000000000000000000000R00000000000000HY00000000000000000000000000000T0000000000000000
#02015:00HRK9KA
#02016:0A0B
#02018:HS00000S000T0000
#02019:00K8HXHW
#02101:00
#02101:00
#02101:00
#02101:00
#02101:0U0T0000
#02101:00
#02101:005K
#02101:00
#02101:I1I10000
#02101:00000000I2KL0000
#02101:000000KM
#02101:00000000005L00KN
#02101:0000005M
#02101:000000000000005N
#02101:00
#02101:00
#02101:00
#02101:00
#02101:78
#02101:00
#02101:7N
#02101:00
#02101:00
#02101:EDEDEE00
#02101:00
#02101:00
#02101:00
#02101:00
#02101:HW
#02101:0000000000000000TY00TZU0U1U2U3U4
#02103:00AC
#02111:02020300
#02112:00000S0R00000R0S0000000000000000
#02113:HZHZI000
#02114:E8000000000000EC0000000000000000
#02115:000000E9EA00EB00EB00000000000000
#02116:0C000C00005Q0000
#02118:KB000000000000KF0000000000000000
#02119:000000KCKD00KE00KG00000000000000
#02201:0000000000ZDZEZF
#02201:00
#02201:00
#02201:00
#02201:000Q000Q
#02201:00
#02201:1B001C001D001E1F1G1H1C001D001E1F
#02201:00000607000006070000060700000607
#02201:00
#02201:00
#02201:00004Z00005100000000000000000000
#02201:00
#02201:00
#02201:00
#02201:00
#02201:00
#02201:00
#02201:00
#02201:00
#02201:00
#02201:00
#02201:00
#02201:00
#02201:00
#02201:00
#02201:0I0I00000I0I00000I0I00000I0I0000
#02201:000J000J000J000J
#02201:00
#02201:00
#02201:00
#02201:00
#02201:ZO
#02211:01010101
#02212:000000EL00EL00EN00EI000055000000
#02213:EI00EIEOEO540056
#02214:4Y00005P50000053000000EG00000000
#02215:00EL00000000520052000000EI0000EL
#02216:08
#02218:YK0000YLYM0000YO0000EL0000EL0000
#02219:00EQ00YNYP0000EQ
#02301:0000000000ZGZHZI
#02301:00
#02301:00
#02301:00
#02301:000Q000Q
#02301:00
#02301:1B001I001D001E1F1G1H1C001D001E1F
#02301:00000607000006070000060700000607
#02301:00
#02301:0058000000000000
#02301:00
#02301:00
#02301:00
#02301:00
#02301:00
#02301:00
#02301:00
#02301:00
#02301:00
#02301:00
#02301:00
#02301:00
#02301:00
#02301:00
#02301:00
#02301:0I000I00000000000I000I00000000000K0L0M0I000000000I0000000I000000
#02301:00000J0000000J0000000J00000J000J
#02311:01010101
#02312:EF0000EN00EF00EJ00005C000000EN00
#02313:00EH0000EJ00EH00EN000000EI000000
#02314:5700EJ000000005B0000EG0000EM0000
#02315:0000005957005A00530000EK000000EQ
#02318:YQ000000000000YU00EJ00005D000000
#02319:000000YRYS00YT00YV00000000005700
#02401:00
#02401:00
#02401:00
#02401:00
#02401:000Q000Q
#02401:00
#02401:1B001C001D001E1F1G1H1C001D001E1F
#02401:00000607000006070000060700000607
#02401:00
#02401:0000005F00005H000000000000000000
#02401:0000000000000000000000000000004Z
#02401:00
#02401:00
#02401:00
#02401:00
#02401:00
#02401:00
#02401:00
#02401:00
#02401:00
#02401:00
#02401:00
#02401:00
#02401:00
#02401:00
#02401:0I0I00000I0I00000I0I00000I0I0000
#02401:000J000J000J000J
#02411:01010101
#02412:00EK00000000EL0000005H0000EO0000
#02413:5E000000YX000000EJ0000005E0000ES
#02414:EI000000EO00000000EO0000YZ00Z000
#02415:0000EO0000EM00EM0000EQ00000000Z1
#02418:YW0000005G0000005I0000ER0000EV00
#02419:000000ER00000000YY000000ES000000
#02501:00
#02501:00
#02501:00
#02501:00
#02501:000Q000Q
#02501:00
#02501:1B001I001D001E1F1G1H1C001D001E1F
#02501:00000607000006070000060700000607
#02501:00
#02501:00
#02501:00000000005J0000
#02501:0000005D
#02501:00
#02501:00
#02501:00
#02501:00
#02501:0000000000ZJ0000
#02501:000000ZK
#02501:00000000000000ZL
#02501:00
#02501:00
#02501:00
#02501:00
#02501:00
#02501:00
#02501:0I000I00000000000I000I00000000000K0L0M0I000000000I0000000I000000
#02501:00000J0000000J0000000J00000J000J
#02511:01010101
#02512:EM0000005700EM00ER00000000ZA00ZC
#02513:00EQ000000ER00EQ00ES0000Z900ZB00
#02514:4Y00ER00ET000000Z500ET0000ES00ET
#02515:000000ES0000Z40000Z600EU00005700
#02518:005OZ35600Z7EW00
#02519:Z200005000000000520000Z80000EU00
#02601:00
#02601:00
#02601:00
#02601:00
#02601:000Q000Q
#02601:00
#02601:1B001C001D001E1F1G1H1C001D001E1F
#02601:00000607000006070000060700000607
#02601:00
#02601:00
#02601:00
#02601:00
#02601:00
#02601:00
#02601:00
#02601:00
#02601:00
#02601:00
#02601:00
#02601:00
#02601:00
#02601:00
#02601:00
#02601:00
#02601:00
#02601:0I0I00000I0I00000I0I00000I0I0000
#02601:000J000J000J000J
#02611:01010101
#02612:000000EY000000EQ0000540000EI0000
#02613:EX00EIEOEZ00EPEL
#02614:00004Z00005100530000ZD00550000EP
#02615:0000000000000000005P000050000000000052000000000052000000000000000000EQ00000000000000560000000000
#02616:08
#02618:4Y00000000EL00YO0000F000ZE000000
#02619:YK0000000000000000YL0000YM0000000000YN0000000000YP00000000000000ER000000000000000000ZF0000000000
#02701:00
#02701:00
#02701:00
#02701:00
#02701:000Q000Q
#02701:00
#02701:1B001I001D001E1F1G1H1C001D001E1F
#02701:00000607000006070000060700000607
#02701:00
#02701:0058000000000000
#02701:00
#02701:00
#02701:00
#02701:00
#02701:00
#02701:00
#02701:00
#02701:00
#02701:00
#02701:00
#02701:00
#02701:00
#02701:00
#02701:00
#02701:00
#02701:0I000I00000000000I000I00000000000K0L0M0I000000000I000I0000000000
#02701:000J000J000J000J
#02711:0100010001000103
#02712:000000EH0000EL00F300000000000000
#02713:EH000000F20000EP0000540000000000
#02714:000000595700005B0000ZD0055000000
#02715:00F1000000005A0053000000ZE005600
#02718:570000YRYS0000YU0000F4000000ZF00
#02719:YQ0000YTYV00F500
#02801:8C8D8E8F
#02801:00
#02801:00
#02801:00
#02801:000J000J000J000J
#02801:0N0N0N0N
#02801:00
#02801:00000607000006070000060700000607
#02801:00
#02801:00
#02801:00
#02801:00
#02801:00
#02801:00
#02801:00
#02801:00
#02801:0000007R
#02801:007P0000
#02801:007Q
#02801:7O
#02801:00
#02801:00
#02801:00
#02801:00
#02801:00
#02801:0I0I0I0I
#02801:00
#02801:00
#02801:00
#02801:HSHRHXHW
#02811:01010101
#02812:L70000LA
#02813:00L80000
#02814:KP00L9KS
#02815:00KQKR00
#02816:08
#02818:00F700F9
#02819:F6F8
#02901:8G000000008I8J8K
#02901:00
#02901:00
#02901:00
#02901:000J000J00000000
#02901:0N0N0N0N
#02901:00
#02901:00000607000006070000060700000607
#02901:00
#02901:00
#02901:00
#02901:00
#02901:00
#02901:00
#02901:00
#02901:00
#02901:007T0000
#02901:7S7U
#02901:0000007V
#02901:000000000000007W
#02901:008H
#02901:00
#02901:00
#02901:00
#02901:00
#02901:0I0I0I0I
#02901:00000000000J000J
#02901:00
#02901:00
#02901:HWHV
#02911:01010101
#02912:00000000000000KV0000LE0000000000
#02913:LBLCLDLF
#02914:000000KUKU0000LG
#02915:KT000000000000FC0000KW0000000000
#02918:FA0000KX
#02919:000000FBFD0000KY
#03001:7X7Y7Z80
#03001:00
#03001:00
#03001:00
#03001:00
#03001:0N0N0N0N
#03001:35003131350031313134353136363136
#03001:00
#03001:00
#03001:00
#03001:00
#03001:00
#03001:00
#03001:00
#03001:00
#03001:00
#03001:00
#03001:00
#03001:00
#03001:00
#03001:00
#03001:00
#03001:8L
#03001:00
#03001:00
#03001:00
#03001:00
#03001:00
#03001:00
#03001:00
#03001:00
#03001:008M0000
#03011:02020202
#03013:LH
#03014:00LI0000
#03015:000000LK
#03016:08
#03018:KZ
#03019:00LJ
#03101:81828384
#03101:00
#03101:00
#03101:00
#03101:00
#03101:0N0N0N0N
#03101:37003030313236003700303036003733
#03101:000E
#03111:02020202
#03113:000000LO
#03114:00LM0000
#03115:00LN
#03118:LL
#03201:00
#03201:00
#03201:00000I0I00000I0I00000I0I00000I0I
#03201:00
#03201:00
#03201:0N0N0N0N
#03201:37333633
#03201:00070607000706070007060700070607
#03201:00
#03201:00
#03201:00
#03201:00
#03201:00
#03201:00
#03201:00
#03201:00
#03201:00860000
#03201:85
#03201:008O8700
#03201:8N000088
#03201:008P
#03201:0000008Q
#03211:02020202
#03212:00FF0000
#03213:FEFG
#03214:00LQ00FH
#03215:LPL1LR00
#03218:0000L2LS
#03219:L00000L3
#03301:00
#03301:00
#03301:000000000I000I00000000000I000I000I000I000M0M0I000M0M0I000I000I00
#03301:00
#03301:0000000000000000000000001J001K1L
#03301:0N0N0N00
#03301:31323600370031003700000000000000
#03301:00070607000706070000000000000000
#03301:00
#03301:00
#03301:00
#03301:00
#03301:00
#03301:00
#03301:00
#03301:00
#03301:00
#03301:00
#03301:89
#03301:008A0000
#03301:8R8B
#03301:008S0000
#03301:008T
#03301:00
#03301:00
#03301:00
#03301:00
#03301:0000000000000000000000000000FNFN
#03301:000000000000000000000000FMFM0000
#03301:00000000000000000000FLFL00000000
#03311:02020305
#03312:00000000FJ000000000004040000M000
#03313:LT000000LT0000000000000000000000LV00000000000000000500000000M100
#03314:00000000LU00LU000000LW0000040000
#03315:FI00FKLY
#03318:00000000L5000000000000LX00000404
#03319:L400000000000000L600000000LZ0000
#03401:00
#03401:00
#03401:00
#03401:000J000J000J000J
#03401:1M001N001O001P001Q001R001S1T1U1V
#03401:00
#03401:00
#03401:00
#03401:00
#03401:00
#03401:00
#03401:00
#03401:00
#03401:00
#03401:00
#03401:00
#03401:00
#03401:00
#03401:00
#03401:00
#03401:00
#03401:00
#03401:00
#03401:00
#03401:00
#03401:00
#03401:00
#03401:00
#03401:00
#03401:00
#03401:00
#03401:ZP
#03411:02020202
#03412:3BWK00WM00WO3K00
#03413:003D0000WL00UJ00WN00003M003O0000
#03414:003E3I00UK3Q003R
#03415:WJ00003H003M0000003T0000WP00003W
#03416:0F0F0F0F
#03418:00UH003R3Y00UMWQ
#03419:UG000000UI00003U0000UL000000UN00
#03501:000000000000000000VWVXVYVZW0W1W2
#03501:00
#03501:00
#03501:000J000J00000000
#03501:1W001X1Y1Z0020212223240025252525
#03501:00
#03501:00
#03501:00
#03501:00
#03501:00
#03501:00
#03501:00
#03501:00
#03501:00
#03501:00
#03501:00
#03501:00VV
#03501:00
#03501:00
#03501:00000000WVWW0000
#03501:00
#03501:00
#03501:00
#03501:00FO
#03511:0202023M
#03512:0000WS000000WU0000FP0000003Q0000
#03513:WRUP3K0000FQFS3T
#03514:3J000000003O0000US00003O00FT003Y
#03515:003O0000WT003T0000003S000000FU00
#03516:0F0F0F00
#03518:00003R00UQ00003W003V0000000000FV
#03519:UO00003V0000UR00400000FR00000000
#03601:00
#03601:00
#03601:00
#03601:000J000J000J000J
#03601:26272727282929292A2B2B2B2C2D2D2D
#03601:00
#03601:00
#03601:GSGTGUGV
#03601:00
#03601:00
#03601:00
#03601:00
#03601:00
#03601:00
#03601:00
#03601:00
#03601:00
#03601:00
#03601:00000000000000V0
#03601:000000UW00000000
#03601:0000000000UY0000
#03601:00UU000000000000
#03611:02020202
#03612:3N00003U003P00003M0000003H00003P
#03613:003R00003K00003S0000X200003M0000
#03614:0000WY000000X000003R0000X3003T00
#03615:WX000000WZ000000X100003V00000000
#03616:0F0F0F0F
#03618:003Z003W003Y00X4
#03619:UTUVUXUZ
#03701:000000000000000000000000W7W8W9WA
#03701:00
#03701:00
#03701:000J000J00000000
#03701:2E002F002G002H002I002J2J1J001K1L
#03701:00
#03701:00
#03701:GWGXGY00
#03701:0E
#03701:00
#03701:00
#03701:00
#03701:00
#03701:00
#03701:00
#03701:00
#03701:00W3
#03701:000000000000V40000W4000000000000
#03701:0000000000W50000
#03701:0000V20000000000V50000W600000000
#03701:00
#03701:00
#03701:00
#03701:00
#03701:00
#03701:00FW
#03711:02020200
#03712:0000X6000000X80000FX003Q000000G3
#03713:3J00X70000FY00G2
#03714:003O00003P000000X90000FZ00G1003F
#03715:X5003R00003T004100003V00G0003K00
#03716:0F0F0F00
#03718:0000003V00003W00003Y0000003O0000
#03719:V1V3423R
#03801:00
#03801:00
#03801:00
#03801:000J000J000J000J
#03801:1M001N001O001P001Q001R001S1T1U1V
#03811:02020202
#03812:00WK00WM00WO3K00
#03813:3B000000WL00UJ00WN00003M003O0000
#03814:003D00003I000000UK003Q0000003R00
#03815:00003E00003M0000003T0000WP00003W
#03816:0F0F0F0F
#03818:WJ00003H00003R003Y000000UM00WQ00
#03819:UG00UH00UI00003U0000UL000000UN00
#03901:000000000000000000VWVXVYVZW0W1W2
#03901:00
#03901:00
#03901:000J000J00000000
#03901:1W001X1Y1Z0020212223240025252525
#03901:00
#03901:00
#03901:00
#03901:00
#03901:00
#03901:00
#03901:00
#03901:00
#03901:00
#03901:00
#03901:00VV
#03901:00
#03901:00
#03901:00
#03901:00000000WVWW0000
#03901:00
#03901:00
#03901:00
#03901:00FO
#03911:0202023M
#03912:0000UP000000WU0000FP00FR003Q0000
#03913:WRWS3K0000FQFS3T
#03914:3J000000003O0000US00003O00FT003Y
#03915:003O0000WT003T0000003S000000FU00
#03916:0F0F0F00
#03918:00003R00UQ00003W003V0000000000FV
#03919:UO00003V0000UR004000000000000000
#04001:00
#04001:00
#04001:00
#04001:000J000J000J000J
#04001:26272727282929292A2B2B2B2C2D2D2D
#04001:00
#04001:00
#04001:GSGTGUGV
#04001:00
#04001:00
#04001:00
#04001:00
#04001:00
#04001:00
#04001:00
#04001:00
#04001:00
#04001:00
#04001:00000000000000V0
#04001:000000UW00000000
#04001:0000000000UY0000
#04001:00UU000000000000
#04011:02020202
#04012:3N0000003K00003S0000X2000000X400
#04013:0000WY00003P0000X10000003H00003P
#04014:003R003U00003W003M00003V003M0000
#04015:WX000000WZ000000003R0000X3000000
#04016:0F0F0F0F
#04018:003Z00X0003Y003T
#04019:UTUVUXUZ
#04101:000000000000000000000000W7W8W9WA
#04101:00
#04101:00
#04101:000J000J00000000
#04101:2E002F002G002H002I002J2J1J001K1L
#04101:0E
#04101:00000000000000003536003637003600
#04101:GWGXGY00
#04101:00
#04101:00
#04101:00
#04101:00
#04101:00
#04101:00
#04101:00
#04101:00W3
#04101:000000000000000000W4000000000000
#04101:000000V400W50000
#04101:0000000000000000000000W600000000
#04101:00V2000000000000
#04101:00V5
#04101:00
#04101:00
#04101:00
#04101:00
#04101:00FW
#04111:02020200
#04112:003O00003P00000000FX00000000003F
#04113:00003R00003T00000000FY0000003K00
#04114:3J000000X7003W00X900003Q003O00G3
#04115:X500003V0000004100003V003R00G200
#04116:0F0F0F00
#04118:0000X6000000X800003Y00FZ00G10000
#04119:V1V342G0
#04201:00
#04201:00
#04201:00
#04201:000J000J000J000J
#04201:1M001N001O001P001Q001R001S1T1U1V
#04201:0N0N0N0N
#04201:37000000000000000000000000003435
#04211:02020202
#04212:00XB00XD00XF3N00
#04213:3C000000XC00V900XE00003P003R0000
#04214:003E00003L000000VA003T0000003U00
#04215:00003G00003P0000003W0000XG00003Z
#04216:0F0F0F0F
#04218:XA00003K00003U0041000000VC00XH00
#04219:V600V700V800003X0000VB000000VD00
#04301:000000000000000000WCWDWEWFWGWHWI
#04301:00
#04301:00
#04301:000J000J00000000
#04301:1W001X1Y1Z0020212223240025252525
#04301:0N0000000N0000000N0000000P0P0P0P
#04301:36000000000034353600000034343535
#04301:00
#04301:00
#04301:00
#04301:00
#04301:00
#04301:00
#04301:00
#04301:00
#04301:00WB
#04301:00
#04301:00
#04301:00
#04301:00000000XMXN0000
#04301:00
#04301:00
#04301:00
#04301:00G4
#04311:0202023P
#04312:0000XJ000000XL0000G50000003T0004
#04313:XIVF3N0000G6G83W
#04314:3M000000003R0000VI00003R00G90041
#04315:003R003Y00003W0000003V000400GA00
#04316:0F0F0F00
#04318:00003U00XK00003Z003Y00G7000400GB
#04319:VE00VGVH43000004
#04401:00
#04401:00
#04401:00
#04401:000J000J000J000J
#04401:26272727282929292A2B2B2B2C2D2D2D
#04401:0N0N0N0N
#04401:36353535
#04401:00
#04401:GZH0H1H2
#04401:00
#04401:00
#04401:00
#04401:00
#04401:00
#04401:00
#04401:00
#04401:00
#04401:00
#04401:00000000000000VQ
#04401:000000VM00000000
#04401:0000000000VO0000
#04401:00VK000000000000
#04411:02020202
#04412:00XP00XR00XT3K00
#04413:3Q000000XQ0000003P00003Y0000XV00
#04414:003U00003N00003V003U0000003P0000
#04415:XO00003X003S000000004100XU00003S
#04416:0F0F0F0F
#04418:0042003ZXS00003W
#04419:VJVLVNVP
#04501:00
#04501:00
#04501:00
#04501:000J000J00000000
#04501:2E2F2G2H00000000
#04501:0N0000000N000000000000000P000P0P
#04501:35350000
#04501:0E
#04501:H3H40000
#04501:0000000000000000000000003P00003H
#04501:000000000000003M
#04501:00000000000000000000003T00000000
#04501:00000000003Y0000
#04501:00000000000000000041000000000000
#04501:0045
#04501:00
#04501:00
#04501:0000000000000000Y0Y1Y2Y3Y400Y5Y6
#04501:00
#04501:0000VS0000000000000000005R005R5R
#04501:000000VU00000000
#04501:00
#04501:00
#04501:00
#04501:0000000000000000GDGDGDGDGC00GDGD
#04511:02000000020000000404040400000000
#04512:3M0000000000XZ000000000004000404
#04513:0000XX00003W00002K2L2K2L00000000
#04514:XW0000003S000000000000000H000H0H
#04515:003R003Y00003Z000P0P0P0P00000000
#04516:0F0000000F0000000H0H0H0H00000000
#04518:00003U00XY000044000000002M002N2N
#04519:VR000000VT0000005R5R5R5R00000000
#04601:00
#04601:00
#04601:00
#04601:000J000J000J000J
#04601:1M001N001O001P001Q001R001S1T1U1V
#04601:0N0N0N0N
#04601:36000000000000000000000000003435
#04611:02020202
#04612:00XB00XD00XF3N00
#04613:3C00V700XC000000XE00003P003R0000
#04614:003E00003L00V900VA003T0000003U00
#04615:XA003G00003P0000003W0000XG00003Z
#04616:0F0F0F0F
#04618:0000003K00003U0041000000VC00XH00
#04619:V6000000V800003X0000VB000000VD00
#04701:00
#04701:00
#04701:0000000000000000000000000000002N
#04701:000J000JVI000000
#04701:1W001X1Y1Z0020210000000000000000
#04701:0N0N0000
#04701:36000000343434340000000000000000
#04701:00
#04701:0000000000000000WBWCWDWEWFWGWHWI
#04701:00
#04701:0000003P
#04701:00000000000000000000003R003T0000
#04701:00000000003V003W
#04701:0000000000000000003Y000000000041
#04701:0043
#04701:00
#04701:00
#04701:00
#04701:00
#04701:00000000XMXN0000
#04701:00
#04701:00
#04701:00
#04701:00G4
#04701:000000000000000000G50000G8000000
#04701:00000000000000000000G60000G90000
#04701:0000000000000000000000G70000GA00
#04701:000000000000000000000000000000GB
#04711:02000000020000000404000404000400
#04712:XIXJ00XL00000000
#04713:3M000000XK003W000P0P000P0P000O00
#04714:003R00003N00003Z0000000000000000
#04715:00003U00003R00003536003636003600
#04716:0F0000000F0000000H0H000H0H000H00
#04718:VE00003Y0000VH000000000000000000
#04719:0000VF00VG0000002N2M002N2M002N00
#04801:00
#04801:00
#04801:00
#04801:000J000J000J000J
#04801:26272727282929292A2B2B2B2C2D2D2D
#04801:0N0N0N0N
#04801:36363636
#04801:00
#04801:00
#04801:GZH0H1H5
#04801:00
#04801:00
#04801:00
#04801:00
#04801:00
#04801:00
#04801:00
#04801:00
#04801:00000000000000VQ
#04801:000000VM00000000
#04801:0000000000VO0000
#04801:00VK000000000000
#04811:0303030303030303
#04812:3Q0000YA00YC00YE
#04813:003U00003N0000003P0000003K000000
#04814:Y7000000Y900003V003U0000YD00003S
#04815:0000Y800003S0000YB00003Y00003W00
#04816:0F0F0F0F
#04818:VJ00003X00003Z0000004100003P0000
#04819:0042VL00VN00VP00
#04901:000I
#04901:00
#04901:00000000000V0000
#04901:000J000J00000000
#04901:2E002F002G002H002I002J2J00000000
#04901:0N0N0N00
#04901:36000000360000003600343435353535
#04901:0E
#04901:00
#04901:H6H70000
#04901:00
#04901:00
#04901:00
#04901:00
#04901:00
#04901:00
#04901:00
#04901:00
#04901:00
#04901:00VS000000000000
#04901:000000VU00000000
#04911:0303030302000000
#04912:0000YG000000YI0000000000003K003K
#04913:3MYH3P00
#04914:003R00003N000000003U000000000000
#04915:00003U00003S000000003Y0000003R00
#04916:0F0F000W
#04918:YF00003Y00003W00YJ0000003S000000
#04919:VR000000VT00003Z0000004100000000
#05001:00
#05001:00
#05001:00
#05001:00
#05001:00
#05001:00
#05001:00
#05001:00SI00SL00000000
#05001:SH0000SJ00000000000000SN0000SP00
#05001:00
#05001:00
#05001:00
#05001:000000SO
#05001:00SKSM00
#05001:00
#05001:00
#05001:00
#05001:00
#05001:98
#05001:00
#05001:00
#05001:8U
#05001:008V
#05001:00
#05001:00
#05001:00
#05001:00
#05001:00
#05001:00
#05001:00
#05001:00
#05001:ZQ
#05003:A8
#05011:HP
#05013:0000000000HL00HL
#05014:00HL00HL00000000
#05016:3A
#05018:000000HU
#05019:00HVHV00
#05101:00
#05101:00
#05101:00
#05101:00
#05101:00
#05101:00
#05101:00
#05101:00
#05101:00
#05101:00SR000000000000
#05101:000000ST00000000
#05101:00SSSU00
#05101:SQ
#05101:00
#05101:00
#05101:00
#05101:00
#05101:00
#05101:00
#05101:00
#05101:8W
#05101:008X
#05103:AA
#05111:000000HR00000000
#05112:00HM000000000000
#05115:00HSHS00
#05118:HU
#05201:00
#05201:00
#05201:00
#05201:00
#05201:00
#05201:00
#05201:00
#05201:00SW00SZ00000000
#05201:0000000000000000000000T10000T300
#05201:SV0000SX000000000000000000000000
#05201:00
#05201:00
#05201:00SYT0T2
#05201:00
#05201:00
#05201:00
#05201:00
#05201:99
#05201:00
#05201:8Y
#05201:008Z
#05203:AC
#05211:00HJ000000000000
#05212:000000HM00HN0000
#05213:00000000000000HN
#05214:HM
#05215:00HSHS00
#05218:000000HR
#05301:00
#05301:00
#05301:00
#05301:00
#05301:00
#05301:00
#05301:00
#05301:00
#05301:000000T900000000
#05301:00TA
#05301:00T5T80000000000
#05301:T400000000T7000000000000000000000000000000000000
#05301:00T600000000
#05301:00
#05301:00
#05301:00
#05301:00
#05301:00
#05301:009B
#05301:9A
#05301:00
#05301:0091
#05301:90
#05303:AE
#05311:00MG
#05312:000000000000000000HO000000MH00000000MM0000000000
#05313:000000HM00000000000000000000MI00000000MN00000000
#05314:000000000000000000000000000000MJ00000000MO000000
#05315:000000000000HP000000000000000000MK00000000MP0000
#05318:HR00000000000000000000000000000000ML00000000MQ00
#05319:000000000000000000000000HP00000000000000000000MR
#05401:00
#05401:00
#05401:00
#05401:00
#05401:00
#05401:00
#05401:00
#05401:00
#05401:36000031310031003700003131003500
#05401:00
#05401:00TC00TF0000TI00
#05401:92000000TE000000930000TH0000TJ00
#05401:TB0000TD00000000TG00000000000000
#05401:00
#05401:HPHLHVHLHVHLHUHL
#05401:00
#05401:00
#05401:9C
#05401:009D
#05403:AC
#05411:MSMS
#05412:00MV000000000000000000MW00MT000000000000000000MT
#05413:00MX000000MX00MW000000MW
#05414:020000MZ00000000MZ000000020000MZ00000000MY000000
#05415:00000000N300000000N0000000000000N100000000MZ0000
#05416:0A0B
#05418:M200000000N500N3000000000000000000N500N100000000
#05419:00N7M3N6
#05501:00
#05501:00
#05501:00
#05501:00
#05501:00
#05501:00
#05501:00
#05501:00
#05501:37000031310031003700000035003500
#05501:00TL000000000000
#05501:94TO
#05501:TK00TMTN9200TP00
#05501:000E
#05501:00
#05501:HUHMHSHRHS00HO00
#05501:00
#05501:9E
#05501:009C
#05511:MS00MSM6
#05512:00MU000000000000000000MW00MV00000000000000MV0000
#05513:00MW000000MX00MX000000MX
#05514:020000MX0000000000MZ0000020000MZ00000000MZ0000MZ
#05515:00000000MZ000000N200000000000000N30000N500000000
#05516:0A0A
#05518:0000000000N200N4000000000000000000N4000000000000
#05519:M4N5M2N7
#05601:TQ
#05601:95
#05601:00
#05601:00
#05601:00
#05601:00
#05601:00
#05601:0000000000000R00000S00000R000S000R000S00000R00000000000S00000T00000R00000S00000T00000000000R0000
#05601:37003839380039380039380039383700
#05601:00
#05601:00
#05601:0092
#05601:0U00000000TRTSTT
#05601:00
#05601:HP00000000HRHSHU
#05601:9F
#05601:00
#05601:009C
#05611:M5MS00M20000
#05612:0000000000MV0000000000000000000000N50000000000N2
#05613:000000MX0000N500000000N3
#05614:00000000000000MZ000000N80000N8000000000000N40000
#05615:M700000000000000N300000000NA0000N9000000N5000000
#05616:0A0B
#05618:000000000000000000N50000000000NB000000N600000000
#05619:0200000000N7020000N70000
#05701:00
#05701:00
#05701:000000000000000000000I0I0I0I0I0I
#05701:00
#05701:00
#05701:00
#05701:00000000000000000000363536353635
#05701:00
#05701:0097
#05701:TU0000000000TVTWTX00000000000000
#05701:96
#05701:00
#05701:3735363636000000
#05701:0I0I000I0I000I0I0I00000000000000
#05701:HS0000000000HRHPHR00000000000000
#05701:00
#05701:009H
#05701:9G
#05703:00A8
#05711:0200020003040404
#05712:00000S0R000000000000000000000000
#05713:0000000000000R0S0000ME00ME00ME00
#05714:M2000000MAMB0000M400000000000000
#05715:00000000M9000000M90000000000000000000000000000000U0000000000000000040000000000040000000000040000
#05716:0A0A
#05718:M8000000000000MC0000000000000000
#05719:0U0000000T000000MD0000MF00MF00MF
#05801:00
#05801:00
#05801:00
#05801:00
#05801:000Q000Q
#05801:00
#05801:1B001C001D001E1F1G1H1C001D001E1F
#05801:3A
#05801:00
#05801:0I0I00000I0I00000I0I00000I0I0000
#05801:000J000J000J000J
#05801:00
#05801:AP
#05801:00
#05801:00
#05801:00
#05801:00
#05801:00
#05801:00
#05801:00
#05801:00
#05801:00
#05801:00
#05801:00
#05801:00
#05801:00
#05801:00
#05801:00
#05801:00
#05801:00
#05801:00
#05801:ZR
#05803:AC
#05811:01010101
#05812:46009J0000HL00HL
#05813:00HL00HL0000HU00
#05814:9I00HV00HV00004C
#05815:004700009K009L00
#05816:08
#05818:HP000048000047000000004800009M00
#05819:00000000490000004A0000004B00009N
#05901:00HS
#05901:009R
#05901:004G
#05901:00
#05901:000Q000Q
#05901:00
#05901:1B001I001D001E1F1G1H1C001D001E1F
#05901:00
#05901:00
#05901:0I000I00000000000I000I00000000000K0L0M0I000000000I000I0000000000
#05901:000J000J000J000J
#05901:00
#05901:00
#05901:00
#05901:00
#05901:00
#05901:00
#05901:AQ
#05911:01000000010000000100000403000300
#05912:00HM00HRNC00NG00
#05913:9O00000000004X0000ND000000NH0000
#05914:004D009QARNEAVNI
#05915:HU000000HS00000000AS00NF00AW00NJ
#05918:4B004E0000AT00AX
#05919:000000009P000000000000AU000000AY
#06001:00
#06001:00
#06001:00
#06001:00
#06001:000Q000Q
#06001:00
#06001:1B001C001D001E1F1G1H1C001D001E1F
#06001:00
#06001:00
#06001:0I0I00000I0I00000I0I00000I0I0000
#06001:000J000J000J000J
#06001:00
#06001:00
#06001:00
#06001:00
#06001:00
#06001:B1
#06011:01010101
#06012:0000HJ000000HM000000004K00009W00
#06013:9SHS004L
#06014:HM0000009T000000HS0000009V00009X
#06015:004H004H00HN00HN
#06018:4D00004I000000004J000000HR000000
#06019:00004E009U00004M
#06101:00HP
#06101:004P
#06101:00A1
#06101:00
#06101:000Q000Q
#06101:00
#06101:1B001I001D001E1F1G1H1C001D001E1F
#06101:000E
#06101:00
#06101:0I000I00000000000I000I00000000000K0L0M0I000000000I0000000I000000
#06101:00000J0000000J0000000J00000J000J
#06101:00
#06101:00
#06101:00
#06101:00
#06101:00
#06101:00
#06101:B2
#06111:01000000010000000100000403000300
#06112:00HM00HONE00NI00
#06113:4L000000HP00000000NF000000NJ0000
#06114:004N4600ATNGAXNK
#06115:000000000000000000004F000000000000004N0000000000000000AU0000000000NH0000000000AY0000000000NL0000
#06118:HR009Z0000AV00AZ
#06119:9Y000000000000004O000000000000000000A00000000000000000000000000000AW0000000000000000000000B00000
#06201:00
#06201:00
#06201:00
#06201:00
#06201:000Q000Q
#06201:00
#06201:1B001C001D001E1F1G1H1C001D001E1F
#06201:00
#06201:00
#06201:00
#06201:00
#06201:0I0I00000I0I00000I0I00000I0I0000
#06201:000J000J000J000J
#06201:00
#06201:00
#06201:00
#06201:00B3
#06211:01010101
#06212:00HL00HL00HL00HL
#06213:HPHV009L
#06214:9I009J009K00HU4C
#06215:0000470000000000HV00004800009M00
#06216:08
#06218:4600004800004700000000004B000000
#06219:00000000490000004A0000000000009N
#06301:00
#06301:00
#06301:00
#06301:00
#06301:000Q000Q
#06301:00
#06301:1B001I001D001E1F1G1H1C001D001E1F
#06301:00
#06301:00
#06301:00
#06301:00
#06301:0I000I00000000000I000I00000000000K0L0M0I000000000I000I0000000000
#06301:000J000J000J000J
#06301:00
#06301:00
#06301:00B5
#06301:000000B6
#06301:B4
#06311:01000000010000000100000403000300
#06312:00HM00HR00000000
#06313:HU4E4QHO
#06314:004D009QHS004R00
#06315:4B00004X000000A3
#06318:9O000000HS00000000000000A20000A4
#06319:009P9U00
#06401:0000000000HRHSHU
#06401:00
#06401:00
#06401:00000000000J000J
#06401:0000000Q
#06401:00
#06401:1B001C001D001E1F1G1H1C001D001E1F
#06401:00
#06401:00
#06401:00
#06401:00
#06401:0I0I00000I0I00000I0I00000I0I0000
#06401:000J000J00000000
#06401:00
#06401:00
#06401:00
#06401:B7B2
#06411:01010101
#06412:4S00000000AI0000
#06413:0000AD00004LAJ00
#06414:HP00000000AE0000000000004E00AK00
#06415:000000AF00A6004T
#06418:000QAHA7
#06419:A5000000000000AG000000000000A800
#06501:00
#06501:00
#06501:00
#06501:000000000000000000000J00000J000J
#06501:00
#06501:00
#06501:1B001I001D001E1F1G1H1C001D001E1F
#06501:00
#06501:00
#06501:00
#06501:00
#06501:0I000I00000000000I000I00000000000K0L0M0I000000000I0000000I000000
#06501:000J000J00000000
#06501:00
#06501:00
#06501:00
#06501:B7B8
#06501:00
#06501:00
#06501:00
#06501:00
#06501:00
#06501:00AO
#06501:AL000000000000AN0000000000000000
#06501:000000AM00000000
#06511:01000004010003000100030004000400
#06512:00000000000000HP0000NM0000040004
#06513:HS0000000000HR00HR0000NN00NP0000
#06514:4U0000000Q0000AB0000B900NO00NQ00
#06515:000000000000AA00AC0000BA00BC00NR
#06518:A90000000000004V00000000BB00BD00
#06519:0000000000004X004W0000000Q0000BE
#06601:00
#06601:00
#06601:00
#06601:00
#06601:000Q000Q
#06601:0N0N0N0N
#06601:1B001C001D001E1F1G1H1C001D001E1F
#06601:00
#06601:00
#06601:00
#06601:0I0I00000I0I00000I0I00000I0I0000
#06601:000J000J000J000J
#06601:00
#06601:00
#06601:00
#06601:00
#06601:AP
#06611:01010101
#06612:0000HL000000HL000000004800004C00
#06613:9IHV004B
#06614:HP009J00HV0000HL
#06615:0047004700HL009M
#06616:08
#06618:46000048000000009K0000009L00009N
#06619:00494AHU
#06701:2O002P2Q2R002S2T2P2Q2R002O002P2Q
#06701:00
#06701:0I00000I00000I00000I00000I0I0000
#06701:000J00000J00000J00000J0000000J00
#06701:0R0U0S0R0U0S0R0U0S0R0U0S0U000U00
#06701:00
#06701:00
#06701:00
#06701:00
#06701:00
#06701:00
#06701:00
#06701:00
#06701:00
#06701:00
#06701:00
#06701:00AR
#06701:AQ0000000000000000AS000000000000
#06701:0000000000AT0000
#06701:0000000000009Q00000000AU00000000
#06701:009P9R00
#06701:00
#06701:00
#06701:00
#06701:00
#06701:00
#06701:00
#06701:00
#06701:00
#06701:00
#06701:HUHMHSHRHS000000
#06711:040300000G0000004G00000003000300
#06712:00004D000000040300000G000000NX00
#06713:NSNT00004E00000000000000AV000000
#06714:4B0000000000NUNV0004030000AW0000
#06715:000000NSNT000000000000000000AX00
#06716:0000000000000G0G
#06718:000G000000004X0000NUNV00000000AY
#06719:9O0000040300000G00000000NW000000
#06801:00
#06801:00
#06801:00
#06801:00
#06801:000Q000Q
#06801:0N0N0N0N
#06801:1B001C001D001E1F1G1H1C001D001E1F
#06801:00
#06801:00
#06801:00
#06801:0I0I00000I0I00000I0I00000I0I0000
#06801:000J000J000J000J
#06801:00
#06801:00
#06801:00
#06801:00
#06801:B1
#06811:0100010001000103
#06812:00HJ00HM00HN00HN
#06813:HMHSHS4L
#06814:4D4H004H0000HR9W
#06815:0000004I000000009U00004K0000009X
#06816:08
#06818:004E4J9V
#06819:9S0000009T0000000000040400004M00
#06901:00
#06901:2U2V2W002X002Y2Z2U2V2X002W002Y2Z
#06901:0I00000I00000I00000I00000I0I0000
#06901:000J00000J00000J00000J0000000J00
#06901:0R0U0S0R0U0S0R0U0S0R0U0S0U000U00
#06901:00
#06901:00
#06901:00
#06901:00
#06901:00
#06901:00
#06901:00
#06901:00
#06901:00
#06901:00
#06901:00
#06901:00AT
#06901:B20000000000000000AU000000000000
#06901:000000A000AV0000
#06901:000000009Z000000A10000AW00000000
#06901:00
#06901:00
#06901:00
#06901:00
#06901:00
#06901:00
#06901:00
#06901:00
#06901:00
#06901:00
#06901:HRHMHPHOHP000000
#06911:04030000460000004P00000003000300
#06912:000000000000000000004F000000000000000400000300000000000000000G0000000000000000000000O30000000000
#06913:NY0000NZ000000004O000000000000000000000000000000000000000000000000000000AX0000000000000000000000
#06914:4L004N000G00O0O10004030000AY0000
#06915:0000000403000000000000000000AZ00
#06916:0000000000000G0G
#06918:000G000000004N0000O0O100000000B0
#06919:9Y0000NYNZ00000G00000000O2000000
#07001:00
#07001:00
#07001:0I0I00000I0I00000I0I00000I0I0000
#07001:000J000J00000Q00
#07001:00000Q00000J000J
#07001:0N0N0N0N
#07001:1B001C001D001E1F1G1H1C001D001E1F
#07001:00
#07001:00
#07001:00
#07001:00
#07001:00
#07001:00
#07001:00
#07001:00
#07001:00
#07001:00
#07001:00
#07001:00BF
#07011:01010101
#07012:0000HL000000HL000000004800004C00
#07013:46HV9K4B
#07014:HP470000HV0000HL
#07015:00000048000047000000HL0000009M00
#07016:08
#07018:00000000490000004A000000HU00009N
#07019:9I9J009L
#07101:000000HO
#07101:00
#07101:0I000I00000000000I000I00000000000K0L0M0I000000000I0000000I000000
#07101:000Q000Q
#07101:000J000J000J0000
#07101:0N0N0N0N
#07101:1B001I001D001E1F1G1H1C001D001E1F
#07101:0E
#07101:00
#07101:00
#07101:00
#07101:00
#07101:00
#07101:00
#07101:00
#07101:00
#07101:BGBH
#07111:01000000010000000100000403000300
#07112:00HM00HR00O4O600
#07113:HU00000000004X00HS00000000O70000
#07114:4B004E004Q00BIO8
#07115:00004D0000009Q000000000000BJ00O9
#07118:00000000HS000000000000O50000BK00
#07119:9O0000009P0000009U0000004R0000BL
#07201:00
#07201:00
#07201:0I0I000000000000
#07201:00
#07201:00
#07201:00
#07201:00
#07201:00
#07201:00
#07201:00
#07201:00
#07201:00
#07201:00
#07201:00
#07201:00
#07201:00
#07201:00
#07201:00
#07201:00BO
#07201:000000BP
#07201:00
#07201:00
#07201:00
#07201:00
#07201:00
#07201:00
#07201:00
#07201:00
#07201:00
#07201:00
#07201:HP000000HPHRHSHU
#07201:ZS
#07211:0102000000000000
#07213:BMBN000000000000
#07214:4646000000000000
#07215:00OC
#07216:0G0G000000000000
#07218:OAOB000000000000
#07301:00
#07301:00
#07301:00
#07301:00
#07301:00
#07301:00
#07301:00
#07301:00
#07301:00
#07301:00
#07301:00
#07301:00
#07301:00
#07301:00
#07301:00
#07301:00
#07301:00
#07301:00
#07301:00
#07301:00
#07301:BQ
#07301:00BR0000
#07301:00BS
#07301:00
#07301:00
#07301:00
#07301:00
#07301:00
#07301:00
#07301:00
#07301:HS00HRHPHR000000
#07318:OD
#07319:00OE
#07401:BTBVBV0000000000
#07401:00BU00BU000000000000000000000000
#07401:0I0I0I0I00000I0I0I0I00000I0I0I0I
#07401:00000J00000J0000
#07401:00
#07401:00000000000000BU00BU0000BT00BV00
#07401:000000000000BT00BV00BV0000BU00BU
#07401:00
#07401:00
#07401:00
#07401:00
#07401:00
#07401:00
#07401:OF
#07401:00
#07401:00
#07401:CC00CDCC00CDCC00
#07411:0404030000000404
#07412:00040004000000OI00OI000000040004
#07413:0H0H0GOHOJOK0H0H
#07414:000H000H0000000H000H0000000H000H
#07415:OHOJOK0H0H0GOHOJ
#07416:08
#07418:00OI00OI000000040004000000OI00OI
#07419:0000000404030000
#07501:00
#07501:0000000003030303
#07501:00000I0I0I0I00000I0I00000I0I0000
#07501:0J00000J000J000J
#07501:00
#07501:BV0000BU00BU00000000000000000000
#07501:00BTBVBV00000000
#07501:00
#07501:00
#07501:00
#07501:00
#07501:00
#07501:000000OG
#07501:00
#07501:00
#07501:00
#07501:CDCC00CD00000000
#07511:0300000F
#07512:000000OI00OI00000F00000000000000
#07513:0GOHOJOK0000OM00
#07514:0000000H000H0000OL000000CE000000
#07515:OK0H0H0G00000000
#07518:0000000400040000CC000000BW000000
#07519:00040403BT000000
#07601:00
#07601:00
#07601:0I0I0I0I00000I0I0I0I00000I0I0I0I
#07601:00000J00000J0000
#07601:00
#07601:BTBUBVBUBV00BTBUBVBUBV00BTBUBVBU
#07601:00
#07601:00
#07601:00
#07601:00
#07601:00
#07601:00
#07601:00
#07601:OF
#07601:00
#07601:00
#07601:CC00CDCC00CDCC00
#07611:0404030000000404
#07612:0H000H000G0000OI00OI00000H000H00
#07613:OH00OJ00OK00000H000H0000OH00OJ00
#07614:00040004000000040004000000040004
#07615:000H000H0000OH00OJ00OK00000H000H
#07618:00OI00OI00000H000H000G0000OI00OI
#07619:0000000404030000
#07701:00
#07701:0000000003030303
#07701:00000I0I0I0I00000I0I00000I0I0000
#07701:0J00000J000J000J
#07701:00
#07701:BV00BTBUBVBUBV000000000000000000
#07701:00
#07701:00
#07701:00
#07701:00
#07701:00
#07701:00
#07701:00
#07701:00
#07701:00
#07701:00
#07701:CDCC00CD00000000
#07711:030F
#07712:0G0000OI00OI0000000000000F000000
#07713:OK00000H000H0000OL000000ON000000
#07714:0000000400040000CC00000000000000
#07715:00OHOJOK0000CF00
#07718:000H0H0GBT000000
#07719:000404030000BX00
#07801:00
#07801:00
#07801:0I0I0I0I00000I0I0I0I00000I0I0I0I
#07801:00000J00000J0000
#07801:00
#07801:BYBZC0BZC000BYBZC0BZC000BYBZC0BZ
#07801:00
#07801:00
#07801:00
#07801:00
#07801:00
#07801:00
#07801:00
#07801:00
#07801:00
#07801:00
#07801:00
#07801:00
#07801:CG00CHCG00CHCG00
#07811:0404030000000404
#07812:00040004000000OP00OP000000040004
#07813:0H0H0GOOOQOR0H0H
#07814:000H000H0000000H000H0000000H000H
#07815:OOOQOR0H0H0GOOOQ
#07818:00OP00OP000000040004000000OP00OP
#07819:0000000404030000
#07901:00
#07901:0000000003030303
#07901:00000I0I0I0I00000I0I00000I0I0000
#07901:0J00000J000J000J
#07901:00
#07901:C000BYBZC0BZC0000000000000000000
#07901:00
#07901:00
#07901:00
#07901:00
#07901:00
#07901:00
#07901:00
#07901:00
#07901:00
#07901:00
#07901:00
#07901:00
#07901:CHCG00CH00000000
#07911:0300000F
#07912:000000OP00OP00000F000000OT000000
#07913:0GOOOQOROS000000
#07914:0000000H000H000000000000CF000000
#07915:OR0H0H0GCG000000
#07918:000000040004000000000000C1000000
#07919:00040403BY000000
#08001:00
#08001:00
#08001:0I0I0I0I00000I0I0I0I00000I0I0I0I
#08001:00000J00000J0000
#08001:00
#08001:BYBZC0BZC000BYBZC0BZC000BYBZC0BZ
#08001:00
#08001:00
#08001:00
#08001:00
#08001:00
#08001:00
#08001:00
#08001:00
#08001:00
#08001:00
#08001:00
#08001:00
#08001:CG00CHCG00CHCG00
#08011:0404030000000404
#08012:0H000H000G0000OP00OP00000H000H00
#08013:OO00OQ00OR00000H000H0000OO00OQ00
#08014:00040004000000040004000000040004
#08015:000H000H0000OO00OQ00OR00000H000H
#08018:00OP00OP00000H000H000G0000OP00OP
#08019:0000000404030000
#08101:00
#08101:0000000003030303
#08101:00000I0I0I0I00000I0I00000I0I0000
#08101:0J00000J000J000J
#08101:00
#08101:C000BYBZC0BZC0000000000000000000
#08101:00
#08101:00
#08101:00
#08101:00
#08101:00
#08101:00
#08101:00
#08101:00
#08101:00
#08101:00
#08101:00
#08101:00
#08101:CHCG00CH00000000
#08111:03
#08112:0G0000OP00OP00000F0000000F000000
#08113:OR00000H000H0000OS00000000000000
#08114:000000040004000000000000OU000000
#08115:00OOOQORCG000000
#08118:000H0H0GBY00CI00
#08119:000404030000C200
#08201:00
#08201:00
#08201:0I0I0I0I00000I0I0I0I00000I0I0I0I
#08201:00000J00000J0000
#08201:0N0N0N0N
#08201:00
#08201:37003131310036003131310036003131
#08201:00
#08201:00
#08201:00
#08201:00
#08201:00
#08201:00
#08201:00
#08201:00
#08201:00
#08201:00
#08201:CJCKCLCJCKCLCJCK
#08211:OVOXOYOVOXOYOVOX
#08213:00OW00OW000000OW00OW000000OW00OW
#08214:0303030303030303
#08215:00C400C4000000C400C4000000C400C4
#08216:08
#08219:C3C5C5C3C5C5C3C5
#08301:00
#08301:00
#08301:00000I0I0I0I00000I0I00000I0I0000
#08301:0J00000J000J000J
#08301:0N0N0N0N
#08301:00
#08301:3136363137313631
#08301:00
#08301:00
#08301:00
#08301:00
#08301:00
#08301:00
#08301:00
#08301:00
#08301:00
#08301:00
#08301:CLCJCKCL00000000
#08301:0000CMCN
#08311:OYOVOXOY0000P000
#08312:00OZ
#08313:000000OW00OW00000000000000000400
#08314:0303030303030300
#08315:000000C400C400000000000000000004
#08318:00C3
#08319:C5C3C5C50000C600
#08401:00
#08401:00
#08401:0I0I0I0I00000I0I0I0I00000I0I0I0I
#08401:00000J00000J0000
#08401:0N0N0N0N
#08401:00
#08401:37003131310036003131310036003131
#08401:00
#08401:00
#08401:00
#08401:00
#08401:00
#08401:00
#08401:00
#08401:00
#08401:00
#08401:00
#08401:CJCKCLCJCKCLCJCK
#08411:OVOXOYOVOXOYOVOX
#08412:00OW00OW000000OW00OW000000OW00OW
#08414:0303030303030303
#08416:08
#08418:00C400C4000000C400C4000000C400C4
#08419:C3C5C5C3C5C5C3C5
#08501:00
#08501:00
#08501:00000I0I0I0I00000I0I00000I0I0000
#08501:0J00000J000J000J
#08501:0N0N0N0N
#08501:00
#08501:3136363137313631
#08501:00
#08501:00
#08501:00
#08501:00
#08501:00
#08501:00
#08501:00
#08501:00
#08501:00
#08501:00
#08501:CLCJCKCL00000000
#08501:00CM
#08501:000000CO
#08511:OYOVOXOY0000P100
#08512:000000OW00OW0000OZ00000000000000
#08514:03000300030003000300030003000404
#08518:000000C400C40000C300000000000000
#08519:C5C3C5C50000C700
#08601:00
#08601:C8C9CAC9CA00C8C9CAC9CA00C8C9CAC9
#08601:000I000I0000000I000I0000000I000I
#08601:00
#08601:0N0N0N0N
#08601:00
#08601:00
#08601:00
#08601:00
#08601:00
#08601:00
#08601:00
#08601:00
#08601:00
#08601:00
#08601:00
#08601:00
#08601:00
#08601:00
#08601:CQ00CQCQ00CQCQ00
#08601:00
#08601:00
#08601:CP
#08611:0404030404030404
#08612:00040004000000040004000000040004
#08613:0H0H0G0H0H0G0H0H
#08614:000H000H0000000H000H0000000H000H
#08615:P2P4P5P2P4P5P2P4
#08618:00P300P3000000P300P3000000P300P3
#08619:0I0I0J0I0I0J0I0I
#08701:00
#08701:CA00C8C9CAC9CA000300030003000300
#08701:0000000I000I00000I0I00000I0I0000
#08701:00000000000J000J
#08701:0N0N0N0N
#08701:00
#08701:00
#08701:00
#08701:00
#08701:00
#08701:00
#08701:00
#08701:00
#08701:00
#08701:00
#08701:00
#08701:00
#08701:00
#08701:00
#08701:CQCQ00CQ00000000
#08711:030404030F000F00
#08712:000000040004000000000000P7000000
#08713:0G0H0H0GP6000000
#08714:0000000H000H0000CQ000000CR000000
#08715:P5P2P4P50000CB00
#08718:000000P300P30000C800000000000000
#08719:0J0I0I0J00000000
#08801:C8C9CAC9CA00C8C9CAC9CA00C8C9CAC9
#08801:00
#08801:000I000I0000000I000I00000I0I000I
#08801:00
#08801:0N0N0N0N
#08801:00
#08801:00
#08801:00
#08801:00
#08801:00
#08801:P900PAP900PA0000
#08801:00
#08801:00
#08801:00
#08801:00
#08801:00
#08801:00
#08801:00
#08801:00
#08801:CQ00CQCQ00CQCQ00
#08801:00
#08801:00
#08801:CP
#08811:0404030404030404
#08812:00040004000000040004000000040004
#08813:0H0H0G0H0H0G0H0H
#08814:000H000H0000000H000H0000000H000H
#08815:P2P4P5P2P4P5P90I
#08818:00P300P3000000P300P3000000P300P3
#08819:0I0I0J0I0I0JP2P4
#08901:CAC9CAC9CAC9CAC9CAC9CAC9CAC9CAC9
#08901:00
#08901:0I0I0I0I0I0I0I0I0I0I0I0I0I0I0I0I
#08901:00
#08901:0N0N0N0N
#08901:00
#08901:00
#08901:00
#08901:00
#08901:00
#08901:00
#08901:00
#08901:00
#08901:00
#08901:00
#08901:00
#08901:00
#08901:00
#08901:00
#08901:CQCQCQCQCQCQCQCQ
#08911:0404040404040404
#08912:00040004000400040004000400040004
#08913:0H0H0H0H0H0H0H0H
#08914:000H000H000H000H000H000H000H000H
#08915:PBPCPBPCPBPCPBPC
#08918:00P300P300P300P300P300P300P300P8
#08919:P4P4P4P4P4P4P4P4
#09001:00
#09001:00
#09001:00
#09001:00
#09001:00
#09001:00
#09001:00
#09001:00
#09001:00
#09001:00
#09001:00
#09001:00
#09001:00
#09001:00
#09001:00
#09001:00
#09001:00
#09001:CS
#09001:00
#09001:00
#09001:00
#09001:00
#09001:00
#09001:00
#09001:00
#09001:00
#09001:00
#09001:00
#09001:00
#09001:00
#09001:00
#09001:ZT
#09003:AA
#09011:0200UBUE
#09012:0000000000PJ0000000000UB00UB00UF
#09013:00PF00000000000000UC00000000UD00
#09014:000000PH00000000PM00UD00PQ000000
#09015:0000PG00000000PL000000PP00PR00PT
#09016:0G
#09018:00000000PI00000000PN00000000PS00
#09019:PE0000PK00PO0000
#09101:6O6P6Q00
#09101:00
#09101:0I0I0I00
#09101:00
#09101:0U0000000R0S0R0S0U00000000000000
#09101:00
#09101:00000000000V0000
#09103:AC
#09111:02020200
#09113:00PV0000
#09114:PUPU
#09115:00PX0000
#09116:090C0D0W
#09118:00PW
#09119:PW
#09201:00003031320032330000363733000R00
#09201:0000000000000X00000X00000Y000Z0010001100001100000000000000000Z00001000000X0000000000360000000000
#09201:0I0000000I000I000M0M0M0M0M000I0000000I0000000I000I0000000I000000
#09201:00
#09201:00
#09201:00
#09201:00
#09201:00000000000000000035000000000000
#09201:00
#09201:00
#09201:00
#09201:00
#09201:00
#09201:00
#09201:00
#09201:00
#09201:00
#09201:00
#09201:00
#09201:00
#09201:00
#09201:00
#09201:CT00CVCUCV00CU00CT00CVCUCV00CU00
#09211:0202
#09213:00PY
#09214:PY
#09215:0012
#09219:3737
#09301:00000S0R00000S000U00000000000000
#09301:00003133000033000300030002000000
#09301:0I000I0I0I000I000I0I0I0I00000000
#09301:00PZ
#09301:00
#09301:00
#09301:00
#09301:00
#09301:00
#09301:00
#09301:00
#09301:00
#09301:00
#09301:00
#09301:00
#09301:00
#09301:00
#09301:00
#09301:00
#09301:00
#09301:00
#09301:00
#09301:CW00CUCVCW00CU00CV00000000000000
#09311:0202CXD3
#09312:00000000000000000000000000CY0000000000D400000000
#09313:PZ0000PZ000000CZ0000D500
#09314:0000000000D000D6
#09315:0U00000U00000000D10000D7
#09316:00H9
#09318:0000000000000000000000000000000000D20000000000D8
#09319:37373700
#09401:6RR06S006R006S00
#09401:00000000000000000000R9RA
#09401:0I0000000I0000000I00000I0I000000
#09401:000J000J000J000J
#09401:0U000R0S0R000S0R0S000R0S0R000U00
#09401:0N0N0N0N
#09401:000000R900000000
#09401:00QI
#09401:00
#09401:00
#09401:00QR0000
#09401:00
#09401:00
#09401:00
#09401:00
#09401:00
#09401:00
#09401:00
#09401:00
#09401:00
#09401:00
#09401:00
#09401:00
#09401:006T006T006T006T
#09401:00
#09401:00
#09401:00DX00DY
#09401:DVDV
#09401:00DW00DW00DW0000
#09401:00
#09401:GR
#09411:0200020002000303
#09412:000000R30000QS0000RC00000000HC0000HF0000HH0000HI
#09413:HA000000HE000000HH000000HA0000HD0000RJ0000000000
#09414:0000HC000000QT0000HD0000QL000000HE0000HF0000HC00
#09415:000000HD000000HF000000HI000000R60000HG0000HD0000
#09416:08
#09418:0000HB00000000000000HF000000000000000000HC0000000000HB000000000000R7000000000000RC00000000000000
#09419:D90000R40000HG0000RE0000QN0000000000R8000000RD00
#09501:6R006S006RR36U00
#09501:000000QJ
#09501:0I0000000I0000000I0I000I0I000000
#09501:000J000J000J000J
#09501:0U000R0S0R000S0R0S000R0S0R000U00
#09501:0N0N0N0N
#09501:0000000000R10000
#09501:000000000000000000000000000000000000000000000000000000Q600000000
#09501:00QH
#09501:00
#09501:000000QG
#09501:00
#09501:00
#09501:00
#09501:00
#09501:00
#09501:00
#09501:00
#09501:00
#09501:00
#09501:00
#09501:00
#09501:00
#09501:006T006T006T006T
#09501:0000006V
#09501:00
#09501:00DX0000
#09501:DVDV
#09501:00DW00DW00DW0000
#09501:000000DZ
#09511:0200020002000303
#09512:00000000HC0000000000HF00000000000000IX000000000000000000HC0000000004000000000000HH0000000000HI00
#09513:HA000000HE000000HH000000HA0000HD000000HF0000HC00
#09514:00HDIW00QI00QOQ7
#09515:00000000HB00000000000000000000000000IV000000000000000000000000000000000000000000HC0000000000000000000000HB000000000000000000000000000000HF000000000000000000000000000000000000Q80000000000000000
#09518:IT00000000000000000000000000HF00000000000000HI00000000000000R80000000000HG0000000000000000QA0000
#09519:000000000000000000000000IU0000000000000000000000HG0000000000000000000000HD0000000000000000000000QM000000000000000000000000000000HE00000000000000000000000000000000000000HD0000000000000000QB0000
#09601:6R00R8006S0000006R0000006S000004
#09601:R00000000000000000000000000000R500000000000000000000000000000000RC000000000000000000000000000000
#09601:0I000000000000000I000000000000000K0L0M0I00000I000I00000000000000
#09601:000J000J000J000J
#09601:0U000R0S0R000S0R0S000R0S0R000U00
#09601:0N0N0N0N
#09601:QX0000RB
#09601:0000R4000000000000R4000000000000
#09601:000000000000000000000000000000000000000000QZ00000000000000000000R9000000000000000000000000000000
#09601:0000RA
#09601:00
#09601:00
#09601:00
#09601:00
#09601:00
#09601:00
#09601:00
#09601:00
#09601:00
#09601:00
#09601:00
#09601:00
#09601:00
#09601:006T006T006T006T
#09601:00
#09601:00
#09601:00DX00DY
#09601:DVDV
#09601:00DW00DW00DW0000
#09611:02000200020003RM
#09612:00000000HC0000000000HF0000000000HH00000000R10000000000R800000000000400000000RH0000000000HC000000
#09613:HA0000HD000000HF00000000HA0000HD00000000RK0000HI
#09614:R4000000HE0000000000HC0000HB0000HE00RD0000HD0000
#09615:000000000000RA0000000000000000R8000000000000HI0000000000HC0000000000HF0000000000HH000000RN000000
#09618:00HB00000000HG0000HD000000000000RF0000HF000000RQ
#09619:0000RB0000RA00R500RA0000HG000400
#09701:6R0000006S0000R06R00006C6D006E00
#09701:000000000000000000000000000000000000000000R100000000QI0000000000RK000000000000000000000000000000
#09701:0I0000000I0000000I0I000I0I000000
#09701:000J000J000J000J
#09701:0U000R0S0R000S0R0S0T0R0U0U000U00
#09701:0N0N0N0N
#09701:00000000000000000000000000QE0000RF00000000000000
#09701:000000000000000000000000000000000000000000QY00000000000000000000RI000000000000000000000000000000
#09701:00000000000000000000000000QG00000000RP0000000000
#09701:00
#09701:000000QV
#09701:00
#09701:00
#09701:00
#09701:00
#09701:00
#09701:00
#09701:00
#09701:00
#09701:00
#09701:00
#09701:00
#09701:00
#09701:006T006T006T0000
#09701:00
#09701:00
#09701:00000000DX000000000000E000000000
#09701:DVDV
#09701:00DW00DW00DW00E2
#09701:000000E1
#09711:0200020002000303
#09712:0000HB0000000000HE000000000000QP0000000000R30000000000000000HD000000000000000000RQ0000000000RB00
#09713:0000HC0000HF000000RH000000QK0000HE0000RR0000RF00
#09714:HA0000HD000000HF00000000HA0000000000QW0000RL0000
#09715:000000QT0000000000000000QQ0000000000HD00000000000000HB00000000000000HF0000000000HH0000000000HI00
#09718:000000000000000000QR000000000000HH0000000000HI000000000000000000RM0000000000HF0000000000HC000000
#09719:QS0000QU0000HG000000HC000000HC000000HG0000HD0000
#09801:6R6S6R6S
#09801:Q0
#09801:0I0000000I0000000I00000I0I000000
#09801:000J000J000J000J
#09801:0U000R0S0R000S0R0S000R0S0R000U00
#09801:0N0N0N0N
#09801:00
#09801:00
#09801:00
#09801:00
#09801:00
#09801:00
#09801:00
#09801:00
#09801:00
#09801:00
#09801:00
#09801:00
#09801:00
#09801:00
#09801:00
#09801:00
#09801:00
#09801:006T006T006T006T
#09801:00
#09801:00
#09801:00DX00DY
#09801:DVDV
#09801:00DW00DW00DW0000
#09801:00
#09801:GR
#09811:0200020002000303
#09812:00000000HC0000000000000000000000HH0000000000HI0000000000HC00000000QO000000000000000000000000HI00
#09813:000000000000HD00000000000000HF0000000000HC0000000000HB000000HD0000000000000000QL00000000HC000000
#09814:HA0000000000Q70000HD0000HA000000HE00QN0000HD0000
#09815:0000000000000000HE0000000000Q8000000000000QG000000000000000000000000HF0000000000HH00000000QF0000
#09816:08
#09818:00HB000000HF0000Q9000000QI0000QR000000HF00000000
#09819:Q1000000HG00QC0000QN0000HG00QJ00
#09901:6R6S6R6V
#09901:00QHR4RGRH00Q400
#09901:0I0000000I0000000I0I000I0I000000
#09901:000J000J000J000J
#09901:0U000R0S0R000S0R0S000R0S0R000U00
#09901:0N0N0N0N
#09901:0000R200R8RA0000
#09901:0000000000RGQ200
#09901:00QD00RD0000Q300
#09901:00
#09901:00
#09901:00
#09901:00
#09901:00
#09901:00
#09901:00
#09901:00
#09901:00
#09901:00
#09901:00
#09901:00
#09901:00
#09901:0000006U
#09901:006T006T006T006T
#09901:00
#09901:00
#09901:00DX0000
#09901:DVDV
#09901:00DW00DW00DW0000
#09901:000000DZ
#09911:0200020002000303
#09912:000000HD00000000HH0000HI000000RJ00000000HH000000
#09913:0000HB000000000000000000R800000000000000HC0000000000HB0000000000000400000000HF000000000000000000
#09914:HA000000HE0000HF00000000HA0000HD0000Q500000000HI
#09915:0000HC0000HF000000HD00000000HC0000HF00000000HC00
#09918:QC0000000000HG0000000000RJ000000HE00000000HD0000
#09919:00QJ00RO00RLHG00
#10001:6R0000006S0000006R0000046S000000
#10001:00
#10001:0I0000000I0000000I00000I0I000000
#10001:000J000J000J000J
#10001:0U000R0S0R000T0S0R000S0U0U000R0S
#10001:0N0N0N0N
#10001:00
#10001:00
#10001:00
#10001:00
#10001:00
#10001:00
#10001:00
#10001:00
#10001:00
#10001:00
#10001:00
#10001:00
#10001:00
#10001:00
#10001:00
#10001:00
#10001:00
#10001:006T006T006T006T
#10001:00
#10001:00
#10001:00000000DX000000000000E3DY000000
#10001:DV000000DV0000E4
#10001:0000DW000000DW000000DW00000000E5
#10011:0200020002000304
#10012:000000000000J80000000000000000J9000000000000HI00000000000000JE0000000000000000JF000000000000HI00
#10013:HA0000000000000000J90000000000000000JA00000000000000HB000000000000JF00000000000000000000HC000000
#10014:000000000000HD0000000000J80000000000000000JB000000000000HC00000000000000JG0000000000HD0000000000
#10015:0000HB0000000000HE00000000000000HH00000000000000HA00000000000000HE00000000000000HH00000000040000
#10018:00000000HC0000000000HF000000HF0000000000HC000000000000JD000000000000HF000000HF000000JG0000000000
#10019:J7000000HG00HD00JC00HD00HG0000JH
#10101:00000000000000DA
#10101:00
#10101:0I0000000000000I
#10101:00
#10101:0U
#10101:00
#10101:00
#10101:00
#10101:00
#10101:00
#10101:00
#10101:00
#10101:00
#10101:00
#10101:00
#10101:00
#10101:00
#10101:00
#10101:00
#10101:00000000000000DE
#10101:00
#10101:00
#10101:00
#10101:00
#10101:00
#10101:00
#10101:00
#10101:00
#10101:00000000000000GE
#10101:E6
#10101:H8
#10111:0200000000000003
#10112:000000000000000000000000SD0000SG
#10113:0000000000000000S90000SC00SE0000
#10114:5S000000000000S80000SB000000SF00
#10115:0000S3000000S70000SA000000000000
#10116:090000000000000G
#10118:S20000S400S60000000000000000RS00
#10119:00S50000
#10201:00
#10201:00
#10201:0I0I000I0I000I0I000I0I000I000I00
#10201:0N00000N00000N00000N00000O000O00
#10201:0R0U000R0U000R0U000R0U000R0S0U00
#10201:00
#10201:00
#10201:00
#10201:00
#10201:00
#10201:00
#10201:00
#10201:00
#10201:00
#10201:00
#10201:00
#10201:000000DGDR0000000000000000000000
#10201:000000DI
#10201:000000000000DHDS0000000000000000
#10201:00000000000000DJ
#10201:DFDQ00000000000000DFDQ0000000000
#10201:00
#10201:00
#10201:00
#10201:000000000000GPGK0000000000000000
#10201:000000000000000000GQGL0000000000
#10201:GNGI00000000000000000000GI000000
#10201:000000GOGJ000000000000000000GJ00
#10211:04030004030004030004030003000300
#10212:00000000000000GH
#10213:GFGG00GFGG00GFGG00GFGG00GG000000
#10214:00000000000000DD
#10215:DBDC00DBDC00DBDC00DBDC00DB000000
#10216:0H0G000H0G000H0G000H0G000G000G00
#10218:00000000000000RW
#10219:RTRU00RTRU00RTRU00RTRU00RV000000
#10301:00
#10301:00
#10301:00
#10301:00
#10301:00
#10301:00
#10301:00000000DLDMDNDODP00000000000000
#10301:00
#10301:00
#10301:00
#10301:00
#10301:00
#10301:00
#10301:00
#10301:00
#10301:00
#10301:00
#10301:00
#10301:DK
#10301:00
#10301:00
#10301:00
#10301:00
#10301:00
#10301:00
#10301:00
#10301:00
#10301:00
#10301:00
#10301:00
#10301:GR
#10311:02
#10312:0000RXRZS1000000
#10313:GM
#10314:0000000000RY00S00000000000000000
#10315:DC
#10316:0G
#10319:RV