*---------------------- HEADER FIELD
#PLAYER 1
#GENRE PARODY HARDCORE
#TITLE 幽雅に開け、青空の扉 -EXUSIA-
#ARTIST Ark-Z
#BPM 188
#PLAYLEVEL 27
#RANK 3
#SUBTITLE [6K UE Border of Delay]
#SUBARTIST obj:kindman
#STAGEFILE title.jpg
#BACKBMP back.jpg
#DIFFICULTY 5
#TOTAL 526
#LNTYPE 1
#WAV01 bgm001.ogg
#WAV02 bgm002.ogg
#WAV03 bgm003.ogg
#WAV04 Mainlead_reverb01.ogg
#WAV05 Mainlead_reverb02.ogg
#WAV06 Mainlead_reverb03.ogg
#WAV07 acid01.ogg
#WAV08 acid02.ogg
#WAV09 acid03.ogg
#WAV0A acid04.ogg
#WAV0B acid05.ogg
#WAV0C acid06.ogg
#WAV0D acid07.ogg
#WAV0E acid08.ogg
#WAV0F acid09.ogg
#WAV0G acid10.ogg
#WAV0H acid11.ogg
#WAV0I acid12.ogg
#WAV0J acid13.ogg
#WAV0K acid14.ogg
#WAV0L acid15.ogg
#WAV0M acid16.ogg
#WAV0N acid17.ogg
#WAV0O acid18.ogg
#WAV0P acid19.ogg
#WAV0Q acid20.ogg
#WAV0R acid21.ogg
#WAV0S acid22.ogg
#WAV0T acid23.ogg
#WAV0U acid24.ogg
#WAV0V acid25.ogg
#WAV0W acid26.ogg
#WAV0X acid27.ogg
#WAV0Y acid28.ogg
#WAV0Z acid29.ogg
#WAV10 acid30.ogg
#WAV11 acid31.ogg
#WAV12 acid32.ogg
#WAV13 acid33.ogg
#WAV14 acid34.ogg
#WAV15 acid35.ogg
#WAV16 acid36.ogg
#WAV17 acid37.ogg
#WAV18 acid38.ogg
#WAV19 acid39.ogg
#WAV1A acid40.ogg
#WAV1B acid41.ogg
#WAV1C acid42.ogg
#WAV1D acid43.ogg
#WAV1E acid44.ogg
#WAV1F acid45.ogg
#WAV1G acid46.ogg
#WAV1H acid47.ogg
#WAV1I acid48.ogg
#WAV1J acid49.ogg
#WAV1K acid50.ogg
#WAV1L acid51.ogg
#WAV1M acid52.ogg
#WAV1N acid53.ogg
#WAV1O acid54.ogg
#WAV1P acid55.ogg
#WAV1Q acid56.ogg
#WAV1R acid57.ogg
#WAV1S acid58.ogg
#WAV1T acid59.ogg
#WAV1U acid60.ogg
#WAV1V acid61.ogg
#WAV1W acid62.ogg
#WAV1X acid63.ogg
#WAV1Y acid64.ogg
#WAV1Z acid65.ogg
#WAV20 acid66.ogg
#WAV21 acid67.ogg
#WAV22 acid68.ogg
#WAV23 acid69.ogg
#WAV24 acid70.ogg
#WAV25 acid71.ogg
#WAV26 acid72.ogg
#WAV27 acid73.ogg
#WAV28 acid74.ogg
#WAV29 acid75.ogg
#WAV2A acid76.ogg
#WAV2B acid77.ogg
#WAV2C acid78.ogg
#WAV2D acid79.ogg
#WAV2E acid80.ogg
#WAV2F acid81.ogg
#WAV2G acid82.ogg
#WAV2H acid83.ogg
#WAV2I acid84.ogg
#WAV2J acid85.ogg
#WAV2K acid86.ogg
#WAV2L acid87.ogg
#WAV2M acid88.ogg
#WAV2N bd01.ogg
#WAV2O bd02.ogg
#WAV2P bd03.ogg
#WAV2Q bd04.ogg
#WAV2R bd05.ogg
#WAV2S bd06.ogg
#WAV2T bd07.ogg
#WAV2U bd08.ogg
#WAV2V bd09.ogg
#WAV2W bd10.ogg
#WAV2X bd11.ogg
#WAV2Y clap01.ogg
#WAV2Z come again1.ogg
#WAV30 come again2.ogg
#WAV31 come again3.ogg
#WAV32 come again4.ogg
#WAV33 come again5.ogg
#WAV34 come again6.ogg
#WAV35 cymbal01.ogg
#WAV36 cymbal02.ogg
#WAV37 cymbal03.ogg
#WAV38 cymbal04.ogg
#WAV39 cymbal05.ogg
#WAV3A cymbal06.ogg
#WAV3B cymbal07.ogg
#WAV3C cymbal08.ogg
#WAV3D cymbal09.ogg
#WAV3E cymbal10.ogg
#WAV3F cymbal11.ogg
#WAV3G Freq-lead01.ogg
#WAV3H Freq-lead02.ogg
#WAV3I Freq-lead03.ogg
#WAV3J Freq-lead04.ogg
#WAV3K Freq-lead05.ogg
#WAV3L Freq-lead06.ogg
#WAV3M Freq-lead07.ogg
#WAV3N Freq-lead08.ogg
#WAV3O Freq-lead09.ogg
#WAV3P Freq-lead10.ogg
#WAV3Q Freq-lead11.ogg
#WAV3R Freq-lead12.ogg
#WAV3S Freq-lead13.ogg
#WAV3T Freq-lead14.ogg
#WAV3U Freq-lead15.ogg
#WAV3V Freq-lead16.ogg
#WAV3W Freq-lead17.ogg
#WAV3X Freq-lead18.ogg
#WAV3Y Freq-lead19.ogg
#WAV3Z Freq-lead20.ogg
#WAV40 Freq-lead21.ogg
#WAV41 Freq-lead22.ogg
#WAV42 Freq-lead23.ogg
#WAV43 Freq-lead24.ogg
#WAV44 Freq-lead25.ogg
#WAV45 Freq-lead26.ogg
#WAV46 Freq-lead27.ogg
#WAV47 Freq-lead28.ogg
#WAV48 Freq-lead29.ogg
#WAV49 Freq-lead30.ogg
#WAV4A Freq-lead31.ogg
#WAV4B Freq-lead32.ogg
#WAV4C Freq-lead33.ogg
#WAV4D Freq-lead34.ogg
#WAV4E Freq-lead35.ogg
#WAV4F Freq-lead36.ogg
#WAV4G Freq-lead37.ogg
#WAV4H Freq-lead38.ogg
#WAV4I Freq-lead39.ogg
#WAV4J Freq-lead40.ogg
#WAV4K Freq-lead41.ogg
#WAV4L Freq-lead42.ogg
#WAV4M Freq-lead43.ogg
#WAV4N Freq-lead44.ogg
#WAV4O Freq-lead45.ogg
#WAV4P Freq-lead46.ogg
#WAV4Q Freq-lead47.ogg
#WAV4R Freq-lead48.ogg
#WAV4S Freq-lead49.ogg
#WAV4T Freq-lead50.ogg
#WAV4U Freq-lead51.ogg
#WAV4V Freq-lead52.ogg
#WAV4W Freq-lead53.ogg
#WAV4X fx01.ogg
#WAV4Y fx02.ogg
#WAV4Z hat01.ogg
#WAV50 hat02.ogg
#WAV51 left-synth_chord01.ogg
#WAV52 left-synth_chord02.ogg
#WAV53 left-synth_chord03.ogg
#WAV54 left-synth_chord04.ogg
#WAV55 left-synth_chord05.ogg
#WAV56 left-synth_chord06.ogg
#WAV57 left-synth_chord07.ogg
#WAV58 left-synth_chord08.ogg
#WAV59 left-synth_chord09.ogg
#WAV5A left-synth_chord10.ogg
#WAV5B left-synth_chord11.ogg
#WAV5C left-synth_chord12.ogg
#WAV5D left-synth_chord13.ogg
#WAV5E left-synth_chord14.ogg
#WAV5F left-synth_chord15.ogg
#WAV5G left-synth_chord16.ogg
#WAV5H left-synth_chord17.ogg
#WAV5I left-synth_chord18.ogg
#WAV5J left-synth_chord19.ogg
#WAV5K left-synth_chord20.ogg
#WAV5L left-synth_chord21.ogg
#WAV5M left-synth_chord22.ogg
#WAV5N left-synth_chord23.ogg
#WAV5O left-synth_chord24.ogg
#WAV5P left-synth_chord25.ogg
#WAV5Q left-synth_chord26.ogg
#WAV5R left-synth_chord27.ogg
#WAV5S left-synth_chord28.ogg
#WAV5T left-synth_chord29.ogg
#WAV5U left-synth_chord30.ogg
#WAV5V left-synth_chord31.ogg
#WAV5W left-synth_chord32.ogg
#WAV5X left-synth_chord33.ogg
#WAV5Y left-synth_chord34.ogg
#WAV5Z left-synth_chord35.ogg
#WAV60 left-synth_chord36.ogg
#WAV61 left-synth_chord37.ogg
#WAV62 left-synth_chord38.ogg
#WAV63 left-synth_chord39.ogg
#WAV64 left-synth_chord40.ogg
#WAV65 left-synth_chord41.ogg
#WAV66 left-synth_chord42.ogg
#WAV67 left-synth_chord43.ogg
#WAV68 left-synth_chord44.ogg
#WAV69 left-synth_chord45.ogg
#WAV6A left-synth_chord46.ogg
#WAV6B left-synth_chord47.ogg
#WAV6C left-synth_chord48.ogg
#WAV6D left-synth_chord49.ogg
#WAV6E left-synth_chord50.ogg
#WAV6F left-synth_chord51.ogg
#WAV6G left-synth_chord52.ogg
#WAV6H left-synth_chord53.ogg
#WAV6I left-synth_chord54.ogg
#WAV6J left-synth_chord55.ogg
#WAV6K left-synth_chord56.ogg
#WAV6L left-synth_chord57.ogg
#WAV6M left-synth_chord58.ogg
#WAV6N left-synth_chord59.ogg
#WAV6O left-synth_chord60.ogg
#WAV6P left-synth_chord61.ogg
#WAV6Q left-synth_chord62.ogg
#WAV6R left-synth_chord63.ogg
#WAV6S left-synth_chord64.ogg
#WAV6T left-synth_chord65.ogg
#WAV6U left-synth_chord66.ogg
#WAV6V left-synth_chord_last01.ogg
#WAV6W left-synth_chord_last02.ogg
#WAV6X left-synth_chord_last03.ogg
#WAV6Y left-synth_chord_last04.ogg
#WAV6Z left-synth_chord_last05.ogg
#WAV70 left-synth_chord_last06.ogg
#WAV71 left-synth_chord_last07.ogg
#WAV72 left-synth_chord_last08.ogg
#WAV73 left-synth_chord_last09.ogg
#WAV74 left-synth_chord_last10.ogg
#WAV75 left-synth_chord_last11.ogg
#WAV76 left-synth_chord_last12.ogg
#WAV77 left-synth_chord_last13.ogg
#WAV78 left-synth_chord_last14.ogg
#WAV79 left-synth_chord_last15.ogg
#WAV7A left-synth_chord_last16.ogg
#WAV7B left-synth_chord_last17.ogg
#WAV7C left-synth_chord_last18.ogg
#WAV7D left-synth_chord_last19.ogg
#WAV7E left-synth_chord_last20.ogg
#WAV7F left-synth_chord_last21.ogg
#WAV7G left-synth_chord_last22.ogg
#WAV7H left-synth_chord_last23.ogg
#WAV7I left-synth_chord_last24.ogg
#WAV7J left-synth_chord_last25.ogg
#WAV7K left-synth_chord_last26.ogg
#WAV7L left-synth_chord_last27.ogg
#WAV7M left-synth_chord_last28.ogg
#WAV7N left-synth_chord_last29.ogg
#WAV7O left-synth_chord_last30.ogg
#WAV7P left-synth_chord_last31.ogg
#WAV7Q left-synth_chord_last32.ogg
#WAV7R left-synth_chord_last33.ogg
#WAV7S left-synth_chord_last34.ogg
#WAV7T left-synth_chord_last35.ogg
#WAV7U left-synth_chord_last36.ogg
#WAV7V left-synth_chord_last37.ogg
#WAV7W left-synth_chord_last38.ogg
#WAV7X left-synth_chord_last39.ogg
#WAV7Y left-synth_chord_last40.ogg
#WAV7Z left-synth_chord_last41.ogg
#WAV80 left-synth_chord_last42.ogg
#WAV81 left-synth_chord_last43.ogg
#WAV82 left-synth_chord_last44.ogg
#WAV83 left-synth_chord_last45.ogg
#WAV84 left-synth_chord_last46.ogg
#WAV85 left-synth_chord_last47.ogg
#WAV86 left-synth_chord_last48.ogg
#WAV87 left-synth_chord_last49.ogg
#WAV88 left-synth_chord_last50.ogg
#WAV89 left-synth_chord_last51.ogg
#WAV8A left-synth_chord_last52.ogg
#WAV8B left-synth_chord_last53.ogg
#WAV8C left-synth_chord_last54.ogg
#WAV8D left-synth_chord_last55.ogg
#WAV8E left-synth_chord_last56.ogg
#WAV8F left-synth_chord_last57.ogg
#WAV8G left-synth_chord_last58.ogg
#WAV8H left-synth_chord_last59.ogg
#WAV8I left-synth_chord_last60.ogg
#WAV8J left-synth_chord_last61.ogg
#WAV8K left-synth_chord_last62.ogg
#WAV8L left-synth_chord_last63.ogg
#WAV8M left-synth_chord_last64.ogg
#WAV8N left-synth_chord_last65.ogg
#WAV8O left-synth_chord_last66.ogg
#WAV8P left-synth_chord_last67.ogg
#WAV8Q left-synth_chord_last68.ogg
#WAV8R left-synth_chord_last69.ogg
#WAV8S left-synth_chord_last70.ogg
#WAV8T left-synth_chord_last71.ogg
#WAV8U left-synth_chord_last72.ogg
#WAV8V left-synth_melody01.ogg
#WAV8W left-synth_melody02.ogg
#WAV8X left-synth_melody03.ogg
#WAV8Y left-synth_melody04.ogg
#WAV8Z left-synth_melody05.ogg
#WAV90 left-synth_melody06.ogg
#WAV91 left-synth_melody07.ogg
#WAV92 left-synth_melody08.ogg
#WAV93 left-synth_melody09.ogg
#WAV94 left-synth_melody10.ogg
#WAV95 left-synth_melody11.ogg
#WAV96 left-synth_melody12.ogg
#WAV97 left-synth_melody13.ogg
#WAV98 left-synth_melody14.ogg
#WAV99 left-synth_melody15.ogg
#WAV9A Mainlead_Chord1-01.ogg
#WAV9B Mainlead_Chord1-02.ogg
#WAV9C Mainlead_Chord1-03.ogg
#WAV9D Mainlead_Chord1-04.ogg
#WAV9E Mainlead_Chord1-05.ogg
#WAV9F Mainlead_Chord1-06.ogg
#WAV9G Mainlead_Chord1-07.ogg
#WAV9H Mainlead_Chord1-08.ogg
#WAV9I Mainlead_Chord1-09.ogg
#WAV9J Mainlead_Chord1-10.ogg
#WAV9K Mainlead_Chord1-11.ogg
#WAV9L Mainlead_Chord1-12.ogg
#WAV9M Mainlead_Chord1-13.ogg
#WAV9N Mainlead_Chord1-14.ogg
#WAV9O Mainlead_Chord1-15.ogg
#WAV9P Mainlead_Chord1-16.ogg
#WAV9Q Mainlead_Chord1-17.ogg
#WAV9R Mainlead_Chord1-18.ogg
#WAV9S Mainlead_Chord1-19.ogg
#WAV9T Mainlead_Chord1-20.ogg
#WAV9U Mainlead_Chord1-21.ogg
#WAV9V Mainlead_Chord1-22.ogg
#WAV9W Mainlead_Chord1-23.ogg
#WAV9X Mainlead_Chord1-24.ogg
#WAV9Y Mainlead_Chord1-25.ogg
#WAV9Z Mainlead_Chord1-26.ogg
#WAVA0 Mainlead_Chord1-27.ogg
#WAVA1 Mainlead_Chord1-28.ogg
#WAVA2 Mainlead_Chord1-29.ogg
#WAVA3 Mainlead_Chord1-30.ogg
#WAVA4 Mainlead_Chord1-31.ogg
#WAVA5 Mainlead_Chord1-32.ogg
#WAVA6 Mainlead_Chord1-33.ogg
#WAVA7 Mainlead_Chord1-34.ogg
#WAVA8 Mainlead_Chord1-35.ogg
#WAVA9 Mainlead_Chord1-36.ogg
#WAVAA Mainlead_Chord2-01.ogg
#WAVAB Mainlead_Chord2-02.ogg
#WAVAC Mainlead_Chord2-03.ogg
#WAVAD Mainlead_Chord2-04.ogg
#WAVAE Mainlead_Chord2-05.ogg
#WAVAF Mainlead_Chord2-06.ogg
#WAVAG Mainlead_Chord2-07.ogg
#WAVAH Mainlead_Chord2-08.ogg
#WAVAI Mainlead_Chord2-09.ogg
#WAVAJ Mainlead_Chord2-10.ogg
#WAVAK Mainlead_Chord2-11.ogg
#WAVAL Mainlead_Chord2-12.ogg
#WAVAM Mainlead_Chord2-13.ogg
#WAVAN Mainlead_Chord2-14.ogg
#WAVAO Mainlead_Chord2-15.ogg
#WAVAP Mainlead_Chord2-16.ogg
#WAVAQ Mainlead_Chord2-17.ogg
#WAVAR Mainlead_Chord2-18.ogg
#WAVAS Mainlead_Chord2-19.ogg
#WAVAT Mainlead_Chord2-20.ogg
#WAVAU Mainlead_Chord2-21.ogg
#WAVAV Mainlead_Chord2-22.ogg
#WAVAW Mainlead_Chord2-23.ogg
#WAVAX Mainlead_Chord2-24.ogg
#WAVAY Mainlead_Chord2-25.ogg
#WAVAZ Mainlead_Chord2-26.ogg
#WAVB0 Mainlead_Chord2-27.ogg
#WAVB1 Mainlead_Chord2-28.ogg
#WAVB2 Mainlead_Chord2-29.ogg
#WAVB3 Mainlead_Chord2-30.ogg
#WAVB4 Mainlead_Chord2-31.ogg
#WAVB5 Mainlead_Chord2-32.ogg
#WAVB6 Mainlead_Chord2-33.ogg
#WAVB7 Mainlead_Chord2-34.ogg
#WAVB8 Mainlead_Chord2-35.ogg
#WAVB9 Mainlead_Chord2-36.ogg
#WAVBA Mainlead_Chord2-37.ogg
#WAVBB Mainlead_Chord2-38.ogg
#WAVBC Mainlead_Chord2-39.ogg
#WAVBD Mainlead_Chord2-40.ogg
#WAVBE Mainlead_Chord2-41.ogg
#WAVBF Mainlead_Chord2-42.ogg
#WAVBG Mainlead_Chord2-43.ogg
#WAVBH Mainlead_Chord2-44.ogg
#WAVBI Mainlead_Chord2-45.ogg
#WAVBJ Mainlead_Chord2-46.ogg
#WAVBK Mainlead_Chord2-47.ogg
#WAVBL Mainlead_Chord2-48.ogg
#WAVBM Mainlead_Chord2-49.ogg
#WAVBN Mainlead_Chord2-50.ogg
#WAVBO Mainlead_Chord2-51.ogg
#WAVBP Mainlead_Melody1-01.ogg
#WAVBQ Mainlead_Melody1-02.ogg
#WAVBR Mainlead_Melody1-03.ogg
#WAVBS Mainlead_Melody1-04.ogg
#WAVBT Mainlead_Melody1-05.ogg
#WAVBU Mainlead_Melody1-06.ogg
#WAVBV Mainlead_Melody1-07.ogg
#WAVBW Mainlead_Melody1-08.ogg
#WAVBX Mainlead_Melody1-09.ogg
#WAVBY Mainlead_Melody1-10.ogg
#WAVBZ Mainlead_Melody1-11.ogg
#WAVC0 Mainlead_Melody1-12.ogg
#WAVC1 Mainlead_Melody1-13.ogg
#WAVC2 Mainlead_Melody1-14.ogg
#WAVC3 Mainlead_Melody1-15.ogg
#WAVC4 Mainlead_Melody1-16.ogg
#WAVC5 Mainlead_Melody1-17.ogg
#WAVC6 Mainlead_Melody1-18.ogg
#WAVC7 Mainlead_Melody1-19.ogg
#WAVC8 Mainlead_Melody1-20.ogg
#WAVC9 Mainlead_Melody1-21.ogg
#WAVCA Mainlead_Melody1-22.ogg
#WAVCB Mainlead_Melody1-23.ogg
#WAVCC Mainlead_Melody1-24.ogg
#WAVCD Mainlead_Melody1-25.ogg
#WAVCE Mainlead_Melody1-26.ogg
#WAVCF Mainlead_Melody1-27.ogg
#WAVCG Mainlead_Melody1-28.ogg
#WAVCH Mainlead_Melody1-29.ogg
#WAVCI Mainlead_Melody1-30.ogg
#WAVCJ Mainlead_Melody1-31.ogg
#WAVCK Mainlead_Melody1-32.ogg
#WAVCL Mainlead_Melody1-33.ogg
#WAVCM Mainlead_Melody1-34.ogg
#WAVCN Mainlead_Melody1-35.ogg
#WAVCO Mainlead_Melody1-36.ogg
#WAVCP Mainlead_Melody1-37.ogg
#WAVCQ Mainlead_Melody1-38.ogg
#WAVCR Mainlead_Melody1-39.ogg
#WAVCS Mainlead_Melody1-40.ogg
#WAVCT Mainlead_Melody1-41.ogg
#WAVCU Mainlead_Melody1-42.ogg
#WAVCV Mainlead_Melody1-43.ogg
#WAVCW Mainlead_Melody1-44.ogg
#WAVCX Mainlead_Melody1-45.ogg
#WAVCY Mainlead_Melody1-46.ogg
#WAVCZ Mainlead_Melody1-47.ogg
#WAVD0 Mainlead_Melody1-48.ogg
#WAVD1 Mainlead_Melody2-01.ogg
#WAVD2 Mainlead_Melody2-02.ogg
#WAVD3 Mainlead_Melody2-03.ogg
#WAVD4 Mainlead_Melody2-04.ogg
#WAVD5 Mainlead_Melody2-05.ogg
#WAVD6 Mainlead_Melody2-06.ogg
#WAVD7 Mainlead_Melody2-07.ogg
#WAVD8 Mainlead_Melody2-08.ogg
#WAVD9 Mainlead_Melody2-09.ogg
#WAVDA Mainlead_Melody2-10.ogg
#WAVDB Mainlead_Melody2-11.ogg
#WAVDC Mainlead_Melody2-12.ogg
#WAVDD Mainlead_Melody2-13.ogg
#WAVDE Mainlead_Melody2-14.ogg
#WAVDF Mainlead_Melody2-15.ogg
#WAVDG Mainlead_Melody2-16.ogg
#WAVDH Mainlead_Melody2-17.ogg
#WAVDI Mainlead_Melody2-18.ogg
#WAVDJ Mainlead_Melody2-19.ogg
#WAVDK Mainlead_Melody2-20.ogg
#WAVDL Mainlead_Melody2-21.ogg
#WAVDM Mainlead_Melody2-22.ogg
#WAVDN Mainlead_Melody2-23.ogg
#WAVDO Mainlead_Melody2-24.ogg
#WAVDP Mainlead_Melody2-25.ogg
#WAVDQ Mainlead_Melody2-26.ogg
#WAVDR Mainlead_Melody2-27.ogg
#WAVDS Mainlead_Melody2-28.ogg
#WAVDT Mainlead_Melody2-29.ogg
#WAVDU Mainlead_Melody2-30.ogg
#WAVDV Mainlead_Melody2-31.ogg
#WAVDW Mainlead_Melody2-32.ogg
#WAVDX Mainlead_Melody2-33.ogg
#WAVDY Mainlead_Melody2-34.ogg
#WAVDZ Mainlead_Melody2-35.ogg
#WAVE0 Mainlead_Melody2-36.ogg
#WAVE1 Mainlead_Melody2-37.ogg
#WAVE2 Mainlead_Melody2-38.ogg
#WAVE3 Mainlead_Melody2-39.ogg
#WAVE4 Mainlead_Melody2-40.ogg
#WAVE5 Mainlead_Melody2-41.ogg
#WAVE6 Mainlead_Melody2-42.ogg
#WAVE7 Mainlead_Melody2-43.ogg
#WAVE8 Mainlead_Melody2-44.ogg
#WAVE9 Mainlead_Melody2-45.ogg
#WAVEA Mainlead_Melody2-46.ogg
#WAVEB Mainlead_Melody2-47.ogg
#WAVEC Mainlead_Melody2-48.ogg
#WAVED Mainlead_Melody2-49.ogg
#WAVEE Mainlead_Melody2-50.ogg
#WAVEF Mainlead_Melody2-51.ogg
#WAVEG Mainlead_Melody2-52.ogg
#WAVEH Mainlead_Melody2-53.ogg
#WAVEI Mainlead_Melody2-54.ogg
#WAVEJ Mainlead_Melody2-55.ogg
#WAVEK Mainlead_Melody2-56.ogg
#WAVEL Mainlead_Melody2-57.ogg
#WAVEM Mainlead_Melody2-58.ogg
#WAVEN Mainlead_Melody2-59.ogg
#WAVEO Mainlead_Melody2-60.ogg
#WAVEP Mainlead_Melody2-61.ogg
#WAVEQ Mainlead_Melody2-62.ogg
#WAVER Mainlead_Melody2-63.ogg
#WAVES Mainlead_Melody2-64.ogg
#WAVET Mainlead_Melody2-65.ogg
#WAVEU Mainlead_Melody2-66.ogg
#WAVEV Mainlead_Melody2-67.ogg
#WAVEW Mainlead_Melody2-69.ogg
#WAVEX Mainlead_Melody2-70.ogg
#WAVEY Mainlead_Melody2-71.ogg
#WAVEZ Mainlead_Melody2-72.ogg
#WAVF0 Mainlead_Melody2-73.ogg
#WAVF1 Mainlead_Melody2-74.ogg
#WAVF2 Mainlead_Melody2-75.ogg
#WAVF3 Mainlead_Melody2-76.ogg
#WAVF4 Mainlead_Melody2-77.ogg
#WAVF5 Mainlead_Melody2-78.ogg
#WAVF6 Mainlead_Melody2-79.ogg
#WAVF7 Mainlead_Melody2-80.ogg
#WAVF8 Mainlead_Melody2-81.ogg
#WAVF9 Mainlead_Melody2-82.ogg
#WAVFA Mainlead_Melody2-83.ogg
#WAVFB Mainlead_Melody2-84.ogg
#WAVFC Mainlead_Melody2-85.ogg
#WAVFD Mainlead_Melody2-86.ogg
#WAVFE Mainlead_Melody2-87.ogg
#WAVFF Mainlead_Melody01.ogg
#WAVFG Mainlead_Melody02.ogg
#WAVFH Mainlead_Melody03.ogg
#WAVFI Mainlead_Melody04.ogg
#WAVFJ Mainlead_Melody05.ogg
#WAVFK Mainlead_Melody06.ogg
#WAVFL Mainlead_Melody07.ogg
#WAVFM Mainlead_Melody08.ogg
#WAVFN Mainlead_Melody09.ogg
#WAVFO Mainlead_Melody10.ogg
#WAVFP Mainlead_Melody11.ogg
#WAVFQ Mainlead_Melody12.ogg
#WAVFR Mainlead_Melody13.ogg
#WAVFS Mainlead_Melody14.ogg
#WAVFT Mainlead_Melody15.ogg
#WAVFU Mainlead_Melody16.ogg
#WAVFV Mainlead_Melody17.ogg
#WAVFW Mainlead_Melody18.ogg
#WAVFX Mainlead_Melody19.ogg
#WAVFY Mainlead_Melody20.ogg
#WAVFZ Mainlead_Melody21.ogg
#WAVG0 Mainlead_Melody22.ogg
#WAVG1 Mainlead_Melody23.ogg
#WAVG2 Mainlead_Melody24.ogg
#WAVG3 Mainlead_Melody25.ogg
#WAVG4 Mainlead_Melody26.ogg
#WAVG5 Mainlead_Melody27.ogg
#WAVG6 Mainlead_Melody28.ogg
#WAVG7 Mainlead_Melody29.ogg
#WAVG8 Mainlead_Melody30.ogg
#WAVG9 Mainlead_Melody31.ogg
#WAVGA Mainlead_Melody32.ogg
#WAVGB perc01.ogg
#WAVGC perc02.ogg
#WAVGD perc03.ogg
#WAVGE piano01.ogg
#WAVGF piano02.ogg
#WAVGG piano03.ogg
#WAVGH piano04.ogg
#WAVGI piano05.ogg
#WAVGJ piano06.ogg
#WAVGK piano07.ogg
#WAVGL piano08.ogg
#WAVGM piano09.ogg
#WAVGN piano10.ogg
#WAVGO piano11.ogg
#WAVGP piano12.ogg
#WAVGQ piano13.ogg
#WAVGR piano14.ogg
#WAVGS piano15.ogg
#WAVGT piano16.ogg
#WAVGU piano17.ogg
#WAVGV piano18.ogg
#WAVGW piano19.ogg
#WAVGX piano20.ogg
#WAVGY piano21.ogg
#WAVGZ piano22.ogg
#WAVH0 piano23.ogg
#WAVH1 piano24.ogg
#WAVH2 piano25.ogg
#WAVH3 piano26.ogg
#WAVH4 piano27.ogg
#WAVH5 piano28.ogg
#WAVH6 piano29.ogg
#WAVH7 piano30.ogg
#WAVH8 piano31.ogg
#WAVH9 piano32.ogg
#WAVHA piano33.ogg
#WAVHB piano34.ogg
#WAVHC piano35.ogg
#WAVHD piano36.ogg
#WAVHE piano37.ogg
#WAVHF piano38.ogg
#WAVHG piano39.ogg
#WAVHH piano40.ogg
#WAVHI piano41.ogg
#WAVHJ piano42.ogg
#WAVHK piano43.ogg
#WAVHL piano44.ogg
#WAVHM piano45.ogg
#WAVHN piano46.ogg
#WAVHO piano47.ogg
#WAVHP piano48.ogg
#WAVHQ piano49.ogg
#WAVHR piano50.ogg
#WAVHS piano51.ogg
#WAVHT piano52.ogg
#WAVHU piano53.ogg
#WAVHV piano54.ogg
#WAVHW piano55.ogg
#WAVHX piano56.ogg
#WAVHY piano57.ogg
#WAVHZ piano58.ogg
#WAVI0 piano59.ogg
#WAVI1 piano60.ogg
#WAVI2 piano61.ogg
#WAVI3 piano62.ogg
#WAVI4 piano63.ogg
#WAVI5 piano64.ogg
#WAVI6 piano65.ogg
#WAVI7 piano66.ogg
#WAVI8 piano67.ogg
#WAVI9 piano68.ogg
#WAVIA piano69.ogg
#WAVIB piano70.ogg
#WAVIC piano71.ogg
#WAVID piano72.ogg
#WAVIE piano73.ogg
#WAVIF piano74.ogg
#WAVIG piano75.ogg
#WAVIH piano76.ogg
#WAVII piano77.ogg
#WAVIJ piano78.ogg
#WAVIK piano79.ogg
#WAVIL piano80.ogg
#WAVIM piano81.ogg
#WAVIN piano82.ogg
#WAVIO piano83.ogg
#WAVIP piano84.ogg
#WAVIQ piano85.ogg
#WAVIR piano86.ogg
#WAVIS piano87.ogg
#WAVIT piano88.ogg
#WAVIU piano89.ogg
#WAVIV piano_last01.ogg
#WAVIW piano_last02.ogg
#WAVIX piano_last03.ogg
#WAVIY piano_last04.ogg
#WAVIZ piano_last05.ogg
#WAVJ0 piano_last06.ogg
#WAVJ1 piano_last07.ogg
#WAVJ2 piano_last08.ogg
#WAVJ3 piano_last09.ogg
#WAVJ4 piano_last10.ogg
#WAVJ5 piano_last11.ogg
#WAVJ6 piano_last12.ogg
#WAVJ7 piano_last13.ogg
#WAVJ8 piano_last14.ogg
#WAVJ9 piano_last15.ogg
#WAVJA piano_last16.ogg
#WAVJB piano_last17.ogg
#WAVJC piano_last18.ogg
#WAVJD piano_last19.ogg
#WAVJE piano_last20.ogg
#WAVJF piano_last21.ogg
#WAVJG piano_last22.ogg
#WAVJH piano_last23.ogg
#WAVJI piano_last24.ogg
#WAVJJ piano_last25.ogg
#WAVJK piano_last26.ogg
#WAVJL piano_last27.ogg
#WAVJM piano_last28.ogg
#WAVJN piano_last29.ogg
#WAVJO piano_last30.ogg
#WAVJP piano_last31.ogg
#WAVJQ piano_last32.ogg
#WAVJR piano_last33.ogg
#WAVJS piano_last34.ogg
#WAVJT piano_last35.ogg
#WAVJU piano_last36.ogg
#WAVJV piano_last37.ogg
#WAVJW piano_last38.ogg
#WAVJX piano_last39.ogg
#WAVJY piano_last40.ogg
#WAVJZ piano_last41.ogg
#WAVK0 piano_last42.ogg
#WAVK1 piano_last43.ogg
#WAVK2 piano_last44.ogg
#WAVK3 piano_last45.ogg
#WAVK4 piano_last46.ogg
#WAVK5 piano_last47.ogg
#WAVK6 piano_last48.ogg
#WAVK7 piano_last49.ogg
#WAVK8 piano_last50.ogg
#WAVK9 piano_last51.ogg
#WAVKA piano_last52.ogg
#WAVKB piano_last53.ogg
#WAVKC piano_last54.ogg
#WAVKD piano_last55.ogg
#WAVKE piano_last56.ogg
#WAVKF piano_last57.ogg
#WAVKG piano_last58.ogg
#WAVKH piano_last59.ogg
#WAVKI piano_last60.ogg
#WAVKJ piano_last61.ogg
#WAVKK piano_last62.ogg
#WAVKL piano_last63.ogg
#WAVKM piano_last64.ogg
#WAVKN piano_last65.ogg
#WAVKO piano_last66.ogg
#WAVKP piano_last67.ogg
#WAVKQ piano_last68.ogg
#WAVKR piano_last69.ogg
#WAVKS piano_last70.ogg
#WAVKT piano_last71.ogg
#WAVKU piano_last72.ogg
#WAVKV piano_last73.ogg
#WAVKW piano_last74.ogg
#WAVKX piano_last75.ogg
#WAVKY piano_last76.ogg
#WAVKZ piano_last77.ogg
#WAVL0 piano_last78.ogg
#WAVL1 piano_last79.ogg
#WAVL2 piano_last80.ogg
#WAVL3 piano_last81.ogg
#WAVL4 piano_last82.ogg
#WAVL5 piano_last83.ogg
#WAVL6 piano_last84.ogg
#WAVL7 piano_last85.ogg
#WAVL8 piano_last86.ogg
#WAVL9 piano_last87.ogg
#WAVLA piano_last88.ogg
#WAVLB piano_last89.ogg
#WAVLC piano_last90.ogg
#WAVLD piano_last91.ogg
#WAVLE piano_last92.ogg
#WAVLF piano_last93.ogg
#WAVLG piano_last94.ogg
#WAVLH piano_last95.ogg
#WAVLI piano_last96.ogg
#WAVLJ piano_last97.ogg
#WAVLK piano_last98.ogg
#WAVLL piano_last99.ogg
#WAVLM piano_last100.ogg
#WAVLN piano_last101.ogg
#WAVLO piano_last102.ogg
#WAVLP piano_last103.ogg
#WAVLQ piano_last104.ogg
#WAVLR piano_last105.ogg
#WAVLS piano_last106.ogg
#WAVLT piano_last107.ogg
#WAVLU piano_last108.ogg
#WAVLV piano_last109.ogg
#WAVLW piano_last110.ogg
#WAVLX piano_last111.ogg
#WAVLY piano_last112.ogg
#WAVLZ piano_last113.ogg
#WAVM0 piano_last114.ogg
#WAVM1 piano_last115.ogg
#WAVM2 piano_last116.ogg
#WAVM3 piano_last117.ogg
#WAVM4 piano_last118.ogg
#WAVM5 piano_last119.ogg
#WAVM6 piano_last120.ogg
#WAVM7 piano_last121.ogg
#WAVM8 piano_last122.ogg
#WAVM9 piano_last123.ogg
#WAVMA piano_last124.ogg
#WAVMB piano_last125.ogg
#WAVMC piano_last126.ogg
#WAVMD piano_last127.ogg
#WAVME piano_last128.ogg
#WAVMF piano_last129.ogg
#WAVMG piano_last130.ogg
#WAVMH piano_last131.ogg
#WAVMI piano_last132.ogg
#WAVMJ piano_last133.ogg
#WAVMK piano_last134.ogg
#WAVML piano_last135.ogg
#WAVMM piano_last136.ogg
#WAVMN piano_last137.ogg
#WAVMO piano_last138.ogg
#WAVMP piano_last139.ogg
#WAVMQ piano_last140.ogg
#WAVMR piano_last141.ogg
#WAVMS piano_last142.ogg
#WAVMT piano_last143.ogg
#WAVMU piano_last144.ogg
#WAVMV piano_last145.ogg
#WAVMW piano_last146.ogg
#WAVMX piano_last147.ogg
#WAVMY piano_last148.ogg
#WAVMZ piano_last149.ogg
#WAVN0 piano_last150.ogg
#WAVN1 piano_last151.ogg
#WAVN2 piano_last152.ogg
#WAVN3 piano_last153.ogg
#WAVN4 piano_last154.ogg
#WAVN5 piano_last155.ogg
#WAVN6 piano_last156.ogg
#WAVN7 piano_last157.ogg
#WAVN8 piano_last158.ogg
#WAVN9 piano_last159.ogg
#WAVNA piano_last160.ogg
#WAVNB piano_last161.ogg
#WAVNC piano_last162.ogg
#WAVND piano_last163.ogg
#WAVNE piano_last164.ogg
#WAVNF pianoroll01.ogg
#WAVNG ride_cym1.ogg
#WAVNH ride_cym2.ogg
#WAVNI ride_cym3.ogg
#WAVNJ snare01.ogg
#WAVNK snare02.ogg
#WAVNL snare03.ogg
#WAVNM snare04.ogg
#WAVNN snare05.ogg
#WAVNO snare06.ogg
#WAVNP snare07.ogg
#WAVNQ snare08.ogg
#WAVNR snare09.ogg
#WAVNS snare10.ogg
#WAVNT snare11.ogg
#WAVNU snare12.ogg
#WAVNV snare13.ogg
#WAVNW snare14.ogg
#WAVNX snare15.ogg
#WAVNY snare16.ogg
#WAVNZ voice01.ogg
#WAVO0 voice02.ogg
#WAVO1 come again差分用01.ogg
#WAVO2 come again差分用02.ogg
#WAVO3 come again差分用03.ogg
#WAVO4 come again差分用04.ogg
#WAVO5 come again差分用05.ogg
#WAVO6 come again差分用06.ogg
#WAVO7 come again差分用07.ogg
#WAVO8 come again差分用08.ogg
#WAVO9 come again差分用09.ogg
#WAVOA come again差分用10.ogg
#WAVOB bd_roll.ogg
#WAVOC come again_retake01.ogg
#WAVOD come again_retake02.ogg
#WAVOE come again_retake03.ogg
#WAVOF come again_retake04.ogg
#BMP01 bga.mpg
#BMP03 miss 01.bmp
#BMP04 miss 02.bmp
#BMP05 miss 03.bmp
#BMP06 miss 04.bmp
#BMP07 miss 05.bmp
#BMP08 miss 06.bmp
#BMP09 miss 07.bmp
#BMP0A miss 08.bmp
#BMP0B miss 09.bmp
#BMP0C miss 10.bmp
#BMP0D miss 11.bmp
#BMP0E miss 12.bmp
#BMP0F miss 13.bmp
#BMP0G miss 14.bmp
#BMP0H miss 15.bmp
#BMP0I miss 16.bmp
#BMP0J miss 17.bmp
#BMP0K miss 18.bmp
#BMP0L miss 19.bmp
#BMP0M miss 20.bmp
#BMP0N miss 21.bmp
#BMP0O miss 22.bmp
#BMP0P miss 23.bmp
#BMP0Q miss 24.bmp
#BMP0R miss 25.bmp
#BMP0S miss 26.bmp
#BMP0T miss 27.bmp
#BMP0U miss 28.bmp
#BMP0V miss 29.bmp
#BMP0W miss 30.bmp
#BMP0X miss 31.bmp
#BMP0Y miss 32.bmp
#BMP0Z miss 33.bmp
#BMP10 miss 34.bmp
#BMP11 miss 35.bmp
#BMP12 miss 36.bmp
#BMP13 miss 37.bmp
#BMP14 miss 38.bmp
#BMP15 miss 39.bmp
#BMP16 miss 40.bmp
#BMP17 miss 41.bmp
#BMP18 miss 42.bmp *---------------------- EXPANSION FIELD
#6K *---------------------- MAIN DATA FIELD
#00002:1.25
#00004:01
#00101:01
#00106:030405060708090A0B0C0D0E0F0G0H0I0J0K0L0M0N0O0P0Q
#00201:4X
#00201:00
#00201:00
#00201:00
#00201:OCODOEOFO7O83200
#00201:00
#00201:000000000000002V
#00206:0R0S0T0U0V0W0X0Y0Z101112131415161718030405060708
#00211:2O
#00213:000000002P002Q00002R00000000002T002T000000000000
#00215:0000002P002P000000000000000000002T002U0000000000
#00218:002S
#00301:00
#00301:00
#00301:00
#00301:00
#00301:00
#00301:00
#00301:00
#00301:00
#00301:00
#00301:00
#00301:000000NZ
#00306:090A0B0C0D0E0F0G0H0I0J0K0L0M0N0O0P0Q0R0S0T0U0V0W
#00311:2N2N2N2N
#00312:00GB0A00000D000G
#00313:000009000000000B00000000000F0000
#00315:0008000000000000000C00000E00000H
#00318:0700GC0000GBGC00
#00319:352Y002Y
#00401:00
#00401:00
#00401:00
#00401:00
#00401:00
#00401:00
#00401:00
#00401:00
#00401:00
#00401:00
#00401:000000NZ
#00406:0X0Y0Z101112131415161718030405060708090A0B0C0D0E
#00411:2N2N002X
#00412:000J00000L00000000000O0000002X00
#00413:0000GB00000000002N000000000Q0000
#00415:00000000GC000000000N00000P000R00
#00418:000K2Y0000GBGC00
#00419:0I0000000000000M000000002Y00000S
#00501:00
#00501:00
#00501:00
#00501:00
#00501:00
#00501:00
#00501:00
#00501:00
#00501:00
#00501:00
#00501:000000NZ
#00506:0F0G0H0I0J0K0L0M0N0O0P0Q0R0S0T0U0V0W0X0Y0Z101112
#00511:2N2N2N2N
#00512:00000V000000000X00000Z0010000000
#00513:0T0000000000GD000000000000110000
#00515:000U00000W000000000Y0000GB000013
#00518:00GD000000GB0012
#00519:002Y002Y
#00601:00
#00601:00
#00601:00
#00601:00
#00601:00
#00601:00333333O7O83200
#00601:00
#00601:00
#00601:00
#00601:00
#00601:000000NZ
#00606:131415161718030405060708090A0B0C0D0E0F0G0H0I0J0K
#00611:001500002N0000002X002X0000002X00
#00612:00160000GB002X00
#00613:140000001700001800000000001C0000
#00615:00GB00GB001A1B00
#00618:000000002Y0000000000GB00GC00001E
#00619:2N000000GB000000001900002Y001D00
#00701:00
#00701:00
#00701:00
#00701:00
#00701:00
#00701:00
#00701:00
#00701:00
#00701:00
#00701:00
#00701:000000NZ
#00706:0L0M0N0O0P0Q0R0S0T0U0V0W0X0Y0Z101112131415161718
#00711:001G00002N0000002N0000002N001O00
#00712:2N0000001I000000001K00001M00001P
#00713:3500GB000000001J00000000001N0000
#00715:1FGC00GC
#00718:00002Y00001L2Y00
#00719:001H000000GB0000
#00801:00
#00801:00
#00801:00
#00801:00
#00801:00
#00801:00
#00801:00
#00801:00
#00801:00
#00801:00
#00801:000000NZ
#00806:030405060708090A0B0C0D0E0F0G0H0I0J0K0L0M0N0O0P0Q
#00811:00002N00001W2X00
#00812:0000GB0000000000000000001X000020
#00813:2N0000001T000000001V0000001Y0000
#00815:00001S000000001U00000000GC000000
#00818:1Q00GC002N002Y1Z
#00819:001R00002Y0000000000GB0000002X00
#00901:00
#00901:00
#00901:00
#00901:00
#00901:00
#00901:00
#00901:00
#00901:00
#00901:00
#00901:00
#00901:000000NZ
#00906:0R0S0T0U0V0W0X0Y0Z101112131415161718030405060708
#00911:210000002N0000002N00000000290000
#00912:002300GD00002N2A
#00913:0022000000000025000000002800002B
#00915:2N0024000027GB00
#00918:000000002Y000000002600002Y000000
#00919:00GD000000GB0000
#01001:00
#01001:00
#01001:00
#01001:00
#01001:00
#01001:00333333O7O83200
#01001:00002N002X2X2X2X
#01001:00
#01001:00
#01001:00GBGBGBGBGBGC00
#01001:000000NZ
#01006:090A0B0C0D0E0F0G0H0I0J0K0L0M0N0O0P0Q0R0S0T0U0V0W
#01011:2N000000330000000000O800002K0000
#01012:0000003300003700
#01013:00002E000000002G000000002J000000
#01015:00332F00O7003200
#01018:2C002Y00002I002L
#01019:002D000000000000002H00002Y00002M
#01101:00
#01101:00
#01101:00
#01101:00
#01101:00
#01101:00
#01101:2N
#01101:002Y002Y
#01101:00004Z0000004Z0000004Z000000504Z
#01101:00GBGC0000GBGC00
#01101:000000NZ
#01106:0X0Y0Z101112131415161718030405060708090A0B0C0D0E
#01111:8V0000510000008W0000000000000056000000570000000000005A0000000000
#01112:NG0000000000000053000054000000008X00000000008Y000059000000005B00
#01113:00005100000000002N00000055005600000057000000008Y000000005B000000
#01115:008V000000008W000053000000550000008X0000000000005900005A00000000
#01118:360000000052000000005400000000002N000000580000002N000000005B0000
#01119:0000000052000000NG00000000000000NG00000000580000NH0000000000005B
#01201:00
#01201:00
#01201:00
#01201:00
#01201:00
#01201:00
#01201:0000000000002X2X
#01201:002Y0000
#01201:00004Z0000004Z0000004Z000000504Z
#01201:00GBGC0000GBGC00
#01201:000000NZ
#01206:0F0G0H0I0J0K0L0M0N0O0P0Q0R0S0T0U0V0W0X0Y0Z101112
#01211:8Z000000000000005E00005F000000009100005I00000000005K000000009500
#01212:008Z00000000900000005F00000000002N000000000000920000930000000000
#01213:00005C00000000900000000000005H0000005I00000092000000009300000000
#01215:2N00005C000000002N000000005G005H00000000005J00002Y00000000000095
#01218:NG000000005D0000005E00005G000000NG0000005J000000NI00000000940000
#01219:000000005D000000NG0000000000000000910000000000005K00000094000000
#01301:00
#01301:00
#01301:00
#01301:00
#01301:00
#01301:00
#01301:00
#01301:002Y002Y
#01301:00004Z0000004Z0000004Z000000504Z
#01301:00GD00GD00GBGB00
#01301:000000NZ
#01306:131415161718030405060708090A0B0C0D0E0F0G0H0I0J0K
#01311:000051000000008W0000000000550000000057000000008Y00000000005B0000
#01312:2N005200535400008X00008Y005A005B
#01313:8V000051000000000053000000005600008X000000580000005900000000005B
#01315:00000000005200002N0000000000005600000000580000005900000000000000
#01318:008V000000008W0000000054000000002N000057000000002N00005A00000000
#01319:NG00NG55NG00NH5B
#01401:00
#01401:00
#01401:00
#01401:00
#01401:00
#01401:00333333O7O83200
#01401:00000000002X2X2X
#01401:002Y0000
#01401:00004Z0000004Z0000004Z000000504Z
#01401:00GBGBGBGBGBGC00
#01401:000000NZ
#01406:0L0M0N0O0P0Q0R0S0T0U0V0W0X0Y0Z101112131415161718
#01411:8Z000000000000005E0000005G00000091000000005J00005K00000098000000
#01412:008Z0000000000002N000000005G000000910000000000002Y00009700000000
#01413:0000005C0000009000005F00000000002X0000005J000000NI00000000980000
#01415:2N0000005D0090000000005F00000000NG000000000000960000000000009900
#01418:NG000000005D0000005E00000000005H00005I00000096000000970000000000
#01419:00005C0000000000NG00000000005H000000005I00000000005K000000000099
#01501:00
#01501:00
#01501:00
#01501:00
#01501:00
#01501:00
#01501:00
#01501:002Y002Y
#01501:00004Z0000004Z0000004Z000000504Z
#01501:00GBGC0000GBGC00
#01501:000000NZ
#01506:030405060708090A0B0C0D0E0F0G0H0I0J0K0L0M0N0O0P0Q
#01511:8V5253008X58595B
#01512:2N00000000520000005300000000005600000057005800000059000000000000
#01513:0000510000008W0000005400000056000000570000008Y000000005A0000005B
#01515:008V0000000000002N00000000550000008X00000000008Y00005A0000000000
#01518:NG0000000000008W00000000550000002N00000000000000NH000000005B0000
#01519:0000005100000000NG00005400000000NG000000000000002N00000000005B00
#01601:00
#01601:00
#01601:00
#01601:00
#01601:00
#01601:00
#01601:0000000000002X2X
#01601:002Y0000
#01601:00004Z0000004Z0000004Z000000504Z
#01601:00GBGC0000GBGC00
#01601:000000NZ
#01606:0R0S0T0U0V0W0X0Y0Z101112131415161718030405060708
#01611:2N0000005D0000005E00005F0000000091000000000000005K00000094000000
#01612:8Z000000005D00002N000000005G000000910000000000002Y00009300000000
#01613:0000005C00000000005E000000005H0000005I0000000000NI00000000940000
#01615:NG00000000000090000000005G0000002N00005I000000920000000000009500
#01618:008Z00000000900000005F0000000000NG0000005J0092000000930000000095
#01619:00005C0000000000NG0000000000005H00000000005J0000005K000000000000
#01701:00
#01701:00
#01701:00
#01701:00
#01701:00
#01701:00340033O7O83200
#01701:2N
#01701:002Y002Y
#01701:00004Z0000004Z0000004Z000000504Z
#01701:00GD00GD00GBGB00
#01701:000000NZ
#01706:090A0B0C0D0E0F0G0H0I0J0K0L0M0N0O0P0Q0R0S0T0U0V0W
#01711:8V0000000052000053000000550000008X00000000000000590000000000005B
#01712:36000000520000002N00000000005600000057000000008Y00005A0000000000
#01713:008V000000008W00000054000000005600000057000000000059005A00000000
#01715:000000510000000000530000000000002N000000580000002N0000005B000000
#01718:000051000000008W0000005400000000NG00000000580000NH00000000005B00
#01719:NG00000000000000NG00000000550000008X000000008Y0000000000005B0000
#01801:00
#01801:00
#01801:00
#01801:00
#01801:00
#01801:OCODOEOFO7O83200
#01801:0000002P2P2P2Q00002R00000000002T2T2T2U00002V0000
#01801:0000002Y
#01801:00004Z0000004Z0000004Z000000504Z
#01801:00GBGBGBGBGBGC00
#01801:000000NZ
#01806:0X0Y0Z101112131415161718030405060708090A0B0C0D0E
#01811:0000005C000000005E000000005G0000910000005J000000005K000000000000
#01812:8Z0000005D0000002Y0000005G00000000910000000000005K00000098000000
#01813:2O000000005D0000005E0000000000002S00000000000000NI00009700000000
#01815:NG000000000000900000005F00000000NG000000005J00960000000000980000
#01818:008Z00000000900000005F0000005H0000005I00000096000000970000000099
#01819:00005C0000000000NG0000000000005H0000005I000000003700000000009900
#01901:00
#01901:04
#01901:00
#01901:00
#01901:00
#01901:2N
#01901:00
#01901:002Y002Y
#01901:00
#01901:00GBGC0000GBGC00
#01901:000000NZ
#01901:NGNGNGNH
#01901:005152005354555600575800595A5B5B
#01901:8V00008W000000008X00008Y00000000
#01906:0F0G0H0I0J0K0L0M0N0O0P0Q0R0S0T0U0V0W0X0Y0Z101112
#01911:362N2N2N
#01912:0000000000000000000000000000004Z
#01913:FFFG00FJ
#01915:004Z004Z004Z0050
#01918:0000000000FI00FK
#01919:000000FH00000000
#02001:00
#02001:00
#02001:00
#02001:00
#02001:00
#02001:00
#02001:00
#02001:002Y002Y
#02001:00
#02001:00GBGC0000GBGC00
#02001:000000NZ
#02001:NGNGNGNI
#02001:005C5D005E5F5G5H005I5J005K000000
#02001:8Z000090000000009100009200939495
#02006:131415161718030405060708090A0B0C0D0E0F0G0H0I0J0K
#02011:FL2N002X
#02012:000000002N00002X
#02013:004Z0000004Z0050
#02015:2N00004Z0000FO00
#02018:00FN
#02019:00000000FM000000000000000000004Z
#02101:00
#02101:00
#02101:00
#02101:00
#02101:00
#02101:00
#02101:00
#02101:002Y002Y
#02101:00
#02101:00GD00GD00GBGB00
#02101:000000NZ
#02101:NGNGNGNH
#02101:005152005354555600575800595A5B5B
#02101:8V00008W000000008X00008Y00000000
#02106:0L0M0N0O0P0Q0R0S0T0U0V0W0X0Y0Z101112131415161718
#02111:2N2N2N2N
#02113:00FQ00FT
#02115:FP0000FR00FS00FU
#02118:0000000000000000000000000000004Z
#02119:004Z004Z004Z0050
#02201:00
#02201:00
#02201:00
#02201:00
#02201:00
#02201:00
#02201:00
#02201:002Y002Y
#02201:00
#02201:00GBGBGBGBGBGC00
#02201:000000NZ
#02201:NGNGNGNI
#02201:005C5D005E5F5G5H005I5J005K000000
#02201:8Z000090000000009100009600979899
#02206:030405060708090A0B0C0D0E0F0G0H0I0J0K0L0M0N0O0P0Q
#02211:2N002N002X2X0050
#02212:0000000000000000000000000000004Z
#02213:0034003300O80000
#02215:004Z004Z004Z0000
#02218:00000032
#02219:00000000O7002X2X
#02301:00
#02301:00
#02301:00
#02301:00
#02301:00
#02301:00
#02301:00
#02301:002Y002Y
#02301:00
#02301:00GBGC0000GBGC00
#02301:000000NZ
#02301:NGNGNGNH
#02301:005152005354555600575800595A5B5B
#02301:8V00008W000000008X00008Y00000000
#02306:0R0S0T0U0V0W0X0Y0Z101112131415161718030405060708
#02311:002N2N00
#02312:00FW002N
#02313:2N0000FZ
#02315:FV004Z0000004Z0000004Z000000004Z
#02318:360000FX00FY00G0
#02319:0000000000000050
#02401:00
#02401:00
#02401:00
#02401:00
#02401:00
#02401:00
#02401:00
#02401:002Y002Y
#02401:00
#02401:00GBGC0000GBGC00
#02401:000000NZ
#02401:NGNGNGNI
#02401:005C5D005E5F5G5H005I5J005K000000
#02401:8Z000090000000009100009200939495
#02406:090A0B0C0D0E0F0G0H0I0J0K0L0M0N0O0P0Q0R0S0T0U0V0W
#02411:2N2N2N2X
#02412:004Z000000000050
#02413:G100000000004Z0000004Z000000004Z
#02415:000000G4
#02418:00G3
#02419:0000G2000000002X
#02501:00
#02501:00
#02501:00
#02501:00
#02501:00
#02501:00
#02501:00
#02501:002Y002Y
#02501:00
#02501:00GD00GD00GBGB00
#02501:000000NZ
#02501:NGNGNGNH
#02501:005152005354555600575800595A5B5B
#02501:8V00008W000000008X00008Y00000000
#02506:0X0Y0Z101112131415161718030405060708090A0B0C0D0E
#02511:2N2N2N00
#02512:3700004Z00002N00
#02513:00000000G600000000000000G900004Z
#02515:G50000G700G80050
#02518:004Z0000004Z00GA
#02519:0037
#02601:00
#02601:00
#02601:00
#02601:00
#02601:00
#02601:00
#02601:00
#02601:00
#02601:00
#02601:00
#02601:00
#02601:NGNGNGNI
#02606:0F0G0H0I0J0K0L0M0N0O0P0Q0R0S0T0U0V0W0X0Y0Z101112
#02611:2O0000OF00000000
#02612:00OD002R00O8002V
#02613:0000002P002P000000000000000000002T002U0000000000
#02615:000000002P002Q00000000000000002T002T000000000000
#02618:OCOE2S32
#02619:35O7
#02701:02
#02701:00
#02701:00
#02701:00
#02701:00
#02701:00
#02701:00
#02701:002Y002Y
#02701:00004Z0000004Z0000004Z000000504Z
#02701:00GBGC0000GBGC00
#02701:000000NZ
#02701:NGNGNGNH
#02701:00
#02701:00
#02701:00
#02701:00009A00009B00009C00009D009E009F
#02706:131415161718030405060708090A0B0C0D0E0F0G0H0I0J0K
#02711:2N00000000008W0000000054000000008X0000000000000059000000005B0000
#02712:008V00000052000000530000000000560000570000008Y000059000000000000
#02713:000051000000008W0000540000005600000000570058000000005A0000005C00
#02715:8V0000005200000053000000005500002N000000580000002N0000005B00005C
#02718:35000051000000002N00000055000000008X000000000000BT00005A00000000
#02719:BP0000000000BQ0000000000BR0000000000BS000000008Y00000000BU000000
#02801:00
#02801:00
#02801:00
#02801:00
#02801:00
#02801:00
#02801:0000000000002X2X
#02801:002Y0000
#02801:00004Z0000004Z0000004Z000000504Z
#02801:00GBGC0000GBGC00
#02801:000000NZ
#02801:NGNGNGNI
#02801:00
#02801:00
#02801:00
#02801:00009G00009H00009I00009J009K009L
#02806:0L0M0N0O0P0Q0R0S0T0U0V0W0X0Y0Z101112131415161718
#02811:008Z00000000009000005P000000005R0000005S000000005U00000094000000
#02812:8Z0000000000900000000000BX00000000910000005T00000000009300000095
#02813:00005M000000BW000000005P0000000091000000000092000000930000000000
#02815:00000000005N0000005O00005Q00000000005S0000000092005U000000940000
#02818:2N0000005N0000005O000000005Q00002N0000005T0000002Y00000000009500
#02819:BV00005M000000002N00000000005R000000BY0000000000BZ000000C0000000
#02901:00
#02901:00
#02901:00
#02901:00
#02901:00
#02901:00
#02901:00
#02901:002Y002Y
#02901:00004Z0000004Z0000004Z000000504Z
#02901:00GD00GD00GBGB00
#02901:000000NZ
#02901:NGNGNGNH
#02901:00
#02901:00
#02901:00
#02901:00009M00009N00009O00009P009Q009R
#02906:030405060708090A0B0C0D0E0F0G0H0I0J0K0L0M0N0O0P0Q
#02911:8V00000000008W000000005Y000000008X0000000062000063000000C6000000
#02912:0000005V00000000005X000000000060008X000000008Y000000006400000066
#02913:2N0000005W00008W00000000C30000000000C4000000008Y0000640000000000
#02915:008V00000000C20000005Y000000600000006100000000000063000065000000
#02918:00005V00000000005X000000005Z000000000061000000002N00000000650000
#02919:C1000000005W00002N0000005Z0000002N00000062000000C500000000006600
#03001:00
#03001:00
#03001:00
#03001:00
#03001:00
#03001:00
#03001:00000000002X2X2X
#03001:002Y002Y
#03001:00004Z0000004Z0000004Z000000504Z
#03001:00GBGBGBGBGBGC00
#03001:000000NZ
#03001:NGNGNGNI
#03001:00
#03001:00
#03001:00
#03001:00009S00009T00009U00009V009W009X
#03006:0R0S0T0U0V0W0X0Y0Z101112131415161718030405060708
#03011:C7000000000090000000006A00000000910000006E0000006F00000000000099
#03012:0000000068000000690000006B0000002X000000006E00003700000000980000
#03013:8Z000000006800000069000000006C0000006D00000000960000000098000000
#03015:2N000067000000002N000000C90000000091000000000000CB000000CC000000
#03018:008Z00000000009000006A000000006C0000006D00000000006F009700000000
#03019:000067000000C80000000000006B00000000CA00000096000000970000009900
#03101:00
#03101:00
#03101:00
#03101:00
#03101:00
#03101:00
#03101:2N
#03101:002Y002Y
#03101:00004Z0000004Z0000004Z000000504Z
#03101:00GBGC0000GBGC00
#03101:000000NZ
#03101:NGNGNGNH
#03101:00
#03101:00
#03101:00
#03101:00009A00009B00009C00009D009E009F
#03106:090A0B0C0D0E0F0G0H0I0J0K0L0M0N0O0P0Q0R0S0T0U0V0W
#03111:000000510000000053000000000000560000000058000000CH00000000005C00
#03112:8V000000005200000053000000550000008X000000008Y0000005A00005B0000
#03113:360052002N0055008X57000059005B00
#03115:008V000000008W00000054000000560000000057000000002N00005A00000000
#03118:CD0000000000CE0000000054000000002N00000000580000005900000000005C
#03119:000051000000008W00000000CF0000000000CG000000008Y00000000CI000000
#03201:00
#03201:00
#03201:00
#03201:00
#03201:00
#03201:00
#03201:0000000000002X2X
#03201:002Y0000
#03201:00004Z0000004Z0000004Z000000504Z
#03201:00GBGC0000GBGC00
#03201:000000NZ
#03201:NGNGNGNI
#03201:00
#03201:00
#03201:00
#03201:00009G00009H00009I00009J009K009L
#03206:0X0Y0Z101112131415161718030405060708090A0B0C0D0E
#03211:00005M0000009000005O0000005Q000091000000005T00005U00000000940000
#03212:008Z00000000009000005P0000005R000000005S00000000005U000000009500
#03213:CJ000000005N000000000000CL00000000005S0000000000CN00009300000095
#03215:2N00005M000000002N00005P0000005R009100000000009200000000CO000000
#03218:005N5O002N5T2Y94
#03219:8Z0000CK00005Q0000CM009200930000
#03301:00
#03301:00
#03301:00
#03301:00
#03301:00
#03301:0034003400340033
#03301:00
#03301:002Y002Y
#03301:00004Z0000004Z0000004Z000000504Z
#03301:00GD00GD00GBGB00
#03301:000000NZ
#03301:NGNGNGNH
#03301:00
#03301:00
#03301:00
#03301:00009M00009N0000A00000A100A200A3
#03306:0F0G0H0I0J0K0L0M0N0O0P0Q0R0S0T0U0V0W0X0Y0Z101112
#03311:8V00000000008W0000005Y000000006000006G000000008Y00006J0000000000
#03312:0000005V000000005X00000000006000000000006H0000006I0000006K00006L
#03313:00005V000000008W0000005Y00000000008X0000006H0000006I000000006L00
#03315:2N000000005W0000005X0000005Z00008X00000000008Y000000006J00000000
#03318:008V00000000CQ00000000005Z0000002N00006G000000002N000000006K0000
#03319:CP005W002N00CR0000CS0000CT00CU00
#03401:00
#03401:00
#03401:00
#03401:00
#03401:000000000000000000000000003D3E3F
#03401:OCODOEOFO7O83200
#03401:2X00002X00002X00002X00002W2W2W2W
#03401:002Y002Y
#03401:00004Z0000004Z0000004Z000000504Z
#03401:00GBGBGBGBGBGC00
#03401:000000NZ
#03401:NGNGNGNI
#03401:006M6N006O6P6Q6R006S6T006U000000
#03401:8Z000090000000009100009600979899
#03401:00
#03401:0000A40000A50000A60000A700A800A9
#03406:131415161718030405060708090A0B0C0D0E0F0G0H0I0J0K
#03411:3800003900003A00003B00003C000000
#03413:00000000000000D0
#03415:CV0000CW0000000000000000CZ000000
#03418:000000000000CX0000CY000000000000
#03501:00
#03501:00
#03501:00
#03501:00
#03501:00
#03501:00
#03501:00
#03501:002Y002Y
#03501:00004Z0000004Z0000004Z000000504Z
#03501:00GBGC0000GBGC00
#03501:000000NZ
#03501:NGNGNGNH
#03501:00
#03501:00
#03501:00
#03501:00009A00009B00009C00009D009E009F
#03506:0L0M0N0O0P0Q0R0S0T0U0V0W0X0Y0Z101112131415161718
#03511:2N0000000000008W0000000055000000008X000000000000590000005B000000
#03512:008V000000008W00000000540000005600000057000000002N00005A00000000
#03513:000051000000BQ0000005400000000008X0000005800008Y00000000BU000000
#03515:8V0000000052000000530000000056000000570000008Y00BT000000005B0000
#03518:36000051000000002N000000BR0000002N00000000580000005900000000005C
#03519:BP0000005200000053000000005500000000BS000000000000005A0000005C00
#03601:00
#03601:00
#03601:00
#03601:00
#03601:00
#03601:00
#03601:0000000000002X2X
#03601:002Y0000
#03601:00004Z0000004Z0000004Z000000504Z
#03601:00GBGC0000GBGC00
#03601:000000NZ
#03601:NGNGNGNI
#03601:00
#03601:00
#03601:00
#03601:00009G00009H00009I00009J009K009L
#03606:030405060708090A0B0C0D0E0F0G0H0I0J0K0L0M0N0O0P0Q
#03611:8Z0000005N0000005O0000005Q000000009100005T0000000000930000009500
#03612:2N00005M000000002N00000000005R000000BY00005T0000005U000000000095
#03613:008Z0000000000900000005P0000005R00000000000092002Y00000094000000
#03615:BV000000005N0000005O0000005Q00002N0000000000009200000000C0000000
#03618:000000000000900000005P00000000009100005S00000000BZ00000000940000
#03619:00005M000000BW0000000000BX00000000005S00000000005U00009300000000
#03701:00
#03701:00
#03701:00
#03701:00
#03701:00
#03701:00
#03701:00
#03701:002Y002Y
#03701:00004Z0000004Z0000004Z000000504Z
#03701:00GD00GD00GBGB00
#03701:000000NZ
#03701:NGNGNGNH
#03701:00
#03701:00
#03701:00
#03701:00009M00009N00009O00009P009Q009R
#03706:0R0S0T0U0V0W0X0Y0Z101112131415161718030405060708
#03711:008V0000000000005X0000005Z000000000061000000008Y0000000065000000
#03712:000000005W0000002N000000000000600000006100008Y000000640000000000
#03713:8V000000005W0000005X0000005Z00008X000000006200000063000000000000
#03715:2N00005V0000008W00000000C30000000000C400000000006300006400000066
#03718:00005V0000008W0000005Y0000006000008X0000000000002N000000C6006600
#03719:C10000000000C2000000005Y000000002N00000062000000C500000000650000
#03801:00
#03801:00
#03801:00
#03801:00
#03801:00
#03801:00333333O7O83200
#03801:00000000002X2X2X
#03801:002Y0000
#03801:00004Z0000004Z0000004Z000000504Z
#03801:00GBGBGBGBGBGC00
#03801:000000NZ
#03801:NGNGNGNI
#03801:00
#03801:00
#03801:00
#03801:00009S00009T00009U00009V009W009X
#03806:090A0B0C0D0E0F0G0H0I0J0K0L0M0N0O0P0Q0R0S0T0U0V0W
#03811:8Z68696B916E6F98
#03812:2N000000006800000000006A0000006C0000006D006E0000006F000000000099
#03813:C7000000000090000069000000006C0000006D00000096000000000000980000
#03815:000000670000009000006A000000000000910000000000960000970000009900
#03818:006700C80000C9002X000000CB00CC00
#03819:008Z0000000000002N000000006B00000000CA00000000002Y00009700000000
#03901:00
#03901:00
#03901:00
#03901:00
#03901:00
#03901:00
#03901:00
#03901:002Y002Y
#03901:00004Z0000004Z0000004Z000000504Z
#03901:00GBGC0000GBGC00
#03901:000000NZ
#03901:NGNGNGNH
#03901:00
#03901:00
#03901:00
#03901:00009A00009B00009C00009D009E009F
#03906:0X0Y0Z101112131415161718030405060708090A0B0C0D0E
#03911:8V00005100000000530000000055000000000000580000002N000000005B0000
#03912:0000000000008W0000530000000056000000CG00000000005900005A00000000
#03913:008V00000000008W0000005400000056008X000000008Y0000005A000000005C
#03915:000051000052000000005400000000002N00005700000000CH0000005B000000
#03918:2N0000000000CE0000000000550000008X000000005800000059000000005C00
#03919:CD000000520000002N000000CF000000000057000000008Y00000000CI000000
#04001:00
#04001:00
#04001:00
#04001:00
#04001:00
#04001:00
#04001:000000000000002X
#04001:002Y002Y
#04001:00004Z0000004Z0000004Z000000504Z
#04001:00GBGC0000GBGC00
#04001:000000NZ
#04001:NGNGNGNI
#04001:00
#04001:00
#04001:00
#04001:00009G00009H00009I00009J009K009L
#04006:0F0G0H0I0J0K0L0M0N0O0P0Q0R0S0T0U0V0W0X0Y0Z101112
#04011:2N0000000000900000005P000000000091000000005T00005U00000000009500
#04012:8Z000000005N00002N000000005Q00000000CM0000009200005U000000940000
#04013:0000005M000000005O00005P0000000000910000000000920000930000000000
#04015:008Z000000000090000000005Q0000002N005S00000000002X00000094000095
#04018:00005M000000CK0000000000CL00005R0000005S00000000CN000000CO000000
#04019:CJ0000005N000000005O000000005R00000000005T0000003700009300000000
#04101:00
#04101:00
#04101:00
#04101:00
#04101:00
#04101:0034003400340033
#04101:00
#04101:002Y002Y
#04101:00004Z0000004Z0000004Z000000504Z
#04101:00GD00GD00GBGB00
#04101:000000NZ
#04101:NGNGNGNH
#04101:00
#04101:00
#04101:00
#04101:00009M00009N0000A00000A100A200A3
#04106:131415161718030405060708090A0B0C0D0E0F0G0H0I0J0K
#04111:008V00000000CQ00005X0000000000600000CS0000008Y0000006J0000000000
#04112:8V000000005W000000005Y000000600000006G00000000006I0000006K00006L
#04113:2N00000000008W000000005Y000000008X000000006H0000006I000000006L00
#04115:00005V000000008W000000005Z000000008X000000000000CT000000006K0000
#04118:CP0000005W0000005X000000CR0000002N00006G0000008Y00000000CU000000
#04119:3600005V000000002N000000005Z0000360000006H0000002N00006J00000000
#04201:00
#04201:00
#04201:00
#04201:00
#04201:00
#04201:00
#04201:2O00002P2P2P2Q00000000002S00002T2T2T2U00002V0000
#04201:002Y002Y
#04201:004Z004Z004Z0000
#04201:00GBGBGBGBGBGC00
#04201:000000NZ
#04201:NGNGNGNI
#04201:0000000000006Q00006S00006U000000
#04201:8Z000090000000000000000000979899
#04201:00
#04201:0000A40000A50000A60000A700A800A9
#04206:0L0M0N0O0P0Q0R0S0T0U0V0W0X0Y0Z101112131415161718
#04211:38000000OE003A00003B00003C000000
#04212:000000390000OF0000006T000000D000
#04213:00006N00006P006R0000O800003D004Z
#04215:006M00006O000000910000003200003F
#04218:OC0000CW00002R00O700009600003E00
#04219:CV00OD000000CX0000CY0000CZ005000
#04301:00
#04301:00
#04301:00
#04301:4Y
#04306:030405060708090A0B0C0D0E0F0G0H0I0J0K0L0M0N0O0P0Q
#04311:4X
#04312:35
#04318:2N
#04406:0R0S0T0U0V0W0X0Y0Z101112131415161718030405060708
#04411:0000000000GE0000
#04413:000000GF
#04415:00000000000000GG
#04506:090A0B0C0D0E0F0G0H0I0J0K0L0M0N0O0P0Q0R0S0T0U0V0W
#04511:0000000000GI0000
#04513:000000GJ
#04515:00000000000000GK
#04518:GH
#04606:0X0Y0Z101112131415161718030405060708090A0B0C0D0E
#04611:00GM
#04613:0000000000GN0000
#04615:000000GO
#04618:GL000000000000GP
#04706:0F0G0H0I0J0K0L0M0N0O0P0Q0R0S0T0U0V0W0X0Y0Z101112
#04711:0000000000GV0000
#04712:000000GW
#04713:000000GT000000GX
#04715:00GR0000GU000000
#04718:00GS0000
#04719:GQ
#04806:131415161718030405060708090A0B0C0D0E0F0G0H0I0J0K
#04811:0000000000GY0000
#04812:000000GZ
#04813:00000000000000H0
#04906:0L0M0N0O0P0Q0R0S0T0U0V0W0X0Y0Z101112131415161718
#04912:00H2
#04915:0000000000H30000
#04918:H10000H4
#04919:00000000000000H5
#05006:030405060708090A0B0C0D0E0F0G0H0I0J0K0L0M0N0O0P0Q
#05011:00H6
#05013:0000000000H70000
#05015:000000H8
#05019:00000000000000H9
#05106:0R0S0T0U0V0W0X0Y0Z101112131415161718030405060708
#05111:000000HF
#05112:0000HB00000000HG
#05113:00HA000000HE0000
#05115:00HD
#05118:000000HC00000000
#05206:090A0B0C0D0E0F0G0H0I0J0K0L0M0N0O0P0Q0R0S0T0U0V0W
#05211:0000000000HL0000
#05212:000000HM
#05213:00HK
#05215:000000HJ000000HN
#05218:00HI0000
#05219:00HH000000000000
#05301:00
#05301:05
#05301:00
#05301:4Y
#05301:00
#05301:00
#05301:00
#05301:00
#05301:00
#05301:00
#05301:00
#05301:00
#05301:00
#05301:00
#05301:3G3H3I3J3K3L003M
#05306:0X0Y0Z101112131415161718030405060708090A0B0C0D0E
#05311:4X00000000HP0050
#05312:2N0000002Y00000000004Z000000004Z
#05313:004Z00000000HQ00
#05315:0000004Z00002Y00
#05318:HO
#05319:36000000000000HR
#05401:00
#05401:00
#05401:00
#05401:00
#05401:00
#05401:00
#05401:00
#05401:00
#05401:00
#05401:00
#05401:00
#05401:00
#05401:00
#05401:00
#05401:003N3O3P3Q3R003S
#05406:0F0G0H0I0J0K0L0M0N0O0P0Q0R0S0T0U0V0W0X0Y0Z101112
#05411:004Z0000HT003700
#05412:00000000004Z0000
#05413:3600000000HU0050
#05415:2N00004Z00002YHW
#05418:HS0000000000000000000000HV00004Z
#05419:002Y002X
#05501:00
#05501:00
#05501:00
#05501:00
#05501:00
#05501:00
#05501:00
#05501:00
#05501:00
#05501:00
#05501:00
#05501:00
#05501:00
#05501:00
#05501:3T3U3V3W3X3Y003Z
#05506:131415161718030405060708090A0B0C0D0E0F0G0H0I0J0K
#05511:3600000000004Z0000004Z000000004Z
#05512:HX002Y0000I20000
#05513:004Z0000I1002Y00
#05515:00HZ00I3
#05518:00HY000000000050
#05519:2N0000I0000000I4
#05601:00
#05601:00
#05601:00
#05601:00
#05601:00
#05601:00
#05601:00
#05601:00
#05601:00
#05601:00
#05601:00
#05601:00
#05601:00
#05601:00
#05601:0040414243440045
#05606:0L0M0N0O0P0Q0R0S0T0U0V0W0X0Y0Z101112131415161718
#05611:0000004Z00003700
#05612:36000000000000000000I5000000004Z
#05613:004Z0000004Z0050
#05615:2N00372Y
#05618:00002NI6
#05619:00002Y0000002NI7
#05701:00
#05701:00
#05701:NJNJNJNJNJNJNJNJNJNJNJNJNJNJNJNJ
#05701:00
#05701:00
#05701:00
#05701:00
#05701:00
#05701:00
#05701:00
#05701:00
#05701:00
#05701:00
#05701:00
#05701:464748494A4B004C
#05706:030405060708090A0B0C0D0E0F0G0H0I0J0K0L0M0N0O0P0Q
#05711:2X2X2X2X2X2X2X2X
#05712:00000000I90000IC
#05713:004Z000000IA0050
#05715:360000000000000000004Z000000004Z
#05718:I800004Z00002Y00
#05719:002Y00IB
#05801:00
#05801:00
#05801:NJNJNJNJNJNJNJNJNJNJNJNJNJNJNJNJ
#05801:00
#05801:00
#05801:00
#05801:00
#05801:00
#05801:00
#05801:00
#05801:00
#05801:00
#05801:00
#05801:00
#05801:004D4E4F4G4H004I
#05806:0R0S0T0U0V0W0X0Y0Z101112131415161718030405060708
#05811:2X2X2X2X2X2X2X2X
#05812:000000000000000000004Z000000004Z
#05813:0000004Z00002Y00
#05815:00002Y00ID00IF50
#05818:36000000000000IG
#05819:004Z000000IE0000
#05901:00
#05901:00
#05901:NJNKNLNMNNNONPNQNRNSNTNUNVNWNXNY
#05901:00
#05901:00
#05901:00
#05901:00
#05901:00
#05901:00
#05901:00
#05901:00
#05901:00
#05901:00
#05901:00
#05901:4J4K4L4M4N4O004P
#05906:090A0B0C0D0E0F0G0H0I0J0K0L0M0N0O0P0Q0R0S0T0U0V0W
#05911:00II362Y
#05912:000000002Y00000000004Z000000004Z
#05913:3600004Z00IL0050
#05915:004Z00IJ0000IM00
#05918:00IH0000IK0000IN
#05919:2X2X2X2X2X2X2X2X
#06001:00
#06001:00
#06001:NYNYNYNYNYNYNYNYNYNYNYNYNYNYNYNY
#06001:00
#06001:00
#06001:00
#06001:00
#06001:00
#06001:00
#06001:00
#06001:00
#06001:00
#06001:00
#06001:00
#06001:004Q4R4S4T4U4V4W
#06006:0X0Y0Z101112131415161718030405060708090A0B0C0D0E
#06011:37000000370000003800003900000000
#06012:00004Z0000004Z00000000002Y00004Z
#06013:00IOIP00IR00IT38
#06015:002W00000000IQ000000IS000000IU00
#06018:0000OB00004Z0050
#06019:2W002X002Y0000002X00002X00002X00
#06101:00
#06101:00
#06101:4X
#06101:4Y
#06106:0F0G0H0I0J0K0L0M0N0O0P0Q0R0S0T0U0V0W0X0Y0Z101112
#06111:2N
#06115:35
#06206:131415161718030405060708090A0B0C0D0E0F0G0H0I0J0K
#06211:O0
#06301:03
#06301:06
#06301:00
#06301:4X
#06301:00
#06301:00
#06301:00
#06301:002Y002Y
#06301:00004Z0000004Z0000004Z000000504Z
#06301:00GBGC0000GBGC00
#06301:000000NZ
#06301:NGNGNGNH
#06301:00
#06301:00
#06301:00
#06301:0000AA0000AB0000AC0000AD00AE00AF
#06306:0L0M0N0O0P0Q0R0S0T0U0V0W0X0Y0Z101112131415161718
#06311:8V005200530055008X00008Y005A0000
#06312:2N000000005200000053000000005600000057000000000059000000005B0000
#06313:008V000000008W000000005400000056000000570000008Y000000005B00005C
#06315:00005100000000002N00000000550000008X0000580000002N00005A00000000
#06318:350000510000008W00000000D30000000000D40000000000D5000000D6000000
#06319:D10000000000D20000005400000000002N000000005800000059000000005C00
#06401:00
#06401:00
#06401:00
#06401:00
#06401:00
#06401:00
#06401:0000000000002X2X
#06401:002Y0000
#06401:00004Z0000004Z0000004Z000000504Z
#06401:00GBGC0000GBGC00
#06401:000000NZ
#06401:NGNGNGNI
#06401:00
#06401:00
#06401:00
#06401:0000AG0000AH0000AI0000AJ00AK00AL
#06406:030405060708090A0B0C0D0E0F0G0H0I0J0K0L0M0N0O0P0Q
#06411:8Z000000006W0000006X00000000007000000071000000920000009300000000
#06412:008Z00000000900000006Y000000700000007100000000007300000094000000
#06413:000000000000D8000000006Y0000000091000000000092000000930000009500
#06415:2N00006V000000002N000000006Z000000910000007200000073000000940000
#06418:D70000006W0000006X000000D90000000000DA00000000002Y000000DC000095
#06419:00006V0000000090000000006Z0000002N00000072000000DB00000000000000
#06501:00
#06501:00
#06501:00
#06501:00
#06501:00
#06501:00
#06501:00
#06501:002Y002Y
#06501:00004Z0000004Z0000004Z000000504Z
#06501:00GD00GD00GBGB00
#06501:000000NZ
#06501:NGNGNGNH
#06501:00
#06501:00
#06501:00
#06501:0000AM0000AN0000AO0000AP00AQ00AR
#06506:0R0S0T0U0V0W0X0Y0Z101112131415161718030405060708
#06511:8V00750076000079007A00007C007E00
#06512:2N0000000075000000760000007800000000DG000000008Y0000007D00000000
#06513:008V00000000008W0000007700000000008X000000008Y0000007D0000007F00
#06515:0000740000008W0000000000780000002N00007A000000002N0000000000007F
#06518:00000074000000002N000000DF0000008X000000007B0000007C0000007E0000
#06519:DD0000000000DE000000770000000079000000007B000000DH000000DI000000
#06601:00
#06601:00
#06601:00
#06601:00
#06601:00
#06601:00
#06601:00000000002X2X2X
#06601:002Y0000
#06601:00004Z0000004Z0000004Z000000504Z
#06601:00GBGBGBGBGBGC00
#06601:000000NZ
#06601:NGNGNGNI
#06601:00
#06601:00
#06601:00
#06601:0000AS0000AT0000AU0000AV00AW00AX
#06606:090A0B0C0D0E0F0G0H0I0J0K0L0M0N0O0P0Q0R0S0T0U0V0W
#06611:2N7H7I7K917N7O98
#06612:8Z000000007H0000007I00000000007L00007M00000000960000009700000099
#06613:00007G00000090000000007J00007L000000007M000000002Y00000000009900
#06615:0000007G000000002N000000007K000000910000007N0000007O000000980000
#06618:008Z00000000DK0000007J00000000002X000000000096000000970000000000
#06619:DJ0000000000009000000000DL0000000000DM0000000000DN000000DO000000
#06701:00
#06701:00
#06701:00
#06701:00
#06701:00
#06701:00
#06701:00
#06701:002Y002Y
#06701:00004Z0000004Z0000004Z000000504Z
#06701:00GBGC0000GBGC00
#06701:000000NZ
#06701:NGNGNGNH
#06701:00
#06701:00
#06701:00
#06701:0000AY0000AZ0000B00000B100B200B3
#06706:0X0Y0Z101112131415161718030405060708090A0B0C0D0E
#06711:8V00000000008W000000007S000000008X000000007W0000007X000000008000
#06712:000000007Q00008W000000007T00007U0000007V000000007X000000007Z0000
#06713:007P00002N00007U007V00002N007Z00
#06715:008V00000000DQ00007R0000007T0000008X00007W000000DT000000DU000000
#06718:2N00007P000000007R000000DR0000000000DS000000008Y0000007Y00000000
#06719:DP000000007Q000000007S00000000002N00000000008Y0000007Y0000000080
#06801:00
#06801:00
#06801:00
#06801:00
#06801:00
#06801:00
#06801:0000000000002X2X
#06801:002Y0000
#06801:00004Z0000004Z0000004Z000000504Z
#06801:00GBGC0000GBGC00
#06801:000000NZ
#06801:NGNGNGNI
#06801:00
#06801:00
#06801:00
#06801:0000B40000B50000B60000B700B800B9
#06806:0F0G0H0I0J0K0L0M0N0O0P0Q0R0S0T0U0V0W0X0Y0Z101112
#06811:008Z000000000000830000000085000000000087000000008900000094000000
#06812:0000810000009000000084000000008600008700000000002Y000000E0000000
#06813:2N0000810000009000000000850000002N000000008800000089000000009500
#06815:8Z000000820000002N000000DX00000091000000880000920000009300000095
#06818:DV0000000000DW00000000840000000000910000000092000000930000000000
#06819:000000000082000000830000000086000000DY0000000000DZ00000000940000
#06901:00
#06901:00
#06901:00
#06901:00
#06901:00
#06901:00
#06901:2N
#06901:002Y002Y
#06901:00004Z0000004Z0000004Z000000504Z
#06901:00GD00GD00GBGB00
#06901:000000NZ
#06901:NGNGNGNH
#06901:00
#06901:00
#06901:00
#06901:0000BA0000BB0000BC0000BD00BE00BF
#06906:131415161718030405060708090A0B0C0D0E0F0G0H0I0J0K
#06911:8V0000008B00008W0000008D00000000008X000000008Y0000008J0000000000
#06912:0000008A000000002N000000008E000000008G00000000008I000000008K0000
#06913:00008A00000000008C0000008E00008F000000008H0000002N00008J0000008L
#06915:008V000000008W00008C000000008F000000E4000000008Y00000000E6000000
#06918:E10000000000E20000008D00000000002N000000008H0000008I000000008L00
#06919:36000000008B000000000000E30000008X00008G00000000E50000008K000000
#07001:00
#07001:00
#07001:00
#07001:00
#07001:00
#07001:00
#07001:0000000000000000000000002W2W2W2W
#07001:0000002Y
#07001:00004Z0000004Z0000004Z000000504Z
#07001:00GBGBGBGBGBGC00
#07001:000000NZ
#07001:NGNGNGNI
#07001:008M8N008O8P8Q8R008S8T008U000000
#07001:00
#07001:00
#07001:0000BG00000000000000000000BL00BM
#07006:0L0M0N0O0P0Q0R0S0T0U0V0W0X0Y0Z101112131415161718
#07011:E70000002Y0000000000000039000099
#07012:000000002N000098
#07013:000000E80000E900EA00EB0000970000
#07015:2N00000000BH00BI00BJ00BK00000000
#07018:000000900000000091000000EC000000
#07019:8Z0000002N000000000000960000ED00
#07101:00
#07101:00
#07101:00
#07101:00
#07101:00
#07101:00
#07101:00
#07101:002Y002Y
#07101:00004Z0000004Z0000004Z000000504Z
#07101:00GBGC0000GBGC00
#07101:000000NZ
#07101:NGNGNGNH
#07101:00
#07101:00
#07101:00
#07101:0000AA0000AB0000AC0000AD00AE00AF
#07106:030405060708090A0B0C0D0E0F0G0H0I0J0K0L0M0N0O0P0Q
#07111:008V0000005200005300000000000056000000570000008Y00000000005B0000
#07112:000051000000008W00000000D30000002N00000058000000590000005B000000
#07113:8V00000000008W00000054000055000000005700000000002N00005A0000005C
#07115:2N0000510000000000530000000056000000D40000000000D5000000D6000000
#07118:36000000520000002N00000055000000008X0000005800000059000000005C00
#07119:D10000000000D20000000054000000008X00000000008Y0000005A0000000000
#07201:00
#07201:00
#07201:00
#07201:00
#07201:00
#07201:00
#07201:0000000000002X2X
#07201:002Y0000
#07201:00004Z0000004Z0000004Z000000504Z
#07201:00GBGC0000GBGC00
#07201:000000NZ
#07201:NGNGNGNI
#07201:00
#07201:00
#07201:00
#07201:0000AG0000AH0000AI0000AJ00AK00AL
#07206:0R0S0T0U0V0W0X0Y0Z101112131415161718030405060708
#07211:8Z0000006W0000006X000000006Z000000007100000000920000000094000000
#07212:008Z00000000009000006Y000000007000000071000000007300009300000000
#07213:00000000006W00000000006Y0000000091000000007200002Y00000000940000
#07215:2N00000000009000006X0000000070000000DA0000000000DB000000DC000000
#07218:006V00D800006Z002N00720000930095
#07219:D700006V000000002N000000D900000000910000000092000073000000000095
#07301:00
#07301:00
#07301:00
#07301:00
#07301:00
#07301:00
#07301:00
#07301:002Y002Y
#07301:00004Z0000004Z0000004Z000000504Z
#07301:00GD00GD00GBGB00
#07301:000000NZ
#07301:NGNGNGNH
#07301:00
#07301:00
#07301:00
#07301:0000AM0000AN00AO0000AP0000AQ00AR
#07306:090A0B0C0D0E0F0G0H0I0J0K0L0M0N0O0P0Q0R0S0T0U0V0W
#07311:8V0000007500000000760000780000002N000000007B00007C000000007E0000
#07312:2N0000000075000076000000000000008X00007A00000000007C00007E000000
#07313:008V000000008W000000007700000000EH00000000008Y0000007D000000007F
#07315:EE0000000000EF000000770000780000008X00000000EI000000007D00000000
#07318:000000740000008W00000000EG000079000000007B0000002N000000EJ000000
#07319:00007400000000002N0000000000790000007A000000008Y0000000000007F00
#07401:00
#07401:00
#07401:0000AS0000AT000000AU00AV00AW00AX
#07401:00
#07401:00
#07401:00
#07401:00000000002X2X2X
#07401:002Y0000
#07401:00004Z0000004Z0000004Z000000504Z
#07401:00GBGBGBGBGBGC00
#07401:000000NZ
#07401:NGNGNGNI
#07406:0X0Y0Z101112131415161718030405060708090A0B0C0D0E
#07411:008Z00000000EL00007I00000000007L00007M00000000960000009700000000
#07412:8Z0000000000009000007J000000000091000000007N0000007O000000009900
#07413:00000000007H00002N0000007K0000002X0000007N0000007O00000098000000
#07415:2N00007G000090000000007J00007L000000007M000000002Y000000EQ000000
#07418:EK0000007H00000000000000EM000000EN000000EO000000EP00000000980000
#07419:00007G00000000007I000000007K000000910000000096000000970000000099
#07501:00
#07501:00
#07501:00
#07501:00
#07501:00
#07501:00
#07501:00
#07501:002Y002Y
#07501:00004Z0000004Z0000004Z000000504Z
#07501:00GBGC0000GBGC00
#07501:000000NZ
#07501:NGNGNGNH
#07501:00
#07501:00
#07501:00
#07501:0000AY0000AZ0000B00000B100B200B3
#07506:0F0G0H0I0J0K0L0M0N0O0P0Q0R0S0T0U0V0W0X0Y0Z101112
#07511:2N00000000008W00000000007T00000000007V000000008Y00007Y0000008000
#07512:00007P000000008W0000007S000000008X000000007W00007X00000000000080
#07513:8V000000007Q00007R000000007T0000008X00007W0000002N00007Y00000000
#07515:ER0000007Q000000007R000000007U000000EU0000000000007X0000007Z0000
#07518:008V00000000ES0000007S000000007U0000007V00000000EV0000007Z000000
#07519:0000007P000000002N000000ET0000002N00000000008Y0000000000EW000000
#07601:00
#07601:00
#07601:00
#07601:00
#07601:00
#07601:00
#07601:000000000000002X
#07601:002Y002Y
#07601:00004Z0000004Z0000004Z000000504Z
#07601:00GBGC0000GBGC00
#07601:000000NZ
#07601:NGNGNGNI
#07601:00
#07601:00
#07601:00
#07601:0000B40000B50000B60000B700B800B9
#07606:131415161718030405060708090A0B0C0D0E0F0G0H0I0J0K
#07611:000081000000009000000084000000002N000000880000008900000000940000
#07612:0000000082000000830000000085000000910000000092000000009300009500
#07613:8Z00000000009000000084000000860000008700000000000089000094000000
#07615:2N00000000820000008300000000008600000087000000920000930000000000
#07618:EX000081000000002N000000850000000000F00000000000F1000000F2000000
#07619:008Z00000000EY0000000000EZ00000091000000008800002X00000000000095
#07701:00
#07701:00
#07701:00
#07701:00
#07701:00
#07701:00
#07701:002X2N00002X2N00
#07701:002Y0000
#07701:00004Z0000004Z0000004Z000000504Z
#07701:00GD00GD00GBGB00
#07701:000000NZ
#07701:NGNGNGNH
#07701:00
#07701:00
#07701:00
#07701:0000BA0000BB0000BC0000BD00BE00BF
#07706:0L0M0N0O0P0Q0R0S0T0U0V0W0X0Y0Z101112131415161718
#07711:008V000000008W0000008D00000000008X000000008H00008I000000008K0000
#07712:0000008A0000008W0000008D00000000008X000000008Y0000008J0000000000
#07713:2X0000008B000000008C000000008F0000008G000000008Y008I000000008L00
#07715:8V000000008B00008C0000008E0000002X0000008H0000002Y0000008K000000
#07718:F30000000000F40000000000F500008F0000008G00000000F7000000F800008L
#07719:00008A000000000036000000008E00000000F600000000003700008J00000000
#07801:00
#07801:00
#07801:00
#07801:00
#07801:00
#07801:OCODOEOFO7O83200
#07801:2O00002P2P2P2Q00002R00002S00002T2T2T2U00002V0000
#07801:00
#07801:00004Z0000004Z0000004Z000000504Z
#07801:00GBGBGBGBGBGC00
#07801:000000NZ
#07801:NGNGNGNI
#07801:00
#07801:00
#07801:00
#07801:0000BG0000BH00BI00BJ00BK00BL00BM
#07801:00
#07801:00NF
#07806:030405060708090A0B0C0D0E0F0G0H0I0J0K0L0M0N0O0P0Q
#07811:8Z00000000000090000000008Q000000FC00000000009600008U000000000099
#07812:008Z00000000FA0000008P0000000000370000008T0000008U00000098000000
#07813:00008M00000090000000008P000000009100008S000000960000000000980000
#07815:360000008N000000008O000000008R0000008S00000000002Y00009700000000
#07818:0000008M000000002Y000000FB00008R00000000008T000037000000FE000000
#07819:F9000000008N00008O000000008Q0000009100000000FD000000970000009900
#07901:00
#07901:IVIWIXIY00IZJ0J1
#07901:00
#07901:00
#07901:00
#07901:00
#07901:00
#07901:00
#07901:00
#07901:00GBGC0000GBGC00
#07901:000000NZ
#07901:NGNGNGNH
#07901:005152005354555600575800595A5B5C
#07901:8V00008W000000008X00008Y00000000
#07901:00
#07901:0000AA0000AB0000AC0000AD00AE00AF
#07906:0R0S0T0U0V0W0X0Y0Z101112131415161718030405060708
#07911:0000004Z00002N00
#07912:D10000D2000000000000000000000000
#07913:2N0000002N00000000004Z000000004Z
#07915:350000000000D30000D400002Y000000
#07918:00002Y002N00D5D6
#07919:004Z000000000050
#08001:00
#08001:J2J3J4J5
#08001:00
#08001:00
#08001:00
#08001:00
#08001:00
#08001:00
#08001:00
#08001:00GBGC0000GBGC00
#08001:000000NZ
#08001:NGNGNGNI
#08001:006V6W006X6Y6Z700071720073000000
#08001:8Z000090000000009100009200939495
#08001:00
#08001:0000AG0000AH0000AI0000AJ00AK00AL
#08006:090A0B0C0D0E0F0G0H0I0J0K0L0M0N0O0P0Q0R0S0T0U0V0W
#08011:D70000D8000000000000000000005000
#08012:2N000000004Z002X
#08013:00004Z000000D90000DA00000000004Z
#08015:00002N002N00DBDC
#08018:002Y002X
#08019:0000004Z00002Y00
#08101:00
#08101:J6J7J8J900JAJBJC
#08101:00
#08101:00
#08101:00
#08101:00
#08101:00
#08101:00
#08101:00
#08101:00GD00GD00GBGB00
#08101:000000NZ
#08101:NGNGNGNH
#08101:0074750076777879007A7B007C7D7E7F
#08101:8V00008W000000008X00008Y00000000
#08101:00
#08101:0000AM0000AN0000AO0000AP00AQ00AR
#08106:0X0Y0Z101112131415161718030405060708090A0B0C0D0E
#08111:00002N000000DHDI
#08112:004Z000000000000
#08113:000000DE0000DF0000004Z0000005000
#08115:000000002Y00000000DG00000000004Z
#08118:2N00004Z00002Y00
#08119:DD002N2N
#08201:00
#08201:JD00JE00JF00JGJH
#08201:00
#08201:00
#08201:00
#08201:00
#08201:00
#08201:00
#08201:00
#08201:00GBGBGBGBGBGC00
#08201:000000NZ
#08201:NGNGNGNI
#08201:007G7H007I7J7K7L007M7N007O000000
#08201:8Z000090000000009100009600979899
#08201:00
#08201:0000AS0000AT0000AU0000AV00AW00AX
#08206:0F0G0H0I0J0K0L0M0N0O0P0Q0R0S0T0U0V0W0X0Y0Z101112
#08211:00OD004Z002X002X
#08212:2N0000DK0000OF0000DM00002Y00DO00
#08213:004Z2Y002X002X00
#08215:002NO732
#08218:DJ0000000000DL0000004Z00DN00004Z
#08219:OC00OE0000O80050
#08301:00
#08301:00JIJJJK00JLJMJN
#08301:00
#08301:00
#08301:00
#08301:00
#08301:00
#08301:00
#08301:00
#08301:00GBGC0000GBGC00
#08301:000000NZ
#08301:NGNGNGNH
#08301:007P7Q007R7S7T7U007V7W007X7Y7Z80
#08301:8V00008W000000008X00008Y00000000
#08301:00
#08301:0000AY0000AZ0000B00000B100B200B3
#08306:131415161718030405060708090A0B0C0D0E0F0G0H0I0J0K
#08311:002N2N00
#08312:004Z000000002N00
#08313:DP0000DQ0000000000004Z000000004Z
#08315:2N0000000000DR0000DS000000005000
#08318:002Y002Y
#08319:0000004Z0000DTDU
#08401:00
#08401:JO00JP00JQ00JRJS
#08401:00
#08401:00
#08401:00
#08401:00
#08401:00
#08401:00
#08401:00
#08401:00GBGC0000GBGC00
#08401:000000NZ
#08401:NGNGNGNI
#08401:00818200838485860087880089000000
#08401:8Z000090000000009100009200939495
#08401:00
#08401:0000B40000B50000B60000B700B800B9
#08406:0L0M0N0O0P0Q0R0S0T0U0V0W0X0Y0Z101112131415161718
#08411:DV0000DW00000000000000002X000000
#08412:2N2N2N2Y
#08413:000000000000DX0000DY00000000004Z
#08415:004Z0000004Z002X
#08418:0000004Z0000DZE0
#08419:00002Y0000000050
#08501:00
#08501:000000JTJU0000JV
#08501:00
#08501:00
#08501:00
#08501:00
#08501:00
#08501:00
#08501:00
#08501:00GD00GD00GBGB00
#08501:000000NZ
#08501:NGNGNGNH
#08501:008A8B008C8D8E8F008G8H008I8J8K8L
#08501:8V00008W000000008X00008Y00000000
#08501:00
#08501:0000BA0000BB0000BC0000BD00BE00BF
#08506:030405060708090A0B0C0D0E0F0G0H0I0J0K0L0M0N0O0P0Q
#08511:36002N000000E5E6
#08512:2N0000E200004Z000000000000000000
#08513:00004Z000000000000E4000000000000
#08515:E1000000000000002N0000002Y00004Z
#08518:00002Y00004Z0050
#08519:000000E300002N00
#08601:00
#08601:JW00000000JXJYJZ
#08601:00
#08601:00
#08601:00
#08601:00
#08601:0000000000000000000000002W2W2W2W
#08601:0000002Y
#08601:00
#08601:00GBGBGBGBGBGC00
#08601:000000NZ
#08601:NGNGNGNI
#08601:008M8N008O8P8Q8R008S8T008U000000
#08601:8Z000090000000009100009600979899
#08601:00
#08601:0000BG0000BH00BI00BJ00BK00BL00BM
#08606:0R0S0T0U0V0W0X0Y0Z101112131415161718030405060708
#08611:00002N00EA4Z0000
#08612:E70000000000E900000000003200004Z
#08613:2N0000E800004Z000000EB0000005000
#08615:00OD00OF00O83700
#08618:004Z2Y002N00EC00
#08619:OC00OE00O70000ED
#08701:00
#08701:00
#08701:00
#08701:00
#08701:00
#08701:00
#08701:00
#08701:002Y002Y
#08701:00004Z0000004Z0000004Z000000504Z
#08701:00GBGC0000GBGC00
#08701:000000NZ
#08701:NGNGNGNH
#08701:00
#08701:00
#08701:00
#08701:0000AA0000AB0000AC0000AD00AE00AF
#08701:00
#08701:00
#08701:00
#08701:K0K1K2K3K4K5K6K70000K8K9KAKBKCKD
#08706:090A0B0C0D0E0F0G0H0I0J0K0L0M0N0O0P0Q0R0S0T0U0V0W
#08711:2N0000000052000000530000000000008X000057000000005900005A00000000
#08712:000051000000008W000000005500000000005700000000002N0000005B000000
#08713:008V000000008W0000005400000056000000D4000000008Y00005A000000005C
#08715:3600005100000000530000000055005600000000005800000059000000005C00
#08718:8V000000520000002N000000D30000002N00000058000000D5000000005B0000
#08719:D10000000000D2000000005400000000008X000000008Y0000000000D6000000
#08801:00
#08801:00
#08801:00
#08801:00
#08801:00
#08801:OCODOEOFO7O83200
#08801:0000000000002X2X
#08801:002Y0000
#08801:00004Z0000004Z0000004Z000000504Z
#08801:00GBGC0000GBGC00
#08801:000000NZ
#08801:NGNGNGNI
#08801:00
#08801:00
#08801:00
#08801:0000AG0000AH0000AI0000AJ00AK00AL
#08801:00
#08801:00
#08801:00
#08801:KEKF00KGKHKI00KJKKKL00KMKNKO00KP
#08806:0X0Y0Z101112131415161718030405060708090A0B0C0D0E
#08811:8Z000090006Y00700000720073009400
#08812:008Z0000006W00006X0000000000007000000071000000000073000000009500
#08813:006V00002N006Z00917100002Y00DC00
#08815:0000006V0000009000000000D900000000910000000000920000930000000095
#08818:2N0000006W000000006X0000006Z00000000DA00000092000000009300000000
#08819:D70000000000D8000000006Y000000002N00000000720000DB00000000940000
#08901:00
#08901:00
#08901:00
#08901:00
#08901:00
#08901:00
#08901:00
#08901:002Y002Y
#08901:00004Z0000004Z0000004Z000000504Z
#08901:00GD00GD00GBGB00
#08901:000000NZ
#08901:NGNGNGNH
#08901:00
#08901:00
#08901:00
#08901:0000AM0000AN00AO0000AP0000AQ00AR
#08901:00
#08901:00
#08901:00
#08901:KQKRKSKTKUKVKWKXKYKZL0L1L2L3L4L5
#08906:0F0G0H0I0J0K0L0M0N0O0P0Q0R0S0T0U0V0W0X0Y0Z101112
#08911:8V00000000008W0000007700000000008X00000000008Y00007C000000007F00
#08912:00740000760078002N007B007C007E00
#08913:008V000075000000007600000000007900007A000000008Y00000000007E0000
#08915:000000740000EF0000000077000079000000007A000000002N00007D00000000
#08918:2N000000007500002N00000000780000008X0000007B000000007D000000007F
#08919:EE0000000000008W00000000EG000000EH0000000000EI0000000000EJ000000
#09001:00
#09001:00
#09001:00
#09001:00
#09001:00
#09001:OCODOEOFO7O83200
#09001:00000000002X2X2X
#09001:002Y0000
#09001:00004Z0000004Z0000004Z000000504Z
#09001:00GBGBGBGBGBGC00
#09001:000000NZ
#09001:NGNGNGNI
#09001:00
#09001:00
#09001:00
#09001:0000AS0000AT0000AU0000AV00AW00AX
#09001:00
#09001:00
#09001:00
#09001:L6L7L8L9LALBLCLDLELFLGLHLILJLKLL
#09006:131415161718030405060708090A0B0C0D0E0F0G0H0I0J0K
#09011:008Z0000000000007I0000007K000000910000007N000000007O000000000099
#09012:8Z00000000009000007I00000000007L00007M00000096000000970000000000
#09013:0000007G0000009000000000007K000000910000000000960000000098000000
#09015:2N0000007H0000002N000000EM0000002X000000007N00007O00000000980000
#09018:00007G00007H00000000007J00000000EN000000EO0000002Y00009700009900
#09019:EK0000000000EL0000007J0000007L000000007M00000000EP000000EQ000000
#09101:00
#09101:00
#09101:NJNJNJNJNJNJNJNJNJNJNJNJNJNJNJNJ
#09101:00
#09101:00
#09101:0034003400340034
#09101:2X2X2X2X002X2X2X
#09101:00
#09101:00004Z0000004Z0000004Z000000504Z
#09101:00GBGC0000GBGC00
#09101:000000NZ
#09101:NGNGNGNH
#09101:00
#09101:00
#09101:00
#09101:0000AY0000AZ0000B00000B100B200B3
#09101:00
#09101:00
#09101:00
#09101:LMLNLOLPLQLRLSLTLULVLWLXLYLZM0M1
#09106:0L0M0N0O0P0Q0R0S0T0U0V0W0X0Y0Z101112131415161718
#09111:00007P000000008W00000000007T000000007V000000008Y000000007Z000000
#09112:8V000000007Q00007R0000007T00007U0000000000008Y00007X000000000080
#09113:360000007Q000000007R000000007U00008X0000007W000000007Y0000008000
#09115:008V000000008W0000007S00000000002X0000007W0000007X000000007Z0000
#09118:0000007P000000002Y00007S000000008X00007V000000002Y00007Y00000000
#09119:ER0000ES0000ET0000EU0000EV00EW00
#09201:00
#09201:00
#09201:NJNJNJNJNJNJNJNJNJNJNJNJNJNJNJNJ
#09201:00
#09201:00
#09201:0034003400340034
#09201:2X2X2X2X002X2X2X
#09201:00
#09201:00004Z0000004Z0000004Z000000504Z
#09201:00GBGC0000GBGC00
#09201:000000NZ
#09201:NGNGNGNI
#09201:00
#09201:00
#09201:00
#09201:0000B40000B50000B60000B700B800B9
#09201:00
#09201:00
#09201:00
#09201:M2M3M4M5M6M7M8M9MAMBMCMDMEMFMGMH
#09206:030405060708090A0B0C0D0E0F0G0H0I0J0K0L0M0N0O0P0Q
#09211:8Z000090008400009100009200930095
#09212:0000008100000090000000008500000000008700000000008900000000940000
#09213:000081000000000083000000000000860000F0000000009200000000F2000000
#09215:008Z00000000EY00000000840000860000000087000000002Y00000094000095
#09218:360000008200000000830000008500000091000088000000F100009300000000
#09219:EX000000008200002Y000000EZ0000002X000000008800000089000000000000
#09301:00
#09301:00
#09301:NJNKNLNMNNNONPNQNRNSNTNUNVNWNXNY
#09301:00
#09301:00
#09301:0034003400340034
#09301:2X2X2X2X2X2X2X2X
#09301:00
#09301:00004Z0000004Z0000004Z000000504Z
#09301:00GD00GD00GBGB00
#09301:000000NZ
#09301:NGNGNGNH
#09301:00
#09301:00
#09301:00
#09301:0000BA0000BB0000BC0000BD00BE00BF
#09301:00
#09301:00
#09301:00
#09301:MIMJMKMLMMMNMOMPMQMRMSMTMUMVMWMX
#09306:0R0S0T0U0V0W0X0Y0Z101112131415161718030405060708
#09311:008B8C8E8X8H8I8K
#09312:008V0000008B00002Y000000008E000000000000008H000000008J0000000000
#09313:8V00000000008W000000008D00008F0000008G0000008Y00008I000000008L00
#09315:00008A000000008W00008D000000008F0000008G000000002Y00008J0000008L
#09318:360000000000F40000000000F50000003600F60000000000F7000000008K0000
#09319:F300008A00000000008C000000000000008X00000000008Y00000000F8000000
#09401:00000000370000000000003900003C00
#09401:00
#09401:NYNYNYNYNYNYNYNYNYNYNYNYNYNYNYNY
#09401:00
#09401:00
#09401:OCODOEOFO7O83200
#09401:2W2W2X00OB0000002X00002X00002X00
#09401:00
#09401:00004Z0000004Z0000004Z000000504Z
#09401:00GBGBGBGBGBGC00
#09401:000000NZ
#09401:NGNGNGNI
#09401:00
#09401:00
#09401:00
#09401:0000BG0000BH00BI00BJ00BK00BL00BM
#09401:00
#09401:00
#09401:00
#09401:MYMZN0N1N2N3N4N5N6N7N8N9NANBNCND
#09406:090A0B0C0D0E0F0G0H0I0J0K0L0M0N0O0P0Q0R0S0T0U0V0W
#09411:008Z0000000000008O0000008Q00000091000000000096000000009700000000
#09412:8Z00000000000090008O000000008R0000008S00000000960000000098000099
#09413:00008M000000900000008P000000008R00000000008T00008U00000000980000
#09415:0000008M0000FA0000000000008Q0000009100000000FD000000970000009900
#09418:37000000008N00000000008P000000003800008S00000000008U000000000000
#09419:F98N2YFBFC8T2YFE
#09501:00
#09501:00
#09501:00
#09501:4Y
#09501:00
#09501:00
#09501:00
#09501:00
#09501:00
#09501:00
#09501:00
#09501:00
#09501:00
#09501:00
#09501:00
#09501:00
#09501:00
#09501:00
#09501:00
#09501:NE
#09506:0X0Y0Z101112131415161718030405060708090A0B0C0D0E
#09511:4X
#09518:2N
#09519:35
#09606:0F0G0H0I0J0K0L0M0N0O0P0Q0R0S0T0U0V0W0X0Y0Z101112
#09706:131415161718030405060708090A0B0C0D0E0F0G0H0I0J0K
#09806:0L0M0N0O0P0Q0R0S0T0U0V0W0X0Y0Z101112131415161718
