2711 lines
57 KiB
Plaintext
2711 lines
57 KiB
Plaintext
|
||
*---------------------- HEADER FIELD
|
||
|
||
#PLAYER 3
|
||
#GENRE <20><><EFBFBD>l<EFBFBD>b<EFBFBD>T<EFBFBD><54><EFBFBD>X
|
||
#TITLE Joker [XX]
|
||
#ARTIST D.J.Nero
|
||
#BPM 184
|
||
#PLAYLEVEL 43
|
||
#RANK 3
|
||
#TOTAL 543
|
||
#STAGEFILE title.jpg
|
||
|
||
#WAV01 opHH.wav
|
||
#WAV02 close.wav
|
||
#WAV03 close.wav
|
||
#WAV04 kickA.wav
|
||
#WAV05 kickB.wav
|
||
#WAV06 kickB.wav
|
||
#WAV07 kick32.wav
|
||
#WAV08 FXkick.wav
|
||
#WAV09 snare.wav
|
||
#WAV0A snare.wav
|
||
#WAV0B reverse.wav
|
||
#WAV0C SE1.wav
|
||
#WAV0D bell.wav
|
||
#WAV0E ride.wav
|
||
#WAV0F snare-Fill.wav
|
||
#WAV0G snare-Fill.wav
|
||
#WAV0H clashA.wav
|
||
#WAV0I clashB.wav
|
||
#WAV0J clashC.wav
|
||
#WAV0K clap.wav
|
||
#WAV0L clap-deep.wav
|
||
#WAV0M clashB.wav
|
||
#WAV0N bgm1.wav
|
||
#WAV0O bgm1.wav
|
||
#WAV0P bgm2.wav
|
||
#WAV0Q bgm2.wav
|
||
#WAV0R bgm3.wav
|
||
#WAV0S str01.wav
|
||
#WAV0T str01.wav
|
||
#WAV0U str02.wav
|
||
#WAV0V str03.wav
|
||
#WAV0W str03.wav
|
||
#WAV0X str04.wav
|
||
#WAV0Y str05.wav
|
||
#WAV0Z str-01.wav
|
||
#WAV10 str-01.wav
|
||
#WAV11 str-02.wav
|
||
#WAV12 str-03.wav
|
||
#WAV13 str-03.wav
|
||
#WAV14 str-04.wav
|
||
#WAV15 str-05.wav
|
||
#WAV16 harp1.wav
|
||
#WAV17 harp2.wav
|
||
#WAV18 harp3.wav
|
||
#WAV19 harp4.wav
|
||
#WAV1A harp5.wav
|
||
#WAV1B harp6.wav
|
||
#WAV1C harp16-01.wav
|
||
#WAV1D harp16-02.wav
|
||
#WAV1E harp16-03.wav
|
||
#WAV1F harp16-04.wav
|
||
#WAV1G harp16-05.wav
|
||
#WAV1H harp16-06.wav
|
||
#WAV1I core1.wav
|
||
#WAV1J core1.wav
|
||
#WAV1K core1b.wav
|
||
#WAV1L core2.wav
|
||
#WAV1M core2.wav
|
||
#WAV1N core2b.wav
|
||
#WAV1O core3.wav
|
||
#WAV1P core3.wav
|
||
#WAV1Q core3b.wav
|
||
#WAV1R core4.wav
|
||
#WAV1S core4.wav
|
||
#WAV1T core4b.wav
|
||
#WAV1U core5.wav
|
||
#WAV1V core5.wav
|
||
#WAV1W core5b.wav
|
||
#WAV1X core6.wav
|
||
#WAV1Y core6.wav
|
||
#WAV1Z core6b.wav
|
||
#WAV20 core7.wav
|
||
#WAV21 core7.wav
|
||
#WAV22 core7b.wav
|
||
#WAV23 core8.wav
|
||
#WAV24 core8.wav
|
||
#WAV25 core8b.wav
|
||
#WAV26 core9.wav
|
||
#WAV27 core9.wav
|
||
#WAV28 core9b.wav
|
||
#WAV29 arp-bgm.wav
|
||
#WAV2A arp1.wav
|
||
#WAV2B arp2.wav
|
||
#WAV2C arp3.wav
|
||
#WAV2D arp4.wav
|
||
#WAV2E arp5.wav
|
||
#WAV2F arp6.wav
|
||
#WAV2G p-8-1.wav
|
||
#WAV2H p-8-2.wav
|
||
#WAV2I p-8-3.wav
|
||
#WAV2J p-8-4.wav
|
||
#WAV2K p-8-5.wav
|
||
#WAV2L p-8-6.wav
|
||
#WAV2M p-8-7.wav
|
||
#WAV2N p-8-8.wav
|
||
#WAV2O p-8-9.wav
|
||
#WAV2P p-8-10.wav
|
||
#WAV2Q p-8-11.wav
|
||
#WAV2R p-8-12.wav
|
||
#WAV2S p-8-13.wav
|
||
#WAV2T pA-1.wav
|
||
#WAV2U pA-2.wav
|
||
#WAV2V pA-2b.wav
|
||
#WAV2W pA-3.wav
|
||
#WAV2X pA-4.wav
|
||
#WAV2Y pA-4b.wav
|
||
#WAV2Z pA-5.wav
|
||
#WAV30 pA-6.wav
|
||
#WAV31 pA-7.wav
|
||
#WAV32 pA-8.wav
|
||
#WAV33 pA-9.wav
|
||
#WAV34 pA-10.wav
|
||
#WAV35 pA-11.wav
|
||
#WAV36 pA-12.wav
|
||
#WAV37 SE3.wav
|
||
#WAV38 pA-12b.wav
|
||
#WAV39 pA-13.wav
|
||
#WAV3A pA-13b.wav
|
||
#WAV3B pA-14.wav
|
||
#WAV3C pA-14b.wav
|
||
#WAV3D pA-15.wav
|
||
#WAV3E pA-15b.wav
|
||
#WAV3F p-16-1.wav
|
||
#WAV3G p-16-2.wav
|
||
#WAV3H p-16-3.wav
|
||
#WAV3I p-16-4.wav
|
||
#WAV3J p-16-5.wav
|
||
#WAV3K p-16-6.wav
|
||
#WAV3L p-16-7.wav
|
||
#WAV3M p-16-8.wav
|
||
#WAV3N p-16-9.wav
|
||
#WAV3O p-16-10.wav
|
||
#WAV3P p-16-11.wav
|
||
#WAV3Q p-16-12.wav
|
||
#WAV3R p-16-13.wav
|
||
#WAV3S p-16-14.wav
|
||
#WAV3T p-16-15.wav
|
||
#WAV3U p-16-16.wav
|
||
#WAV3V p-16-17.wav
|
||
#WAV3W ps-16-2.wav
|
||
#WAV3X ps-16-1.wav
|
||
#WAV3Y ps-16-1.wav
|
||
#WAV3Z ps-16-2.wav
|
||
#WAV40 ps-16-3.wav
|
||
#WAV41 ps-16-4.wav
|
||
#WAV42 ps-16-5.wav
|
||
#WAV43 ps-16-6.wav
|
||
#WAV44 ps-16-3.wav
|
||
#WAV45 ps-16-7.wav
|
||
#WAV46 ps-16-8.wav
|
||
#WAV47 ps-16-9.wav
|
||
#WAV48 ps-16-10.wav
|
||
#WAV49 ps-16-5.wav
|
||
#WAV4A ps-16-8.wav
|
||
#WAV4B ps-16-2.wav
|
||
#WAV4C ps-16-11.wav
|
||
#WAV4D ps-16-12.wav
|
||
#WAV4E ps-16-13.wav
|
||
#WAV4F ps-16-14.wav
|
||
#WAV4G ps-16-15.wav
|
||
#WAV4H ps-16-16.wav
|
||
#WAV4I ps-16-17.wav
|
||
#WAV4J ps-16-18.wav
|
||
#WAV4K ps-16-19.wav
|
||
#WAV4L ps-16-20.wav
|
||
#WAV4M ps-16-7.wav
|
||
#WAV4N ps-16-21.wav
|
||
#WAV4O ps-16-22.wav
|
||
#WAV4P ps-16-23.wav
|
||
#WAV4Q ps-16-24.wav
|
||
#WAV4R ps-16-25.wav
|
||
#WAV4S ps-16-26.wav
|
||
#WAV4T ps-16-27.wav
|
||
#WAV4U ps-16-28.wav
|
||
#WAV4V ps-16-29.wav
|
||
#WAV4W ps-16-30.wav
|
||
#WAV4X ps-16-23.wav
|
||
#WAV4Y ps-16-31.wav
|
||
#WAV4Z ps-32-1.wav
|
||
#WAV50 ps-32-1.wav
|
||
#WAV51 ps-32-1b.wav
|
||
#WAV52 ps-32-1b.wav
|
||
#WAV53 ps-32-2.wav
|
||
#WAV54 ps-32-2.wav
|
||
#WAV55 ps-32-2b.wav
|
||
#WAV56 ps-32-2b.wav
|
||
#WAV57 ps-32-3.wav
|
||
#WAV58 ps-32-4.wav
|
||
#WAV59 ps-32-5.wav
|
||
#WAV5A ps-32-6.wav
|
||
#WAV5B ps-32-7.wav
|
||
#WAV5C ps-32-8.wav
|
||
#WAV5D ps-32-9.wav
|
||
#WAV5E ps-32-10.wav
|
||
#WAV5F ps-32-10.wav
|
||
#WAV5G ps-32-10b.wav
|
||
#WAV5H ps-32-10b.wav
|
||
#WAV5I SE2.wav
|
||
#WAV5J chero 1.wav
|
||
#WAV5K chero 2.wav
|
||
#WAV5L chero 3.wav
|
||
#WAV5M chero 4.wav
|
||
#WAV5N chero 9.wav
|
||
#WAV5O chero 10.wav
|
||
#WAV5P chero 11.wav
|
||
#WAV5Q chero 12.wav
|
||
#WAV5R chero 13.wav
|
||
#WAV5S chero 14.wav
|
||
#WAV5T chero 15.wav
|
||
#WAV5U chero 16.wav
|
||
#WAV5V chero 17.wav
|
||
#WAV5W chero 18.wav
|
||
#WAV5X chero 19.wav
|
||
#WAV5Y chero 20.wav
|
||
#WAV5Z chero 21.wav
|
||
#WAV60 chero 22.wav
|
||
#WAV61 solo 1.wav
|
||
#WAV62 solo 2.wav
|
||
#WAV63 solo 3.wav
|
||
#WAV64 solo 4.wav
|
||
#WAV65 solo 5.wav
|
||
#WAV66 solo 6.wav
|
||
#WAV67 solo 7.wav
|
||
#WAV68 solo 8.wav
|
||
#WAV69 solo 9.wav
|
||
#WAV6A solo 10.wav
|
||
#WAV6B solo 11.wav
|
||
#WAV6C solo 12.wav
|
||
#WAV6D solo 13.wav
|
||
#WAV6E solo 14.wav
|
||
#WAV6F solo 15.wav
|
||
#WAV6G solo 16.wav
|
||
#WAV6H solo 17.wav
|
||
#WAV6I solo 18.wav
|
||
#WAV6J solo 19.wav
|
||
#WAV6K solo 20.wav
|
||
#WAV6L solo 21.wav
|
||
#WAV6M solo 22.wav
|
||
#WAV6N solo 23.wav
|
||
#WAV6O solo 24.wav
|
||
#WAV6P solo 25.wav
|
||
#WAV6Q solo 26.wav
|
||
#WAV6R solo 27.wav
|
||
#WAV6S solo 28.wav
|
||
#WAV6T solo 29.wav
|
||
#WAV6U solo 30.wav
|
||
#WAV6V solo 31.wav
|
||
#WAV6W solo 32.wav
|
||
#WAV6X solo 33.wav
|
||
#WAV6Y solo 34.wav
|
||
#WAV6Z solo 35.wav
|
||
#WAV70 solo 36.wav
|
||
#WAV71 solo 37.wav
|
||
#WAV72 solo 38.wav
|
||
#WAV73 solo 39.wav
|
||
#WAV74 solo 40.wav
|
||
#WAV75 solo 41.wav
|
||
#WAV76 solo 42.wav
|
||
#WAV77 solo 43.wav
|
||
#WAV78 solo 44.wav
|
||
#WAV79 solo 45.wav
|
||
#WAV7A solo 46.wav
|
||
#WAV7B bass1.wav
|
||
#WAV7C bass2.wav
|
||
#WAV7D bass3.wav
|
||
#WAV7E bass4.wav
|
||
#WAV7F bass5.wav
|
||
#WAV7G bass6.wav
|
||
#WAV7H bass7.wav
|
||
#WAV7I bass8.wav
|
||
#WAV7J bass9.wav
|
||
#WAV7K bass10.wav
|
||
#WAV7L bass11.wav
|
||
#WAV7M bass12.wav
|
||
#WAV7N bass13.wav
|
||
#WAV7O bass14.wav
|
||
#WAV7P bass15.wav
|
||
#WAV7Q bass16.wav
|
||
#WAV7R bass17.wav
|
||
#WAV7S bass18.wav
|
||
#WAV7T bass19.wav
|
||
#WAV7U bass20.wav
|
||
#WAV7V bass1.wav
|
||
#WAV7W bass3.wav
|
||
#WAV7X bass5.wav
|
||
#WAV7Y bass7.wav
|
||
#WAV7Z bass9.wav
|
||
#WAV80 bass11.wav
|
||
#WAV81 bass13.wav
|
||
#WAV82 bass15.wav
|
||
#WAV83 bass17.wav
|
||
#WAV84 bass19.wav
|
||
#WAV85 chero1.wav
|
||
#WAV86 chero2.wav
|
||
#WAV87 chero3.wav
|
||
#WAV88 chero4.wav
|
||
#WAV89 vio1.wav
|
||
#WAV8A vio2.wav
|
||
#WAV8B vio3.wav
|
||
#WAV8C vio4.wav
|
||
#WAV8D tim.wav
|
||
#WAV8E tanbarin.wav
|
||
#WAV8F suzu.wav
|
||
#WAV8G suzu32.wav
|
||
#WAV8H syuooo.wav
|
||
#WAV8I SE5.wav
|
||
#WAV8J horn.wav
|
||
#WAV8K suzu.wav
|
||
#WAV8L suzu32.wav
|
||
#WAV8M cym B.wav
|
||
#WAV8N cym C.wav
|
||
#WAV8O SE4.wav
|
||
|
||
#BMP01 joker.mpg
|
||
#BMP03 miss 01.bmp
|
||
#BMP04 miss 02.bmp
|
||
#BMP05 miss 03.bmp
|
||
#BMP06 miss 04.bmp
|
||
#BMP07 miss 05.bmp
|
||
#BMP08 miss 06.bmp
|
||
#BMP09 miss 07.bmp
|
||
#BMP0A miss 08.bmp
|
||
#BMP0B miss 09.bmp
|
||
#BMP0C miss 10.bmp
|
||
#BMP0D miss 11.bmp
|
||
#BMP0E miss 12.bmp
|
||
#BMP0F miss 13.bmp
|
||
#BMP0G miss 14.bmp
|
||
#BMP0H miss 15.bmp
|
||
#BMP0I miss 16.bmp
|
||
|
||
|
||
|
||
|
||
#DIFFICULTY 3
|
||
#BACKBMP logo.jpg
|
||
|
||
|
||
|
||
*---------------------- MAIN DATA FIELD
|
||
|
||
|
||
#00101:00
|
||
#00101:00
|
||
#00101:000B000000000000
|
||
#00104:01
|
||
#00106:030405060708090A0B0C0D0E0F0G0H0I030405060708090A0B0C0D0E0F0G0H0I
|
||
|
||
#00201:00
|
||
#00201:00
|
||
#00201:00
|
||
#00201:00
|
||
#00201:00
|
||
#00201:00
|
||
#00201:00
|
||
#00201:00
|
||
#00201:00
|
||
#00201:00
|
||
#00201:00
|
||
#00201:00
|
||
#00201:00
|
||
#00201:7B7C7B7V7C7B7V7C7B7C7B7V7C7B7V7C
|
||
#00206:030405060708090A0B0C0D0E0F0G0H0I030405060708090A0B0C0D0E0F0G0H0I
|
||
#00212:0S0T000000000000
|
||
#00213:0000000U00000000
|
||
#00215:0Z10000000000000
|
||
#00222:0000001100000000
|
||
#00223:0400000000040000
|
||
#00224:0000000400000000
|
||
#00225:00000K00000K0000
|
||
|
||
#00301:00
|
||
#00301:00
|
||
#00301:00
|
||
#00301:00
|
||
#00301:00
|
||
#00301:00
|
||
#00301:00
|
||
#00301:00
|
||
#00301:00
|
||
#00301:00
|
||
#00301:00
|
||
#00301:00
|
||
#00301:00
|
||
#00301:7B7C7B7V7C7B7V7C7B7C7B7V7C7B7V7C
|
||
#00306:030405060708090A0B0C0D0E0F0G0H0I030405060708090A0B0C0D0E0F0G0H0I
|
||
#00312:04
|
||
#00313:0000000400000000
|
||
#00314:0V0W000000000000
|
||
#00315:0000000X00000000
|
||
#00323:1213000000040000
|
||
#00324:0000001400000000
|
||
#00325:00000K00000K0000
|
||
|
||
#00401:00
|
||
#00401:0400000400040000
|
||
#00401:00
|
||
#00401:00
|
||
#00401:00
|
||
#00401:00
|
||
#00401:00
|
||
#00401:00
|
||
#00401:00
|
||
#00401:00
|
||
#00401:00
|
||
#00401:00
|
||
#00401:00
|
||
#00401:7B7C7B7V7C7B7V7C7B7C7B7V7C7B7V7C
|
||
#00406:030405060708090A0B0C0D0E0F0G0H0I030405060708090A0B0C0D0E0F0G0H0I
|
||
#00411:0S0T000000000000
|
||
#00412:0000000U00000000
|
||
#00413:0Z10000000000000
|
||
#00414:0000001100000000
|
||
#00423:0F0F0F0F0F0F0F0F
|
||
#00424:0J00000I000I0000
|
||
#00425:000G000G000G000G000G000G000G000G
|
||
|
||
#00501:00
|
||
#00501:0400000400040000
|
||
#00501:00
|
||
#00501:00
|
||
#00501:00
|
||
#00501:00
|
||
#00501:00
|
||
#00501:00
|
||
#00501:00
|
||
#00501:00
|
||
#00501:00
|
||
#00501:00
|
||
#00501:00
|
||
#00501:7B7C7B7V7C7B7V7C7B7C7B7V7C7B7V7C
|
||
#00506:030405060708090A0B0C0D0E0F0G0H0I030405060708090A0B0C0D0E0F0G0H0I
|
||
#00512:0000000000000006
|
||
#00513:0V0W000000000000
|
||
#00514:0000000000000000000000000X00000000000000000000000000000000060000
|
||
#00515:1213000000000000
|
||
#00522:00000000000014000000000000000006
|
||
#00523:0F0F0F0F0F0F0F0F
|
||
#00524:0J00000000000000000000000I000000000000000I0000000000000000000006
|
||
#00525:000G000G000G000G000G000G000G000G
|
||
|
||
#00601:00
|
||
#00601:00
|
||
#00601:00
|
||
#00601:00
|
||
#00601:00
|
||
#00601:00
|
||
#00601:00
|
||
#00601:00
|
||
#00601:00
|
||
#00601:0001000100010001
|
||
#00601:02030203020302030203020302030203
|
||
#00601:00
|
||
#00601:00
|
||
#00601:7B7C7B7V7C7B7V7C7B7C7B7V7C7B7V7C
|
||
#00601:00
|
||
#00601:00
|
||
#00601:00
|
||
#00601:00
|
||
#00601:00
|
||
#00601:00
|
||
#00601:00
|
||
#00601:00
|
||
#00601:00
|
||
#00601:00
|
||
#00601:00
|
||
#00601:00
|
||
#00601:00
|
||
#00601:00
|
||
#00601:00
|
||
#00601:00
|
||
#00601:00
|
||
#00601:0N
|
||
#00606:030405060708090A0B0C0D0E0F0G0H0I030405060708090A0B0C0D0E0F0G0H0I
|
||
#00611:04040404
|
||
#00613:2G
|
||
#00614:0000002H0000002H
|
||
#00615:002H0000002I0000
|
||
#00622:002I002J
|
||
#00623:0C2K
|
||
#00624:000K000K
|
||
|
||
#00701:00
|
||
#00701:00
|
||
#00701:00
|
||
#00701:00
|
||
#00701:00
|
||
#00701:00
|
||
#00701:00
|
||
#00701:00
|
||
#00701:00
|
||
#00701:0001000100010001
|
||
#00701:02030203020302030203020302030203
|
||
#00701:00
|
||
#00701:00
|
||
#00701:7B7C7B7V7C7B7V7C7B7C7B7V7C7B7V7C
|
||
#00706:030405060708090A0B0C0D0E0F0G0H0I030405060708090A0B0C0D0E0F0G0H0I
|
||
#00711:04040404
|
||
#00712:2G
|
||
#00713:002J0000
|
||
#00714:000000000000002I
|
||
#00715:002I0000002H0000
|
||
#00722:0000002K00000000
|
||
#00723:0000002K
|
||
#00724:002L
|
||
#00725:000K000K
|
||
|
||
#00801:00
|
||
#00801:00
|
||
#00801:00
|
||
#00801:00
|
||
#00801:00
|
||
#00801:00
|
||
#00801:00
|
||
#00801:00
|
||
#00801:00
|
||
#00801:0001000100010001
|
||
#00801:02030203020302030203020302030203
|
||
#00801:00
|
||
#00801:00
|
||
#00801:7D7E7D7W7E7D7W7E7D7E7D7W7E7D7W7E
|
||
#00806:030405060708090A0B0C0D0E0F0G0H0I030405060708090A0B0C0D0E0F0G0H0I
|
||
#00811:04040404
|
||
#00813:0000002H00000000
|
||
#00815:2J
|
||
#00822:002K0000002K0000
|
||
#00823:002L002L
|
||
#00824:000000002M00002M
|
||
#00825:000K000K
|
||
|
||
#00901:00
|
||
#00901:00
|
||
#00901:00
|
||
#00901:00
|
||
#00901:00
|
||
#00901:00
|
||
#00901:00
|
||
#00901:00
|
||
#00901:00
|
||
#00901:0001000100010001
|
||
#00901:02030203020302030203020302030203
|
||
#00901:00
|
||
#00901:00
|
||
#00901:7D7E7D7W7E7D7W7E7D7E7D7W7E7D7W7E
|
||
#00906:030405060708090A0B0C0D0E0F0G0H0I030405060708090A0B0C0D0E0F0G0H0I
|
||
#00911:04040404
|
||
#00912:2H
|
||
#00913:000000000000002N
|
||
#00914:0000002I00002I00
|
||
#00915:00000000002J0000
|
||
#00922:002K2K0K
|
||
#00923:002L000000000000
|
||
#00924:000K0000
|
||
|
||
#01001:00
|
||
#01001:00
|
||
#01001:00
|
||
#01001:00
|
||
#01001:00
|
||
#01001:00
|
||
#01001:00
|
||
#01001:00
|
||
#01001:00
|
||
#01001:0001000100010001
|
||
#01001:02030203020302030203020302030203
|
||
#01001:00
|
||
#01001:00
|
||
#01001:7F7G7F7X7G7F7X7G7F7G7F7X7G7F7X7G
|
||
#01006:030405060708090A0B0C0D0E0F0G0H0I030405060708090A0B0C0D0E0F0G0H0I
|
||
#01011:000K000K
|
||
#01012:2G
|
||
#01015:002H002H0000002H
|
||
#01022:00000000002I0000
|
||
#01023:002I002J
|
||
#01024:002K
|
||
#01025:04040404
|
||
|
||
#01101:00
|
||
#01101:00
|
||
#01101:00
|
||
#01101:00
|
||
#01101:00
|
||
#01101:00
|
||
#01101:00
|
||
#01101:00
|
||
#01101:00
|
||
#01101:0001000100010001
|
||
#01101:02030203020302030203020302030203
|
||
#01101:00
|
||
#01101:00
|
||
#01101:7F7G7F7X7G7F7X7G7F7G7F7X7G7F7X7G
|
||
#01106:030405060708090A0B0C0D0E0F0G0H0I030405060708090A0B0C0D0E0F0G0H0I
|
||
#01111:0000000K
|
||
#01112:2G000000002H0000
|
||
#01113:000K0000
|
||
#01114:002I00000000002I
|
||
#01115:002J0000
|
||
#01122:0000002K00002K00
|
||
#01123:002L
|
||
#01124:00000004
|
||
#01125:04040400
|
||
|
||
#01201:00
|
||
#01201:00
|
||
#01201:00
|
||
#01201:00
|
||
#01201:00
|
||
#01201:00
|
||
#01201:00
|
||
#01201:00
|
||
#01201:00
|
||
#01201:0001000100010001
|
||
#01201:02030203020302030203020302030203
|
||
#01201:00
|
||
#01201:00
|
||
#01201:7B7C7B7V7C7B7V7C7B7C7B7V7C7B7V7C
|
||
#01206:030405060708090A0B0C0D0E0F0G0H0I030405060708090A0B0C0D0E0F0G0H0I
|
||
#01211:000K000K
|
||
#01214:0000002H00000000
|
||
#01215:2J
|
||
#01222:002K0000002K0000
|
||
#01223:002L002L
|
||
#01224:040000002M00002M
|
||
#01225:00040404
|
||
|
||
#01301:00
|
||
#01301:00
|
||
#01301:000000000000000000000000000000000000000000000000008M000000000000
|
||
#01301:00
|
||
#01301:00
|
||
#01301:00
|
||
#01301:00
|
||
#01301:00
|
||
#01301:00
|
||
#01301:0001000100010001
|
||
#01301:02030203020302030203020302030203
|
||
#01301:00
|
||
#01301:00
|
||
#01301:7B7C7B7V7C7B7V7C7B7C7B7V7C7B7V7C
|
||
#01306:030405060708090A0B0C0D0E0F0G0H0I030405060708090A0B0C0D0E0F0G0H0I
|
||
#01311:00000K000000002N
|
||
#01313:0000002I
|
||
#01314:2H000000002J0000
|
||
#01315:0000002I00000K00
|
||
#01322:002K2K00
|
||
#01323:002L000000000000
|
||
#01324:00040400
|
||
#01325:04000004
|
||
|
||
#01401:00
|
||
#01401:04040404
|
||
#01401:00
|
||
#01401:00
|
||
#01401:00
|
||
#01401:00
|
||
#01401:00
|
||
#01401:00
|
||
#01401:00
|
||
#01401:00
|
||
#01401:02030203020302030203020302030203
|
||
#01401:00
|
||
#01401:00
|
||
#01401:7B7C7B7V7C7B7V7C7B7C7B7V7C7B7V7C
|
||
#01406:030405060708090A0B0C0D0E0F0G0H0I030405060708090A0B0C0D0E0F0G0H0I
|
||
#01411:000K000K
|
||
#01412:2G
|
||
#01414:002H002H0000002H
|
||
#01415:00000000002I0000
|
||
#01422:002I0000
|
||
#01423:0000002J
|
||
#01424:002K
|
||
#01425:0001000100010001
|
||
|
||
#01501:00
|
||
#01501:04040404
|
||
#01501:00
|
||
#01501:00
|
||
#01501:00
|
||
#01501:00
|
||
#01501:00
|
||
#01501:00
|
||
#01501:00
|
||
#01501:00
|
||
#01501:02030203020302030203020302030203
|
||
#01501:00
|
||
#01501:00
|
||
#01501:7B7C7B7V7C7B7V7C7B7C7B7V7C7B7V7C
|
||
#01506:030405060708090A0B0C0D0E0F0G0H0I030405060708090A0B0C0D0E0F0G0H0I
|
||
#01511:000K000K
|
||
#01512:2G000000002H0000
|
||
#01514:000000000000002I
|
||
#01515:002I000000000000
|
||
#01522:002J002K
|
||
#01523:0000002K00000000
|
||
#01524:002L
|
||
#01525:0001000100010001
|
||
|
||
#01601:00
|
||
#01601:04040404
|
||
#01601:00
|
||
#01601:00
|
||
#01601:00
|
||
#01601:00
|
||
#01601:00
|
||
#01601:00
|
||
#01601:00
|
||
#01601:00
|
||
#01601:02030203020302030203020302030203
|
||
#01601:00
|
||
#01601:00
|
||
#01601:7D7E7D7W7E7D7W7E7D7E7D7W7E7D7W7E
|
||
#01606:030405060708090A0B0C0D0E0F0G0H0I030405060708090A0B0C0D0E0F0G0H0I
|
||
#01611:000K000K
|
||
#01613:0000002H00000000
|
||
#01615:2J000000002K0000
|
||
#01622:002K000000002L00
|
||
#01623:002L0000
|
||
#01624:000000002M00002M
|
||
#01625:0001000100010001
|
||
|
||
#01701:00
|
||
#01701:04040404
|
||
#01701:00
|
||
#01701:00
|
||
#01701:00
|
||
#01701:00
|
||
#01701:00
|
||
#01701:00
|
||
#01701:00
|
||
#01701:00
|
||
#01701:02030203020302030203020302030203
|
||
#01701:00
|
||
#01701:00
|
||
#01701:7D7E7D7W7E7D7W7E7D7E7D7W7E7D7W7E
|
||
#01706:030405060708090A0B0C0D0E0F0G0H0I030405060708090A0B0C0D0E0F0G0H0I
|
||
#01711:000K000K
|
||
#01713:2H0000000000002N
|
||
#01714:0000002I00002I00
|
||
#01715:00000000002J0000
|
||
#01722:002K2K00
|
||
#01723:002L000000000000
|
||
#01725:0001000100010001
|
||
|
||
#01801:00
|
||
#01801:04040404
|
||
#01801:00
|
||
#01801:00
|
||
#01801:00
|
||
#01801:00
|
||
#01801:00
|
||
#01801:00
|
||
#01801:00
|
||
#01801:00
|
||
#01801:02030203020302030203020302030203
|
||
#01801:00
|
||
#01801:00
|
||
#01801:7F7G7F7X7G7F7X7G7F7G7F7X7G7F7X7G
|
||
#01806:030405060708090A0B0C0D0E0F0G0H0I030405060708090A0B0C0D0E0F0G0H0I
|
||
#01811:000K000K
|
||
#01812:2G
|
||
#01814:002H002H0000002H
|
||
#01815:00000000002I0000
|
||
#01822:002I0000
|
||
#01823:0000002J
|
||
#01824:002K
|
||
#01825:0001000100010001
|
||
|
||
#01901:00
|
||
#01901:04040404
|
||
#01901:00
|
||
#01901:00
|
||
#01901:00
|
||
#01901:00
|
||
#01901:00
|
||
#01901:00
|
||
#01901:00
|
||
#01901:00
|
||
#01901:02030203020302030203020302030203
|
||
#01901:00
|
||
#01901:00
|
||
#01901:7F7G7F7X7G7F7X7G7F7G7F7X7G7F7X7G
|
||
#01906:030405060708090A0B0C0D0E0F0G0H0I030405060708090A0B0C0D0E0F0G0H0I
|
||
#01911:000K000K
|
||
#01912:2G
|
||
#01913:00000000002H0000
|
||
#01914:000000000000002I
|
||
#01915:002I000000000000
|
||
#01922:002J002K
|
||
#01923:0000002K00000000
|
||
#01924:002L
|
||
#01925:0001000100010001
|
||
|
||
#02001:00
|
||
#02001:04040404
|
||
#02001:00
|
||
#02001:00
|
||
#02001:00
|
||
#02001:00
|
||
#02001:00
|
||
#02001:00
|
||
#02001:00
|
||
#02001:00
|
||
#02001:02030203020302030203020302030203
|
||
#02001:00
|
||
#02001:00
|
||
#02001:7B7C7B7V7C7B7V7C7B7C7B7V7C7B7V7C
|
||
#02006:030405060708090A0B0C0D0E0F0G0H0I030405060708090A0B0C0D0E0F0G0H0I
|
||
#02011:000K000K
|
||
#02014:0000002H00000000
|
||
#02015:2J000000002K0000
|
||
#02022:002K000000002L00
|
||
#02023:00002L000000002M
|
||
#02024:002M
|
||
#02025:0001000100010001
|
||
|
||
#02101:00
|
||
#02101:00
|
||
#02101:00
|
||
#02101:00
|
||
#02101:00
|
||
#02101:00
|
||
#02101:00
|
||
#02101:00
|
||
#02101:00
|
||
#02101:00
|
||
#02101:02030203020302030203020302030203
|
||
#02101:00
|
||
#02101:00
|
||
#02101:7B7C7B7V7C7B7V7C7B7C7B7V7C7B7V7C
|
||
#02106:030405060708090A0B0C0D0E0F0G0H0I030405060708090A0B0C0D0E0F0G0H0I
|
||
#02111:000M000K
|
||
#02112:0I00000J0000002N
|
||
#02113:000K002I
|
||
#02114:2H00002I002J0001
|
||
#02115:042K2K00
|
||
#02122:000000002L000000000004000000050000000000000000000H00000000000006
|
||
#02123:00000004000000000000040000060006
|
||
#02124:0000000005000000000000000000000004000000000000000500000000060000
|
||
#02125:0001000100010006
|
||
|
||
#02201:00
|
||
#02201:00
|
||
#02201:00
|
||
#02201:00
|
||
#02201:00
|
||
#02201:00
|
||
#02201:00
|
||
#02201:00
|
||
#02201:00
|
||
#02201:00
|
||
#02201:02030203020302030203020302030203
|
||
#02201:00
|
||
#02201:00
|
||
#02201:7B7C7B7V7C7B7V7C7B7C7B7V7C7B7V7C
|
||
#02201:00
|
||
#02201:00
|
||
#02201:1I001K001I001I1J001I1J001I001K00
|
||
#02201:00
|
||
#02201:8F8K8F008F8K8F008F8K8F008F8K0000
|
||
#02201:00
|
||
#02201:00
|
||
#02201:00
|
||
#02201:00
|
||
#02201:00
|
||
#02201:00
|
||
#02201:00
|
||
#02201:00
|
||
#02201:00
|
||
#02201:00
|
||
#02201:00
|
||
#02201:00
|
||
#02201:0O
|
||
#02206:030405060708090A0B0C0D0E0F0G0H0I030405060708090A0B0C0D0E0F0G0H0I
|
||
#02211:04040404
|
||
#02213:0C0K000K
|
||
#02214:0001000100010001
|
||
#02215:16
|
||
#02222:0000170017000017
|
||
#02223:0000000000180000
|
||
#02224:00000019
|
||
#02225:000000000000008E
|
||
|
||
#02301:00
|
||
#02301:00
|
||
#02301:00
|
||
#02301:00
|
||
#02301:00
|
||
#02301:00
|
||
#02301:00
|
||
#02301:00
|
||
#02301:00
|
||
#02301:00
|
||
#02301:02030203020302030203020302030203
|
||
#02301:00
|
||
#02301:00
|
||
#02301:7B7C7B7V7C7B7V7C7B7C7B7V7C7B7V7C
|
||
#02301:00
|
||
#02301:00
|
||
#02301:1I001K001I001I1J001I1J001I001K00
|
||
#02301:00
|
||
#02301:8F008K008F0000008F008K008G8L8G8L8F0000008K0000008F008K0000000000
|
||
#02306:030405060708090A0B0C0D0E0F0G0H0I030405060708090A0B0C0D0E0F0G0H0I
|
||
#02311:04040404
|
||
#02313:000K000K
|
||
#02314:00000016
|
||
#02315:001A
|
||
#02322:0000001700000000
|
||
#02323:180018000000008E
|
||
#02324:0019000000000000
|
||
#02325:0001000100010001
|
||
|
||
#02401:00
|
||
#02401:00
|
||
#02401:00
|
||
#02401:00
|
||
#02401:00
|
||
#02401:00
|
||
#02401:00
|
||
#02401:00
|
||
#02401:00
|
||
#02401:00
|
||
#02401:02030203020302030203020302030203
|
||
#02401:00
|
||
#02401:00
|
||
#02401:7D7E7D7W7E7D7W7E7D7E7D7W7E7D7W7E
|
||
#02401:00
|
||
#02401:00
|
||
#02401:1L001N001L001L1M001L1M001L001N00
|
||
#02401:00
|
||
#02401:8F8K8F008F8K8F008F8K8F008F8K0000
|
||
#02406:030405060708090A0B0C0D0E0F0G0H0I030405060708090A0B0C0D0E0F0G0H0I
|
||
#02411:04040404
|
||
#02413:000K000K
|
||
#02414:16
|
||
#02415:0000170017000017
|
||
#02422:0000000000180000
|
||
#02423:00000019
|
||
#02424:000000000000008E
|
||
#02425:0001000100010001
|
||
|
||
#02501:00
|
||
#02501:00
|
||
#02501:00
|
||
#02501:00
|
||
#02501:00
|
||
#02501:00
|
||
#02501:00
|
||
#02501:00
|
||
#02501:00
|
||
#02501:00
|
||
#02501:02030203020302030203020302030203
|
||
#02501:00
|
||
#02501:00
|
||
#02501:7D7E7D7W7E7D7W7E7D7E7D7W7E7D7W7E
|
||
#02501:00
|
||
#02501:00
|
||
#02501:1L001N001L001L1M001L1M001L001N00
|
||
#02501:00
|
||
#02501:8F008K008F0000008F008K008G8L8G8L8F0000008K0000008F008K0000000000
|
||
#02506:030405060708090A0B0C0D0E0F0G0H0I030405060708090A0B0C0D0E0F0G0H0I
|
||
#02511:04040404
|
||
#02513:000K000K
|
||
#02514:000000001A00001A
|
||
#02515:0000001700170000
|
||
#02522:1B180018
|
||
#02523:001900000000008E
|
||
#02525:0001000100010001
|
||
|
||
#02601:00
|
||
#02601:00
|
||
#02601:00
|
||
#02601:00
|
||
#02601:00
|
||
#02601:00
|
||
#02601:00
|
||
#02601:00
|
||
#02601:00
|
||
#02601:00
|
||
#02601:02030203020302030203020302030203
|
||
#02601:00
|
||
#02601:00
|
||
#02601:7F7G7F7X7G7F7X7G7F7G7F7X7G7F7X7G
|
||
#02601:00
|
||
#02601:00
|
||
#02601:1O001Q001O001O1P001O1P001O001Q00
|
||
#02601:00
|
||
#02601:8F8K8F008F8K8F008F8K8F008F8K0000
|
||
#02606:030405060708090A0B0C0D0E0F0G0H0I030405060708090A0B0C0D0E0F0G0H0I
|
||
#02611:04040404
|
||
#02613:160K000K
|
||
#02615:0000170017000017
|
||
#02622:000000000000008E
|
||
#02623:0000000000180000
|
||
#02624:0001000100010001
|
||
#02625:00000019
|
||
|
||
#02701:00
|
||
#02701:00
|
||
#02701:00
|
||
#02701:00
|
||
#02701:00
|
||
#02701:00
|
||
#02701:00
|
||
#02701:00
|
||
#02701:00
|
||
#02701:00
|
||
#02701:02030203020302030203020302030203
|
||
#02701:00
|
||
#02701:00
|
||
#02701:7F7G7F7X7G7F7X7G7F7G7F7X7G7F7X7G
|
||
#02701:00
|
||
#02701:00
|
||
#02701:1O001Q001O001O1P001O1P001O001Q00
|
||
#02701:00
|
||
#02701:8F008K008F0000008F008K008G8L8G8L8F0000008K0000008F008K0000000000
|
||
#02706:030405060708090A0B0C0D0E0F0G0H0I030405060708090A0B0C0D0E0F0G0H0I
|
||
#02711:04040404
|
||
#02712:000000000000001F
|
||
#02713:000K000K
|
||
#02714:000000001C1C0000
|
||
#02715:0000001700000000
|
||
#02722:00000000000000000000001D00000000
|
||
#02723:180018000000008E
|
||
#02724:0001000100001E00
|
||
#02725:0019000000010001
|
||
|
||
#02801:00
|
||
#02801:00
|
||
#02801:00
|
||
#02801:00
|
||
#02801:00
|
||
#02801:00
|
||
#02801:00
|
||
#02801:00
|
||
#02801:00
|
||
#02801:00
|
||
#02801:02030203020302030203020302030203
|
||
#02801:00
|
||
#02801:00
|
||
#02801:7B7C7B7V7C7B7V7C7B7C7B7V7C7B7V7C
|
||
#02801:00
|
||
#02801:00
|
||
#02801:1R001T001R001R1S001R1S001R001T00
|
||
#02801:00
|
||
#02801:8F8K8F008F8K8F008F8K8F008F8K0000
|
||
#02806:030405060708090A0B0C0D0E0F0G0H0I030405060708090A0B0C0D0E0F0G0H0I
|
||
#02811:04040404
|
||
#02812:000K000K
|
||
#02813:160000000000008E
|
||
#02815:0000170017000017
|
||
#02822:0000000000180000
|
||
#02823:00000019
|
||
#02824:0001000100010001
|
||
|
||
#02901:00
|
||
#02901:00
|
||
#02901:00
|
||
#02901:00
|
||
#02901:00
|
||
#02901:00
|
||
#02901:00
|
||
#02901:00
|
||
#02901:00
|
||
#02901:00
|
||
#02901:02030203020302030203020302030203
|
||
#02901:00
|
||
#02901:00
|
||
#02901:7B7C7B7V7C7B7V7C7B7C7B7V7C7B7V7C
|
||
#02901:00
|
||
#02901:00
|
||
#02901:1R001T001R001R1S001R1S001R001T00
|
||
#02901:00
|
||
#02901:8F008K008F0000008F008K008G8L8G8L8F0000008K0000008F008K0000000000
|
||
#02906:030405060708090A0B0C0D0E0F0G0H0I030405060708090A0B0C0D0E0F0G0H0I
|
||
#02911:04040404
|
||
#02913:000K000K
|
||
#02914:0001000100010001
|
||
#02915:001E1A00
|
||
#02922:0000001D0017001A
|
||
#02923:0000001H000000000000000000008E00
|
||
#02924:00000018
|
||
#02925:1G001G000000000000000000008M0000
|
||
|
||
#03001:00
|
||
#03001:00
|
||
#03001:00
|
||
#03001:00
|
||
#03001:00
|
||
#03001:00
|
||
#03001:00
|
||
#03001:00
|
||
#03001:00
|
||
#03001:0001000100010001
|
||
#03001:02030203020302030203020302030203
|
||
#03001:00
|
||
#03001:00
|
||
#03001:7B7C7B7V7C7B7V7C7B7C7B7V7C7B7V7C
|
||
#03001:00
|
||
#03001:00
|
||
#03001:00
|
||
#03001:00
|
||
#03001:8F8K8F008F8K8F008F8K8F008F8K0000
|
||
#03006:030405060708090A0B0C0D0E0F0G0H0I030405060708090A0B0C0D0E0F0G0H0I
|
||
#03011:04040404
|
||
#03012:1I0000001I001I00001I00001I000000
|
||
#03014:00001K000000001J00001J0000001K00
|
||
#03015:160000000000008E
|
||
#03022:0000170017000017
|
||
#03023:0000000000180000
|
||
#03024:000K0019
|
||
#03025:0000000K
|
||
|
||
#03101:00
|
||
#03101:00
|
||
#03101:00
|
||
#03101:00
|
||
#03101:00
|
||
#03101:00
|
||
#03101:00
|
||
#03101:00
|
||
#03101:00
|
||
#03101:0001000100010001
|
||
#03101:02030203020302030203020302030203
|
||
#03101:00
|
||
#03101:00
|
||
#03101:7B7C7B7V7C7B7V7C7B7C7B7V7C7B7V7C
|
||
#03101:00
|
||
#03101:00
|
||
#03101:00
|
||
#03101:00
|
||
#03101:8F008K008F0000008F008K008G8L8G8L8F0000008K0000008F008K0000000000
|
||
#03106:030405060708090A0B0C0D0E0F0G0H0I030405060708090A0B0C0D0E0F0G0H0I
|
||
#03111:04040404
|
||
#03112:1I0000001I001I00001I00001I000000
|
||
#03113:00000016
|
||
#03114:00001K000000001J00001J0000001K00
|
||
#03115:001A
|
||
#03122:0000001700000000
|
||
#03123:18180000
|
||
#03124:001900000000008E
|
||
#03125:000K000K
|
||
|
||
#03201:00
|
||
#03201:00
|
||
#03201:00
|
||
#03201:00
|
||
#03201:00
|
||
#03201:00
|
||
#03201:00
|
||
#03201:00
|
||
#03201:00
|
||
#03201:0001000100010001
|
||
#03201:02030203020302030203020302030203
|
||
#03201:00
|
||
#03201:00
|
||
#03201:7D7E7D7W7E7D7W7E7D7E7D7W7E7D7W7E
|
||
#03201:00
|
||
#03201:00
|
||
#03201:00
|
||
#03201:00
|
||
#03201:8F8K8F008F8K8F008F8K8F008F8K0000
|
||
#03206:030405060708090A0B0C0D0E0F0G0H0I030405060708090A0B0C0D0E0F0G0H0I
|
||
#03211:04040404
|
||
#03212:000000000000008E
|
||
#03213:160000001L001L00001L00001L000000
|
||
#03215:1L001N000000001M00001M0000001N00
|
||
#03222:0000170017000017
|
||
#03223:0000000000180000
|
||
#03224:000K0019
|
||
#03225:0000000K
|
||
|
||
#03301:00
|
||
#03301:00
|
||
#03301:00
|
||
#03301:00
|
||
#03301:00
|
||
#03301:00
|
||
#03301:00
|
||
#03301:00
|
||
#03301:00
|
||
#03301:0001000100010001
|
||
#03301:02030203020302030203020302030203
|
||
#03301:00
|
||
#03301:00
|
||
#03301:7D7E7D7W7E7D7W7E7D7E7D7W7E7D7W7E
|
||
#03301:00
|
||
#03301:00
|
||
#03301:00
|
||
#03301:00
|
||
#03301:8F008K008F0000008F008K008G8L8G8L8F0000008K0000008F008K0000000000
|
||
#03306:030405060708090A0B0C0D0E0F0G0H0I030405060708090A0B0C0D0E0F0G0H0I
|
||
#03311:04040000
|
||
#03312:000000001A00001A
|
||
#03313:1L0000001L001L00001L00001L000000
|
||
#03314:00001N000000001M00001M0000001N00
|
||
#03315:000K000K
|
||
#03322:0000001700170000
|
||
#03323:000018000000008E
|
||
#03324:0019000000001800
|
||
#03325:1B000404
|
||
|
||
#03401:00
|
||
#03401:00
|
||
#03401:00
|
||
#03401:00
|
||
#03401:00
|
||
#03401:00
|
||
#03401:000K000K
|
||
#03401:00
|
||
#03401:00
|
||
#03401:00
|
||
#03401:02030203020302030203020302030203
|
||
#03401:00
|
||
#03401:00
|
||
#03401:7F7G7F7X7G7F7X7G7F7G7F7X7G7F7X7G
|
||
#03401:00
|
||
#03401:00
|
||
#03401:00
|
||
#03401:00
|
||
#03401:8F8K8F008F8K8F008F8K8F008F8K0000
|
||
#03406:030405060708090A0B0C0D0E0F0G0H0I030405060708090A0B0C0D0E0F0G0H0I
|
||
#03411:160000000000008E
|
||
#03412:00000404
|
||
#03413:1O
|
||
#03414:000000001O001O00001O00001O000000
|
||
#03415:0001000100010001
|
||
#03422:00001Q000000001P00001P0000001Q00
|
||
#03423:0000170017000017
|
||
#03424:0000000000180000
|
||
#03425:04040019
|
||
|
||
#03501:00
|
||
#03501:00
|
||
#03501:00
|
||
#03501:00
|
||
#03501:00
|
||
#03501:00
|
||
#03501:000K000K
|
||
#03501:00
|
||
#03501:00
|
||
#03501:00
|
||
#03501:02030203020302030203020302030203
|
||
#03501:00
|
||
#03501:00
|
||
#03501:7F7G7F7X7G7F7X7G7F7G7F7X7G7F7X7G
|
||
#03501:00
|
||
#03501:00
|
||
#03501:00
|
||
#03501:00
|
||
#03501:8F008K008F0000008F008K008G8L8G8L8F0000008K0000008F008K0000000000
|
||
#03506:030405060708090A0B0C0D0E0F0G0H0I030405060708090A0B0C0D0E0F0G0H0I
|
||
#03511:000000001C1C0000
|
||
#03512:04000000040000000000001D00001F00
|
||
#03513:000000000000008E
|
||
#03514:1O0000001O001O00001O00001E000000
|
||
#03515:0001000100010001
|
||
#03522:00001Q000000001P00001P001O001Q00
|
||
#03523:0000001700000000
|
||
#03524:18180404
|
||
#03525:0019000000000000
|
||
|
||
#03601:00
|
||
#03601:00
|
||
#03601:00
|
||
#03601:00
|
||
#03601:00
|
||
#03601:00
|
||
#03601:000K000K
|
||
#03601:00
|
||
#03601:00
|
||
#03601:00
|
||
#03601:02030203020302030203020302030203
|
||
#03601:00
|
||
#03601:00
|
||
#03601:7B7C7B7V7C7B7V7C7B7C7B7V7C7B7V7C
|
||
#03601:00
|
||
#03601:00
|
||
#03601:00
|
||
#03601:00
|
||
#03601:8F8K8F008F8K8F008F8K8F008F8K0000
|
||
#03606:030405060708090A0B0C0D0E0F0G0H0I030405060708090A0B0C0D0E0F0G0H0I
|
||
#03611:04040404
|
||
#03612:160000000000008E
|
||
#03613:00171700
|
||
#03614:0000001R00180017
|
||
#03615:1R0000001R000000001R000000000000
|
||
#03622:0001000100010001
|
||
#03623:00001T000000001S000000001R000000
|
||
#03624:00000000001S001T
|
||
#03625:00000019
|
||
|
||
#03701:00
|
||
#03701:00
|
||
#03701:00
|
||
#03701:00
|
||
#03701:00
|
||
#03701:00
|
||
#03701:000K000K
|
||
#03701:00
|
||
#03701:00
|
||
#03701:00
|
||
#03701:02030203020302030203020302030203
|
||
#03701:00
|
||
#03701:00
|
||
#03701:7B7C7B7V7C7B7V7C7B7C7B7V7C7B7V7C
|
||
#03701:00
|
||
#03701:00
|
||
#03701:00
|
||
#03701:00
|
||
#03701:8F008K008F0000008F008K008G8L8G8L8F0000008K0000008F008K0000000000
|
||
#03706:030405060708090A0B0C0D0E0F0G0H0I030405060708090A0B0C0D0E0F0G0H0I
|
||
#03711:040004000000001A
|
||
#03712:0000000J0000008E
|
||
#03713:0I000M001A000H06
|
||
#03714:0001001D00170000
|
||
#03715:00000000000000001E0000000000000004000000000000001800000000060000
|
||
#03722:0000001H000001000000010000000100
|
||
#03723:1G001G001R00001S001R00001R000006
|
||
#03724:0000001R001S001T
|
||
#03725:1R0000001T000000000000000000000000000000000000000400000000000006
|
||
|
||
#03801:00
|
||
#03801:00
|
||
#03801:00
|
||
#03801:00
|
||
#03801:04040404
|
||
#03801:00
|
||
#03801:00
|
||
#03801:00
|
||
#03801:00
|
||
#03801:0001000100010001
|
||
#03801:02030203020302030203020302030203
|
||
#03801:00
|
||
#03801:00
|
||
#03801:7B7C7B7V7C7B7V7C7B7C7B7V7C7B7V7C
|
||
#03801:00
|
||
#03801:00
|
||
#03801:00
|
||
#03801:00
|
||
#03801:00
|
||
#03801:00
|
||
#03801:00
|
||
#03801:00
|
||
#03801:00
|
||
#03801:00
|
||
#03801:00
|
||
#03801:00
|
||
#03801:00
|
||
#03801:00
|
||
#03801:00
|
||
#03801:00
|
||
#03801:00
|
||
#03801:0P
|
||
#03806:030405060708090A0B0C0D0E0F0G0H0I030405060708090A0B0C0D0E0F0G0H0I
|
||
#03812:5J5J0000
|
||
#03813:005K005K00000000
|
||
#03814:61000000005L0000
|
||
#03815:000000000000005M
|
||
#03822:0C
|
||
#03823:000K000K
|
||
#03824:2T
|
||
#03825:00002U2V00000000
|
||
|
||
#03901:00
|
||
#03901:00
|
||
#03901:00
|
||
#03901:00
|
||
#03901:04040404
|
||
#03901:00
|
||
#03901:00
|
||
#03901:00
|
||
#03901:00
|
||
#03901:0001000100010001
|
||
#03901:02030203020302030203020302030203
|
||
#03901:00
|
||
#03901:00
|
||
#03901:7B7C7B7V7C7B7V7C7B7C7B7V7C7B7V7C
|
||
#03906:030405060708090A0B0C0D0E0F0G0H0I030405060708090A0B0C0D0E0F0G0H0I
|
||
#03912:5J5J0000
|
||
#03913:005K005K00000000
|
||
#03914:00000K00005L0000
|
||
#03915:000000000000005M
|
||
#03922:2L000000000000002L00000000000064
|
||
#03923:002O002O002O0000
|
||
#03924:6200000000000063
|
||
#03925:002P000K
|
||
|
||
#04001:00
|
||
#04001:00
|
||
#04001:00
|
||
#04001:00
|
||
#04001:04040404
|
||
#04001:00
|
||
#04001:00
|
||
#04001:00
|
||
#04001:00
|
||
#04001:0001000100010001
|
||
#04001:02030203020302030203020302030203
|
||
#04001:00
|
||
#04001:00
|
||
#04001:7F7G7F7X7G7F7X7G7F7G7F7X7G7F7X7G
|
||
#04006:030405060708090A0B0C0D0E0F0G0H0I030405060708090A0B0C0D0E0F0G0H0I
|
||
#04011:005N0000
|
||
#04012:5N00005O00000000
|
||
#04013:005O0000005P0000
|
||
#04014:650000000000005Q
|
||
#04015:00000068
|
||
#04022:000000000K0000000000000000690000
|
||
#04023:2W0000000067006A
|
||
#04024:000000002X002Y00000000000K00006B
|
||
#04025:0066
|
||
|
||
#04101:00
|
||
#04101:00
|
||
#04101:00
|
||
#04101:00
|
||
#04101:04040404
|
||
#04101:00
|
||
#04101:00
|
||
#04101:00
|
||
#04101:00
|
||
#04101:0001000100010001
|
||
#04101:02030203020302030203020302030203
|
||
#04101:00
|
||
#04101:00
|
||
#04101:7F7G7F7X7G7F7X7G7F7G7F7X7G7F7X7G
|
||
#04106:030405060708090A0B0C0D0E0F0G0H0I030405060708090A0B0C0D0E0F0G0H0I
|
||
#04111:5N5N0000
|
||
#04112:005O005O00000000
|
||
#04113:00000K00005P0000
|
||
#04114:000000000000005Q
|
||
#04115:00000000002K0000
|
||
#04122:002Q00002Q000000
|
||
#04123:2O00002O00000000
|
||
#04124:002P6D00
|
||
#04125:6C00000K
|
||
|
||
#04201:00
|
||
#04201:00
|
||
#04201:00
|
||
#04201:00
|
||
#04201:04040404
|
||
#04201:00
|
||
#04201:00
|
||
#04201:00
|
||
#04201:00
|
||
#04201:0001000100010001
|
||
#04201:02030203020302030203020302030203
|
||
#04201:00
|
||
#04201:00
|
||
#04201:7H7I7H7Y7I7H7Y7I7H7I7H7Y7I7H7Y7I
|
||
#04206:030405060708090A0B0C0D0E0F0G0H0I030405060708090A0B0C0D0E0F0G0H0I
|
||
#04211:2Z
|
||
#04212:000K000K
|
||
#04213:6E
|
||
#04222:0000003000000000
|
||
#04223:5R000000000000005R0000000000000000000000000000000000005V00000000
|
||
#04224:000000005S00000000000000000000000000005U000000000000000000000000
|
||
#04225:0000005T00003100
|
||
|
||
#04301:00
|
||
#04301:00
|
||
#04301:00
|
||
#04301:00
|
||
#04301:04040404
|
||
#04301:00
|
||
#04301:00
|
||
#04301:00
|
||
#04301:00
|
||
#04301:0001000100010001
|
||
#04301:02030203020302030203020302030203
|
||
#04301:00
|
||
#04301:00
|
||
#04301:7H7I7H7Y7I7H7Y7I7H7I7H7Y7I7H7Y7I
|
||
#04306:030405060708090A0B0C0D0E0F0G0H0I030405060708090A0B0C0D0E0F0G0H0I
|
||
#04311:6F
|
||
#04312:005R0000
|
||
#04313:5R000000002L0000
|
||
#04314:005S00002Q000000
|
||
#04315:0000002O0000005V
|
||
#04322:00002P00005U0000
|
||
#04323:002S005T00000000
|
||
#04324:2R0K000K
|
||
#04325:006G
|
||
|
||
#04401:00
|
||
#04401:00
|
||
#04401:00
|
||
#04401:00
|
||
#04401:04040404
|
||
#04401:00
|
||
#04401:00
|
||
#04401:00
|
||
#04401:00
|
||
#04401:0001000100010001
|
||
#04401:02030203020302030203020302030203
|
||
#04401:00
|
||
#04401:00
|
||
#04401:7F7G7F7X7G7F7X7G7F7G7F7X7G7F7X7G
|
||
#04406:030405060708090A0B0C0D0E0F0G0H0I030405060708090A0B0C0D0E0F0G0H0I
|
||
#04411:000K000K
|
||
#04412:320000000000005V
|
||
#04413:00000000005U0000
|
||
#04414:6H00002P00000000
|
||
#04415:002S2S00
|
||
#04422:5O000000002R0000
|
||
#04423:005S003F
|
||
#04424:00005U000000000000000000003G0000
|
||
#04425:0000005T0000003H
|
||
|
||
#04501:00
|
||
#04501:00
|
||
#04501:00
|
||
#04501:00
|
||
#04501:04040404
|
||
#04501:00
|
||
#04501:00
|
||
#04501:00
|
||
#04501:00
|
||
#04501:0001000100010001
|
||
#04501:02030203020302030203020302030203
|
||
#04501:00
|
||
#04501:00
|
||
#04501:7J7K7J7Z7K7J7Z7K7L7M7L807M7L807M
|
||
#04506:030405060708090A0B0C0D0E0F0G0H0I030405060708090A0B0C0D0E0F0G0H0I
|
||
#04511:33
|
||
#04512:000K000K
|
||
#04513:6I0000000000000000000000008M0000
|
||
#04514:006J
|
||
#04515:5W
|
||
#04522:005Y0000
|
||
#04523:005X000034000000
|
||
#04524:0000005Z0000005Y
|
||
#04525:0000000000600000
|
||
|
||
#04601:00
|
||
#04601:00
|
||
#04601:00
|
||
#04601:00
|
||
#04601:04040404
|
||
#04601:00
|
||
#04601:00
|
||
#04601:00
|
||
#04601:00
|
||
#04601:0001000100010001
|
||
#04601:02030203020302030203020302030203
|
||
#04601:00
|
||
#04601:00
|
||
#04601:7B7C7B7V7C7B7V7C7B7C7B7V7C7B7V7C
|
||
#04606:030405060708090A0B0C0D0E0F0G0H0I030405060708090A0B0C0D0E0F0G0H0I
|
||
#04611:003I000K
|
||
#04612:5J000000003J000000000000003R0000
|
||
#04613:00005J3K006O0000
|
||
#04614:000000000000003L0000000000003S00
|
||
#04615:6K006K003M5L0000
|
||
#04622:00006L0000000000003N00000000003T
|
||
#04623:35000K006N3O005M
|
||
#04624:00005K0000006M000000003P00000000
|
||
#04625:0000005K00003Q00
|
||
|
||
#04701:00
|
||
#04701:00
|
||
#04701:00
|
||
#04701:00
|
||
#04701:04040404
|
||
#04701:00
|
||
#04701:00
|
||
#04701:00
|
||
#04701:00
|
||
#04701:0001000100010001
|
||
#04701:02030203020302030203020302030203
|
||
#04701:00
|
||
#04701:00
|
||
#04701:7B7C7B7V7C7B7V7C7B7C7B7V7C7B7V7C
|
||
#04706:030405060708090A0B0C0D0E0F0G0H0I030405060708090A0B0C0D0E0F0G0H0I
|
||
#04711:5J5J0000
|
||
#04712:0000005K00000000
|
||
#04713:6K006K00005L0000
|
||
#04714:005K0000006O005M
|
||
#04715:360000000000002L
|
||
#04722:006L00002O002Q00
|
||
#04723:00000K00002P0000
|
||
#04724:00380000000000006N00000000000000
|
||
#04725:0000006M00000K00
|
||
|
||
#04801:00
|
||
#04801:00
|
||
#04801:00
|
||
#04801:00
|
||
#04801:04040404
|
||
#04801:00
|
||
#04801:00
|
||
#04801:00
|
||
#04801:00
|
||
#04801:0001000100010001
|
||
#04801:02030203020302030203020302030203
|
||
#04801:00
|
||
#04801:00
|
||
#04801:7F7G7F7X7G7F7X7G7F7G7F7X7G7F7X7G
|
||
#04806:030405060708090A0B0C0D0E0F0G0H0I030405060708090A0B0C0D0E0F0G0H0I
|
||
#04811:00000K00006U0000
|
||
#04812:003U006V
|
||
#04813:0000003J005P006W
|
||
#04814:00000000003I00003L0000000K000000
|
||
#04815:00006Q000000003K00003N0000005Q00
|
||
#04822:6P0000006R000000003M000000000000
|
||
#04823:3900000000006S000000003O00000000
|
||
#04824:5N005N006T003A3A
|
||
#04825:005O005O00000000
|
||
|
||
#04901:00
|
||
#04901:00
|
||
#04901:00
|
||
#04901:00
|
||
#04901:04040404
|
||
#04901:00
|
||
#04901:00
|
||
#04901:00
|
||
#04901:00
|
||
#04901:0001000100010001
|
||
#04901:02030203020302030203020302030203
|
||
#04901:00
|
||
#04901:00
|
||
#04901:7F7G7F7X7G7F7X7G7F7G7F7X7G7F7X7G
|
||
#04901:00
|
||
#04901:00
|
||
#04901:00
|
||
#04901:00
|
||
#04901:00
|
||
#04901:00
|
||
#04901:00
|
||
#04901:00
|
||
#04901:00
|
||
#04901:00
|
||
#04901:00
|
||
#04901:00
|
||
#04901:00
|
||
#04901:00
|
||
#04901:00
|
||
#04901:00
|
||
#04901:008O
|
||
#04906:030405060708090A0B0C0D0E0F0G0H0I030405060708090A0B0C0D0E0F0G0H0I
|
||
#04911:6X000070
|
||
#04912:006Y0000
|
||
#04913:5N000000000000006Z0000000000003J
|
||
#04914:000000005N0000000000003L00003L00
|
||
#04915:00005O000000003N00003N0000000000
|
||
#04922:0000003P00003P00003P0000003N0000
|
||
#04923:00003R00003R00003R0000003P000000
|
||
#04924:003T00003T005O0000005P0000005Q00
|
||
#04925:3V0K000K
|
||
|
||
#05001:00
|
||
#05001:00
|
||
#05001:00
|
||
#05001:00
|
||
#05001:04040404
|
||
#05001:00
|
||
#05001:00
|
||
#05001:00
|
||
#05001:00
|
||
#05001:0001000100010001
|
||
#05001:02030203020302030203020302030203
|
||
#05001:00
|
||
#05001:00
|
||
#05001:7H7I7H7Y7I7H7Y7I7H7I7H7Y7I7H7Y7I
|
||
#05006:030405060708090A0B0C0D0E0F0G0H0I030405060708090A0B0C0D0E0F0G0H0I
|
||
#05011:000K000K
|
||
#05012:2Z
|
||
#05014:0000003000000074
|
||
#05015:5R5R0000
|
||
#05022:71710031
|
||
#05023:005S0000005U0000
|
||
#05024:007200720000005V
|
||
#05025:0000005T00730000
|
||
|
||
#05101:00
|
||
#05101:00
|
||
#05101:00
|
||
#05101:00
|
||
#05101:04040404
|
||
#05101:00
|
||
#05101:00
|
||
#05101:00
|
||
#05101:00
|
||
#05101:0001000100010001
|
||
#05101:02030203020302030203020302030203
|
||
#05101:00
|
||
#05101:00
|
||
#05101:7H7I7H7Y7I7H7Y7I7H7I7H7Y7I7H7Y7I
|
||
#05106:030405060708090A0B0C0D0E0F0G0H0I030405060708090A0B0C0D0E0F0G0H0I
|
||
#05111:000K000K
|
||
#05112:00710000
|
||
#05113:7100007200000000
|
||
#05114:00720000002L0075
|
||
#05115:5R5R2Q00
|
||
#05122:005S002O00007400
|
||
#05123:00002P0000730000
|
||
#05124:002S005T0000005V
|
||
#05125:2R000000005U0000
|
||
|
||
#05201:00
|
||
#05201:00
|
||
#05201:00
|
||
#05201:00
|
||
#05201:04040404
|
||
#05201:00
|
||
#05201:00
|
||
#05201:00
|
||
#05201:00
|
||
#05201:0001000100010001
|
||
#05201:02030203020302030203020302030203
|
||
#05201:00
|
||
#05201:00
|
||
#05201:7F7G7F7X7G7F7X7G7F7G7F7X7G7F7X7G
|
||
#05206:030405060708090A0B0C0D0E0F0G0H0I030405060708090A0B0C0D0E0F0G0H0I
|
||
#05211:32
|
||
#05212:7600002P00000000
|
||
#05213:0F0F0F0F0F0F0F0F
|
||
#05214:002S2S3F
|
||
#05215:5O000000002R005V
|
||
#05222:000000005S00000000000000003G0000
|
||
#05223:000G000G000G000G000G000G000G000G
|
||
#05224:0000005T005U0000
|
||
#05225:005U00007700003H
|
||
|
||
#05301:00
|
||
#05301:00
|
||
#05301:00
|
||
#05301:00
|
||
#05301:00
|
||
#05301:00
|
||
#05301:00
|
||
#05301:00
|
||
#05301:00
|
||
#05301:0001000100010001
|
||
#05301:02030203020302030203020302030203
|
||
#05301:00
|
||
#05301:00
|
||
#05301:7J7K7J7Z7K7J7Z7K7L7M7L807M7L807M
|
||
#05301:00
|
||
#05301:00
|
||
#05301:00
|
||
#05301:00
|
||
#05301:00
|
||
#05301:00
|
||
#05301:00
|
||
#05301:78
|
||
#05301:00
|
||
#05301:00
|
||
#05301:00
|
||
#05301:008J
|
||
#05301:00
|
||
#05301:00
|
||
#05301:00
|
||
#05301:00
|
||
#05301:0000008I
|
||
#05306:030405060708090A0B0C0D0E0F0G0H0I030405060708090A0B0C0D0E0F0G0H0I
|
||
#05311:04040404
|
||
#05312:0F000F0000000F00000000000000000G
|
||
#05313:3B000F000F0F000F
|
||
#05314:00005X00000G0000005I0000000G0000
|
||
#05315:003C003B0000000G000060000F000600
|
||
#05322:5W000000000000005Y000000000000007900000000003D000000000000060000
|
||
#05323:000G000G00005Z00003E00000H000006
|
||
#05324:0I000000000000000M000000000000003D00000000000G00000000005Y000006
|
||
#05325:0000000000000J00000G000000000000
|
||
|
||
#05401:00
|
||
#05401:00
|
||
#05401:00
|
||
#05401:00
|
||
#05401:00
|
||
#05401:00
|
||
#05401:00
|
||
#05401:00
|
||
#05401:00
|
||
#05401:00
|
||
#05401:00
|
||
#05401:00
|
||
#05401:00
|
||
#05401:00
|
||
#05401:00
|
||
#05401:00
|
||
#05401:00
|
||
#05401:00
|
||
#05401:00
|
||
#05401:00
|
||
#05401:7A
|
||
#05401:00
|
||
#05401:00
|
||
#05401:00
|
||
#05401:00
|
||
#05401:89898989
|
||
#05401:00
|
||
#05401:00
|
||
#05401:00
|
||
#05401:00
|
||
#05401:00
|
||
#05401:0Q
|
||
#05403:5C
|
||
#05406:030405060708090A0B0C0D0E0F0G0H0I030405060708090A0B0C0D0E0F0G0H0I
|
||
#05411:0C
|
||
#05414:000D
|
||
#05425:08
|
||
|
||
#05501:00
|
||
#05501:00
|
||
#05501:00
|
||
#05501:00
|
||
#05501:00
|
||
#05501:00
|
||
#05501:00
|
||
#05501:00
|
||
#05501:00
|
||
#05501:00
|
||
#05501:00
|
||
#05501:00
|
||
#05501:00
|
||
#05501:00
|
||
#05501:00
|
||
#05501:00
|
||
#05501:00
|
||
#05501:00
|
||
#05501:00
|
||
#05501:00
|
||
#05501:00
|
||
#05501:00
|
||
#05501:00
|
||
#05501:00
|
||
#05501:00
|
||
#05501:8A8A8A8A
|
||
#05506:030405060708090A0B0C0D0E0F0G0H0I030405060708090A0B0C0D0E0F0G0H0I
|
||
|
||
#05601:00
|
||
#05601:00
|
||
#05601:00
|
||
#05601:00
|
||
#05601:00
|
||
#05601:00
|
||
#05601:00
|
||
#05601:00
|
||
#05601:00
|
||
#05601:00
|
||
#05601:00
|
||
#05601:00
|
||
#05601:00
|
||
#05601:00
|
||
#05601:00
|
||
#05601:00
|
||
#05601:00
|
||
#05601:00
|
||
#05601:00
|
||
#05601:00
|
||
#05601:00
|
||
#05601:00
|
||
#05601:00
|
||
#05601:00
|
||
#05601:00
|
||
#05601:8B8B8B8B
|
||
#05606:030405060708090A0B0C0D0E0F0G0H0I030405060708090A0B0C0D0E0F0G0H0I
|
||
#05622:000D
|
||
|
||
#05701:00
|
||
#05701:00
|
||
#05701:0000000000000000000B000000000000
|
||
#05701:00
|
||
#05701:00
|
||
#05701:00
|
||
#05701:00
|
||
#05701:00
|
||
#05701:00
|
||
#05701:00
|
||
#05701:00
|
||
#05701:00
|
||
#05701:00
|
||
#05701:00
|
||
#05701:00
|
||
#05701:00
|
||
#05701:00
|
||
#05701:00
|
||
#05701:00
|
||
#05701:00
|
||
#05701:00
|
||
#05701:00
|
||
#05701:00
|
||
#05701:00
|
||
#05701:008D
|
||
#05701:8C8C8C8C
|
||
#05701:00
|
||
#05701:00
|
||
#05701:00
|
||
#05701:00
|
||
#05701:00
|
||
#05701:8H
|
||
#05706:030405060708090A0B0C0D0E0F0G0H0I030405060708090A0B0C0D0E0F0G0H0I
|
||
|
||
#05806:030405060708090A0B0C0D0E0F0G0H0I030405060708090A0B0C0D0E0F0G0H0I
|
||
#05811:000L000L
|
||
#05812:0009000900090009
|
||
#05813:04000000040000040004000004000000
|
||
#05814:00000004000000000000000400000000
|
||
#05815:0C
|
||
#05822:89898989
|
||
#05823:0E0E0E0E0E0E0E0E
|
||
#05824:85858585
|
||
|
||
#05906:030405060708090A0B0C0D0E0F0G0H0I030405060708090A0B0C0D0E0F0G0H0I
|
||
#05911:0000000000000000000000000000000F
|
||
#05912:000L000L
|
||
#05913:04000000000000000400000000000400000000000000000004000000000G0000
|
||
#05914:8A8A8A8A
|
||
#05915:00000004000000000004000400000F00
|
||
#05922:86868686
|
||
#05923:0E0E0E0E0E0E0E0E
|
||
#05925:0009000900090000
|
||
|
||
#06002:0.5
|
||
#06003:2E
|
||
#06006:030405060708090A0B0C0D0E0F0G0H0I030405060708090A0B0C0D0E0F0G0H0I
|
||
#06011:00000004000000040000000400000400
|
||
#06012:04000000040000000004000004000000
|
||
#06013:0900000009000000090000000900000009000000090000000900000500000000
|
||
#06014:0H0L000L
|
||
#06015:000A000A000A000A000A000A0006000A
|
||
#06022:8B008B008B008B09
|
||
#06023:000E0E0E0E0E0E00
|
||
#06024:870087008700870E
|
||
#06025:000000000000000000000000000A0000
|
||
|
||
#06102:0.5
|
||
#06106:030405060708090A0B0C0D0E0F0G0H0I030405060708090A0B0C0D0E0F0G0H0I
|
||
#06111:04000004040000040004000404000000
|
||
#06112:000G0000000000000L00000G000000000F000000000G00000L00000000000000
|
||
#06113:0F0000000F0000000F000000000G000000000F00000000000F0000000F000000
|
||
#06114:00000F0000000F0000000F000000000G0000000G00000F0000000F0000000000
|
||
#06115:000000000000000G000000000F000000000G000000000000000G00000000000G
|
||
#06122:0000000G000G0000000G000000000F00000000000F00000G0000000G00000000
|
||
#06123:8C0000008C0000008C0000008C00000F
|
||
#06124:0E0E0E0E0E0E0E0E
|
||
#06125:88000000000000008800000000000000880000000000000088000000000G0000
|
||
|
||
#06201:00
|
||
#06201:00
|
||
#06201:00
|
||
#06201:00
|
||
#06201:00
|
||
#06201:00
|
||
#06201:00
|
||
#06201:00
|
||
#06201:00
|
||
#06201:00
|
||
#06201:00
|
||
#06201:00
|
||
#06201:00
|
||
#06201:00
|
||
#06201:00
|
||
#06201:00
|
||
#06201:00
|
||
#06201:00
|
||
#06201:00
|
||
#06201:00
|
||
#06201:00
|
||
#06201:00
|
||
#06201:00
|
||
#06201:00
|
||
#06201:00
|
||
#06201:00
|
||
#06201:00
|
||
#06201:00
|
||
#06201:00
|
||
#06201:00
|
||
#06201:00
|
||
#06201:29
|
||
#06203:B8
|
||
#06206:030405060708090A0B0C0D0E0F0G0H0I030405060708090A0B0C0D0E0F0G0H0I
|
||
#06211:00004000000000007B007B0000000042
|
||
#06212:08007C0041417C7V
|
||
#06213:003Z0000000051000000000040004000
|
||
#06214:7B00003Z00000052000000000000007C
|
||
#06215:00000000007B00000000000000000000
|
||
#06222:3Y00007V00004Z000000000000000000
|
||
#06223:00007B00000000500000003Z003Z0000
|
||
#06224:0C00000000007V00007C007V007B0000
|
||
#06225:007C00000000007C003Y000000000000
|
||
|
||
#06306:030405060708090A0B0C0D0E0F0G0H0I030405060708090A0B0C0D0E0F0G0H0I
|
||
#06311:000000007G7F007G0000000000480000
|
||
#06312:0000000000004646
|
||
#06313:4300000000007X0000000000007F0000
|
||
#06314:00400000000000007F007F0045004500
|
||
#06315:0000007X00000000007G000000470000
|
||
#06322:7F003Z00555600550000007X00000000
|
||
#06323:007G000053540053004000007G007X00
|
||
#06324:007F00003Z3Z0000
|
||
#06325:0000003Y00000000000000000000007G
|
||
|
||
#06406:030405060708090A0B0C0D0E0F0G0H0I030405060708090A0B0C0D0E0F0G0H0I
|
||
#06411:4C00004F00000057
|
||
#06412:000000007I00000000007H000000007I
|
||
#06413:000000004E00000000004E000000000000000000000000000000000000580000
|
||
#06414:7H00007Y00007Y000000480000480000
|
||
#06415:004D00004D00004G4G000000007H0059
|
||
#06422:00007H00007H00000046000046007Y00
|
||
#06423:00000000000048000000000000007I007H000000000000007I0000000000005A
|
||
#06424:007I000000000000007I004700000000
|
||
#06425:00000000000000000000007Y00000000
|
||
|
||
#06501:00
|
||
#06501:00
|
||
#06501:00
|
||
#06501:00
|
||
#06501:00
|
||
#06501:00
|
||
#06501:00
|
||
#06501:00
|
||
#06501:00
|
||
#06501:00
|
||
#06501:00
|
||
#06501:00
|
||
#06501:00
|
||
#06501:00
|
||
#06501:00
|
||
#06501:00
|
||
#06501:00
|
||
#06501:00
|
||
#06501:00
|
||
#06501:00
|
||
#06501:00
|
||
#06501:00
|
||
#06501:00
|
||
#06501:00
|
||
#06501:00
|
||
#06501:00
|
||
#06501:00
|
||
#06501:00
|
||
#06501:00
|
||
#06501:00
|
||
#06501:37
|
||
#06506:030405060708090A0B0C0D0E0F0G0H0I030405060708090A0B0C0D0E0F0G0H0I
|
||
#06511:004E000000004D000000000000460000
|
||
#06512:007O0000450000000048000043000046
|
||
#06513:0046008100004I0042007P000042007Q
|
||
#06514:4H0000004300007O004H00007Q000042
|
||
#06515:00004E00007N00007P000082007P0000
|
||
#06522:42007N00004D00004000480000004A00
|
||
#06523:00467O8100003Z82
|
||
#06524:7N000000004I00004K004H0000004900
|
||
#06525:3Z0000004J000000007Q00004L000000
|
||
|
||
#06606:030405060708090A0B0C0D0E0F0G0H0I030405060708090A0B0C0D0E0F0G0H0I
|
||
#06611:7B000000000000007B00000000470000
|
||
#06612:00007B000000007C00007B0000000000
|
||
#06613:007C007V00007V00007C000040004500
|
||
#06614:00000000007B00000000007V00000042
|
||
#06615:0045007C
|
||
#06622:00000000004200000000003Z007B0000
|
||
#06623:00470047000043000040000000007V00
|
||
#06624:0000460000000040000041000000007C
|
||
#06625:457C3Z00
|
||
|
||
#06706:030405060708090A0B0C0D0E0F0G0H0I030405060708090A0B0C0D0E0F0G0H0I
|
||
#06711:000000000000004L0000000000000000
|
||
#06712:004N
|
||
#06713:0000000000008000004O008000000000
|
||
#06714:00420000007L007M00004P007M000000
|
||
#06715:000043007M0000007L00004Q007L0000
|
||
#06722:4300004000000000007M00004R008000
|
||
#06723:00007L003Z00000000007L00004S007M
|
||
#06724:007M0000004100000000000000004T00
|
||
#06725:7L00008000003Y00000000000000004U
|
||
|
||
#06801:00
|
||
#06801:00
|
||
#06801:00
|
||
#06801:00
|
||
#06801:00
|
||
#06801:00
|
||
#06801:00
|
||
#06801:00
|
||
#06801:00
|
||
#06801:00
|
||
#06801:00
|
||
#06801:00
|
||
#06801:00
|
||
#06801:7D7E7D7W7E7D7W7E0000000000000000
|
||
#06806:030405060708090A0B0C0D0E0F0G0H0I030405060708090A0B0C0D0E0F0G0H0I
|
||
#06811:43000000000000000000000000000041
|
||
#06812:0000004B00004B00007E00000000007E
|
||
#06813:00000000000000000041000000003Y00
|
||
#06814:0000003Y00003Y007D007D0000007W00
|
||
#06815:000000003Y3Y0000
|
||
#06822:003Z0000003Z00000000007W007D0000
|
||
#06823:00000000000000000000004L004L0000
|
||
#06824:003X0000003X0000000000007E000000
|
||
#06825:0000004N
|
||
|
||
#06901:00000000000B0000
|
||
#06906:030405060708090A0B0C0D0E0F0G0H0I030405060708090A0B0C0D0E0F0G0H0I
|
||
#06911:00003Y7U
|
||
#06912:003Y7T00
|
||
#06913:3Y0000007S000000004L0000007T0000
|
||
#06914:7R00004L004L0000007U00004P00007U
|
||
#06915:007S0083007R007S0000000000000000
|
||
#06922:004L00000000004L00007T00004Q004S
|
||
#06923:007R0083004N0084
|
||
#06924:00004N0000004N000000008400000000
|
||
#06925:00000000000000000000004O00004T00
|
||
|
||
#07001:00
|
||
#07001:00
|
||
#07001:00
|
||
#07001:00
|
||
#07001:00
|
||
#07001:00
|
||
#07001:00
|
||
#07001:00
|
||
#07001:00
|
||
#07001:0001000100010001
|
||
#07001:02030203020302030203020302030203
|
||
#07001:00
|
||
#07001:00
|
||
#07001:7B7C7B7V7C7B7V7C7B7C7B7V7C7B7V7C
|
||
#07001:00
|
||
#07001:0R
|
||
#07001:1R001T001R001R1S001R1S001R001T00
|
||
#07001:00
|
||
#07001:2A2B2C2D2E2B2F2B
|
||
#07001:8F8K8F008F8K8F008F8K8F008F8K0000
|
||
#07001:00
|
||
#07001:00
|
||
#07001:00
|
||
#07001:04040404
|
||
#07001:00
|
||
#07001:4545
|
||
#07001:003Z0000000040000000430000008E00
|
||
#07001:0C00000000000000004200003Z000000
|
||
#07001:000040000000003Z0000004000003Y00
|
||
#07001:00000000003Z00000000000000410000
|
||
#07001:0000003Z000000000000000000000000
|
||
#07001:0000000041000000000000000000004L
|
||
#07006:030405060708090A0B0C0D0E0F0G0H0I030405060708090A0B0C0D0E0F0G0H0I
|
||
#07015:000K000K
|
||
|
||
#07101:00
|
||
#07101:00
|
||
#07101:00
|
||
#07101:00
|
||
#07101:00
|
||
#07101:00
|
||
#07101:00
|
||
#07101:00
|
||
#07101:00
|
||
#07101:0001000100010001
|
||
#07101:02030203020302030203020302030203
|
||
#07101:00
|
||
#07101:00
|
||
#07101:7F7G7F7X7G7F7X7G7F7G7F7X7G7F7X7G
|
||
#07101:00
|
||
#07101:00
|
||
#07101:1O001Q001O001O1P001O1P001O001Q00
|
||
#07101:00
|
||
#07101:2A2B2C2D2E2B2F2B
|
||
#07101:8F008K008F0000008F008K008G8L8G8L8F0000008K0000008F008K0000000000
|
||
#07101:00
|
||
#07101:00
|
||
#07101:00
|
||
#07101:04040404
|
||
#07101:004V
|
||
#07101:0000004000000000
|
||
#07101:000000003Y000000004G000000000000
|
||
#07101:003Z000000004700
|
||
#07101:3Y000000004E008E
|
||
#07101:00000040000000420000000000450000
|
||
#07101:00410000004100000000004800004200
|
||
#07101:00000000000000000000000000000040
|
||
#07106:030405060708090A0B0C0D0E0F0G0H0I030405060708090A0B0C0D0E0F0G0H0I
|
||
#07115:000K000K
|
||
|
||
#07201:00
|
||
#07201:00
|
||
#07201:00
|
||
#07201:00
|
||
#07201:00
|
||
#07201:00
|
||
#07201:00
|
||
#07201:00
|
||
#07201:00
|
||
#07201:0001000100010001
|
||
#07201:02030203020302030203020302030203
|
||
#07201:00
|
||
#07201:00
|
||
#07201:7H7I7H7Y7I7H7Y7I7H7I7H7Y7I7H7Y7I
|
||
#07201:00
|
||
#07201:00
|
||
#07201:1L001N001L001L1M001L1M001L001N00
|
||
#07201:00
|
||
#07201:2A2B2C2D2E2B2F2B
|
||
#07201:8F8K8F008F8K8F008F8K8F008F8K0000
|
||
#07201:00
|
||
#07201:00
|
||
#07201:00
|
||
#07201:04040404
|
||
#07201:00005H00005G0000000000000000000000000000000000000000000000000000
|
||
#07201:5G000000000000420000000000000000
|
||
#07201:00005F00005E000000002K0000000000000000003Y0000000000000000000000
|
||
#07201:5E0000000000003Z0000000000000000
|
||
#07201:00000000002Q00000000004L00000000
|
||
#07201:003Z0000
|
||
#07201:0000004P
|
||
#07201:00003Y000000008E
|
||
#07206:030405060708090A0B0C0D0E0F0G0H0I030405060708090A0B0C0D0E0F0G0H0I
|
||
#07214:000000000000000000000000005B0000
|
||
#07215:000K000K
|
||
#07222:0000000000000000000000000000000000000000000000000000005C00000000
|
||
#07224:000000000000005D
|
||
|
||
#07301:00
|
||
#07301:00
|
||
#07301:00
|
||
#07301:00
|
||
#07301:00
|
||
#07301:00
|
||
#07301:000K0000
|
||
#07301:00
|
||
#07301:00
|
||
#07301:0001000100010001
|
||
#07301:02000003020302030203020302030203
|
||
#07301:00
|
||
#07301:00
|
||
#07301:7N7O7N817O7N817O7P7Q7P827Q7P827Q
|
||
#07301:00
|
||
#07301:00
|
||
#07301:1U001W001U001U1V000000001O001Q00
|
||
#07301:00
|
||
#07301:2A2B2C2D2E2B2F2B
|
||
#07306:030405060708090A0B0C0D0E0F0G0H0I030405060708090A0B0C0D0E0F0G0H0I
|
||
#07311:004E4E00008K0000000000008F000000
|
||
#07312:8F000000004D4D000400000000000000
|
||
#07313:0000460046000000040000000000008L00004800480000000400000000000000
|
||
#07314:4H000000004I4I0042000000008K0049
|
||
#07315:420000004500008G004H4H0000003W00
|
||
#07322:0400000043000000001O1P00004K0000
|
||
#07323:3Z000000000000008F000000008L000040000000000000004L00000000000000
|
||
#07324:008K8F004J0000008F008K0000008E00
|
||
#07325:0003020000008G004K0000000K000000
|
||
|
||
#07401:00
|
||
#07401:00
|
||
#07401:00
|
||
#07401:00
|
||
#07401:00
|
||
#07401:00
|
||
#07401:00
|
||
#07401:00
|
||
#07401:00
|
||
#07401:0001000100010001
|
||
#07401:02030203020302030203020302030203
|
||
#07401:00
|
||
#07401:00
|
||
#07401:7B7C7B7V7C7B7V7C7B7C7B7V7C7B7V7C
|
||
#07401:00
|
||
#07401:00
|
||
#07401:1R001T001R001R1S001R1S001R001T00
|
||
#07401:00
|
||
#07401:2A2B2C2D2E2B2F2B
|
||
#07406:030405060708090A0B0C0D0E0F0G0H0I030405060708090A0B0C0D0E0F0G0H0I
|
||
#07411:004600008F8F0K00
|
||
#07412:00470047000000000000000000470000
|
||
#07413:4500000045000000008K000040000000
|
||
#07414:008K0000004200000040000000004500
|
||
#07415:8F008F00000043000000003Z00000042
|
||
#07422:00000000008K004000004100008K0000
|
||
#07423:000K3Z8F
|
||
#07424:00008F8F0000008E
|
||
#07425:04040404
|
||
|
||
#07501:04040404
|
||
#07501:00
|
||
#07501:00
|
||
#07501:00
|
||
#07501:00
|
||
#07501:00
|
||
#07501:00
|
||
#07501:00
|
||
#07501:00
|
||
#07501:00
|
||
#07501:02030203020302030203020302030203
|
||
#07501:00
|
||
#07501:00
|
||
#07501:7L7M7L807M7L807M7L7M7L807M7L807M
|
||
#07501:00
|
||
#07501:00
|
||
#07501:1X001Z001X001X1Y001X1Y001X001Z00
|
||
#07501:00
|
||
#07501:2A2B2C2D2E2B2F2B
|
||
#07506:030405060708090A0B0C0D0E0F0G0H0I030405060708090A0B0C0D0E0F0G0H0I
|
||
#07511:004200000K00000000008K0000000000
|
||
#07512:000000000041000000000000008K0000
|
||
#07513:8F00430000003Y00004O00008F000000
|
||
#07514:000000400000004L0000010000008E00
|
||
#07515:008K000000008G004N0000004R000000
|
||
#07522:00000000000000003Z000000008L0000000000004P000000000000004T000000
|
||
#07523:43008F00008K008G0000004Q004S0000
|
||
#07524:00000000000000008F0000000000008L00000000000000000K00000000004U00
|
||
#07525:000100018F000001
|
||
|
||
#07601:00
|
||
#07601:00
|
||
#07601:00
|
||
#07601:00
|
||
#07601:00
|
||
#07601:00
|
||
#07601:00
|
||
#07601:00
|
||
#07601:00
|
||
#07601:0000000000010001
|
||
#07601:02030203020302030203000302030200
|
||
#07601:00
|
||
#07601:00
|
||
#07601:7D7E7D7W7E7D7W7E7D7E7D7W7E7D7W7E
|
||
#07601:00
|
||
#07601:00
|
||
#07601:20002200200020002120002120002200
|
||
#07601:00
|
||
#07601:2A2B2C2D2E2B2F2B
|
||
#07601:8F8K8F008F8K8F008F8K8F008F8K0000
|
||
#07606:030405060708090A0B0C0D0E0F0G0H0I030405060708090A0B0C0D0E0F0G0H0I
|
||
#07611:040000000400008E
|
||
#07612:00004304
|
||
#07613:450000000000000000003Z00004L0000
|
||
#07614:0000000004000000004000004N00004O
|
||
#07615:430000004B02004N
|
||
#07622:000000000K00000000410041004O0003
|
||
#07623:003Z004B003Z4B0000003Y003Y004P00
|
||
#07624:00000100000001000000004L0000004Q
|
||
#07625:003X003Y003X3Y00000000000K000000
|
||
|
||
#07701:00
|
||
#07701:00
|
||
#07701:00
|
||
#07701:00
|
||
#07701:04040404
|
||
#07701:00
|
||
#07701:00
|
||
#07701:00
|
||
#07701:00
|
||
#07701:0001000100010001
|
||
#07701:02000000020000000000000000000203
|
||
#07701:00
|
||
#07701:00
|
||
#07701:7R7S7R837S7R837S7T7U7T847U7T847U
|
||
#07701:00
|
||
#07701:00
|
||
#07701:23002500230023240026270026002800
|
||
#07701:00
|
||
#07701:2A2B2C2D2E2B2F2B
|
||
#07706:030405060708090A0B0C0D0E0F0G0H0I030405060708090A0B0C0D0E0F0G0H0I
|
||
#07711:004X00024X000H00
|
||
#07712:004P0000004X004P0000004X0003004K
|
||
#07713:4R000000000000004P0000004R000000020000004P000000020000008E000006
|
||
#07714:0003004R00000003004R000000004X00
|
||
#07715:8F000000000000008F000000008L0000000000008K00000000008K0000000600
|
||
#07722:008K0003008K008G00030003004Y0000
|
||
#07723:000000008F000000000003000000008L00000000020000008F00000000060000
|
||
#07724:00000K8G8F004S00
|
||
#07725:0I020M0J00000K06
|
||
|
||
#07801:04040404
|
||
#07801:0001000100010001
|
||
#07801:000K000K
|
||
#07801:00
|
||
#07801:00
|
||
#07801:00
|
||
#07801:00
|
||
#07801:00
|
||
#07801:00
|
||
#07801:00
|
||
#07801:02030203020302030203020302030203
|
||
#07801:00
|
||
#07801:00
|
||
#07801:7B7C7B7V7C7B7V7C7B7C7B7V7C7B7V7C
|
||
#07801:00
|
||
#07801:00
|
||
#07801:00
|
||
#07801:00
|
||
#07801:00
|
||
#07801:8F8K8F008F8K8F008F8K8F008F8K0000
|
||
#07806:030405060708090A0B0C0D0E0F0G0H0I030405060708090A0B0C0D0E0F0G0H0I
|
||
#07811:4545
|
||
#07812:00004000000040000042000000008E00
|
||
#07813:00002C0000432F00
|
||
#07814:003Z003Z003Z003Z0000004000002B00
|
||
#07815:002B00002E003Z00
|
||
#07822:000000004100000000002B0000410000
|
||
#07823:1R001T0000001R00001R000000003Y00
|
||
#07824:2A0000001R00001S00001S001R00004L
|
||
#07825:0C00002D0000001T
|
||
|
||
#07901:04040404
|
||
#07901:0001000100010001
|
||
#07901:00
|
||
#07901:00
|
||
#07901:00
|
||
#07901:00
|
||
#07901:00
|
||
#07901:00
|
||
#07901:00
|
||
#07901:00
|
||
#07901:02030203020302030203020302030203
|
||
#07901:00
|
||
#07901:00
|
||
#07901:7F7G7F7X7G7F7X7G7F7G7F7X7G7F7X7G
|
||
#07901:00
|
||
#07901:00
|
||
#07901:00
|
||
#07901:00
|
||
#07901:00
|
||
#07901:8F8K8F008F8K8G008F008K008F8K0000
|
||
#07906:030405060708090A0B0C0D0E0F0G0H0I030405060708090A0B0C0D0E0F0G0H0I
|
||
#07911:1O0K4V47
|
||
#07912:00001Q0000002D00004G000000450000
|
||
#07913:2A0000001O00004200004E000K004200
|
||
#07914:0000000000004000000000004000008L00000000000048000000000000004000
|
||
#07915:00410000004100002E00000000008E00
|
||
#07922:00003Z0000001O00001O00001O000000
|
||
#07923:3Y0000003Y00001P00001P0000001Q00
|
||
#07924:000000002B00000000000000008L000000000000000000002F00000000000000
|
||
#07925:000000002C00008G00002B0000002B00
|
||
|
||
#08001:04040404
|
||
#08001:0000000000010001
|
||
#08001:00
|
||
#08001:00
|
||
#08001:00
|
||
#08001:00
|
||
#08001:00
|
||
#08001:00
|
||
#08001:00
|
||
#08001:00
|
||
#08001:02030203020302030203020302030203
|
||
#08001:00
|
||
#08001:00
|
||
#08001:7H7I7H7Y7I7H7Y7I7H7I7H7Y7I7H7Y7I
|
||
#08001:00
|
||
#08001:00
|
||
#08001:00
|
||
#08001:00
|
||
#08001:00
|
||
#08001:8F8K8F008F8K8F008F8K8F008F8K0000
|
||
#08006:030405060708090A0B0C0D0E0F0G0H0I030405060708090A0B0C0D0E0F0G0H0I
|
||
#08011:2A00002F
|
||
#08012:1L2B0000002B0000
|
||
#08013:001N2C002E001L00
|
||
#08014:00001L2D001M002B
|
||
#08015:5E5F005E00001L0000003Y0000008E00
|
||
#08022:5G5H005G0000001M001L00000K001N00
|
||
#08023:000001000K0001000000004L005B0000
|
||
#08024:00000000000000003Y002Q0000003Z0000000000000000004P00005C00000000
|
||
#08025:000000003Z2K00420000000000005D00
|
||
|
||
#08101:00
|
||
#08101:00
|
||
#08101:00
|
||
#08101:00
|
||
#08101:04040404
|
||
#08101:00
|
||
#08101:00
|
||
#08101:00
|
||
#08101:00
|
||
#08101:0001000100010001
|
||
#08101:02030203020302030203020302030203
|
||
#08101:00
|
||
#08101:00
|
||
#08101:7N7O7N817O7N817O7P7Q7P827Q7P827Q
|
||
#08101:00
|
||
#08101:00
|
||
#08101:1U001W001U001U1V001O1P001O001Q00
|
||
#08101:00
|
||
#08101:2A2B2C2D2E2B2F2B
|
||
#08106:030405060708090A0B0C0D0E0F0G0H0I030405060708090A0B0C0D0E0F0G0H0I
|
||
#08111:00004E00000000400000004000000040
|
||
#08112:4C008F004600003X00003Z000K003Z00
|
||
#08113:8F0046008F0000008F000000003Y0000
|
||
#08114:4E00000042003Z00003X00004L000045
|
||
#08115:00004G0000004800000000008G00008L0000000000003X000000000042000000
|
||
#08122:008K00000K0042004L004L0000440000
|
||
#08123:004800450040008G004O00003W008E00
|
||
#08124:00000000008K00004P008K00008K0000
|
||
#08125:000000000000000000004500008L000000000000000000008F00000000000000
|
||
|
||
#08201:00
|
||
#08201:00
|
||
#08201:00
|
||
#08201:0001000100010001
|
||
#08201:04040004
|
||
#08201:00
|
||
#08201:00
|
||
#08201:00
|
||
#08201:00
|
||
#08201:00
|
||
#08201:02000000020002000000000002000203
|
||
#08201:00
|
||
#08201:00
|
||
#08201:7B007B007C007V007B007B7V7C007V7C
|
||
#08201:00
|
||
#08201:00
|
||
#08201:00
|
||
#08201:00
|
||
#08201:00
|
||
#08201:8F8K8F008F8K8F008F8K8F008F8K0000
|
||
#08206:030405060708090A0B0C0D0E0F0G0H0I030405060708090A0B0C0D0E0F0G0H0I
|
||
#08211:000002000K001R00001R000000002B00
|
||
#08212:1R0000001R000003007C00002F000000
|
||
#08213:00001T000041001S00001S001R001T00
|
||
#08214:0040000300002D0002002B0000030000
|
||
#08215:00003Z0000003Y002E00004O004Q0000
|
||
#08222:00030041007B007C00030003007B004Q
|
||
#08223:3Z002B003Y00004L004L00004P008E00
|
||
#08224:007C007V00030000040002000K000000
|
||
#08225:2A002C004N4N004S
|
||
|
||
#08301:00
|
||
#08301:00
|
||
#08301:00
|
||
#08301:0001000100010001
|
||
#08301:04040404
|
||
#08301:00
|
||
#08301:00
|
||
#08301:00
|
||
#08301:00
|
||
#08301:00
|
||
#08301:02030203020302030203020302030203
|
||
#08301:00
|
||
#08301:00
|
||
#08301:7L7M7L807M7L807M7L7M7L807M7L807M
|
||
#08301:00
|
||
#08301:00
|
||
#08301:00
|
||
#08301:00
|
||
#08301:00
|
||
#08301:8F8K8F008F8K8G008F008K008F8K0000
|
||
#08306:030405060708090A0B0C0D0E0F0G0H0I030405060708090A0B0C0D0E0F0G0H0I
|
||
#08311:00002B0000001X00001X00001X000000
|
||
#08312:1X0000001X00001Y00001Y0000001Z00
|
||
#08313:001Z00002E000K00
|
||
#08314:2A0000002C00003Y00002B0000008E00
|
||
#08315:0000004O00004O002R004P002F000000
|
||
#08322:004Q0000004P008G000000004P002B00
|
||
#08323:000000004P0000004Q0000002D00008L0000000000004W00000000004P000000
|
||
#08324:4R0000000000000000000000008L0000000000000000000000004Q0000000000
|
||
#08325:000000000K000000000000000000004O
|
||
|
||
#08401:00
|
||
#08401:00
|
||
#08401:00000000000000000020000020000000
|
||
#08401:00
|
||
#08401:00
|
||
#08401:00
|
||
#08401:0000000000210022
|
||
#08401:00
|
||
#08401:00
|
||
#08401:0001000100010001
|
||
#08401:02030203020302030203020302030203
|
||
#08401:00
|
||
#08401:00
|
||
#08401:7D7E7D7W7E7D7W7E7D7E7D7W7E7D7W7E
|
||
#08401:00
|
||
#08401:00
|
||
#08401:00
|
||
#08401:00
|
||
#08401:2A2B2C2D2E2B2F2B
|
||
#08401:8F8K8F008F8K8F008F8K8F008F8K0000
|
||
#08406:030405060708090A0B0C0D0E0F0G0H0I030405060708090A0B0C0D0E0F0G0H0I
|
||
#08411:04204B0F
|
||
#08412:200000000F00000004003Y00000G0000
|
||
#08413:000G000000000F00004100004N000F00
|
||
#08414:4500000G000G00004300004L004O000G
|
||
#08415:0F000F000400000G004000003Y004P00
|
||
#08422:43000000003X3Y000F003Z0004008E00
|
||
#08423:003X003Y00002000000G0041004L004Q
|
||
#08424:00002200003Z4B0000000F0000004N00
|
||
#08425:003Z004B000000210000000G0000004O
|
||
|
||
#08501:00
|
||
#08501:000000000000000000000000008M0000
|
||
#08501:00
|
||
#08501:00
|
||
#08501:00
|
||
#08501:00
|
||
#08501:00
|
||
#08501:00
|
||
#08501:00
|
||
#08501:0001000100010001
|
||
#08501:02030200020302030203020302030200
|
||
#08501:00
|
||
#08501:00
|
||
#08501:7R7S7R837S7R837S7T7U7T847U7T847U
|
||
#08501:00
|
||
#08501:00
|
||
#08501:00
|
||
#08501:00
|
||
#08501:2A2B2C2D2E2B2F2B
|
||
#08501:8F8K00008F8K8G008F008K008F8K0000
|
||
#08506:030405060708090A0B0C0D0E0F0G0H0I030405060708090A0B0C0D0E0F0G0H0I
|
||
#08511:0G000G000G000G00000F000026002800
|
||
#08512:0I000000250000000I0000000J0000000G000006000000000H0000008E000000
|
||
#08513:06000006000000002300000000000F0000000600000000000600000600000300
|
||
#08514:00000F0000000F0000000F0000008G000006000000004X000000060000000F00
|
||
#08515:000600008F00000000004X00008L0000060000000G000000000600000G000000
|
||
#08522:230000004X0000004P000006000024000000260000000F0000000F0000004K00
|
||
#08523:004P0000060023004X004P000G004X00
|
||
#08524:4R00004R0006004P004R0000004Y0000
|
||
#08525:0000060000000300000600004R00008L00000000270000004S00000000000000
|
||
|
||
#08601:00
|
||
#08601:00
|
||
#08601:00
|
||
#08601:00
|
||
#08601:00
|
||
#08601:00
|
||
#08601:00
|
||
#08601:00
|
||
#08601:00
|
||
#08601:00
|
||
#08601:00
|
||
#08601:00
|
||
#08601:00
|
||
#08601:7B7C000000007B7C000000007B7C0000
|
||
#08606:030405060708090A0B0C0D0E0F0G0H0I030405060708090A0B0C0D0E0F0G0H0I
|
||
#08611:4G00000400000000
|
||
#08612:1500000I00000J00
|
||
#08613:00480000004300000000000045000000
|
||
#08614:00004600000015000000000015000045
|
||
#08615:000000000000400000000000004M003Z
|
||
#08622:0000004700000Y0000000040003W0000
|
||
#08623:040000000000003Z00003Z003Z000000
|
||
#08624:0Y00000045000000004100000Y000000
|
||
#08625:0I003Y04
|
||
|
||
#08701:00
|
||
#08701:00
|
||
#08701:00
|
||
#08701:00
|
||
#08701:00
|
||
#08701:00
|
||
#08701:00
|
||
#08701:00
|
||
#08701:00
|
||
#08701:00
|
||
#08701:00
|
||
#08701:00
|
||
#08701:00
|
||
#08701:7B7C000000007B7C000000007B7C0000
|
||
#08706:030405060708090A0B0C0D0E0F0G0H0I030405060708090A0B0C0D0E0F0G0H0I
|
||
#08711:4G00000J
|
||
#08712:15450015
|
||
#08713:04000000004300000000000045000000
|
||
#08714:004800000000400000000040004M0000
|
||
#08715:000000000000003Z00003Z00003W0045
|
||
#08722:0000460000000400004100003Z00003Z
|
||
#08723:0D00000Y00000Y00
|
||
#08724:0Y000047000015003Y00000004000000
|
||
#08725:0I00000I00000000
|
||
|
||
#08801:00
|
||
#08801:00
|
||
#08801:00
|
||
#08801:00
|
||
#08801:00
|
||
#08801:00
|
||
#08801:00
|
||
#08801:00
|
||
#08801:00000015
|
||
#08801:00
|
||
#08801:00
|
||
#08801:00
|
||
#08801:0000000000000000005I000000000000
|
||
#08801:7B7C000000007B7C000000007B7C0000
|
||
#08806:030405060708090A0B0C0D0E0F0G0H0I030405060708090A0B0C0D0E0F0G0H0I
|
||
#08811:0000000000000040000000000J000004
|
||
#08812:0I00000000000000000041000000000000004000000000000Y00000000060000
|
||
#08813:1500004100003Z000000000006000600
|
||
#08814:04000000000000003Y0000000Y00000000000000000047000000000600004500
|
||
#08815:004L000000000400000000000006003Z
|
||
#08822:000000003Y000000000000000I00000000000000450000000006000000003Y00
|
||
#08823:8N0000000000150000000000454M0000
|
||
#08824:0Y000000000000003Z0000003Y4B0000
|
||
#08825:4N00000000000000000000003Z3X0000
|
||
|
||
#08906:030405060708090A0B0C0D0E0F0G0H0I030405060708090A0B0C0D0E0F0G0H0I
|
||
#08911:0C
|
||
#08913:08
|
||
#08923:2H
|
||
#08924:2L
|
||
#08925:2O
|
||
|