Files
admin-d-j-nero-joker/Joke[XE]_.pms

2818 lines
57 KiB
Plaintext

*---------------------- HEADER FIELD
#PLAYER 3
#GENRE RENAISSANCE
#TITLE Joker[XE]
#ARTIST D.J.Nero
#BPM 184
#PLAYLEVEL 42
#RANK 3
#TOTAL 400
#STAGEFILE title.jpg
#WAV01 opHH.wav
#WAV02 close.wav
#WAV03 close.wav
#WAV04 kickA.wav
#WAV05 kickB.wav
#WAV06 kickB.wav
#WAV07 kick32.wav
#WAV08 FXkick.wav
#WAV09 snare.wav
#WAV0A snare.wav
#WAV0B reverse.wav
#WAV0C SE1.wav
#WAV0D bell.wav
#WAV0E ride.wav
#WAV0F snare-Fill.wav
#WAV0G snare-Fill.wav
#WAV0H clashA.wav
#WAV0I clashB.wav
#WAV0J clashC.wav
#WAV0K clap.wav
#WAV0L clap-deep.wav
#WAV0M clashB.wav
#WAV0N bgm1.wav
#WAV0O bgm1.wav
#WAV0P bgm2.wav
#WAV0Q bgm2.wav
#WAV0R bgm3.wav
#WAV0S str01.wav
#WAV0T str01.wav
#WAV0U str02.wav
#WAV0V str03.wav
#WAV0W str03.wav
#WAV0X str04.wav
#WAV0Y str05.wav
#WAV0Z str-01.wav
#WAV10 str-01.wav
#WAV11 str-02.wav
#WAV12 str-03.wav
#WAV13 str-03.wav
#WAV14 str-04.wav
#WAV15 str-05.wav
#WAV16 harp1.wav
#WAV17 harp2.wav
#WAV18 harp3.wav
#WAV19 harp4.wav
#WAV1A harp5.wav
#WAV1B harp6.wav
#WAV1C harp16-01.wav
#WAV1D harp16-02.wav
#WAV1E harp16-03.wav
#WAV1F harp16-04.wav
#WAV1G harp16-05.wav
#WAV1H harp16-06.wav
#WAV1I core1.wav
#WAV1J core1.wav
#WAV1K core1b.wav
#WAV1L core2.wav
#WAV1M core2.wav
#WAV1N core2b.wav
#WAV1O core3.wav
#WAV1P core3.wav
#WAV1Q core3b.wav
#WAV1R core4.wav
#WAV1S core4.wav
#WAV1T core4b.wav
#WAV1U core5.wav
#WAV1V core5.wav
#WAV1W core5b.wav
#WAV1X core6.wav
#WAV1Y core6.wav
#WAV1Z core6b.wav
#WAV20 core7.wav
#WAV21 core7.wav
#WAV22 core7b.wav
#WAV23 core8.wav
#WAV24 core8.wav
#WAV25 core8b.wav
#WAV26 core9.wav
#WAV27 core9.wav
#WAV28 core9b.wav
#WAV29 arp-bgm.wav
#WAV2A arp1.wav
#WAV2B arp2.wav
#WAV2C arp3.wav
#WAV2D arp4.wav
#WAV2E arp5.wav
#WAV2F arp6.wav
#WAV2G p-8-1.wav
#WAV2H p-8-2.wav
#WAV2I p-8-3.wav
#WAV2J p-8-4.wav
#WAV2K p-8-5.wav
#WAV2L p-8-6.wav
#WAV2M p-8-7.wav
#WAV2N p-8-8.wav
#WAV2O p-8-9.wav
#WAV2P p-8-10.wav
#WAV2Q p-8-11.wav
#WAV2R p-8-12.wav
#WAV2S p-8-13.wav
#WAV2T pA-1.wav
#WAV2U pA-2.wav
#WAV2V pA-2b.wav
#WAV2W pA-3.wav
#WAV2X pA-4.wav
#WAV2Y pA-4b.wav
#WAV2Z pA-5.wav
#WAV30 pA-6.wav
#WAV31 pA-7.wav
#WAV32 pA-8.wav
#WAV33 pA-9.wav
#WAV34 pA-10.wav
#WAV35 pA-11.wav
#WAV36 pA-12.wav
#WAV37 SE3.wav
#WAV38 pA-12b.wav
#WAV39 pA-13.wav
#WAV3A pA-13b.wav
#WAV3B pA-14.wav
#WAV3C pA-14b.wav
#WAV3D pA-15.wav
#WAV3E pA-15b.wav
#WAV3F p-16-1.wav
#WAV3G p-16-2.wav
#WAV3H p-16-3.wav
#WAV3I p-16-4.wav
#WAV3J p-16-5.wav
#WAV3K p-16-6.wav
#WAV3L p-16-7.wav
#WAV3M p-16-8.wav
#WAV3N p-16-9.wav
#WAV3O p-16-10.wav
#WAV3P p-16-11.wav
#WAV3Q p-16-12.wav
#WAV3R p-16-13.wav
#WAV3S p-16-14.wav
#WAV3T p-16-15.wav
#WAV3U p-16-16.wav
#WAV3V p-16-17.wav
#WAV3W ps-16-2.wav
#WAV3X ps-16-1.wav
#WAV3Y ps-16-1.wav
#WAV3Z ps-16-2.wav
#WAV40 ps-16-3.wav
#WAV41 ps-16-4.wav
#WAV42 ps-16-5.wav
#WAV43 ps-16-6.wav
#WAV44 ps-16-3.wav
#WAV45 ps-16-7.wav
#WAV46 ps-16-8.wav
#WAV47 ps-16-9.wav
#WAV48 ps-16-10.wav
#WAV49 ps-16-5.wav
#WAV4A ps-16-8.wav
#WAV4B ps-16-2.wav
#WAV4C ps-16-11.wav
#WAV4D ps-16-12.wav
#WAV4E ps-16-13.wav
#WAV4F ps-16-14.wav
#WAV4G ps-16-15.wav
#WAV4H ps-16-16.wav
#WAV4I ps-16-17.wav
#WAV4J ps-16-18.wav
#WAV4K ps-16-19.wav
#WAV4L ps-16-20.wav
#WAV4M ps-16-7.wav
#WAV4N ps-16-21.wav
#WAV4O ps-16-22.wav
#WAV4P ps-16-23.wav
#WAV4Q ps-16-24.wav
#WAV4R ps-16-25.wav
#WAV4S ps-16-26.wav
#WAV4T ps-16-27.wav
#WAV4U ps-16-28.wav
#WAV4V ps-16-29.wav
#WAV4W ps-16-30.wav
#WAV4X ps-16-23.wav
#WAV4Y ps-16-31.wav
#WAV4Z ps-32-1.wav
#WAV50 ps-32-1.wav
#WAV51 ps-32-1b.wav
#WAV52 ps-32-1b.wav
#WAV53 ps-32-2.wav
#WAV54 ps-32-2.wav
#WAV55 ps-32-2b.wav
#WAV56 ps-32-2b.wav
#WAV57 ps-32-3.wav
#WAV58 ps-32-4.wav
#WAV59 ps-32-5.wav
#WAV5A ps-32-6.wav
#WAV5B ps-32-7.wav
#WAV5C ps-32-8.wav
#WAV5D ps-32-9.wav
#WAV5E ps-32-10.wav
#WAV5F ps-32-10.wav
#WAV5G ps-32-10b.wav
#WAV5H ps-32-10b.wav
#WAV5I SE2.wav
#WAV5J chero 1.wav
#WAV5K chero 2.wav
#WAV5L chero 3.wav
#WAV5M chero 4.wav
#WAV5N chero 9.wav
#WAV5O chero 10.wav
#WAV5P chero 11.wav
#WAV5Q chero 12.wav
#WAV5R chero 13.wav
#WAV5S chero 14.wav
#WAV5T chero 15.wav
#WAV5U chero 16.wav
#WAV5V chero 17.wav
#WAV5W chero 18.wav
#WAV5X chero 19.wav
#WAV5Y chero 20.wav
#WAV5Z chero 21.wav
#WAV60 chero 22.wav
#WAV61 solo 1.wav
#WAV62 solo 2.wav
#WAV63 solo 3.wav
#WAV64 solo 4.wav
#WAV65 solo 5.wav
#WAV66 solo 6.wav
#WAV67 solo 7.wav
#WAV68 solo 8.wav
#WAV69 solo 9.wav
#WAV6A solo 10.wav
#WAV6B solo 11.wav
#WAV6C solo 12.wav
#WAV6D solo 13.wav
#WAV6E solo 14.wav
#WAV6F solo 15.wav
#WAV6G solo 16.wav
#WAV6H solo 17.wav
#WAV6I solo 18.wav
#WAV6J solo 19.wav
#WAV6K solo 20.wav
#WAV6L solo 21.wav
#WAV6M solo 22.wav
#WAV6N solo 23.wav
#WAV6O solo 24.wav
#WAV6P solo 25.wav
#WAV6Q solo 26.wav
#WAV6R solo 27.wav
#WAV6S solo 28.wav
#WAV6T solo 29.wav
#WAV6U solo 30.wav
#WAV6V solo 31.wav
#WAV6W solo 32.wav
#WAV6X solo 33.wav
#WAV6Y solo 34.wav
#WAV6Z solo 35.wav
#WAV70 solo 36.wav
#WAV71 solo 37.wav
#WAV72 solo 38.wav
#WAV73 solo 39.wav
#WAV74 solo 40.wav
#WAV75 solo 41.wav
#WAV76 solo 42.wav
#WAV77 solo 43.wav
#WAV78 solo 44.wav
#WAV79 solo 45.wav
#WAV7A solo 46.wav
#WAV7B bass1.wav
#WAV7C bass2.wav
#WAV7D bass3.wav
#WAV7E bass4.wav
#WAV7F bass5.wav
#WAV7G bass6.wav
#WAV7H bass7.wav
#WAV7I bass8.wav
#WAV7J bass9.wav
#WAV7K bass10.wav
#WAV7L bass11.wav
#WAV7M bass12.wav
#WAV7N bass13.wav
#WAV7O bass14.wav
#WAV7P bass15.wav
#WAV7Q bass16.wav
#WAV7R bass17.wav
#WAV7S bass18.wav
#WAV7T bass19.wav
#WAV7U bass20.wav
#WAV7V bass1.wav
#WAV7W bass3.wav
#WAV7X bass5.wav
#WAV7Y bass7.wav
#WAV7Z bass9.wav
#WAV80 bass11.wav
#WAV81 bass13.wav
#WAV82 bass15.wav
#WAV83 bass17.wav
#WAV84 bass19.wav
#WAV85 chero1.wav
#WAV86 chero2.wav
#WAV87 chero3.wav
#WAV88 chero4.wav
#WAV89 vio1.wav
#WAV8A vio2.wav
#WAV8B vio3.wav
#WAV8C vio4.wav
#WAV8D tim.wav
#WAV8E tanbarin.wav
#WAV8F suzu.wav
#WAV8G suzu32.wav
#WAV8H syuooo.wav
#WAV8I SE5.wav
#WAV8J horn.wav
#WAV8K suzu.wav
#WAV8L suzu32.wav
#WAV8M cym B.wav
#WAV8N cym C.wav
#WAV8O SE4.wav
#BMP01 joker.mpg
#BMP03 miss 01.bmp
#BMP04 miss 02.bmp
#BMP05 miss 03.bmp
#BMP06 miss 04.bmp
#BMP07 miss 05.bmp
#BMP08 miss 06.bmp
#BMP09 miss 07.bmp
#BMP0A miss 08.bmp
#BMP0B miss 09.bmp
#BMP0C miss 10.bmp
#BMP0D miss 11.bmp
#BMP0E miss 12.bmp
#BMP0F miss 13.bmp
#BMP0G miss 14.bmp
#BMP0H miss 15.bmp
#BMP0I miss 16.bmp
#DIFFICULTY 3
#BACKBMP logo.jpg
*---------------------- MAIN DATA FIELD
#00101:00
#00101:00
#00101:000B000000000000
#00104:01
#00106:030405060708090A0B0C0D0E0F0G0H0I030405060708090A0B0C0D0E0F0G0H0I
#00201:00
#00201:0400000400040000
#00201:00
#00201:00
#00201:00
#00201:00
#00201:00
#00201:00
#00201:00
#00201:00
#00201:00
#00201:00
#00201:00
#00201:7B7C7B7V7C7B7V7C7B7C7B7V7C7B7V7C
#00206:030405060708090A0B0C0D0E0F0G0H0I030405060708090A0B0C0D0E0F0G0H0I
#00212:0S0T000000000000
#00213:0000000U00000000
#00215:0Z10000000000000
#00222:0000001100000000
#00225:00000K00000K0000
#00301:00
#00301:0400000400040000
#00301:00
#00301:00
#00301:00
#00301:00
#00301:00
#00301:00
#00301:00
#00301:00
#00301:00
#00301:00
#00301:00
#00301:7B7C7B7V7C7B7V7C7B7C7B7V7C7B7V7C
#00306:030405060708090A0B0C0D0E0F0G0H0I030405060708090A0B0C0D0E0F0G0H0I
#00314:0V0W000000000000
#00315:0000000X00000000
#00323:1213000000000000
#00324:0000001400000000
#00325:00000K00000K0000
#00401:00
#00401:0400000400040000
#00401:00
#00401:00
#00401:00
#00401:00
#00401:00
#00401:0F0F0F0F0F0F0F0F
#00401:000G000G000G000G000G000G000G000G
#00401:00
#00401:00
#00401:00
#00401:00
#00401:7B7C7B7V7C7B7V7C7B7C7B7V7C7B7V7C
#00406:030405060708090A0B0C0D0E0F0G0H0I030405060708090A0B0C0D0E0F0G0H0I
#00411:0J
#00412:0000000I000I0000
#00413:0S0T000000000000
#00414:0000000U00000000
#00422:0Z10000000000000
#00423:0000001100000000
#00501:00
#00501:0400000400040000
#00501:0000000000000007
#00501:00
#00501:00
#00501:00
#00501:00
#00501:0F0F0F0F0F0F0F0F
#00501:000G000G000G000G000G000G000G000G
#00501:00
#00501:00
#00501:00
#00501:00
#00501:7B7C7B7V7C7B7V7C7B7C7B7V7C7B7V7C
#00506:030405060708090A0B0C0D0E0F0G0H0I030405060708090A0B0C0D0E0F0G0H0I
#00513:0J
#00514:0000000I000I0000
#00515:0V0W000000000000
#00522:0000000X00000000
#00524:1213000000000000
#00525:0000001400000000
#00601:00
#00601:04040404
#00601:00
#00601:00
#00601:00
#00601:00
#00601:00
#00601:00
#00601:00
#00601:0001000100010001
#00601:02030203020302030203020302030203
#00601:00
#00601:00
#00601:7B7C7B7V7C7B7V7C7B7C7B7V7C7B7V7C
#00601:00
#00601:00
#00601:00
#00601:00
#00601:00
#00601:00
#00601:00
#00601:00
#00601:00
#00601:00
#00601:00
#00601:00
#00601:00
#00601:00
#00601:00
#00601:00
#00601:00
#00601:0N
#00606:030405060708090A0B0C0D0E0F0G0H0I030405060708090A0B0C0D0E0F0G0H0I
#00611:0C
#00613:2G
#00614:0000002H0000002H
#00615:002H000000000000
#00622:00002I00002I0000
#00623:0000002J
#00624:002K
#00625:000K000K
#00701:00
#00701:04040404
#00701:00
#00701:00
#00701:00
#00701:00
#00701:00
#00701:00
#00701:00
#00701:0001000100010001
#00701:02030203020302030203020302030203
#00701:00
#00701:00
#00701:7B7C7B7V7C7B7V7C7B7C7B7V7C7B7V7C
#00706:030405060708090A0B0C0D0E0F0G0H0I030405060708090A0B0C0D0E0F0G0H0I
#00712:2G
#00713:00000000002H0000
#00714:000000000000002I
#00715:002I000000000000
#00722:002J0000
#00723:0000002K00002K00
#00724:002L
#00725:000K000K
#00801:00
#00801:04040404
#00801:00
#00801:00
#00801:00
#00801:00
#00801:00
#00801:00
#00801:00
#00801:0001000100010001
#00801:02030203020302030203020302030203
#00801:00
#00801:00
#00801:7D7E7D7W7E7D7W7E7D7E7D7W7E7D7W7E
#00806:030405060708090A0B0C0D0E0F0G0H0I030405060708090A0B0C0D0E0F0G0H0I
#00813:0000002H00000000
#00814:00000000002K0000
#00815:2J
#00822:002K000000002L00
#00823:002L0000
#00824:000000002M00002M
#00825:000K000K
#00901:00
#00901:04040404
#00901:00
#00901:00
#00901:00
#00901:00
#00901:00
#00901:00
#00901:00
#00901:0001000100010001
#00901:02030203020302030203020302030203
#00901:00
#00901:00
#00901:7D7E7D7W7E7D7W7E7D7E7D7W7E7D7W7E
#00906:030405060708090A0B0C0D0E0F0G0H0I030405060708090A0B0C0D0E0F0G0H0I
#00911:2H0000000000002N
#00912:0000002I
#00913:0000002I00000000
#00914:00000000002J0000
#00915:002K0000
#00922:002K
#00923:002L000000000000
#00925:000K000K
#01001:00
#01001:04040404
#01001:00
#01001:00
#01001:00
#01001:00
#01001:00
#01001:00
#01001:00
#01001:0001000100010001
#01001:02030203020302030203020302030203
#01001:00
#01001:00
#01001:7F7G7F7X7G7F7X7G7F7G7F7X7G7F7X7G
#01006:030405060708090A0B0C0D0E0F0G0H0I030405060708090A0B0C0D0E0F0G0H0I
#01011:000K000K
#01013:2G
#01015:002H002H00000000
#01022:000000000000002H
#01023:00002I00002I0000
#01024:0000002J
#01025:002K
#01101:00
#01101:04040404
#01101:00
#01101:00
#01101:00
#01101:00
#01101:00
#01101:00
#01101:00
#01101:0001000100010001
#01101:02030203020302030203020302030203
#01101:00
#01101:00
#01101:7F7G7F7X7G7F7X7G7F7G7F7X7G7F7X7G
#01106:030405060708090A0B0C0D0E0F0G0H0I030405060708090A0B0C0D0E0F0G0H0I
#01111:000K000K
#01112:2G
#01114:00000000002H0000
#01115:002I00000000002I
#01122:002J0000
#01123:0000002K00002K00
#01124:002L
#01201:00
#01201:04040404
#01201:00
#01201:00
#01201:00
#01201:00
#01201:00
#01201:00
#01201:00
#01201:0001000100010001
#01201:02030203020302030203020302030203
#01201:00
#01201:00
#01201:7B7C7B7V7C7B7V7C7B7C7B7V7C7B7V7C
#01206:030405060708090A0B0C0D0E0F0G0H0I030405060708090A0B0C0D0E0F0G0H0I
#01211:000K000K
#01215:0000002H00000000
#01222:2J000000002K0000
#01223:002K000000002L00
#01224:00002L000000002M
#01225:002M
#01301:00
#01301:04040404
#01301:00
#01301:00
#01301:00
#01301:00
#01301:00
#01301:00
#01301:00
#01301:0001000100010001
#01301:02030203020302030203020302030203
#01301:00
#01301:00
#01301:7B7C7B7V7C7B7V7C7B7C7B7V7C7B7V7C
#01306:030405060708090A0B0C0D0E0F0G0H0I030405060708090A0B0C0D0E0F0G0H0I
#01311:00000K000000002N
#01313:0000002I00002I00
#01314:2H000000002J0000
#01315:002K0000
#01322:002K
#01323:002L000000000000
#01324:000000000000000000000000008M0000
#01325:0000000K
#01401:00
#01401:04040404
#01401:00
#01401:000K000K
#01401:00
#01401:00
#01401:00
#01401:00
#01401:00
#01401:00
#01401:02030203020302030203020302030203
#01401:00
#01401:00
#01401:7B7C7B7V7C7B7V7C7B7C7B7V7C7B7V7C
#01406:030405060708090A0B0C0D0E0F0G0H0I030405060708090A0B0C0D0E0F0G0H0I
#01412:2G
#01413:000000000000002H
#01414:002H002H00000000
#01415:00000000002I0000
#01422:002I0000
#01423:0000002J
#01424:002K
#01425:0001000100010001
#01501:00
#01501:04040404
#01501:00
#01501:000K000K
#01501:00
#01501:00
#01501:00
#01501:00
#01501:00
#01501:00
#01501:02030203020302030203020302030203
#01501:00
#01501:00
#01501:7B7C7B7V7C7B7V7C7B7C7B7V7C7B7V7C
#01506:030405060708090A0B0C0D0E0F0G0H0I030405060708090A0B0C0D0E0F0G0H0I
#01511:2G
#01512:00000000002H0000
#01514:002I00000000002I
#01522:002J002K
#01523:0000002K00000000
#01524:002L
#01525:0001000100010001
#01601:00
#01601:04040404
#01601:00
#01601:000K000K
#01601:00
#01601:00
#01601:00
#01601:00
#01601:00
#01601:00
#01601:02030203020302030203020302030203
#01601:00
#01601:00
#01601:7D7E7D7W7E7D7W7E7D7E7D7W7E7D7W7E
#01606:030405060708090A0B0C0D0E0F0G0H0I030405060708090A0B0C0D0E0F0G0H0I
#01613:0000002H00000000
#01614:00000000002K0000
#01615:2J
#01622:002K000000002L00
#01623:002L0000
#01624:000000002M00002M
#01625:0001000100010001
#01701:00
#01701:04040404
#01701:00
#01701:000K000K
#01701:00
#01701:00
#01701:00
#01701:00
#01701:00
#01701:00
#01701:02030203020302030203020302030203
#01701:00
#01701:00
#01701:7D7E7D7W7E7D7W7E7D7E7D7W7E7D7W7E
#01706:030405060708090A0B0C0D0E0F0G0H0I030405060708090A0B0C0D0E0F0G0H0I
#01711:000000000000002N
#01712:0000002I
#01713:0000002I00000000
#01714:2H000000002J0000
#01715:002K0000
#01722:002K
#01723:002L000000000000
#01725:0001000100010001
#01801:00
#01801:04040404
#01801:00
#01801:000K000K
#01801:00
#01801:00
#01801:00
#01801:00
#01801:00
#01801:00
#01801:02030203020302030203020302030203
#01801:00
#01801:00
#01801:7F7G7F7X7G7F7X7G7F7G7F7X7G7F7X7G
#01806:030405060708090A0B0C0D0E0F0G0H0I030405060708090A0B0C0D0E0F0G0H0I
#01812:2G
#01814:002H002H0000002H
#01815:00000000002I0000
#01822:002I0000
#01823:0000002J
#01824:002K
#01825:0001000100010001
#01901:00
#01901:04040404
#01901:00
#01901:000K000K
#01901:00
#01901:00
#01901:00
#01901:00
#01901:00
#01901:00
#01901:02030203020302030203020302030203
#01901:00
#01901:00
#01901:7F7G7F7X7G7F7X7G7F7G7F7X7G7F7X7G
#01906:030405060708090A0B0C0D0E0F0G0H0I030405060708090A0B0C0D0E0F0G0H0I
#01912:2G
#01913:00000000002H0000
#01914:000000000000002I
#01915:002I000000000000
#01922:002J002K
#01923:0000002K00000000
#01924:002L
#01925:0001000100010001
#02001:00
#02001:04040404
#02001:00
#02001:000K000K
#02001:00
#02001:00
#02001:00
#02001:00
#02001:00
#02001:00
#02001:02030203020302030203020302030203
#02001:00
#02001:00
#02001:7B7C7B7V7C7B7V7C7B7C7B7V7C7B7V7C
#02006:030405060708090A0B0C0D0E0F0G0H0I030405060708090A0B0C0D0E0F0G0H0I
#02014:0000002H00000000
#02015:2J000000002K0000
#02022:002K000000002L00
#02023:00002L000000002M
#02024:002M
#02025:0001000100010001
#02101:00
#02101:00
#02101:00
#02101:00
#02101:00
#02101:00
#02101:00
#02101:00
#02101:00
#02101:0001000100010001
#02101:02030203020302030203020302030203
#02101:00
#02101:00
#02101:7B7C7B7V7C7B7V7C7B7C7B7V7C7B7V7C
#02106:030405060708090A0B0C0D0E0F0G0H0I030405060708090A0B0C0D0E0F0G0H0I
#02111:000M000K
#02112:0I00000J0000002N
#02113:000K002I
#02114:2H00002I002J0000
#02115:002K2K00
#02122:00002L0000040005000000000H000000
#02123:00000004000000000000040000060000
#02124:0405000004000500
#02125:0000000000000007
#02201:00
#02201:00
#02201:00
#02201:00
#02201:00
#02201:00
#02201:00
#02201:00
#02201:00
#02201:00
#02201:02030203020302030203020302030203
#02201:00
#02201:00
#02201:7B7C7B7V7C7B7V7C7B7C7B7V7C7B7V7C
#02201:00
#02201:00
#02201:1I001K001I001I1J001I1J001I001K00
#02201:00
#02201:8F8K8F008F8K8F008F8K8F008F8K0000
#02201:00
#02201:00
#02201:00
#02201:00
#02201:00
#02201:00
#02201:00
#02201:00
#02201:00
#02201:00
#02201:00
#02201:00
#02201:0O
#02206:030405060708090A0B0C0D0E0F0G0H0I030405060708090A0B0C0D0E0F0G0H0I
#02211:04040404
#02213:000K000K
#02214:0001000100010001
#02222:1600000017000017
#02223:0000170000180000
#02224:0C000019
#02225:000000000000008E
#02301:00
#02301:00
#02301:00
#02301:00
#02301:00
#02301:00
#02301:00
#02301:00
#02301:00
#02301:00
#02301:02030203020302030203020302030203
#02301:00
#02301:00
#02301:7B7C7B7V7C7B7V7C7B7C7B7V7C7B7V7C
#02301:00
#02301:00
#02301:1I001K001I001I1J001I1J001I001K00
#02301:00
#02301:8F008K008F0000008F008K008G8L8G8L8F0000008K0000008F008K0000000000
#02306:030405060708090A0B0C0D0E0F0G0H0I030405060708090A0B0C0D0E0F0G0H0I
#02311:04040404
#02313:000K000K
#02314:00000016
#02315:001A
#02322:0000001700000000
#02323:180018000000008E
#02324:0019000000000000
#02325:0001000100010001
#02401:00
#02401:00
#02401:00
#02401:00
#02401:00
#02401:00
#02401:00
#02401:00
#02401:00
#02401:00
#02401:02030203020302030203020302030203
#02401:00
#02401:00
#02401:7D7E7D7W7E7D7W7E7D7E7D7W7E7D7W7E
#02401:00
#02401:00
#02401:1L001N001L001L1M001L1M001L001N00
#02401:00
#02401:8F8K8F008F8K8F008F8K8F008F8K0000
#02406:030405060708090A0B0C0D0E0F0G0H0I030405060708090A0B0C0D0E0F0G0H0I
#02411:04040404
#02413:000K000K
#02414:16
#02415:0000170017000017
#02422:0000000000180000
#02423:00000019
#02424:000000000000008E
#02425:0001000100010001
#02501:00
#02501:00
#02501:00
#02501:00
#02501:00
#02501:00
#02501:00
#02501:00
#02501:00
#02501:00
#02501:02030203020302030203020302030203
#02501:00
#02501:00
#02501:7D7E7D7W7E7D7W7E7D7E7D7W7E7D7W7E
#02501:00
#02501:00
#02501:1L001N001L001L1M001L1M001L001N00
#02501:00
#02501:8F008K008F0000008F008K008G8L8G8L8F0000008K0000008F008K0000000000
#02506:030405060708090A0B0C0D0E0F0G0H0I030405060708090A0B0C0D0E0F0G0H0I
#02511:04040404
#02513:000K000K
#02514:000000001A00001A
#02515:0000001700170000
#02522:1B180018
#02523:001900000000008E
#02525:0001000100010001
#02601:00
#02601:00
#02601:00
#02601:00
#02601:00
#02601:00
#02601:00
#02601:00
#02601:00
#02601:00
#02601:02030203020302030203020302030203
#02601:00
#02601:00
#02601:7F7G7F7X7G7F7X7G7F7G7F7X7G7F7X7G
#02601:00
#02601:00
#02601:1O001Q001O001O1P001O1P001O001Q00
#02601:00
#02601:8F8K8F008F8K8F008F8K8F008F8K0000
#02606:030405060708090A0B0C0D0E0F0G0H0I030405060708090A0B0C0D0E0F0G0H0I
#02611:04040404
#02613:160K000K
#02615:0000170017000017
#02622:000000000000008E
#02623:0000000000180000
#02624:0001000100010001
#02625:00000019
#02701:00
#02701:00
#02701:00
#02701:00
#02701:00
#02701:00
#02701:00
#02701:00
#02701:00
#02701:00
#02701:02030203020302030203020302030203
#02701:00
#02701:00
#02701:7F7G7F7X7G7F7X7G7F7G7F7X7G7F7X7G
#02701:00
#02701:00
#02701:1O001Q001O001O1P001O1P001O001Q00
#02701:00
#02701:8F008K008F0000008F008K008G8L8G8L8F0000008K0000008F008K0000000000
#02706:030405060708090A0B0C0D0E0F0G0H0I030405060708090A0B0C0D0E0F0G0H0I
#02711:04040404
#02712:000000000000001F
#02713:000K000K
#02714:000000001C1C0000
#02715:0000001700000000
#02722:00000000000000000000001D00000000
#02723:180018000000008E
#02724:0001000100001E00
#02725:0019000000010001
#02801:00
#02801:00
#02801:00
#02801:00
#02801:00
#02801:00
#02801:00
#02801:00
#02801:00
#02801:00
#02801:02030203020302030203020302030203
#02801:00
#02801:00
#02801:7B7C7B7V7C7B7V7C7B7C7B7V7C7B7V7C
#02801:00
#02801:00
#02801:1R001T001R001R1S001R1S001R001T00
#02801:00
#02801:8F8K8F008F8K8F008F8K8F008F8K0000
#02806:030405060708090A0B0C0D0E0F0G0H0I030405060708090A0B0C0D0E0F0G0H0I
#02811:04040404
#02812:000K000K
#02813:160000000000008E
#02815:0000170017000017
#02822:0000000000180000
#02823:00000019
#02824:0001000100010001
#02901:00
#02901:00
#02901:00
#02901:00
#02901:00
#02901:00
#02901:00
#02901:00
#02901:00
#02901:00
#02901:02030203020302030203020302030203
#02901:00
#02901:00
#02901:7B7C7B7V7C7B7V7C7B7C7B7V7C7B7V7C
#02901:00
#02901:00
#02901:1R001T001R001R1S001R1S001R001T00
#02901:00
#02901:8F008K008F0000008F008K008G8L8G8L8F0000008K0000008F008K0000000000
#02906:030405060708090A0B0C0D0E0F0G0H0I030405060708090A0B0C0D0E0F0G0H0I
#02911:04040404
#02913:000K000K
#02914:0001000100010001
#02915:001E1A00
#02922:0000001D0017001A
#02923:0000001H000000000000000000008E00
#02924:00000018
#02925:1G001G000000000000000000008M0000
#03001:00
#03001:00
#03001:00
#03001:00
#03001:04040404
#03001:00
#03001:000K000K
#03001:00
#03001:00
#03001:0001000100010001
#03001:02030203020302030203020302030203
#03001:00
#03001:00
#03001:7B7C7B7V7C7B7V7C7B7C7B7V7C7B7V7C
#03001:00
#03001:00
#03001:00
#03001:00
#03001:8F8K8F008F8K8F008F8K8F008F8K0000
#03001:000000000000008E
#03006:030405060708090A0B0C0D0E0F0G0H0I030405060708090A0B0C0D0E0F0G0H0I
#03012:1I0000001I001I00001I00001I000000
#03014:00001K000000001J00001J0000001K00
#03015:16
#03022:00171700
#03023:0000000000180017
#03024:00000019
#03101:00
#03101:00
#03101:00
#03101:00
#03101:04040404
#03101:00
#03101:000K000K
#03101:00
#03101:00
#03101:0001000100010001
#03101:02030203020302030203020302030203
#03101:00
#03101:00
#03101:7B7C7B7V7C7B7V7C7B7C7B7V7C7B7V7C
#03101:00
#03101:00
#03101:00
#03101:00
#03101:8F008K008F0000008F008K008G8L8G8L8F0000008K0000008F008K0000000000
#03101:000000000000008E
#03106:030405060708090A0B0C0D0E0F0G0H0I030405060708090A0B0C0D0E0F0G0H0I
#03112:1I0000001I001I00001I00001I000000
#03114:00001K000000001J00001J0000001K00
#03115:00000016
#03122:001A
#03123:0000001700000000
#03124:18180000
#03125:0019000000000000
#03201:00
#03201:00
#03201:00
#03201:00
#03201:04040404
#03201:00
#03201:000K000K
#03201:00
#03201:00
#03201:0001000100010001
#03201:02030203020302030203020302030203
#03201:00
#03201:00
#03201:7D7E7D7W7E7D7W7E7D7E7D7W7E7D7W7E
#03201:00
#03201:00
#03201:00
#03201:00
#03201:8F8K8F008F8K8F008F8K8F008F8K0000
#03201:000000000000008E
#03206:030405060708090A0B0C0D0E0F0G0H0I030405060708090A0B0C0D0E0F0G0H0I
#03211:16
#03213:1L0000001L001L00001L00001L000000
#03215:00001N000000001M00001M0000001N00
#03222:0000170017000017
#03223:0000000000180000
#03224:00000019
#03301:00
#03301:00
#03301:00
#03301:00
#03301:04040404
#03301:00
#03301:000K000K
#03301:00
#03301:00
#03301:0001000100010001
#03301:02030203020302030203020302030203
#03301:00
#03301:00
#03301:7D7E7D7W7E7D7W7E7D7E7D7W7E7D7W7E
#03301:00
#03301:00
#03301:00
#03301:00
#03301:8F008K008F0000008F008K008G8L8G8L8F0000008K0000008F008K0000000000
#03301:000000000000008E
#03306:030405060708090A0B0C0D0E0F0G0H0I030405060708090A0B0C0D0E0F0G0H0I
#03311:000000001A00001A
#03313:1L0000001L001L00001L00001L000000
#03315:00001N000000001M00001M0000001N00
#03322:0000001700170000
#03323:00180000
#03324:0019000000001800
#03325:1B
#03401:00
#03401:00
#03401:00
#03401:00
#03401:04040404
#03401:00
#03401:000K000K
#03401:00
#03401:00
#03401:0001000100010001
#03401:02030203020302030203020302030203
#03401:00
#03401:00
#03401:7F7G7F7X7G7F7X7G7F7G7F7X7G7F7X7G
#03401:00
#03401:00
#03401:00
#03401:00
#03401:8F8K8F008F8K8F008F8K8F008F8K0000
#03401:000000000000008E
#03406:030405060708090A0B0C0D0E0F0G0H0I030405060708090A0B0C0D0E0F0G0H0I
#03412:16
#03414:1O0000001O001O00001O00001O000000
#03422:00001Q000000001P00001P0000001Q00
#03423:0000170017000017
#03424:0000000000180000
#03425:00000019
#03501:00
#03501:00
#03501:00
#03501:00
#03501:04040404
#03501:00
#03501:000K000K
#03501:00
#03501:00
#03501:0001000100010001
#03501:02030203020302030203020302030203
#03501:00
#03501:00
#03501:7F7G7F7X7G7F7X7G7F7G7F7X7G7F7X7G
#03501:00
#03501:00
#03501:00
#03501:00
#03501:8F008K008F0000008F008K008G8L8G8L8F0000008K0000008F008K0000000000
#03501:000000000000008E
#03506:030405060708090A0B0C0D0E0F0G0H0I030405060708090A0B0C0D0E0F0G0H0I
#03511:000000001C1C0000
#03512:000000000000001F
#03513:00000000000000000000001D00000000
#03514:1O0000001O001O00001O00001O000000
#03515:0000001E
#03522:00001Q000000001P00001P0000001Q00
#03523:0000001700000000
#03524:18180000
#03525:0019000000000000
#03601:00
#03601:00
#03601:00
#03601:00
#03601:04040404
#03601:00
#03601:000K000K
#03601:00
#03601:00
#03601:0001000100010001
#03601:02030203020302030203020302030203
#03601:00
#03601:00
#03601:7B7C7B7V7C7B7V7C7B7C7B7V7C7B7V7C
#03601:00
#03601:00
#03601:00
#03601:00
#03601:8F8K8F008F8K8F008F8K8F008F8K0000
#03601:000000000000008E
#03606:030405060708090A0B0C0D0E0F0G0H0I030405060708090A0B0C0D0E0F0G0H0I
#03612:16
#03613:00171700
#03614:0000000000000017
#03615:1R0000001R001R00001R00001R000000
#03622:0000000000180000
#03623:00001T000000001S00001S0000001T00
#03624:00000019
#03701:00
#03701:00
#03701:04040404
#03701:00
#03701:00
#03701:00
#03701:000K000K
#03701:00
#03701:00
#03701:0001000100010001
#03701:02030203020302030203020302030203
#03701:00
#03701:00
#03701:7B7C7B7V7C7B7V7C7B7C7B7V7C7B7V7C
#03701:00
#03701:00
#03701:1R001T001R001R1S001R1S001R001T00
#03701:00
#03701:8F008K008F0000008F008K008G8L8G8L8F0000008K0000008F008K0000000000
#03701:000000000000008E
#03706:030405060708090A0B0C0D0E0F0G0H0I030405060708090A0B0C0D0E0F0G0H0I
#03711:0000000000000007
#03712:0I000M0J00000H00
#03713:000000001A00001A
#03714:0000001D00170000
#03715:001E0018
#03723:0000001H000000000000000000000000
#03725:1G1G000000000000
#03801:00
#03801:00
#03801:00
#03801:00
#03801:04040404
#03801:00
#03801:000K000K
#03801:00
#03801:00
#03801:0001000100010001
#03801:02030203020302030203020302030203
#03801:00
#03801:00
#03801:7B7C7B7V7C7B7V7C7B7C7B7V7C7B7V7C
#03801:00
#03801:00
#03801:00
#03801:00
#03801:00
#03801:00
#03801:00
#03801:00
#03801:00
#03801:00
#03801:00
#03801:00
#03801:00
#03801:00
#03801:00
#03801:00
#03801:00
#03801:0P
#03806:030405060708090A0B0C0D0E0F0G0H0I030405060708090A0B0C0D0E0F0G0H0I
#03812:5J5J0000
#03813:005K005K00000000
#03814:61000000005L0000
#03815:000000000000005M
#03822:0C
#03824:2T
#03825:00002U2V00000000
#03901:00
#03901:00
#03901:00
#03901:00
#03901:04040404
#03901:00
#03901:000K000K
#03901:00
#03901:00
#03901:0001000100010001
#03901:02030203020302030203020302030203
#03901:00
#03901:00
#03901:7B7C7B7V7C7B7V7C7B7C7B7V7C7B7V7C
#03906:030405060708090A0B0C0D0E0F0G0H0I030405060708090A0B0C0D0E0F0G0H0I
#03912:5J5J0000
#03913:005K005K00000000
#03914:00000000005L0000
#03915:000000000000005M
#03922:2L000000000000002L00000000000064
#03923:002O002O002O0000
#03924:6200000000000063
#03925:002P0000
#04001:00
#04001:00
#04001:00
#04001:00
#04001:04040404
#04001:00
#04001:000K000K
#04001:00
#04001:00
#04001:0001000100010001
#04001:02030203020302030203020302030203
#04001:00
#04001:00
#04001:7F7G7F7X7G7F7X7G7F7G7F7X7G7F7X7G
#04006:030405060708090A0B0C0D0E0F0G0H0I030405060708090A0B0C0D0E0F0G0H0I
#04011:005N0000
#04012:5N00005O00000000
#04013:005O0000005P0000
#04014:650000000000005Q
#04015:00000068
#04022:00000000000000000000000000690000
#04023:2W0000000067006A
#04024:000000002X002Y00000000000000006B
#04025:0066
#04101:00
#04101:00
#04101:00
#04101:00
#04101:04040404
#04101:00
#04101:000K000K
#04101:00
#04101:00
#04101:0001000100010001
#04101:02030203020302030203020302030203
#04101:00
#04101:00
#04101:7F7G7F7X7G7F7X7G7F7G7F7X7G7F7X7G
#04106:030405060708090A0B0C0D0E0F0G0H0I030405060708090A0B0C0D0E0F0G0H0I
#04111:5N5N0000
#04112:005O005O00000000
#04113:00000000005P0000
#04114:000000000000005Q
#04115:00000000002K0000
#04122:002Q00002Q000000
#04123:2O00002O00000000
#04124:002P6D00
#04125:6C
#04201:00
#04201:00
#04201:00
#04201:00
#04201:04040404
#04201:00
#04201:000K000K
#04201:00
#04201:00
#04201:0001000100010001
#04201:02030203020302030203020302030203
#04201:00
#04201:00
#04201:7H7I7H7Y7I7H7Y7I7H7I7H7Y7I7H7Y7I
#04206:030405060708090A0B0C0D0E0F0G0H0I030405060708090A0B0C0D0E0F0G0H0I
#04211:2Z
#04213:6E
#04222:0000003000000000
#04223:5R000000000000005R0000000000000000000000000000000000005V00000000
#04224:000000005S00000000000000000000000000005U000000000000000000000000
#04225:0000005T00003100
#04301:00
#04301:00
#04301:00
#04301:00
#04301:04040404
#04301:00
#04301:000K000K
#04301:00
#04301:00
#04301:0001000100010001
#04301:02030203020302030203020302030203
#04301:00
#04301:00
#04301:7H7I7H7Y7I7H7Y7I7H7I7H7Y7I7H7Y7I
#04306:030405060708090A0B0C0D0E0F0G0H0I030405060708090A0B0C0D0E0F0G0H0I
#04311:6F
#04312:005R0000
#04313:5R000000002L0000
#04314:005S00002Q000000
#04315:0000002O0000005V
#04322:00002P00005U0000
#04323:002S000000000000
#04324:2R00005T00000000
#04325:006G
#04401:00
#04401:00
#04401:00
#04401:00
#04401:04040404
#04401:00
#04401:000K000K
#04401:00
#04401:00
#04401:0001000100010001
#04401:02030203020302030203020302030203
#04401:00
#04401:00
#04401:7F7G7F7X7G7F7X7G7F7G7F7X7G7F7X7G
#04406:030405060708090A0B0C0D0E0F0G0H0I030405060708090A0B0C0D0E0F0G0H0I
#04412:320000000000005V
#04413:00000000005U0000
#04414:6H00002P00000000
#04415:002S2S00
#04422:5O000000002R0000
#04423:005S003F
#04424:00005U000000000000000000003G0000
#04425:0000005T0000003H
#04501:00
#04501:000000000000000000000000008M0000
#04501:00
#04501:00
#04501:04040404
#04501:00
#04501:000K000K
#04501:00
#04501:00
#04501:0001000100010001
#04501:02030203020302030203020302030203
#04501:00
#04501:00
#04501:7J7K7J7Z7K7J7Z7K7L7M7L807M7L807M
#04506:030405060708090A0B0C0D0E0F0G0H0I030405060708090A0B0C0D0E0F0G0H0I
#04511:33
#04513:6I
#04514:006J
#04515:5W
#04522:005Y0000
#04523:005X000034000000
#04524:0000005Z0000005Y
#04525:0000000000600000
#04601:00
#04601:00
#04601:00
#04601:00
#04601:04040404
#04601:00
#04601:000K000K
#04601:00
#04601:00
#04601:0001000100010001
#04601:02030203020302030203020302030203
#04601:00
#04601:00
#04601:7B7C7B7V7C7B7V7C7B7C7B7V7C7B7V7C
#04606:030405060708090A0B0C0D0E0F0G0H0I030405060708090A0B0C0D0E0F0G0H0I
#04611:003I0000
#04612:5J000000003J000000000000003R0000
#04613:00005J3K006O0000
#04614:6K0000000000003L0000000000003S00
#04615:00006K003M5L0000
#04622:00006L0000000000003N00000000003T
#04623:3500005K6N3O005M
#04624:00005K00000000000000003P00000000
#04625:0000006M00003Q00
#04701:00
#04701:00
#04701:00
#04701:00
#04701:04040404
#04701:00
#04701:000K000K
#04701:00
#04701:00
#04701:0001000100010001
#04701:00000203020302030203020302030203
#04701:00
#04701:00
#04701:7B7C7B7V7C7B7V7C7B7C7B7V7C7B7V7C
#04706:030405060708090A0B0C0D0E0F0G0H0I030405060708090A0B0C0D0E0F0G0H0I
#04711:5J5J0000
#04712:005K005K00000000
#04713:6K006K00005L0000
#04714:006L0000006O005M
#04715:000000006N00002L
#04722:0000006M00002Q00
#04723:002O
#04724:363800000000000000002P0000000000
#04725:02030000000000000000000000000000
#04801:00
#04801:00
#04801:00
#04801:00
#04801:04040404
#04801:00
#04801:000K000K
#04801:00
#04801:00
#04801:0001000100010001
#04801:02030203020302030203020302030203
#04801:00
#04801:00
#04801:7F7G7F7X7G7F7X7G7F7G7F7X7G7F7X7G
#04806:030405060708090A0B0C0D0E0F0G0H0I030405060708090A0B0C0D0E0F0G0H0I
#04811:00003U00006U0000
#04812:000000000000003K000000006V000000
#04813:00000000003I000000005P0000000000
#04814:000000003L00005Q
#04815:006Q003J003N0000
#04822:6P0000006R000000003M000000006W00
#04823:3900000000006S000000003O00000000
#04824:5N005N006T003A3A
#04825:005O005O00000000
#04901:00
#04901:00
#04901:00
#04901:00
#04901:04040404
#04901:00
#04901:000K000K
#04901:00
#04901:00
#04901:0001000100010001
#04901:02030203020302030203020302030203
#04901:00
#04901:00
#04901:7F7G7F7X7G7F7X7G7F7G7F7X7G7F7X7G
#04901:00
#04901:00
#04901:00
#04901:00
#04901:00
#04901:00
#04901:00
#04901:00
#04901:00
#04901:00
#04901:00
#04901:00
#04901:00
#04901:00
#04901:00
#04901:00
#04901:008O
#04906:030405060708090A0B0C0D0E0F0G0H0I030405060708090A0B0C0D0E0F0G0H0I
#04911:6X000070
#04912:006Y0000
#04913:5N000000000000006Z0000000000003J
#04914:000000005N0000000000003L00003L00
#04915:00005O000000003N00003N00003N0000
#04922:0000003P00003P00003P00003P000000
#04923:00003R00003R00003R00000000005Q00
#04924:003T00003T00000000005P0000000000
#04925:3V00005O00000000
#05001:00
#05001:00
#05001:00
#05001:00
#05001:04040404
#05001:00
#05001:000K000K
#05001:00
#05001:00
#05001:0001000100010001
#05001:02030203020302030203020302030203
#05001:00
#05001:00
#05001:7H7I7H7Y7I7H7Y7I7H7I7H7Y7I7H7Y7I
#05006:030405060708090A0B0C0D0E0F0G0H0I030405060708090A0B0C0D0E0F0G0H0I
#05012:2Z0000000000005V
#05014:0000003000000000
#05015:5R005R0000000074
#05022:71007100005U0000
#05023:005S000000003100
#05024:0072007200000000
#05025:0000005T00730000
#05101:00
#05101:00
#05101:00
#05101:00
#05101:04040404
#05101:00
#05101:000K000K
#05101:00
#05101:00
#05101:0001000100010001
#05101:02030203020302030203020302030203
#05101:00
#05101:00
#05101:7H7I7H7Y7I7H7Y7I7H7I7H7Y7I7H7Y7I
#05106:030405060708090A0B0C0D0E0F0G0H0I030405060708090A0B0C0D0E0F0G0H0I
#05111:71710000
#05112:0072007200000000
#05113:5R5R0000
#05114:005S0000002L0000
#05115:000000002Q000075
#05122:0000002O00007400
#05123:00002P0000730000
#05124:002S005T0000005V
#05125:2R000000005U0000
#05201:00
#05201:00
#05201:00
#05201:00
#05201:04040404
#05201:00
#05201:00
#05201:0F0F0F0F0F0F0F0F
#05201:000G000G000G000G000G000G000G000G
#05201:0001000100010001
#05201:02030203020302030203020302030203
#05201:00
#05201:00
#05201:7F7G7F7X7G7F7X7G7F7G7F7X7G7F7X7G
#05206:030405060708090A0B0C0D0E0F0G0H0I030405060708090A0B0C0D0E0F0G0H0I
#05211:32
#05212:000000000000005V
#05213:00000000005U0000
#05214:7600002P00000000
#05215:002S2S3F
#05222:5O000000002R0000
#05223:000000005S00000000000000003G0000
#05224:0000005T00000000
#05225:005U00007700003H
#05301:00
#05301:00
#05301:00
#05301:0I000M0J00000000
#05301:04040404
#05301:00
#05301:00
#05301:00
#05301:00
#05301:0001000100010001
#05301:02030203020302030203020302030203
#05301:00
#05301:00
#05301:7J7K7J7Z7K7J7Z7K7L7M7L807M7L807M
#05301:00
#05301:00
#05301:00
#05301:00
#05301:00
#05301:00
#05301:00
#05301:78
#05301:5W5X5Y5Z0060005Y
#05301:00
#05301:00
#05301:008J
#05301:00
#05301:00
#05301:00
#05301:0000000000000000005I000000000000
#05301:0000008I
#05306:030405060708090A0B0C0D0E0F0G0H0I030405060708090A0B0C0D0E0F0G0H0I
#05311:0F0F0F0000000000
#05312:000000000F0F0F00
#05313:3B000000000G00000000000000000F00
#05314:00003D0H
#05315:003C003B00000F000000000000000700
#05322:0000000000000000003E003D00000000
#05323:000G000G0000000G00000000000G000G
#05324:0000000000000000000G000G00000000
#05325:0079
#05401:00
#05401:00
#05401:00
#05401:00
#05401:00
#05401:00
#05401:00
#05401:00
#05401:00
#05401:00
#05401:00
#05401:00
#05401:00
#05401:00
#05401:00
#05401:00
#05401:00
#05401:00
#05401:00
#05401:00
#05401:00
#05401:00
#05401:00
#05401:00
#05401:00
#05401:89898989
#05401:00
#05401:00
#05401:00
#05401:00
#05401:00
#05401:0Q
#05403:5C
#05406:030405060708090A0B0C0D0E0F0G0H0I030405060708090A0B0C0D0E0F0G0H0I
#05411:0C
#05413:7A
#05415:000D
#05425:08
#05501:00
#05501:00
#05501:00
#05501:00
#05501:00
#05501:00
#05501:00
#05501:00
#05501:00
#05501:00
#05501:00
#05501:00
#05501:00
#05501:00
#05501:00
#05501:00
#05501:00
#05501:00
#05501:00
#05501:00
#05501:00
#05501:00
#05501:00
#05501:00
#05501:00
#05501:8A8A8A8A
#05506:030405060708090A0B0C0D0E0F0G0H0I030405060708090A0B0C0D0E0F0G0H0I
#05601:00
#05601:00
#05601:00
#05601:00
#05601:00
#05601:00
#05601:00
#05601:00
#05601:00
#05601:00
#05601:00
#05601:00
#05601:00
#05601:00
#05601:00
#05601:00
#05601:00
#05601:00
#05601:00
#05601:00
#05601:00
#05601:00
#05601:00
#05601:00
#05601:00
#05601:8B8B8B8B
#05606:030405060708090A0B0C0D0E0F0G0H0I030405060708090A0B0C0D0E0F0G0H0I
#05615:000D
#05701:00
#05701:00
#05701:0000000000000000000B000000000000
#05701:00
#05701:00
#05701:00
#05701:00
#05701:00
#05701:00
#05701:00
#05701:00
#05701:00
#05701:00
#05701:00
#05701:00
#05701:00
#05701:00
#05701:00
#05701:00
#05701:00
#05701:00
#05701:00
#05701:00
#05701:00
#05701:008D
#05701:8C8C8C8C
#05701:00
#05701:00
#05701:00
#05701:00
#05701:00
#05701:8H
#05706:030405060708090A0B0C0D0E0F0G0H0I030405060708090A0B0C0D0E0F0G0H0I
#05801:00
#05801:00
#05801:00
#05801:00
#05801:0C
#05801:00
#05801:00
#05801:00
#05801:00
#05801:00
#05801:00
#05801:0E0E0E0E0E0E0E0E
#05801:00
#05801:00
#05801:00
#05801:00
#05801:00
#05801:0009000900090009
#05806:030405060708090A0B0C0D0E0F0G0H0I030405060708090A0B0C0D0E0F0G0H0I
#05811:000L000L
#05813:04000000040000040004000004000000
#05815:00000004000000000000000400000000
#05823:89898989
#05825:85858585
#05901:00
#05901:00
#05901:00
#05901:00
#05901:00
#05901:00
#05901:00
#05901:00
#05901:00
#05901:00
#05901:00
#05901:0E0E0E0E0E0E0E0E
#05901:00
#05901:00
#05901:00
#05901:00
#05901:0009000900090000
#05906:030405060708090A0B0C0D0E0F0G0H0I030405060708090A0B0C0D0E0F0G0H0I
#05911:000L000L
#05913:04000000040000040004000004000000
#05914:00000004000000000000000400000000
#05915:0000000000000000000000000000000F
#05922:8A8A8A8A
#05923:00000000000000000000000000000000000000000000000000000000000G0000
#05924:86868686
#05925:000000000000000F
#06001:00
#06001:00
#06001:00
#06001:00
#06001:00
#06001:00
#06001:00
#06001:000A000A000A000A000A000A000A000A
#06001:0909090909090909
#06006:030405060708090A0B0C0D0E0F0G0H0I030405060708090A0B0C0D0E0F0G0H0I
#06011:04000004000000040004000400060000
#06012:00040004
#06013:0H00000000000000000000000000000000000000000000000000000500000000
#06014:000L000L
#06015:0000000000000004
#06022:8B8B8B8B
#06023:000E0E0E0E0E0E0E
#06024:87878787
#06101:00
#06101:00
#06101:00
#06101:00
#06101:00
#06101:00
#06101:00
#06101:000G000G000G000G000G000G000G000G000G000G000G000G000G000G000G000G
#06101:0F0F0F0F0F0F0F0F0F0F0F0F0F0F0F0F
#06106:030405060708090A0B0C0D0E0F0G0H0I030405060708090A0B0C0D0E0F0G0H0I
#06111:04000000040000040004000004000000
#06112:00000004000000000000000400000000
#06113:000L000L
#06123:8C8C8C8C
#06124:0E0E0E0E0E0E0E0E
#06125:88888888
#06201:00
#06201:00
#06201:08
#06201:00
#06201:00
#06201:00
#06201:00
#06201:00
#06201:00
#06201:00
#06201:00
#06201:00
#06201:00
#06201:7B7C7B7V7C7B7V7C7B7C7B7V7C7B7V7C
#06201:00
#06201:00
#06201:00
#06201:00
#06201:00
#06201:00
#06201:00
#06201:00
#06201:00
#06201:00
#06201:00
#06201:00
#06201:00
#06201:00
#06201:00
#06201:00
#06201:00
#06201:29
#06203:B8
#06206:030405060708090A0B0C0D0E0F0G0H0I030405060708090A0B0C0D0E0F0G0H0I
#06211:00000000000000000000000000000042
#06214:0040000000004000
#06215:00000000000051520000000000004000
#06222:003Z003Z000000000000410000000000
#06223:3Y0000000000000041000000003Z0000
#06224:00000000000000000000003Z00000000
#06225:0C00000000004Z50003Y000000000000
#06301:00
#06301:00
#06301:00
#06301:00
#06301:00
#06301:00
#06301:00
#06301:00
#06301:00
#06301:00
#06301:00
#06301:00
#06301:00
#06301:7F7G7F7X7G7F7X7G7F7G7F7X7G7F7X7G
#06306:030405060708090A0B0C0D0E0F0G0H0I030405060708090A0B0C0D0E0F0G0H0I
#06312:43
#06313:00400000000000000040000000000000
#06314:00003Z00000000000000000000480000
#06315:0000003Y000000000000000046004600
#06322:00000000000000003Z003Z0000470000
#06323:0000000000000000550056000055000000000000000000004500000045000000
#06325:0000000000000000530054000053000000000000000000000000000000000000
#06401:00
#06401:00
#06401:00
#06401:00
#06401:00
#06401:00
#06401:00
#06401:00
#06401:00
#06401:00
#06401:00
#06401:00
#06401:00
#06401:7H7I7H7Y7I7H7Y7I7H7I7H7Y7I7H7Y7I
#06406:030405060708090A0B0C0D0E0F0G0H0I030405060708090A0B0C0D0E0F0G0H0I
#06411:4C00000000000057
#06412:004E000000000000
#06413:000000000000000000000000000000004G000000000000000000000000580000
#06414:004D000000004F000000000000480000
#06415:000000004D0000000046000046000059
#06422:000000000000004G0000000000000000
#06423:000000000000000000004E00000000000000000000000000000000000000005A
#06424:00000048000000000000480000000000
#06425:00000000000000000000004700000000
#06501:00
#06501:00
#06501:00
#06501:00
#06501:00
#06501:00
#06501:00
#06501:00
#06501:00
#06501:00
#06501:00
#06501:00
#06501:00
#06501:7N7O7N817O7N817O7P7Q7P827Q7P827Q
#06501:00
#06501:00
#06501:00
#06501:00
#06501:00
#06501:00
#06501:00
#06501:00
#06501:00
#06501:00
#06501:00
#06501:00
#06501:00
#06501:00
#06501:00
#06501:00
#06501:37
#06506:030405060708090A0B0C0D0E0F0G0H0I030405060708090A0B0C0D0E0F0G0H0I
#06511:0000004D00004300
#06512:00000000450000000048000000004A00
#06513:004E000000004I00420000003Z000000
#06514:4H00000043000000004H000000004900
#06515:00460000000000000000000000000000
#06522:42000000004D00000000480000000046
#06523:00004E004J0000004000000000460000
#06524:3Z000000004I000000004H004L000042
#06525:00004600000000004K00000000420000
#06601:00
#06601:00
#06601:00
#06601:00
#06601:00
#06601:00
#06601:00
#06601:00
#06601:00
#06601:00
#06601:00
#06601:00
#06601:00
#06601:7B7C7B7V7C7B7V7C7B7C7B7V7C7B7V7C
#06606:030405060708090A0B0C0D0E0F0G0H0I030405060708090A0B0C0D0E0F0G0H0I
#06613:00000000000000000000000000470000
#06614:0000450000000045
#06615:00004600004200000000000040000042
#06622:00000000000043000040000000000000
#06623:00470047000000400000003Z00000000
#06624:003Z
#06625:4500000000410000
#06701:00
#06701:00
#06701:00
#06701:00
#06701:00
#06701:00
#06701:00
#06701:00
#06701:00
#06701:00
#06701:00
#06701:00
#06701:00
#06701:7L7M7L807M7L807M7L7M7L807M7L807M
#06706:030405060708090A0B0C0D0E0F0G0H0I030405060708090A0B0C0D0E0F0G0H0I
#06711:004N
#06712:0000000000000000004O000000000000
#06713:00003Z00004P0000
#06714:00420000000000000000004Q00000000
#06715:0000000000410000000000004R000000
#06722:430043000000000000000000004S0000
#06723:0000003Y0000004T
#06724:0000004000000000000000000000004U
#06725:000000000000004L0000000000000000
#06801:00
#06801:00
#06801:00
#06801:00
#06801:00
#06801:00
#06801:00
#06801:00
#06801:00
#06801:00
#06801:00
#06801:00
#06801:00
#06801:7D7E7D7W7E7D7W7E7D7E7D7W7E7D7W7E
#06806:030405060708090A0B0C0D0E0F0G0H0I030405060708090A0B0C0D0E0F0G0H0I
#06812:00000000000000000000000000000041
#06813:43000000000000000041000000000000
#06814:0000004B0000003Y
#06815:00000000003Y0000
#06822:003Y
#06823:003Z004B003Z00000000004L004L0000
#06824:0000003Y00000000
#06825:003X003Y003X0000000000004N000000
#06901:00
#06901:00
#06901:00000000000B0000
#06901:00
#06901:00
#06901:00
#06901:00
#06901:00
#06901:00
#06901:00
#06901:00
#06901:00
#06901:00
#06901:7R7S7R837S7R837S7T7U7T847U7T847U
#06906:030405060708090A0B0C0D0E0F0G0H0I030405060708090A0B0C0D0E0F0G0H0I
#06911:0000004P
#06912:003Y
#06913:000000003Y00000000000000004Q0000
#06914:3Y00000000000000004L000000000000
#06915:0000004L004L00000000000000000000
#06922:000000000000004L000000000000004S
#06923:004L00000000000000004N0000000000
#06924:0000004N0000004T
#06925:00004N00000000000000004O00000000
#07001:00
#07001:00
#07001:00
#07001:00
#07001:04040404
#07001:00
#07001:000K000K
#07001:00
#07001:00
#07001:0001000100010001
#07001:02030203020302030203020302030203
#07001:00
#07001:00
#07001:7B7C7B7V7C7B7V7C7B7C7B7V7C7B7V7C
#07001:00
#07001:00
#07001:1R001T001R001R1S001R1S001R001T00
#07001:00
#07001:2A2B2C2D2E2B2F2B
#07001:8F8K8F008F8K8F008F8K8F008F8K0000
#07001:00
#07001:00
#07001:00
#07001:00
#07001:00
#07001:00
#07001:00
#07001:00
#07001:00
#07001:00
#07001:00
#07001:0R
#07006:030405060708090A0B0C0D0E0F0G0H0I030405060708090A0B0C0D0E0F0G0H0I
#07011:0045
#07012:0C0000000043008E
#07013:0000003Z
#07014:450000000000003Y
#07015:00000000000000000042000000000000
#07022:00004000000040000000004000000000
#07023:003Z003Z003Z003Z0000000000410000
#07024:00410000
#07025:0000000000000000000000000000004L
#07101:00
#07101:00
#07101:00
#07101:00
#07101:04040404
#07101:00
#07101:000K000K
#07101:00
#07101:00
#07101:0001000100010001
#07101:02030203020302030203020302030203
#07101:00
#07101:00
#07101:7F7G7F7X7G7F7X7G7F7G7F7X7G7F7X7G
#07101:00
#07101:00
#07101:1O001Q001O001O1P001O1P001O001Q00
#07101:00
#07101:2A2B2C2D2E2B2F2B
#07101:8F008K008F0000008F008K008G8L8G8L8F0000008K0000008F008K0000000000
#07106:030405060708090A0B0C0D0E0F0G0H0I030405060708090A0B0C0D0E0F0G0H0I
#07112:004V
#07113:0000004000000000
#07114:000000003Y000000004G000000000000
#07115:003Z000000004700
#07122:3Y000000004E008E
#07123:00000040000000420000000000450000
#07124:00410000004100000000004800004200
#07125:00000000000000000000000000000040
#07201:00
#07201:00
#07201:00
#07201:00
#07201:04040404
#07201:00
#07201:000K000K
#07201:00
#07201:00
#07201:0001000100010001
#07201:02030203020302030203020302030203
#07201:00
#07201:00
#07201:7H7I7H7Y7I7H7Y7I7H7I7H7Y7I7H7Y7I
#07201:00
#07201:00
#07201:1L001N001L001L1M001L1M001L001N00
#07201:00
#07201:2A2B2C2D2E2B2F2B
#07201:8F8K8F008F8K8F008F8K8F008F8K0000
#07201:000000000000008E
#07206:030405060708090A0B0C0D0E0F0G0H0I030405060708090A0B0C0D0E0F0G0H0I
#07212:5G
#07213:00000000003Y0000
#07214:5E0000000000004200000000005B0000
#07215:00005H00005G000000002K00000000000000000000004L000000000000000000
#07222:00000000000000003Z0000000000000000000000000000000000005C00000000
#07223:00005F00005E00000000000000003Z0000000000000000004P00000000000000
#07224:00000000002Q00000000000000005D00
#07225:003Y0000
#07301:00
#07301:00
#07301:00
#07301:00
#07301:04040404
#07301:00
#07301:000K000K
#07301:00
#07301:00
#07301:0001000100010001
#07301:02030203020302030203020302030203
#07301:00
#07301:00
#07301:7N7O7N817O7N817O7P7Q7P827Q7P827Q
#07301:00
#07301:00
#07301:1U001W001U001U1V001O1P001O001Q00
#07301:00
#07301:2A2B2C2D2E2B2F2B
#07301:8F008K008F0000008F008K008G8L8G8L8F0000008K0000008F008K0000000000
#07301:00
#07301:00
#07301:00
#07301:00
#07301:00
#07301:00
#07301:0046004I004H0000
#07301:004E0000004D00000048000000000000
#07306:030405060708090A0B0C0D0E0F0G0H0I030405060708090A0B0C0D0E0F0G0H0I
#07311:004E00000000008E
#07312:0000004D00000000
#07313:00460000000000000000480000000000
#07314:4H000000004I00000000000000000000
#07315:4200000045000000004H000000000049
#07322:00434200
#07323:3Z0000004000003W
#07324:000000004J00000000000000004K0000
#07325:00004K4L
#07401:00
#07401:00
#07401:00
#07401:00
#07401:04040404
#07401:00
#07401:000K000K
#07401:00
#07401:00
#07401:0001000100010001
#07401:02030203020302030203020302030203
#07401:00
#07401:00
#07401:7B7C7B7V7C7B7V7C7B7C7B7V7C7B7V7C
#07401:00
#07401:00
#07401:1R001T001R001R1S001R1S001R001T00
#07401:00
#07401:2A2B2C2D2E2B2F2B
#07401:8F8K8F008F8K8F008F8K8F008F8K0000
#07406:030405060708090A0B0C0D0E0F0G0H0I030405060708090A0B0C0D0E0F0G0H0I
#07411:0046000000000000
#07412:00000047000000000000000000470000
#07413:00470000450000000000000040000000
#07414:45000000004200000040000000004500
#07415:00000000000043000000003Z00000000
#07422:00000000000000400000410000000042
#07423:000000003Z00008E
#07501:00
#07501:00
#07501:00
#07501:00
#07501:04040404
#07501:00
#07501:000K000K
#07501:00
#07501:00
#07501:0001000100010001
#07501:02030203020302030203020302030203
#07501:00
#07501:00
#07501:7L7M7L807M7L807M7L7M7L807M7L807M
#07501:00
#07501:00
#07501:1X001Z001X001X1Y001X1Y001X001Z00
#07501:00
#07501:2A2B2C2D2E2B2F2B
#07501:8F008K008F0000008F008K008G8L8G8L8F0000008K0000008F008K0000000000
#07506:030405060708090A0B0C0D0E0F0G0H0I030405060708090A0B0C0D0E0F0G0H0I
#07511:00420000000000000000000000008E00
#07512:0000000000410000000000004R000000
#07513:0000430000000000004O000000000000
#07514:0000000000003Y0000000000004S0000
#07515:00000040000000000000000000000000
#07522:00000000004P0000
#07523:000000003Z00004L0000000000004T00
#07524:43000000000000000000004Q00000000
#07525:00000000000000004N0000000000004U
#07601:00
#07601:00
#07601:00
#07601:00
#07601:04040404
#07601:00
#07601:000K000K
#07601:00
#07601:00
#07601:0001000100010001
#07601:02030203020302030203020302030203
#07601:00
#07601:00
#07601:7D7E7D7W7E7D7W7E7D7E7D7W7E7D7W7E
#07601:00
#07601:00
#07601:20002200200020002120002120002200
#07601:00
#07601:2A2B2C2D2E2B2F2B
#07601:8F8K8F008F8K8F008F8K8F008F8K0000
#07601:000000000000008E
#07606:030405060708090A0B0C0D0E0F0G0H0I030405060708090A0B0C0D0E0F0G0H0I
#07611:0000003Y
#07612:4543
#07613:430000000000000000400000004L0000
#07614:00000000003Z000000003Z0000004N00
#07615:00000000003X00004B00004100000000
#07622:0000000000000000004100004N00004O
#07623:003Z004B00004B0000000000004O0000
#07624:003X003Y00003Y0000003Y0000004P00
#07625:00000000000000000000004L0000004Q
#07701:00
#07701:00
#07701:00
#07701:0I000M0J00000H00
#07701:0400040004000407
#07701:00
#07701:000K000K
#07701:00
#07701:00
#07701:0001000100010001
#07701:02030203020302030203020302030203
#07701:00
#07701:00
#07701:7R7S7R837S7R837S7T7U7T847U7T847U
#07701:00
#07701:00
#07701:23002500230023240026270026002800
#07701:00
#07701:2A2B2C2D2E2B2F2B
#07701:8F008K008F0000008F008K008G8L8G8L8F0000008K0000008F008K0000000000
#07701:000000000000008E
#07706:030405060708090A0B0C0D0E0F0G0H0I030405060708090A0B0C0D0E0F0G0H0I
#07712:0000000000000000000000000000004K
#07713:00004X00004X00004X00004X00000000
#07714:000000000000004X
#07715:004P00004P00004P00004P0000000000
#07722:000000000000000000000000004Y0000
#07723:4R00004R00004R00004R000000000000
#07724:0000004S
#07801:04040404
#07801:0001000100010001
#07801:000K000K
#07801:00
#07801:00
#07801:00
#07801:00
#07801:00
#07801:00
#07801:00
#07801:02030203020302030203020302030203
#07801:00
#07801:00
#07801:7B7C7B7V7C7B7V7C7B7C7B7V7C7B7V7C
#07801:00
#07801:00
#07801:00
#07801:00
#07801:00
#07801:8F8K8F008F8K8F008F8K8F008F8K0000
#07801:00
#07801:00
#07801:453Z403Z413Z403Z454243403Z413Y4L
#07806:030405060708090A0B0C0D0E0F0G0H0I030405060708090A0B0C0D0E0F0G0H0I
#07811:0C00002F
#07812:00000000002B002B
#07813:2A2E
#07814:002B002D0000008E
#07815:002C0000
#07823:1R001T001R001R00001R00001R000000
#07825:000000000000001S00001S0000001T00
#07901:04040404
#07901:0001000100010001
#07901:000K000K
#07901:00
#07901:00
#07901:00
#07901:00
#07901:00
#07901:00
#07901:00
#07901:02030203020302030203020302030203
#07901:00
#07901:00
#07901:7F7G7F7X7G7F7X7G7F7G7F7X7G7F7X7G
#07901:00
#07901:00
#07901:00
#07901:00
#07901:00
#07901:8F008K008F0000008F008K008G8L8G8L8F0000008K0000008F008K0000000000
#07901:00
#07901:00
#07901:3Y413Z403Y4140424V4G4E4847454240
#07906:030405060708090A0B0C0D0E0F0G0H0I030405060708090A0B0C0D0E0F0G0H0I
#07911:2A00002F
#07912:002B0000002B002B
#07913:002E
#07914:0000002D0000008E
#07915:002C0000
#07922:1O001Q001O001O00001O00001O000000
#07924:000000000000001P00001P0000001Q00
#08001:04040404
#08001:0001000100010001
#08001:000K000K
#08001:00
#08001:00
#08001:00
#08001:00
#08001:00
#08001:00
#08001:00
#08001:02030203020302030203020302030203
#08001:00
#08001:00
#08001:7H7I7H7Y7I7H7Y7I7H7I7H7Y7I7H7Y7I
#08001:00
#08001:00
#08001:00
#08001:00
#08001:00
#08001:8F8K8F008F8K8F008F8K8F008F8K0000
#08001:000000000000008E
#08001:00
#08001:00
#08001:5E005F00005E00003Y002Q0000003Z0000000000000000000000000000000000
#08001:5G005H00005G00003Z002K000000420000000000000000000000000000000000
#08006:030405060708090A0B0C0D0E0F0G0H0I030405060708090A0B0C0D0E0F0G0H0I
#08011:2A00002F
#08012:002B0000002B0000
#08013:002C2E1L
#08014:0000002D003Y002B
#08015:1L001N001L001L0000001M00005B0000
#08022:00000000000000000000004L00001N00
#08023:00000000000000000000000000001M0000001L00000000000000005C00000000
#08024:0000004P
#08025:000000000000005D
#08101:00
#08101:00
#08101:00
#08101:00
#08101:04040404
#08101:00
#08101:000K000K
#08101:00
#08101:00
#08101:0001000100010001
#08101:02030203020302030203020302030203
#08101:00
#08101:00
#08101:7N7O7N817O7N817O7P7Q7P827Q7P827Q
#08101:00
#08101:00
#08101:1U001W001U001U1V001O1P001O001Q00
#08101:00
#08101:2A2B2C2D2E2B2F2B
#08101:8F008K008F0000008F008K008G8L8G8L8F0000008K0000008F008K0000000000
#08101:000000000000008E
#08106:030405060708090A0B0C0D0E0F0G0H0I030405060708090A0B0C0D0E0F0G0H0I
#08111:4C000000004000000000003X00000040
#08112:004G0000000000000000000000003Z00
#08113:00004E0000003Z0000004L00003Y0000
#08114:4E0000480000003X004O00004L000045
#08115:00480000460000000000004000440000
#08122:00004600004500004P003Z0000004200
#08123:0000004500004200000000003W000000
#08124:0000000042000040003X000000000000
#08125:004L
#08201:00
#08201:00
#08201:000K000K
#08201:0001000100010001
#08201:04040404
#08201:2A00002D00002F00
#08201:002B00002E2B0000
#08201:00002C000000002B
#08201:00
#08201:00
#08201:02030203020302030203020302030203
#08201:00
#08201:00
#08201:7B7C7B7V7C7B7V7C7B7C7B7V7C7B7V7C
#08201:00
#08201:00
#08201:00
#08201:00
#08201:00
#08201:8F8K8F008F8K8F008F8K8F008F8K0000
#08206:030405060708090A0B0C0D0E0F0G0H0I030405060708090A0B0C0D0E0F0G0H0I
#08211:0000000000000000001R000000000000
#08212:1R001R1R00001R00
#08213:001T0000001S008E
#08214:000000000000001S0000004O00000000
#08215:00400000000000000000000000001T00
#08222:0000004100410000000000004P000000
#08223:3Z003Z000000004L004L0000004Q004Q
#08224:00003Y3Y00000000
#08225:000000004N4N004S
#08301:00
#08301:00
#08301:000K000K
#08301:0001000100010001
#08301:04040404
#08301:0000002D00002F00
#08301:2A2B2C00002B002B
#08301:002E
#08301:00
#08301:00
#08301:02030203020302030203020302030203
#08301:00
#08301:00
#08301:7L7M7L807M7L807M7L7M7L807M7L807M
#08301:00
#08301:00
#08301:00
#08301:00
#08301:00
#08301:8F008K008F0000008F008K008G8L8G8L8F0000008K0000008F008K0000000000
#08306:030405060708090A0B0C0D0E0F0G0H0I030405060708090A0B0C0D0E0F0G0H0I
#08311:1X0000001X001X00001X00001X000000
#08312:00001Z000000001Y00001Y0000001Z00
#08314:000000000000003Y0000000000008E00
#08315:0000004O00004O002R00000000000000
#08322:00004P00004P000000004P004P000000
#08323:004Q00004Q0000000000004W00004P00
#08324:4R0000000000000000000000004Q0000
#08325:0000000000000000000000000000004O
#08401:00
#08401:00
#08401:00000000000000000020000020000000
#08401:00
#08401:04040404
#08401:00
#08401:0000000000210022
#08401:00
#08401:00
#08401:0001000100010001
#08401:02030203020302030203020302030203
#08401:00
#08401:00
#08401:7D7E7D7W7E7D7W7E7D7E7D7W7E7D7W7E
#08401:00
#08401:00
#08401:00
#08401:00
#08401:2A2B2C2D2E2B2F2B
#08401:8F8K8F008F8K8F008F8K8F008F8K0000
#08401:00
#08401:00
#08401:00
#08401:00
#08401:00
#08401:00
#08401:00
#08401:00
#08401:00
#08401:000000000F0F0F0F
#08401:00
#08401:0000000000000000000G000G000G000G
#08406:030405060708090A0B0C0D0E0F0G0H0I030405060708090A0B0C0D0E0F0G0H0I
#08411:45004B4N
#08412:4300000000000000430000000000004Q
#08413:200000002000200000410000004O0000
#08414:00000F000F000F000040000000004P00
#08415:000G00000000000000003Y0000008E00
#08422:0F00000G000G000G00003Z0000004N00
#08423:00002200000000210000004L004L0000
#08424:003X003Y003X3Y00000000410000004O
#08425:003Z004B003Z4B00000000003Y000000
#08501:00
#08501:00
#08501:00
#08501:00
#08501:23000000230023000026000026000000
#08501:00
#08501:00002500000000240000270000002800
#08501:00
#08501:00
#08501:0001000100010001
#08501:02030203020302030203020302030203
#08501:00
#08501:00
#08501:7R7S7R837S7R837S7T7U7T847U7T847U
#08501:00
#08501:00
#08501:00
#08501:00
#08501:2A2B2C2D2E2B2F2B
#08501:8F008K008F0000008F008K008G8L8G8L8F0000008K0000008F008K0000000000
#08506:030405060708090A0B0C0D0E0F0G0H0I030405060708090A0B0C0D0E0F0G0H0I
#08511:0I0I000H
#08512:0000000007000000070000000700004K
#08513:0700000F00000J000000000000004X00
#08514:00000G00000F0000000F000F000F0000
#08515:000F000000000G000G00000000000G00
#08522:000000000G00000F00000G000G00000F
#08523:0G004X00004X00004X00004X004Y0000
#08524:004P00004P00004P00004P004S008E00
#08525:4R00004R00004R00004R0000008M0000
#08601:00
#08601:00
#08601:00
#08601:00
#08601:00
#08601:00
#08601:00
#08601:0Y00000Y00000Y00
#08601:1500001500001500
#08601:00
#08601:00
#08601:00
#08601:00
#08601:7B7C000000007B7C000000007B7C0000
#08606:030405060708090A0B0C0D0E0F0G0H0I030405060708090A0B0C0D0E0F0G0H0I
#08611:4G00000J
#08612:0048000000000I000000000045000000
#08613:00004600000000000000000000000045
#08614:000000470000040000000000004M0000
#08615:000000004500000000000000003W0000
#08622:00000000004300000000004000000000
#08623:040000000000400000003Z003Z00003Z
#08624:000000000000003Z0041000000000000
#08625:0I003Y04
#08701:00
#08701:00
#08701:00
#08701:00
#08701:00
#08701:00
#08701:00
#08701:0Y00000Y00000Y00
#08701:1500001500001500
#08701:00
#08701:00
#08701:00
#08701:00
#08701:7B7C000000007B7C000000007B7C0000
#08706:030405060708090A0B0C0D0E0F0G0H0I030405060708090A0B0C0D0E0F0G0H0I
#08711:0000000400000J00
#08712:4G450000
#08713:0000000I00004500
#08714:040000000043000000000040004M0045
#08715:004800000000400000003Z0000000000
#08722:0D00000000000000004100003Z000000
#08723:000046000000003Z00000000003W003Z
#08724:0I000047000000000000000004000000
#08725:003Y
#08801:00
#08801:0000000000000000005I000000000000
#08801:00
#08801:00
#08801:00
#08801:00
#08801:00
#08801:0Y00000Y00000Y00
#08801:1500001500001500
#08801:00
#08801:00
#08801:00
#08801:00
#08801:7B7C000000007B7C000000007B7C0000
#08806:030405060708090A0B0C0D0E0F0G0H0I030405060708090A0B0C0D0E0F0G0H0I
#08811:0I00000J
#08812:00000000000004000000004700000004
#08813:04000000000000400000000007000000
#08814:0000000000003Z0000004500004M0045
#08815:000000410041000000000000004B0000
#08822:8N003Y003Y00000000400000003X003Z
#08823:004L000000000I000000000045000000
#08824:4N000000000000003Z0000003Y00003Y
#08825:0000003Z
#08901:00
#08901:08
#08906:030405060708090A0B0C0D0E0F0G0H0I030405060708090A0B0C0D0E0F0G0H0I
#08911:0C
#08913:2H
#08923:2L
#08925:2O