Files
admin-d-j-nero-joker/Joker[9EXv2].pms

2931 lines
59 KiB
Plaintext
Raw Blame History

This file contains invisible Unicode characters
This file contains invisible Unicode characters that are indistinguishable to humans but may be processed differently by a computer. If you think that this is intentional, you can safely ignore this warning. Use the Escape button to reveal them.
This file contains Unicode characters that might be confused with other characters. If you think that this is intentional, you can safely ignore this warning. Use the Escape button to reveal them.
*---------------------- HEADER FIELD
#PLAYER 3
#GENRE ƒƒlƒbƒTƒ“ƒX -EXv2-
#TITLE Joker
#ARTIST D.J.Nero
#BPM 184
#PLAYLEVEL 43
#RANK 3
#SUBARTIST  
#STAGEFILE title.jpg
#BACKBMP logo.jpg
#DIFFICULTY 4
#TOTAL 400
#LNTYPE 1
#WAV01 opHH.ogg
#WAV02 close.ogg
#WAV03 close.ogg
#WAV04 kickA.ogg
#WAV05 kickB.ogg
#WAV06 kickB.ogg
#WAV07 kick32.ogg
#WAV08 FXkick.ogg
#WAV09 snare.ogg
#WAV0A snare.ogg
#WAV0B reverse.ogg
#WAV0C SE1.ogg
#WAV0D bell.ogg
#WAV0E ride.ogg
#WAV0F snare-Fill.ogg
#WAV0G snare-Fill.ogg
#WAV0H clashA.ogg
#WAV0I clashB.ogg
#WAV0J clashC.ogg
#WAV0K clap.ogg
#WAV0L clap-deep.ogg
#WAV0M clashB.ogg
#WAV0N bgm1.ogg
#WAV0O bgm1.ogg
#WAV0P bgm2.ogg
#WAV0Q bgm2.ogg
#WAV0R bgm3.ogg
#WAV0S str01.ogg
#WAV0T str01.ogg
#WAV0U str02.ogg
#WAV0V str03.ogg
#WAV0W str03.ogg
#WAV0X str04.ogg
#WAV0Y str05.ogg
#WAV0Z str-01.ogg
#WAV10 str-01.ogg
#WAV11 str-02.ogg
#WAV12 str-03.ogg
#WAV13 str-03.ogg
#WAV14 str-04.ogg
#WAV15 str-05.ogg
#WAV16 harp1.ogg
#WAV17 harp2.ogg
#WAV18 harp3.ogg
#WAV19 harp4.ogg
#WAV1A harp5.ogg
#WAV1B harp6.ogg
#WAV1C harp16-01.ogg
#WAV1D harp16-02.ogg
#WAV1E harp16-03.ogg
#WAV1F harp16-04.ogg
#WAV1G harp16-05.ogg
#WAV1H harp16-06.ogg
#WAV1I core1.ogg
#WAV1J core1.ogg
#WAV1K core1b.ogg
#WAV1L core2.ogg
#WAV1M core2.ogg
#WAV1N core2b.ogg
#WAV1O core3.ogg
#WAV1P core3.ogg
#WAV1Q core3b.ogg
#WAV1R core4.ogg
#WAV1S core4.ogg
#WAV1T core4b.ogg
#WAV1U core5.ogg
#WAV1V core5.ogg
#WAV1W core5b.ogg
#WAV1X core6.ogg
#WAV1Y core6.ogg
#WAV1Z core6b.ogg
#WAV20 core7.ogg
#WAV21 core7.ogg
#WAV22 core7b.ogg
#WAV23 core8.ogg
#WAV24 core8.ogg
#WAV25 core8b.ogg
#WAV26 core9.ogg
#WAV27 core9.ogg
#WAV28 core9b.ogg
#WAV29 arp-bgm.ogg
#WAV2A arp1.ogg
#WAV2B arp2.ogg
#WAV2C arp3.ogg
#WAV2D arp4.ogg
#WAV2E arp5.ogg
#WAV2F arp6.ogg
#WAV2G p-8-1.ogg
#WAV2H p-8-2.ogg
#WAV2I p-8-3.ogg
#WAV2J p-8-4.ogg
#WAV2K p-8-5.ogg
#WAV2L p-8-6.ogg
#WAV2M p-8-7.ogg
#WAV2N p-8-8.ogg
#WAV2O p-8-9.ogg
#WAV2P p-8-10.ogg
#WAV2Q p-8-11.ogg
#WAV2R p-8-12.ogg
#WAV2S p-8-13.ogg
#WAV2T pA-1.ogg
#WAV2U pA-2.ogg
#WAV2V pA-2b.ogg
#WAV2W pA-3.ogg
#WAV2X pA-4.ogg
#WAV2Y pA-4b.ogg
#WAV2Z pA-5.ogg
#WAV30 pA-6.ogg
#WAV31 pA-7.ogg
#WAV32 pA-8.ogg
#WAV33 pA-9.ogg
#WAV34 pA-10.ogg
#WAV35 pA-11.ogg
#WAV36 pA-12.ogg
#WAV37 SE3.ogg
#WAV38 pA-12b.ogg
#WAV39 pA-13.ogg
#WAV3A pA-13b.ogg
#WAV3B pA-14.ogg
#WAV3C pA-14b.ogg
#WAV3D pA-15.ogg
#WAV3E pA-15b.ogg
#WAV3F p-16-1.ogg
#WAV3G p-16-2.ogg
#WAV3H p-16-3.ogg
#WAV3I p-16-4.ogg
#WAV3J p-16-5.ogg
#WAV3K p-16-6.ogg
#WAV3L p-16-7.ogg
#WAV3M p-16-8.ogg
#WAV3N p-16-9.ogg
#WAV3O p-16-10.ogg
#WAV3P p-16-11.ogg
#WAV3Q p-16-12.ogg
#WAV3R p-16-13.ogg
#WAV3S p-16-14.ogg
#WAV3T p-16-15.ogg
#WAV3U p-16-16.ogg
#WAV3V p-16-17.ogg
#WAV3W ps-16-2.ogg
#WAV3X ps-16-1.ogg
#WAV3Y ps-16-1.ogg
#WAV3Z ps-16-2.ogg
#WAV40 ps-16-3.ogg
#WAV41 ps-16-4.ogg
#WAV42 ps-16-5.ogg
#WAV43 ps-16-6.ogg
#WAV44 ps-16-3.ogg
#WAV45 ps-16-7.ogg
#WAV46 ps-16-8.ogg
#WAV47 ps-16-9.ogg
#WAV48 ps-16-10.ogg
#WAV49 ps-16-5.ogg
#WAV4A ps-16-8.ogg
#WAV4B ps-16-2.ogg
#WAV4C ps-16-11.ogg
#WAV4D ps-16-12.ogg
#WAV4E ps-16-13.ogg
#WAV4F ps-16-14.ogg
#WAV4G ps-16-15.ogg
#WAV4H ps-16-16.ogg
#WAV4I ps-16-17.ogg
#WAV4J ps-16-18.ogg
#WAV4K ps-16-19.ogg
#WAV4L ps-16-20.ogg
#WAV4M ps-16-7.ogg
#WAV4N ps-16-21.ogg
#WAV4O ps-16-22.ogg
#WAV4P ps-16-23.ogg
#WAV4Q ps-16-24.ogg
#WAV4R ps-16-25.ogg
#WAV4S ps-16-26.ogg
#WAV4T ps-16-27.ogg
#WAV4U ps-16-28.ogg
#WAV4V ps-16-29.ogg
#WAV4W ps-16-30.ogg
#WAV4X ps-16-23.ogg
#WAV4Y ps-16-31.ogg
#WAV4Z ps-32-1.ogg
#WAV50 ps-32-1.ogg
#WAV51 ps-32-1b.ogg
#WAV52 ps-32-1b.ogg
#WAV53 ps-32-2.ogg
#WAV54 ps-32-2.ogg
#WAV55 ps-32-2b.ogg
#WAV56 ps-32-2b.ogg
#WAV57 ps-32-3.ogg
#WAV58 ps-32-4.ogg
#WAV59 ps-32-5.ogg
#WAV5A ps-32-6.ogg
#WAV5B ps-32-7.ogg
#WAV5C ps-32-8.ogg
#WAV5D ps-32-9.ogg
#WAV5E ps-32-10.ogg
#WAV5F ps-32-10.ogg
#WAV5G ps-32-10b.ogg
#WAV5H ps-32-10b.ogg
#WAV5I SE2.ogg
#WAV5J chero 1.ogg
#WAV5K chero 2.ogg
#WAV5L chero 3.ogg
#WAV5M chero 4.ogg
#WAV5N chero 9.ogg
#WAV5O chero 10.ogg
#WAV5P chero 11.ogg
#WAV5Q chero 12.ogg
#WAV5R chero 13.ogg
#WAV5S chero 14.ogg
#WAV5T chero 15.ogg
#WAV5U chero 16.ogg
#WAV5V chero 17.ogg
#WAV5W chero 18.ogg
#WAV5X chero 19.ogg
#WAV5Y chero 20.ogg
#WAV5Z chero 21.ogg
#WAV60 chero 22.ogg
#WAV61 solo 1.ogg
#WAV62 solo 2.ogg
#WAV63 solo 3.ogg
#WAV64 solo 4.ogg
#WAV65 solo 5.ogg
#WAV66 solo 6.ogg
#WAV67 solo 7.ogg
#WAV68 solo 8.ogg
#WAV69 solo 9.ogg
#WAV6A solo 10.ogg
#WAV6B solo 11.ogg
#WAV6C solo 12.ogg
#WAV6D solo 13.ogg
#WAV6E solo 14.ogg
#WAV6F solo 15.ogg
#WAV6G solo 16.ogg
#WAV6H solo 17.ogg
#WAV6I solo 18.ogg
#WAV6J solo 19.ogg
#WAV6K solo 20.ogg
#WAV6L solo 21.ogg
#WAV6M solo 22.ogg
#WAV6N solo 23.ogg
#WAV6O solo 24.ogg
#WAV6P solo 25.ogg
#WAV6Q solo 26.ogg
#WAV6R solo 27.ogg
#WAV6S solo 28.ogg
#WAV6T solo 29.ogg
#WAV6U solo 30.ogg
#WAV6V solo 31.ogg
#WAV6W solo 32.ogg
#WAV6X solo 33.ogg
#WAV6Y solo 34.ogg
#WAV6Z solo 35.ogg
#WAV70 solo 36.ogg
#WAV71 solo 37.ogg
#WAV72 solo 38.ogg
#WAV73 solo 39.ogg
#WAV74 solo 40.ogg
#WAV75 solo 41.ogg
#WAV76 solo 42.ogg
#WAV77 solo 43.ogg
#WAV78 solo 44.ogg
#WAV79 solo 45.ogg
#WAV7A solo 46.ogg
#WAV7B bass1.ogg
#WAV7C bass2.ogg
#WAV7D bass3.ogg
#WAV7E bass4.ogg
#WAV7F bass5.ogg
#WAV7G bass6.ogg
#WAV7H bass7.ogg
#WAV7I bass8.ogg
#WAV7J bass9.ogg
#WAV7K bass10.ogg
#WAV7L bass11.ogg
#WAV7M bass12.ogg
#WAV7N bass13.ogg
#WAV7O bass14.ogg
#WAV7P bass15.ogg
#WAV7Q bass16.ogg
#WAV7R bass17.ogg
#WAV7S bass18.ogg
#WAV7T bass19.ogg
#WAV7U bass20.ogg
#WAV7V bass1.ogg
#WAV7W bass3.ogg
#WAV7X bass5.ogg
#WAV7Y bass7.ogg
#WAV7Z bass9.ogg
#WAV80 bass11.ogg
#WAV81 bass13.ogg
#WAV82 bass15.ogg
#WAV83 bass17.ogg
#WAV84 bass19.ogg
#WAV85 chero1.ogg
#WAV86 chero2.ogg
#WAV87 chero3.ogg
#WAV88 chero4.ogg
#WAV89 vio1.ogg
#WAV8A vio2.ogg
#WAV8B vio3.ogg
#WAV8C vio4.ogg
#WAV8D tim.ogg
#WAV8E tanbarin.ogg
#WAV8F suzu.ogg
#WAV8G suzu32.ogg
#WAV8H syuooo.ogg
#WAV8I SE5.ogg
#WAV8J horn.ogg
#WAV8K suzu.ogg
#WAV8L suzu32.ogg
#WAV8M cym B.ogg
#WAV8N cym C.ogg
#WAV8O SE4.ogg
*---------------------- EXPANSION FIELD
#BMP01 joker.mpg
#BMP03 miss 01.bmp
#BMP04 miss 02.bmp
#BMP05 miss 03.bmp
#BMP06 miss 04.bmp
#BMP07 miss 05.bmp
#BMP08 miss 06.bmp
#BMP09 miss 07.bmp
#BMP0A miss 08.bmp
#BMP0B miss 09.bmp
#BMP0C miss 10.bmp
#BMP0D miss 11.bmp
#BMP0E miss 12.bmp
#BMP0F miss 13.bmp
#BMP0G miss 14.bmp
#BMP0H miss 15.bmp
#BMP0I miss 16.bmp
*---------------------- MAIN DATA FIELD
#00101:00
#00101:000B000000000000
#00104:01
#00106:030405060708090A0B0C0D0E0F0G0H0I030405060708090A0B0C0D0E0F0G0H0I
#00201:00
#00201:00
#00201:00
#00201:00
#00201:00
#00201:00
#00201:00
#00201:00
#00201:00
#00201:00
#00201:00
#00201:00
#00201:00
#00201:7B7C7B7V7C7B7V7C7B7C7B7V7C7B7V7C
#00206:030405060708090A0B0C0D0E0F0G0H0I030405060708090A0B0C0D0E0F0G0H0I
#00211:0400000400040000
#00213:00000K00000K0000
#00214:0Z10000000000000
#00215:0000001100000000
#00222:0S0T000000000000
#00223:0000000U00000000
#00301:00
#00301:00
#00301:00
#00301:00
#00301:00
#00301:00
#00301:00
#00301:00
#00301:00
#00301:00
#00301:00
#00301:00
#00301:00
#00301:7B7C7B7V7C7B7V7C7B7C7B7V7C7B7V7C
#00306:030405060708090A0B0C0D0E0F0G0H0I030405060708090A0B0C0D0E0F0G0H0I
#00311:0400000400040000
#00313:00000K00000K0000
#00322:1213000000000000
#00323:0000001400000000
#00324:0V0W000000000000
#00325:0000000X00000000
#00401:00
#00401:00
#00401:00
#00401:00
#00401:00
#00401:00
#00401:00
#00401:0F0F0F0F0F0F0F0F
#00401:000G000G000G000G000G000G000G000G
#00401:00
#00401:00
#00401:00
#00401:00
#00401:7B7C7B7V7C7B7V7C7B7C7B7V7C7B7V7C
#00406:030405060708090A0B0C0D0E0F0G0H0I030405060708090A0B0C0D0E0F0G0H0I
#00411:0400000400040000
#00413:0J00000I000I0000
#00414:0Z10000000000000
#00415:0000001100000000
#00422:0S0T000000000000
#00423:0000000U00000000
#00501:00
#00501:00
#00501:00
#00501:00
#00501:00
#00501:00
#00501:00
#00501:0F0F0F0F0F0F0F0F
#00501:000G000G000G000G000G000G000G000G
#00501:00
#00501:00
#00501:00
#00501:00
#00501:7B7C7B7V7C7B7V7C7B7C7B7V7C7B7V7C
#00506:030405060708090A0B0C0D0E0F0G0H0I030405060708090A0B0C0D0E0F0G0H0I
#00511:0400000400040000
#00512:0000000000000005
#00513:0J00000I000I0000
#00514:0000000000000000000000000000000000000000000000000000000000060000
#00522:12001300000000000000000000000005
#00523:0000001400000000
#00524:0V0000000W000000000000000000000000000000000000000000000000000006
#00525:0000000X00000000
#00601:000K000K
#00601:00
#00601:00
#00601:00
#00601:00
#00601:00
#00601:00
#00601:00
#00601:00
#00601:00
#00601:02030203020302030203020302030203
#00601:00
#00601:00
#00601:7B7C7B7V7C7B7V7C7B7C7B7V7C7B7V7C
#00601:00
#00601:00
#00601:00
#00601:00
#00601:00
#00601:00
#00601:00
#00601:00
#00601:00
#00601:00
#00601:00
#00601:00
#00601:00
#00601:00
#00601:00
#00601:00
#00601:00
#00601:0N
#00606:030405060708090A0B0C0D0E0F0G0H0I030405060708090A0B0C0D0E0F0G0H0I
#00611:2G00000000000001
#00612:0000000000010000
#00613:0400000100000400
#00614:000100000400002H
#00615:00000400002I0000
#00622:0000002H00002J00
#00623:002H00002K000000
#00624:002I0000
#00625:0C
#00701:000K000K
#00701:00
#00701:00
#00701:00
#00701:00
#00701:00
#00701:00
#00701:00
#00701:00
#00701:00
#00701:02030203020302030203020302030203
#00701:00
#00701:00
#00701:7B7C7B7V7C7B7V7C7B7C7B7V7C7B7V7C
#00706:030405060708090A0B0C0D0E0F0G0H0I030405060708090A0B0C0D0E0F0G0H0I
#00712:04
#00713:0001000000000001
#00714:0000040000010000
#00715:2G00000100000400
#00722:002I00000400002I
#00723:00002J00002H0000
#00724:0000002K00002K00
#00725:002L
#00801:000K000K
#00801:00
#00801:00
#00801:00
#00801:00
#00801:00
#00801:00
#00801:00
#00801:00
#00801:00
#00801:02030203020302030203020302030203
#00801:00
#00801:00
#00801:7D7E7D7W7E7D7W7E7D7E7D7W7E7D7W7E
#00806:030405060708090A0B0C0D0E0F0G0H0I030405060708090A0B0C0D0E0F0G0H0I
#00811:04
#00812:0000002H00000000
#00813:0001000000000000
#00814:2J00000000010000
#00815:00040004
#00822:002K000004000001
#00823:00000001002K0000
#00824:002L002L
#00825:000000002M00002M
#00901:000K000K
#00901:00
#00901:00
#00901:00
#00901:00
#00901:00
#00901:00
#00901:00
#00901:00
#00901:00
#00901:02030203020302030203020302030203
#00901:00
#00901:00
#00901:7D7E7D7W7E7D7W7E7D7E7D7W7E7D7W7E
#00906:030405060708090A0B0C0D0E0F0G0H0I030405060708090A0B0C0D0E0F0G0H0I
#00912:2H0000010000002N
#00913:0004002I
#00914:00000000002J0000
#00915:0001002I00000001
#00922:002K2K04
#00923:0400000000010000
#00924:002L000000000000
#00925:0004
#01001:000K000K
#01001:00
#01001:00
#01001:00
#01001:00
#01001:00
#01001:00
#01001:00
#01001:00
#01001:00
#01001:02030203020302030203020302030203
#01001:00
#01001:00
#01001:7F7G7F7X7G7F7X7G7F7G7F7X7G7F7X7G
#01006:030405060708090A0B0C0D0E0F0G0H0I030405060708090A0B0C0D0E0F0G0H0I
#01011:2G00000000000001
#01012:0000040000010000
#01013:000000010000002H
#01014:00010000002I0000
#01015:0000002H00000000
#01022:002H000000002J00
#01023:002K
#01024:002I0004
#01025:0404
#01101:000K000K
#01101:00
#01101:00
#01101:00
#01101:00
#01101:00
#01101:00
#01101:00
#01101:00
#01101:00
#01101:02030203020302030203020302030203
#01101:00
#01101:00
#01101:7F7G7F7X7G7F7X7G7F7G7F7X7G7F7X7G
#01106:030405060708090A0B0C0D0E0F0G0H0I030405060708090A0B0C0D0E0F0G0H0I
#01113:04000000002H002I
#01114:0001000000000400
#01115:2G00040000000001
#01122:002I000100010000
#01123:002J0400
#01124:0000002K00002K00
#01125:002L
#01201:000K000K
#01201:00
#01201:00
#01201:00
#01201:00
#01201:00
#01201:00
#01201:00
#01201:00
#01201:00
#01201:02030203020302030203020302030203
#01201:00
#01201:00
#01201:7B7C7B7V7C7B7V7C7B7C7B7V7C7B7V7C
#01206:030405060708090A0B0C0D0E0F0G0H0I030405060708090A0B0C0D0E0F0G0H0I
#01212:04
#01213:0001000004000000
#01214:0000040000010000
#01215:0000002H00000400
#01222:2J000000002K0001
#01223:002K000100002L00
#01224:002L0000
#01225:000000002M00002M
#01301:000K000K
#01301:000000000000000000000000008M0000
#01301:00
#01301:00
#01301:00
#01301:00
#01301:00
#01301:00
#01301:00
#01301:00
#01301:02030203020302030203020302030203
#01301:00
#01301:00
#01301:7B7C7B7V7C7B7V7C7B7C7B7V7C7B7V7C
#01306:030405060708090A0B0C0D0E0F0G0H0I030405060708090A0B0C0D0E0F0G0H0I
#01311:2H
#01312:0000002I0000002N
#01313:0000002I
#01314:00002K01002J0001
#01315:00002K04
#01322:002L040000010000
#01323:0004
#01324:0401000000000000
#01401:00
#01401:00
#01401:00
#01401:00
#01401:00
#01401:00
#01401:00
#01401:00
#01401:00
#01401:00
#01401:02030203020302030203020302030203
#01401:00
#01401:00
#01401:7B7C7B7V7C7B7V7C7B7C7B7V7C7B7V7C
#01406:030405060708090A0B0C0D0E0F0G0H0I030405060708090A0B0C0D0E0F0G0H0I
#01411:2G00000000000001
#01412:0000000000010000
#01413:002H00000000002H
#01414:00000001002I0000
#01415:000K000K
#01422:0400002H00000400
#01423:0001000004000000
#01424:002I002J
#01425:00042K00
#01501:00
#01501:00
#01501:00
#01501:00
#01501:00
#01501:00
#01501:00
#01501:00
#01501:00
#01501:00
#01501:02030203020302030203020302030203
#01501:00
#01501:00
#01501:7B7C7B7V7C7B7V7C7B7C7B7V7C7B7V7C
#01506:030405060708090A0B0C0D0E0F0G0H0I030405060708090A0B0C0D0E0F0G0H0I
#01512:2G0000000000002I
#01513:00000400002H0000
#01514:0001000100000001
#01515:000K000K
#01522:002I000004000400
#01523:04002J0000010000
#01524:0000002K00002K00
#01525:002L
#01601:00
#01601:00
#01601:00
#01601:00
#01601:00
#01601:00
#01601:00
#01601:00
#01601:00
#01601:00
#01601:02030203020302030203020302030203
#01601:00
#01601:00
#01601:7D7E7D7W7E7D7W7E7D7E7D7W7E7D7W7E
#01606:030405060708090A0B0C0D0E0F0G0H0I030405060708090A0B0C0D0E0F0G0H0I
#01612:0000002H00000000
#01613:2J000404
#01614:00010000002K0000
#01615:000K000K
#01622:0400000000010000
#01623:002K000100000001
#01624:002L002L
#01625:000004002M00002M
#01701:00
#01701:00
#01701:00
#01701:00
#01701:00
#01701:00
#01701:00
#01701:00
#01701:00
#01701:00
#01701:02030203020302030203020302030203
#01701:00
#01701:00
#01701:7D7E7D7W7E7D7W7E7D7E7D7W7E7D7W7E
#01706:030405060708090A0B0C0D0E0F0G0H0I030405060708090A0B0C0D0E0F0G0H0I
#01711:00040004
#01712:2H0000000000002N
#01713:0000002I00002I00
#01714:04000000002J0001
#01715:000K000K
#01722:002K2K00
#01723:002L000000010000
#01724:0000000100000000
#01725:0001000004000000
#01801:00
#01801:00
#01801:00
#01801:00
#01801:00
#01801:00
#01801:00
#01801:00
#01801:00
#01801:00
#01801:02030203020302030203020302030203
#01801:00
#01801:00
#01801:7F7G7F7X7G7F7X7G7F7G7F7X7G7F7X7G
#01806:030405060708090A0B0C0D0E0F0G0H0I030405060708090A0B0C0D0E0F0G0H0I
#01811:2G00000000000001
#01812:0000000000010000
#01813:002H00000000002H
#01814:00000001002I0000
#01815:000K000K
#01822:0400002H00000400
#01823:0001000004000000
#01824:002I002J
#01825:00042K00
#01901:00
#01901:00
#01901:00
#01901:00
#01901:00
#01901:00
#01901:00
#01901:00
#01901:00
#01901:00
#01901:02030203020302030203020302030203
#01901:00
#01901:00
#01901:7F7G7F7X7G7F7X7G7F7G7F7X7G7F7X7G
#01906:030405060708090A0B0C0D0E0F0G0H0I030405060708090A0B0C0D0E0F0G0H0I
#01912:2G0000000000002I
#01913:00010000002H0000
#01914:0400040000000001
#01915:000K000K
#01922:002I000100010000
#01923:002J0400
#01924:0000002K00002K00
#01925:00002L04
#02001:00
#02001:00
#02001:00
#02001:00
#02001:00
#02001:00
#02001:00
#02001:00
#02001:00
#02001:00
#02001:02030203020302030203020302030203
#02001:00
#02001:00
#02001:7B7C7B7V7C7B7V7C7B7C7B7V7C7B7V7C
#02006:030405060708090A0B0C0D0E0F0G0H0I030405060708090A0B0C0D0E0F0G0H0I
#02011:0400000000000001
#02012:0000000000010000
#02013:0001002H00000400
#02014:00000400002K0000
#02015:000K000K
#02022:2J04
#02023:002K000100002L00
#02024:002L0000
#02025:000000002M00002M
#02101:00
#02101:00
#02101:00
#02101:00
#02101:00
#02101:00
#02101:00
#02101:00
#02101:00
#02101:00
#02101:02030203020302030203020302030203
#02101:00
#02101:00
#02101:7B7C7B7V7C7B7V7C7B7C7B7V7C7B7V7C
#02106:030405060708090A0B0C0D0E0F0G0H0I030405060708090A0B0C0D0E0F0G0H0I
#02111:0000000J00000500
#02112:04000004000400000400040000000700
#02113:00000500000000050000000000060000
#02114:0I000M0000000H2N
#02115:0001000100000K00
#02122:2H0K002I
#02123:0000002I002J0000
#02124:00002K002K000001
#02125:002L000000010000
#02201:00
#02201:00
#02201:00
#02201:00
#02201:00
#02201:00
#02201:04040404
#02201:00
#02201:00
#02201:0001000100010001
#02201:02030203020302030203020302030203
#02201:00
#02201:00
#02201:7B7C7B7V7C7B7V7C7B7C7B7V7C7B7V7C
#02201:00
#02201:00
#02201:00
#02201:00
#02201:8F8K8F008F8K8F008F8K8F008F8K0000
#02201:000000000000008E
#02201:00
#02201:00
#02201:00
#02201:00
#02201:00
#02201:00
#02201:00
#02201:00
#02201:00
#02201:00
#02201:00
#02201:0O
#02206:030405060708090A0B0C0D0E0F0G0H0I030405060708090A0B0C0D0E0F0G0H0I
#02211:1I0000001I001I00001I00001I000000
#02213:00001K000000001J00001J0000001K00
#02215:16
#02222:00171700
#02223:0C00000000180017
#02224:000K000K
#02225:00000019
#02301:00
#02301:00
#02301:00
#02301:00
#02301:00
#02301:00
#02301:04040404
#02301:00
#02301:00
#02301:0001000100010001
#02301:02030203020302030203020302030203
#02301:00
#02301:00
#02301:7B7C7B7V7C7B7V7C7B7C7B7V7C7B7V7C
#02301:00
#02301:00
#02301:00
#02301:00
#02301:8F008K008F0000008F008K008G8L8G8L8F0000008K0000008F008K0000000000
#02301:000000000000008E
#02306:030405060708090A0B0C0D0E0F0G0H0I030405060708090A0B0C0D0E0F0G0H0I
#02311:1I0000001I001I00001I00001I000000
#02313:00001K000000001J00001J0000001K00
#02314:0000000K
#02315:0000001700000000
#02322:00180016
#02323:001A
#02324:180K0000
#02325:0019000000000000
#02401:00
#02401:00
#02401:00
#02401:00
#02401:00
#02401:00
#02401:04040404
#02401:00
#02401:00
#02401:0001000100010001
#02401:02030203020302030203020302030203
#02401:00
#02401:00
#02401:7D7E7D7W7E7D7W7E7D7E7D7W7E7D7W7E
#02401:00
#02401:00
#02401:00
#02401:00
#02401:8F8K8F008F8K8F008F8K8F008F8K0000
#02401:000000000000008E
#02406:030405060708090A0B0C0D0E0F0G0H0I030405060708090A0B0C0D0E0F0G0H0I
#02412:1L0000001L001L00001L00001L000000
#02414:00001N000000001M00001M0000001N00
#02422:1600000017000017
#02423:0017000K
#02424:0000000000180000
#02425:000K0019
#02501:00
#02501:00
#02501:00
#02501:00
#02501:00
#02501:00
#02501:04040404
#02501:00
#02501:00
#02501:0001000100010001
#02501:02030203020302030203020302030203
#02501:00
#02501:00
#02501:7D7E7D7W7E7D7W7E7D7E7D7W7E7D7W7E
#02501:00
#02501:00
#02501:00
#02501:00
#02501:8F008K008F0000008F008K008G8L8G8L8F0000008K0000008F008K0000000000
#02501:000000000000008E
#02506:030405060708090A0B0C0D0E0F0G0H0I030405060708090A0B0C0D0E0F0G0H0I
#02512:1L0000001L001L00001L00001L000000
#02514:00001N000000001M00001M0000001N00
#02515:00000K001A00001A
#02522:0000001700170000
#02523:00180018
#02524:0019000000000000
#02525:1B00000K
#02601:00
#02601:00
#02601:00
#02601:00
#02601:04040404
#02601:00
#02601:00
#02601:00
#02601:00
#02601:0001000100010001
#02601:02030203020302030203020302030203
#02601:00
#02601:00
#02601:7F7G7F7X7G7F7X7G7F7G7F7X7G7F7X7G
#02601:00
#02601:00
#02601:00
#02601:00
#02601:8F8K8F008F8K8F008F8K8F008F8K0000
#02601:000000000000008E
#02606:030405060708090A0B0C0D0E0F0G0H0I030405060708090A0B0C0D0E0F0G0H0I
#02611:000K000K
#02613:1O0000001O001O00001O00001O000000
#02615:00001Q000000001P00001P0000001Q00
#02622:16
#02623:0000170017000017
#02624:0000000000180000
#02625:00000019
#02701:00
#02701:00
#02701:00
#02701:00
#02701:04040404
#02701:00
#02701:00
#02701:00
#02701:00
#02701:0001000100010001
#02701:02030203020302030203020302030203
#02701:00
#02701:00
#02701:7F7G7F7X7G7F7X7G7F7G7F7X7G7F7X7G
#02701:00
#02701:00
#02701:00
#02701:00
#02701:8F008K008F0000008F008K008G8L8G8L8F0000008K0000008F008K0000000000
#02701:000000000000008E
#02706:030405060708090A0B0C0D0E0F0G0H0I030405060708090A0B0C0D0E0F0G0H0I
#02711:000K000K
#02712:000000000000001F
#02713:1O0000001O001O00001O00001O000000
#02715:00001Q000000001P00001P0000001Q00
#02722:000000001C1C0000
#02723:00000000000017000000001D00000000
#02724:1818001E
#02725:0019000000000000
#02801:00
#02801:00
#02801:00
#02801:00
#02801:04040404
#02801:00
#02801:00
#02801:00
#02801:00
#02801:0001000100010001
#02801:02030203020302030203020302030203
#02801:00
#02801:00
#02801:7B7C7B7V7C7B7V7C7B7C7B7V7C7B7V7C
#02801:00
#02801:00
#02801:00
#02801:00
#02801:8F8K8F008F8K8F008F8K8F008F8K0000
#02801:000000000000008E
#02806:030405060708090A0B0C0D0E0F0G0H0I030405060708090A0B0C0D0E0F0G0H0I
#02812:1600000K
#02813:0000170017000017
#02814:1R0000001R001R00001R00001R000000
#02822:00001T000000001S00001S0000001T00
#02823:0000000000180000
#02824:000K0019
#02901:00
#02901:00
#02901:00
#02901:00
#02901:04040404
#02901:00
#02901:00
#02901:00
#02901:00
#02901:0001000100010001
#02901:02030203020302030203020302030203
#02901:00
#02901:00
#02901:7B7C7B7V7C7B7V7C7B7C7B7V7C7B7V7C
#02901:00
#02901:00
#02901:00
#02901:00
#02901:8F008K008F0000008F008K008G8L8G8L8F0000008K0000008F008K0000000000
#02901:000000000000008E
#02906:030405060708090A0B0C0D0E0F0G0H0I030405060708090A0B0C0D0E0F0G0H0I
#02911:001A
#02912:00000K0000170000
#02913:0000001D0000001A
#02914:1R0000001R001R00001R00001R000000
#02915:0000000K
#02922:00001T000000001S00001S0000001T00
#02923:001E0018
#02924:0000001H000000000000000000000000
#02925:1G001G000000000000000000008M0000
#03001:00
#03001:00
#03001:00
#03001:00
#03001:00
#03001:00
#03001:000K000K
#03001:00
#03001:00
#03001:00
#03001:02030203020302030203020302030203
#03001:00
#03001:00
#03001:7B7C7B7V7C7B7V7C7B7C7B7V7C7B7V7C
#03001:00
#03001:00
#03001:00
#03001:00
#03001:8F8K8F008F8K8F008F8K8F008F8K0000
#03001:000000000000008E
#03006:030405060708090A0B0C0D0E0F0G0H0I030405060708090A0B0C0D0E0F0G0H0I
#03011:1I0000001I001I00001I00001I000000
#03012:00000004
#03013:00001K000000001J00001J0000001K00
#03014:0000000000010000
#03015:0400000004000001
#03022:0001000100000000
#03023:1600000017000017
#03024:0000170000180000
#03025:00040019
#03101:00
#03101:00
#03101:00
#03101:00
#03101:00
#03101:00
#03101:000K000K
#03101:00
#03101:00
#03101:00
#03101:02030203020302030203020302030203
#03101:00
#03101:00
#03101:7B7C7B7V7C7B7V7C7B7C7B7V7C7B7V7C
#03101:00
#03101:00
#03101:00
#03101:00
#03101:8F008K008F0000008F008K008G8L8G8L8F0000008K0000008F008K0000000000
#03101:000000000000008E
#03106:030405060708090A0B0C0D0E0F0G0H0I030405060708090A0B0C0D0E0F0G0H0I
#03111:1I0000001I001I00001I00001I000000
#03113:00001K000000001J00001J0000001K00
#03114:0404
#03115:0000000100001600
#03122:180004001A000001
#03123:0001001700000400
#03124:0000180000010000
#03125:0019000000000000
#03201:00
#03201:00
#03201:00
#03201:00
#03201:00
#03201:00
#03201:000K000K
#03201:00
#03201:00
#03201:00
#03201:02030203020302030203020302030203
#03201:00
#03201:00
#03201:7D7E7D7W7E7D7W7E7D7E7D7W7E7D7W7E
#03201:00
#03201:00
#03201:00
#03201:00
#03201:8F8K8F008F8K8F008F8K8F008F8K0000
#03201:000000000000008E
#03206:030405060708090A0B0C0D0E0F0G0H0I030405060708090A0B0C0D0E0F0G0H0I
#03211:00000004
#03212:1L0000001L001L00001L00001L000000
#03213:0000000000010000
#03214:00001N000000001M00001M0000001N00
#03215:1600000100000001
#03222:00171700
#03223:0400000000180000
#03224:0000040004000017
#03225:0001000000001900
#03301:00
#03301:00
#03301:00
#03301:00
#03301:00
#03301:00
#03301:000K000K
#03301:00
#03301:00
#03301:00
#03301:02030203020302030203020302030203
#03301:00
#03301:00
#03301:7D7E7D7W7E7D7W7E7D7E7D7W7E7D7W7E
#03301:00
#03301:00
#03301:00
#03301:00
#03301:8F008K008F0000008F008K008G8L8G8L8F0000008K0000008F008K0000000000
#03301:000000000000008E
#03306:030405060708090A0B0C0D0E0F0G0H0I030405060708090A0B0C0D0E0F0G0H0I
#03311:0004
#03312:1L0000001L001L00001L00001L000000
#03313:0000000100000000
#03314:00001N000000001M00001M0000001N00
#03315:000004001A000001
#03322:0001001700010000
#03323:04180004
#03324:001900000017001A
#03325:1B000018
#03401:00
#03401:00
#03401:00
#03401:00
#03401:00
#03401:00
#03401:000K000K
#03401:00
#03401:00
#03401:00
#03401:02030203020302030203020302030203
#03401:00
#03401:00
#03401:7F7G7F7X7G7F7X7G7F7G7F7X7G7F7X7G
#03401:00
#03401:00
#03401:00
#03401:00
#03401:8F8K8F008F8K8F008F8K8F008F8K0000
#03401:000000000000008E
#03406:030405060708090A0B0C0D0E0F0G0H0I030405060708090A0B0C0D0E0F0G0H0I
#03411:16041700
#03412:0000000000010001
#03413:1O0000001O001O00001O00001O000000
#03415:00001Q000000001P00001P0000001Q00
#03422:0000170004000017
#03423:0400000100180000
#03424:0001000000000400
#03425:00000019
#03501:00
#03501:00
#03501:00
#03501:00
#03501:00
#03501:00
#03501:000K000K
#03501:00
#03501:00
#03501:00
#03501:02030203020302030203020302030203
#03501:00
#03501:00
#03501:7F7G7F7X7G7F7X7G7F7G7F7X7G7F7X7G
#03501:00
#03501:00
#03501:00
#03501:00
#03501:8F008K008F0000008F008K008G8L8G8L8F0000008K0000008F008K0000000000
#03501:000000000000008E
#03506:030405060708090A0B0C0D0E0F0G0H0I030405060708090A0B0C0D0E0F0G0H0I
#03511:04000004
#03512:000000001C1C001F
#03513:1O0000001O001O00001O00001O000000
#03514:0000000100000000
#03515:00001Q000000001P00001P0000001Q00
#03522:00000000040000000000001D00000000
#03523:0001001700010001
#03524:18180400
#03525:0019000000001E00
#03601:00
#03601:00
#03601:00
#03601:00
#03601:00
#03601:00
#03601:000K000K
#03601:00
#03601:00
#03601:00
#03601:02030203020302030203020302030203
#03601:00
#03601:00
#03601:7B7C7B7V7C7B7V7C7B7C7B7V7C7B7V7C
#03601:00
#03601:00
#03601:00
#03601:00
#03601:8F8K8F008F8K8F008F8K8F008F8K0000
#03601:000000000000008E
#03606:030405060708090A0B0C0D0E0F0G0H0I030405060708090A0B0C0D0E0F0G0H0I
#03611:1600000000000001
#03612:00171700
#03613:0400000000180017
#03614:1R0000001R001R00001R00001R000000
#03615:00040000
#03622:00001T000000001S00001S0000001T00
#03623:0000000100000400
#03624:0001000004010000
#03625:00000019
#03701:00
#03701:00
#03701:00
#03701:0000000000000007
#03701:00
#03701:00
#03701:000K000K
#03701:00
#03701:00
#03701:00
#03701:02030203020302030203020302030203
#03701:00
#03701:00
#03701:7B7C7B7V7C7B7V7C7B7C7B7V7C7B7V7C
#03701:00
#03701:00
#03701:00
#03701:00
#03701:8F008K008F0000008F008K008G8L8G8L8F0000008K0000008F008K0000000000
#03701:000000000000008E
#03706:030405060708090A0B0C0D0E0F0G0H0I030405060708090A0B0C0D0E0F0G0H0I
#03711:0000000100000001
#03712:0I000M0J00000H00
#03713:000004001A00001A
#03714:1R0000001R001R00001R00001R000000
#03715:0001001D00010000
#03722:00001T000000001S00001S0000001T00
#03723:041E0404
#03724:0000001H000000000000170000000000
#03725:1G1G000000001800
#03801:00
#03801:00
#03801:00
#03801:00
#03801:04040404
#03801:00
#03801:000K000K
#03801:00
#03801:00
#03801:0001000100010001
#03801:00030203000300030203020302030203
#03801:00
#03801:00
#03801:7B7C7B7V7C7B7V7C7B7C7B7V7C7B7V7C
#03801:00
#03801:00
#03801:00
#03801:00
#03801:00
#03801:00
#03801:00
#03801:00
#03801:5J5K5J5K005L005M
#03801:00
#03801:00
#03801:00
#03801:00
#03801:00
#03801:00
#03801:00
#03801:00
#03801:0P
#03806:030405060708090A0B0C0D0E0F0G0H0I030405060708090A0B0C0D0E0F0G0H0I
#03813:02
#03814:0000020200000000
#03815:61
#03823:2T
#03824:00002U2V00000000
#03825:0C
#03901:00
#03901:00
#03901:00
#03901:00
#03901:04040404
#03901:00
#03901:000K000K
#03901:00
#03901:00
#03901:0001000100010001
#03901:02030203020302030203020302030203
#03901:00
#03901:00
#03901:7B7C7B7V7C7B7V7C7B7C7B7V7C7B7V7C
#03901:00
#03901:00
#03901:00
#03901:00
#03901:00
#03901:00
#03901:00
#03901:00
#03901:5J5K5J5K005L005M
#03906:030405060708090A0B0C0D0E0F0G0H0I030405060708090A0B0C0D0E0F0G0H0I
#03912:2L2L
#03915:002O002O002O0000
#03922:00000000000000000000000000000064
#03923:0000000000000063
#03924:002P0000
#03925:62
#04001:00
#04001:00
#04001:00
#04001:00
#04001:04040404
#04001:00
#04001:000K000K
#04001:00
#04001:00
#04001:0001000100010001
#04001:00030203000300030203020302030203
#04001:00
#04001:00
#04001:7F7G7F7X7G7F7X7G7F7G7F7X7G7F7X7G
#04001:00
#04001:00
#04001:00
#04001:00
#04001:00
#04001:00
#04001:00
#04001:00
#04001:5N5O5N5O005P005Q
#04006:030405060708090A0B0C0D0E0F0G0H0I030405060708090A0B0C0D0E0F0G0H0I
#04011:02000068
#04012:00000000000000000000670000690000
#04013:000002020000006A
#04014:2W00000000000000660000000000006B
#04015:65
#04022:00002X2Y00000000
#04101:00
#04101:00
#04101:00
#04101:00
#04101:04040404
#04101:00
#04101:000K000K
#04101:00
#04101:00
#04101:0001000100010001
#04101:02030203020302030203020302030203
#04101:00
#04101:00
#04101:7F7G7F7X7G7F7X7G7F7G7F7X7G7F7X7G
#04101:00
#04101:00
#04101:00
#04101:00
#04101:00
#04101:00
#04101:00
#04101:00
#04101:5N5O5N5O005P005Q
#04106:030405060708090A0B0C0D0E0F0G0H0I030405060708090A0B0C0D0E0F0G0H0I
#04112:00000000002K0000
#04115:6C6D
#04122:002Q000000000000
#04123:002Q
#04124:2O00002O00000000
#04125:002P0000
#04201:00
#04201:00
#04201:00
#04201:00
#04201:04040404
#04201:00
#04201:000K000K
#04201:00
#04201:00
#04201:0001000100010001
#04201:00030203020302030203020302030203
#04201:00
#04201:00
#04201:7H7I7H7Y7I7H7Y7I7H7I7H7Y7I7H7Y7I
#04201:00
#04201:00
#04201:00
#04201:00
#04201:00
#04201:00
#04201:00
#04201:00
#04201:5R5S5R5T005U005V
#04206:030405060708090A0B0C0D0E0F0G0H0I030405060708090A0B0C0D0E0F0G0H0I
#04213:6E
#04214:2Z
#04222:02
#04223:0000003000000000
#04224:00000031
#04301:00
#04301:00
#04301:00
#04301:00
#04301:04040404
#04301:00
#04301:000K000K
#04301:00
#04301:00
#04301:0001000100010001
#04301:02030203020302030203020302030203
#04301:00
#04301:00
#04301:7H7I7H7Y7I7H7Y7I7H7I7H7Y7I7H7Y7I
#04301:00
#04301:00
#04301:00
#04301:00
#04301:00
#04301:00
#04301:00
#04301:00
#04301:5R5S5R5T005U005V
#04306:030405060708090A0B0C0D0E0F0G0H0I030405060708090A0B0C0D0E0F0G0H0I
#04311:6F
#04313:00000000002L0000
#04314:002Q
#04315:0000002O00000000
#04323:002P0000
#04324:002S00006G000000
#04325:2R
#04401:00
#04401:00
#04401:00
#04401:00
#04401:04040404
#04401:00
#04401:000K000K
#04401:00
#04401:00
#04401:0001000100010001
#04401:02030203020302030203020302030203
#04401:00
#04401:00
#04401:7F7G7F7X7G7F7X7G7F7G7F7X7G7F7X7G
#04401:00
#04401:00
#04401:00
#04401:00
#04401:00
#04401:00
#04401:00
#04401:00
#04401:5O5U5S5T005U005V
#04406:030405060708090A0B0C0D0E0F0G0H0I030405060708090A0B0C0D0E0F0G0H0I
#04412:0000002P00000000
#04413:002S2S00
#04414:32000000002R0000
#04422:6H
#04423:0000003F
#04424:000000000000000000000000003G0000
#04425:000000000000003H
#04501:00
#04501:000000000000000000000000008M0000
#04501:00
#04501:00
#04501:00040004
#04501:00
#04501:000K000K
#04501:00
#04501:00
#04501:0001000100010001
#04501:00030203020302030003020302030203
#04501:00
#04501:00
#04501:7J7K7J7Z7K7J7Z7K7L7M7L807M7L807M
#04501:00
#04501:00
#04501:00
#04501:00
#04501:00
#04501:00
#04501:00
#04501:00
#04501:5W5X5Y5Z0060005Y
#04506:030405060708090A0B0C0D0E0F0G0H0I030405060708090A0B0C0D0E0F0G0H0I
#04511:04
#04513:02
#04514:6I04
#04515:33
#04522:0002
#04523:006J
#04524:0034
#04601:00
#04601:00
#04601:00
#04601:00
#04601:00040404
#04601:00
#04601:000K000K
#04601:00
#04601:00
#04601:0001000100010001
#04601:00030203020302030203020302030203
#04601:00
#04601:00
#04601:007C7B7V7C7B7V7C7B7C7B7V7C7B7V7C
#04601:00
#04601:00
#04601:00
#04601:00
#04601:00
#04601:00
#04601:00
#04601:00
#04601:5J5K5J5K005L005M
#04606:030405060708090A0B0C0D0E0F0G0H0I030405060708090A0B0C0D0E0F0G0H0I
#04611:043I0000
#04612:00000000003J00003M00000000000000
#04613:0200000000003K00003N00003Q000000
#04614:000000000000003L00003O00003R0000
#04615:00006L0000006M000000003P00003S00
#04622:000000000000000000006O000000003T
#04623:356K0000
#04624:6K6N
#04625:7B
#04701:00
#04701:00
#04701:00
#04701:00
#04701:04040404
#04701:00
#04701:000K000K
#04701:00
#04701:00
#04701:0001000100010001
#04701:00000203020302030203020302030203
#04701:00
#04701:00
#04701:7B7C7B7V7C7B7V7C7B7C7B7V7C7B7V7C
#04701:00
#04701:00
#04701:00
#04701:00
#04701:00
#04701:00
#04701:00
#04701:00
#04701:5J5K5J5K005L005M
#04706:030405060708090A0B0C0D0E0F0G0H0I030405060708090A0B0C0D0E0F0G0H0I
#04713:006L0000006O002L
#04714:6K6K6N00
#04715:0000006M00002Q00
#04723:36380000000000002O00000000000000
#04725:020300000000000000002P0000000000
#04801:00
#04801:00
#04801:00
#04801:00
#04801:00040400
#04801:00
#04801:000K000K
#04801:00
#04801:00
#04801:0001000100010000
#04801:00030203020302030203020300030003
#04801:00
#04801:00
#04801:7F7G7F7X7G7F7X7G7F7G7F7X7G7F7X7G
#04801:00
#04801:00
#04801:00
#04801:00
#04801:00
#04801:00
#04801:00
#04801:00
#04801:5N5O5N5O005P005Q
#04806:030405060708090A0B0C0D0E0F0G0H0I030405060708090A0B0C0D0E0F0G0H0I
#04811:00003U0000000401
#04812:04000000003I00000000000000000000
#04813:0000003J00000202
#04814:390000000000003K0000000000000000
#04815:006Q00003L000000
#04822:6P0000006R000000003M000000000000
#04823:0000006S003N6V6W
#04824:02000000000000006T00003O00000000
#04825:00000000006U3A3A
#04901:00
#04901:00
#04901:00
#04901:00
#04901:04040404
#04901:00
#04901:000K000K
#04901:00
#04901:00
#04901:0001000100010001
#04901:02030203020302030203020302030203
#04901:00
#04901:00
#04901:7F7G7F7X7G7F7X7G7F7G7F7X7G7F7X7G
#04901:00
#04901:00
#04901:00
#04901:00
#04901:00
#04901:00
#04901:00
#04901:00
#04901:5N5O5N5O005P005Q
#04901:00
#04901:00
#04901:00
#04901:00
#04901:00
#04901:00
#04901:00
#04901:008O
#04906:030405060708090A0B0C0D0E0F0G0H0I030405060708090A0B0C0D0E0F0G0H0I
#04912:0000000000000000000000000000003J
#04913:00000000000000000000003L00003L00
#04914:6X0000000000000000003N00003N0000
#04915:000000006Y00003N003P00003P000000
#04922:0000003P00003P003R00000000000000
#04923:00003R00003R00000000000070000000
#04924:003T00003T0000006Z00000000000000
#04925:3V
#05001:00
#05001:00
#05001:00
#05001:00
#05001:00040400
#05001:00
#05001:000K000K
#05001:00
#05001:00
#05001:0001000000010001
#05001:00030203020300030203020300030203
#05001:00
#05001:00
#05001:7H7I7H7Y7I7H7Y7I7H7I7H7Y7I7H7Y7I
#05001:00
#05001:00
#05001:00
#05001:00
#05001:00
#05001:00
#05001:00
#05001:00
#05001:5R5S5R5T005U005V
#05006:030405060708090A0B0C0D0E0F0G0H0I030405060708090A0B0C0D0E0F0G0H0I
#05011:04
#05013:0000003000000000
#05014:2Z000004
#05015:7100000200000074
#05022:02710002
#05023:0000000100000000
#05024:0072000000003100
#05025:0000007200730000
#05101:00
#05101:00
#05101:00
#05101:00
#05101:04040404
#05101:00
#05101:000K000K
#05101:00
#05101:00
#05101:0001000100010001
#05101:02030203020302030203020302030203
#05101:00
#05101:00
#05101:7H7I7H7Y7I7H7Y7I7H7I7H7Y7I7H7Y7I
#05101:00
#05101:00
#05101:00
#05101:00
#05101:00
#05101:00
#05101:00
#05101:00
#05101:5R5S5R5T005U005V
#05106:030405060708090A0B0C0D0E0F0G0H0I030405060708090A0B0C0D0E0F0G0H0I
#05111:0000007200000000
#05112:00710000
#05113:00720000002L0000
#05114:712Q
#05115:0000002O00000000
#05123:00002P0000000075
#05124:002S000000007400
#05125:2R00000000730000
#05201:00
#05201:00
#05201:00
#05201:00
#05201:00040404
#05201:00
#05201:00
#05201:00
#05201:00
#05201:0001000100010001
#05201:00030203020302030203020302030203
#05201:00
#05201:00
#05201:7F7G7F7X7G7F7X7G7F7G7F7X7G7F7X7G
#05201:00
#05201:00
#05201:00
#05201:00
#05201:00
#05201:00
#05201:7677
#05201:00
#05201:5O5U5S5T005U005V
#05206:030405060708090A0B0C0D0E0F0G0H0I030405060708090A0B0C0D0E0F0G0H0I
#05211:0400002P00000000
#05212:002S2S00
#05213:02000000002R0000
#05214:0F0F0F0F0F0F0F0F
#05215:32
#05222:000G000G000G000G000G000G000G000G
#05223:0000003F
#05224:000000000000000000000000003G0000
#05225:000000000000003H
#05301:00
#05301:00
#05301:00
#05301:0I000M0J00000H00
#05301:0400040004000407
#05301:00
#05301:00
#05301:00
#05301:00
#05301:0001000100010001
#05301:00000200020302030000020002030203
#05301:00
#05301:00
#05301:00007J007K7J7Z7K00007L007M7L807M
#05301:00
#05301:00
#05301:00
#05301:00
#05301:00
#05301:00
#05301:7879
#05301:00
#05301:5W5X5Y5Z0060005Y
#05301:00
#05301:00
#05301:008J
#05301:00
#05301:00
#05301:00
#05301:0000000000000000005I000000000000
#05301:0000008I
#05306:030405060708090A0B0C0D0E0F0G0H0I030405060708090A0B0C0D0E0F0G0H0I
#05311:02030003000000000000000000000000
#05312:3B3C003B000000000000000000000000
#05313:7J7K007Z000000000000000000000000
#05314:0F0F0F0F0F0F0F0F
#05322:000G000G000G000G000G000G000G000G
#05323:00000000000000000203000300000000
#05324:00000000000000003D3E003D00000000
#05325:00000000000000007L7M008000000000
#05401:00
#05401:00
#05401:00
#05401:00
#05401:00
#05401:00
#05401:00
#05401:00
#05401:00
#05401:00
#05401:00
#05401:00
#05401:00
#05401:00
#05401:00
#05401:00
#05401:00
#05401:00
#05401:00
#05401:00
#05401:7A
#05401:00
#05401:00
#05401:00
#05401:00
#05401:89898989
#05401:00
#05401:00
#05401:00
#05401:00
#05401:00
#05401:0Q
#05403:5C
#05406:030405060708090A0B0C0D0E0F0G0H0I030405060708090A0B0C0D0E0F0G0H0I
#05412:08
#05415:000D
#05424:0C
#05501:00
#05501:00
#05501:00
#05501:00
#05501:00
#05501:00
#05501:00
#05501:00
#05501:00
#05501:00
#05501:00
#05501:00
#05501:00
#05501:00
#05501:00
#05501:00
#05501:00
#05501:00
#05501:00
#05501:00
#05501:00
#05501:00
#05501:00
#05501:00
#05501:00
#05501:8A8A8A8A
#05506:030405060708090A0B0C0D0E0F0G0H0I030405060708090A0B0C0D0E0F0G0H0I
#05601:00
#05601:00
#05601:00
#05601:00
#05601:00
#05601:00
#05601:00
#05601:00
#05601:00
#05601:00
#05601:00
#05601:00
#05601:00
#05601:00
#05601:00
#05601:00
#05601:00
#05601:00
#05601:00
#05601:00
#05601:00
#05601:00
#05601:00
#05601:00
#05601:00
#05601:8B8B8B8B
#05606:030405060708090A0B0C0D0E0F0G0H0I030405060708090A0B0C0D0E0F0G0H0I
#05615:000D
#05701:00
#05701:00
#05701:00
#05701:00
#05701:00
#05701:00
#05701:00
#05701:00
#05701:00
#05701:00
#05701:00
#05701:00
#05701:00
#05701:00
#05701:00
#05701:00
#05701:00
#05701:00
#05701:00
#05701:00
#05701:00
#05701:00
#05701:00
#05701:00
#05701:008D
#05701:8C8C8C8C
#05706:030405060708090A0B0C0D0E0F0G0H0I030405060708090A0B0C0D0E0F0G0H0I
#05712:0000000000000000000B000000000000
#05724:8H
#05801:00
#05801:00
#05801:000L000L
#05801:00
#05801:00
#05801:00
#05801:00
#05801:00
#05801:00
#05801:00
#05801:00
#05801:0E0E0E0E0E0E0E0E
#05806:030405060708090A0B0C0D0E0F0G0H0I030405060708090A0B0C0D0E0F0G0H0I
#05811:04000004040000040004000404000000
#05813:0009000900090009
#05823:89898989
#05824:0C
#05825:85858585
#05901:00
#05901:00
#05901:000L000L
#05901:00
#05901:00
#05901:00
#05901:00
#05901:00
#05901:00
#05901:00
#05901:00
#05901:0E0E0E0E0E0E0E0E
#05906:030405060708090A0B0C0D0E0F0G0H0I030405060708090A0B0C0D0E0F0G0H0I
#05911:04000004040000040004000404000000
#05912:0000000000000000000000000000000F
#05913:00000000090000000000000009000000000000000900000000000000000G0000
#05914:000000000000000F
#05922:8A8A8A8A
#05924:86868686
#06001:00
#06001:0H
#06001:000L000L
#06001:00
#06001:00
#06001:00
#06001:00
#06001:00
#06001:00
#06001:00
#06001:00
#06001:000E0E0E0E0E0E0E
#06006:030405060708090A0B0C0D0E0F0G0H0I030405060708090A0B0C0D0E0F0G0H0I
#06011:04000004040000040004000404060400
#06012:0000000000000000000000000000000000000000000000000000000500000000
#06013:090A0000090A0000090A0000090A0000
#06014:0000090A0000090A0000090A0000090A
#06015:8B8B8B8B
#06023:87878787
#06101:00
#06101:00
#06101:000L000L
#06101:00
#06101:00
#06101:00
#06101:00
#06101:00
#06101:00
#06101:00
#06101:00
#06101:0E0E0E0E0E0E0E0E
#06106:030405060708090A0B0C0D0E0F0G0H0I030405060708090A0B0C0D0E0F0G0H0I
#06111:04000004040000040004000404000000
#06112:00000000000G000G00000000000G000G00000000000G000G00000000000G000G
#06113:000G000G00000000000G000G00000000000G000G00000000000G000G00000000
#06114:00000F0F00000F0F00000F0F00000F0F
#06115:0F0F00000F0F00000F0F00000F0F0000
#06122:88888888
#06123:8C8C8C8C
#06201:00
#06201:00
#06201:00
#06201:00
#06201:00
#06201:00
#06201:00
#06201:00
#06201:00
#06201:00
#06201:00
#06201:00
#06201:00
#06201:7B7C7B7V7C7B7V7C7B7C7B7V7C7B7V7C
#06201:00
#06201:00
#06201:00
#06201:00
#06201:00
#06201:00
#06201:00
#06201:00
#06201:00
#06201:00
#06201:00
#06201:00
#06201:00
#06201:00
#06201:00
#06201:00
#06201:00
#06201:29
#06203:B8
#06206:030405060708090A0B0C0D0E0F0G0H0I030405060708090A0B0C0D0E0F0G0H0I
#06211:0C
#06212:00000000000000000000000000000042
#06213:08
#06214:00000000000051520000000040004000
#06215:00000000000000000000003Z003Z0000
#06222:0040000041410000
#06223:003Z003Z00000000003Y000000000000
#06224:3Y00000000004Z500000000000000000
#06301:00
#06301:00
#06301:00
#06301:00
#06301:00
#06301:00
#06301:00
#06301:00
#06301:00
#06301:00
#06301:00
#06301:00
#06301:00
#06301:7F7G7F7X7G7F7X7G7F7G7F7X7G7F7X7G
#06306:030405060708090A0B0C0D0E0F0G0H0I030405060708090A0B0C0D0E0F0G0H0I
#06312:0000000000000000550056000055000000000000000000000000480000000000
#06313:4300000000004646
#06314:00400000000000000040000000000000
#06315:00003Z00000000000000000000470000
#06322:0000000000000000530054000053000000000000000000004500000045000000
#06323:0000003Y000000003Z003Z0000000000
#06401:00
#06401:00
#06401:00
#06401:00
#06401:00
#06401:00
#06401:00
#06401:00
#06401:00
#06401:00
#06401:00
#06401:00
#06401:00
#06401:7H7I7H7Y7I7H7Y7I7H7I7H7Y7I7H7Y7I
#06406:030405060708090A0B0C0D0E0F0G0H0I030405060708090A0B0C0D0E0F0G0H0I
#06411:4C00004F00000000
#06412:004E00004G000057
#06413:00000000000000000000000000004G0000000000000000000000000000580000
#06414:00000000004E00000000000000000059
#06415:00004D00000000004D000000000000000000000048000000000048000000005A
#06422:00000048000000000046000000000000
#06423:00000046
#06425:00000000000000000000004700000000
#06501:00
#06501:00
#06501:00
#06501:00
#06501:00
#06501:00
#06501:00
#06501:00
#06501:00
#06501:00
#06501:00
#06501:00
#06501:00
#06501:7N7O7N817O7N817O7P7Q7P827Q7P827Q
#06501:00
#06501:00
#06501:00
#06501:00
#06501:00
#06501:00
#06501:00
#06501:00
#06501:00
#06501:00
#06501:00
#06501:00
#06501:00
#06501:00
#06501:00
#06501:00
#06501:37
#06506:030405060708090A0B0C0D0E0F0G0H0I030405060708090A0B0C0D0E0F0G0H0I
#06511:42
#06512:004E0000450000000000000000000000
#06513:3Z000000004D00004200000043000000
#06514:00004E00430000000048000000000046
#06515:0046460000004D00400000003Z004A00
#06522:4H000000004I4I000000480000460000
#06523:000000004J000000004H4H0000000000
#06524:00000000000000004K00000000424942
#06525:0000004L
#06601:00
#06601:00
#06601:00
#06601:00
#06601:00
#06601:00
#06601:00
#06601:00
#06601:00
#06601:00
#06601:00
#06601:00
#06601:00
#06601:007C7B7V7C7B7V7C7B7C7B7V7C7B7V7C
#06606:030405060708090A0B0C0D0E0F0G0H0I030405060708090A0B0C0D0E0F0G0H0I
#06611:00004600000000000000000000470000
#06612:00470000000000000000000000004500
#06613:45000047000000000000000000000000
#06614:00000000450000000000000000000042
#06615:00000000004200000000000000000000
#06622:7B00004300000000
#06623:00000000000000400040000040000000
#06624:00000000000000003Z00003Z00000000
#06625:0000000000410000
#06701:00
#06701:00
#06701:00
#06701:00
#06701:00
#06701:00
#06701:00
#06701:00
#06701:00
#06701:00
#06701:00
#06701:00
#06701:00
#06701:7L7M7L807M7L807M7L7M7L807M7L807M
#06706:030405060708090A0B0C0D0E0F0G0H0I030405060708090A0B0C0D0E0F0G0H0I
#06712:00420000000000000000000000000000
#06713:00004300004100000000000000000000
#06714:0000000000003Y00004O000000000000
#06715:430000400000000000004P00004S0000
#06722:000000003Z00004L0000000000004T00
#06723:00000000000000004N00004Q00000000
#06724:0000000000000000000000004R00004U
#06801:00
#06801:00
#06801:00
#06801:00
#06801:00
#06801:00
#06801:00
#06801:00
#06801:00
#06801:00
#06801:00
#06801:00
#06801:00
#06801:7D007D007E00007E7D7E7D7W7E7D7W7E
#06806:030405060708090A0B0C0D0E0F0G0H0I030405060708090A0B0C0D0E0F0G0H0I
#06813:003Z004B003Z4B000000000000000000
#06815:007E007W007D7W000041000000000041
#06822:000000003Y3Y003Y
#06823:003X003Y003X3Y000000004L004L0000
#06824:0000004N
#06825:43
#06901:00
#06901:00
#06901:00
#06901:00
#06901:00
#06901:00
#06901:00
#06901:00
#06901:00
#06901:00
#06901:00
#06901:00
#06901:00
#06901:7R7S7R837S7R837S7T7U7T847U7T847U
#06906:030405060708090A0B0C0D0E0F0G0H0I030405060708090A0B0C0D0E0F0G0H0I
#06911:00000000000B0000
#06913:003Y
#06914:0000000000000000004L000000000000
#06915:00000000004N0000
#06922:3Y0000003Y0000000000004O00000000
#06923:004L004L004L004L000000004P000000
#06924:00004N0000004N0000000000004Q004S
#06925:000000000000004T
#07001:00
#07001:00
#07001:00
#07001:00
#07001:00
#07001:00
#07001:000K000K
#07001:00
#07001:00
#07001:0001000100010001
#07001:02030203020302030203020302030203
#07001:00
#07001:00
#07001:7B7C7B7V7C7B7V7C7B7C7B7V7C7B7V7C
#07001:00
#07001:00
#07001:1R001T001R001R1S001R1S001R001T00
#07001:00
#07001:2A2B2C2D2E2B2F2B
#07001:8F8K8F008F8K8F008F8K8F008F8K0000
#07001:000000000000008E
#07001:00
#07001:00
#07001:00
#07001:00
#07001:00
#07001:00
#07001:00
#07001:00
#07001:00
#07001:00
#07001:0R
#07006:030405060708090A0B0C0D0E0F0G0H0I030405060708090A0B0C0D0E0F0G0H0I
#07011:0C45
#07012:00000000040000000042000000000000
#07013:4500000000430000
#07014:00000000000000000000004000000000
#07015:0040004000003Z00
#07022:04000000000000000000000000410000
#07023:003Z003Z003Z003Z0000000000003Y00
#07024:0000000000000000040000000000004L
#07025:00410004
#07101:00
#07101:00
#07101:00
#07101:00
#07101:00
#07101:00
#07101:000K000K
#07101:00
#07101:00
#07101:0001000100010001
#07101:02030203020302030203020302030203
#07101:00
#07101:00
#07101:7F7G7F7X7G7F7X7G7F7G7F7X7G7F7X7G
#07101:00
#07101:00
#07101:1O001Q001O001O1P001O1P001O001Q00
#07101:00
#07101:2A2B2C2D2E2B2F2B
#07101:8F008K008F0000008F008K008G8L8G8L8F0000008K0000008F008K0000000000
#07101:000000000000008E
#07106:030405060708090A0B0C0D0E0F0G0H0I030405060708090A0B0C0D0E0F0G0H0I
#07111:004V
#07112:0000000004000042004G000000000000
#07113:000000400000400000004E0000000000
#07114:00003Z00000000000400004800000000
#07115:04000000004100000000000047000000
#07122:004100003Y0000000000000000450000
#07123:3Y00000000000042
#07124:00000000000000000000000004000040
#07201:00
#07201:00
#07201:00
#07201:00
#07201:00040000
#07201:00
#07201:000K000K
#07201:00
#07201:00
#07201:0001000100010001
#07201:02030203020302030003020302030203
#07201:00
#07201:00
#07201:7H7I7H7Y7I7H7Y7I7H7I7H7Y7I7H7Y7I
#07201:00
#07201:00
#07201:1L001N001L001L1M001L1M001L001N00
#07201:00
#07201:2A2B2C2D2E2B2F2B
#07201:8F8K8F008F8K8F008F8K8F008F8K0000
#07201:000000000000008E
#07206:030405060708090A0B0C0D0E0F0G0H0I030405060708090A0B0C0D0E0F0G0H0I
#07212:00000004
#07213:0002
#07214:5G005H00005G00000000000000004200000000003Y0000000000000000000000
#07215:00000000002K00000000004L00000000
#07222:003Z044P
#07223:5E005F00005E00000000000000003Z00000000000000000000005B0000000000
#07224:000000000000000000002Q000000000000000000000000000000005C00000000
#07225:04003Y000000005D
#07301:00
#07301:00
#07301:00
#07301:00
#07301:00
#07301:00
#07301:000K000K
#07301:00
#07301:00
#07301:0000000000000001
#07301:02030203020302030203020302030203
#07301:00
#07301:00
#07301:7N7O7N817O7N817O7P7Q7P827Q7P827Q
#07301:00
#07301:00
#07301:1U001W001U001U1V001O1P001O001Q00
#07301:00
#07301:2A2B2C2D2E2B2F2B
#07301:8F008K008F0000008F008K008G8L8G8L8F0000008K0000008F008K0000000000
#07301:000000000000008E
#07306:030405060708090A0B0C0D0E0F0G0H0I030405060708090A0B0C0D0E0F0G0H0I
#07311:4H01000100000000
#07312:004E0000450000000000010000000000
#07313:42000000004D00004200000000000000
#07314:00000000430000000048000000000049
#07315:004E000040000400
#07322:0400004D0400003W
#07323:004646000400000000004800004K0000
#07324:3Z000000004I4I004K0000004L000000
#07325:000000004J000000004H4H0000000000
#07401:00
#07401:00
#07401:00
#07401:00
#07401:00040004
#07401:00
#07401:000K000K
#07401:00
#07401:00
#07401:0001000100010001
#07401:02030203020302030203020302030203
#07401:00
#07401:00
#07401:7B7C7B7V7C7B7V7C7B7C7B7V7C7B7V7C
#07401:00
#07401:00
#07401:1R001T001R001R1S001R1S001R001T00
#07401:00
#07401:2A2B2C2D2E2B2F2B
#07401:8F8K8F008F8K8F008F8K8F008F8K0000
#07401:000000000000008E
#07406:030405060708090A0B0C0D0E0F0G0H0I030405060708090A0B0C0D0E0F0G0H0I
#07411:00004600000000000000000000470000
#07412:00470047000000000000000000004500
#07413:45450000
#07414:00000000004200000000000000000042
#07415:0400004300000000
#07422:00000000000000400040000040000000
#07423:00000000000000003Z00003Z00000000
#07424:0000000000410000
#07425:0004
#07501:00
#07501:00
#07501:00
#07501:00
#07501:04040404
#07501:00
#07501:000K000K
#07501:00
#07501:00
#07501:0001000100010001
#07501:02030203020302030203020302030203
#07501:00
#07501:00
#07501:7L7M7L807M7L807M7L7M7L807M7L807M
#07501:00
#07501:00
#07501:1X001Z001X001X1Y001X1Y001X001Z00
#07501:00
#07501:2A2B2C2D2E2B2F2B
#07501:8F008K008F0000008F008K008G8L8G8L8F0000008K0000008F008K0000000000
#07501:000000000000008E
#07506:030405060708090A0B0C0D0E0F0G0H0I030405060708090A0B0C0D0E0F0G0H0I
#07512:00420000000000000000000000000000
#07513:00004300004100000000000000000000
#07514:0000000000003Y00004O000000000000
#07515:430000400000000000004P00004S0000
#07522:000000003Z00004L0000000000004T00
#07523:00000000000000004N00004Q00000000
#07524:0000000000000000000000004R00004U
#07601:00
#07601:00
#07601:00
#07601:00
#07601:04040404
#07601:00
#07601:000K000K
#07601:00
#07601:00
#07601:0001000100010001
#07601:02030203020302030203020302030203
#07601:00
#07601:00
#07601:7D7E7D7W7E7D7W7E7D7E7D7W7E7D7W7E
#07601:00
#07601:00
#07601:20002200200020002120002120002200
#07601:00
#07601:2A2B2C2D2E2B2F2B
#07601:8F8K8F008F8K8F008F8K8F008F8K0000
#07601:000000000000008E
#07606:030405060708090A0B0C0D0E0F0G0H0I030405060708090A0B0C0D0E0F0G0H0I
#07611:0043
#07612:4500000000000000004000003Y000000
#07613:000000000000000000003Z00004L0000
#07614:003Z004B003Z4B004B00004100004N00
#07615:0000000000000000004100004N00004O
#07622:000000000000000000003Y00004O0000
#07623:43000000000000000000004L00004P00
#07624:0000000000000000000000000000004Q
#07625:003X003Y003X3Y000000000000000000
#07701:00
#07701:00
#07701:00
#07701:0000000000000007
#07701:04040404
#07701:00
#07701:000K000K
#07701:00
#07701:00
#07701:0001000100010001
#07701:02030203020302030203020302030203
#07701:00
#07701:00
#07701:7R7S7R837S7R837S7T7U7T847U7T847U
#07701:00
#07701:00
#07701:23002500230023240026270026002800
#07701:00
#07701:00
#07701:8F008K008F0000008F008K008G8L8G8L8F0000008K0000008F008K0000000000
#07701:000000000000008E
#07706:030405060708090A0B0C0D0E0F0G0H0I030405060708090A0B0C0D0E0F0G0H0I
#07711:0I000000002B0000
#07712:0000000J00000H00
#07713:2A000M002E00002B
#07714:00002B0000002D00000000002F00004K
#07715:002C0000
#07722:000000000000004X
#07723:004P4X004P4X004P4X004P4X004Y0000
#07725:4R00004R00004R00004R00004S000000
#07801:00
#07801:00
#07801:00
#07801:00
#07801:04040404
#07801:00
#07801:000K000K
#07801:00
#07801:00
#07801:0001000100010001
#07801:02030203020302030203020302030203
#07801:00
#07801:00
#07801:7B7C7B7V7C7B7V7C7B7C7B7V7C7B7V7C
#07801:00
#07801:00
#07801:1R001T001R001R1S001R1S001R001T00
#07801:00
#07801:00
#07801:8F8K8F008F8K8F008F8K8F008F8K0000
#07801:000000000000008E
#07806:030405060708090A0B0C0D0E0F0G0H0I030405060708090A0B0C0D0E0F0G0H0I
#07811:0C000000002B0000
#07812:2A0000002E00002B
#07813:002B002D00002F00
#07814:002C4500
#07815:45000000000000000042000000000000
#07822:0040004000433Z00
#07823:003Z003Z003Z003Z0000004000410000
#07824:000041000000003Y
#07825:0000000000000000000000000000004L
#07901:00
#07901:00
#07901:00
#07901:00
#07901:04040404
#07901:00
#07901:000K000K
#07901:00
#07901:00
#07901:0001000100010001
#07901:02030203020302030203020302030203
#07901:00
#07901:00
#07901:7F7G7F7X7G7F7X7G7F7G7F7X7G7F7X7G
#07901:00
#07901:00
#07901:1O001Q001O001O1P001O1P001O001Q00
#07901:00
#07901:00
#07901:8F008K008F0000008F008K008G8L8G8L8F0000008K0000008F008K0000000000
#07901:000000000000008E
#07906:030405060708090A0B0C0D0E0F0G0H0I030405060708090A0B0C0D0E0F0G0H0I
#07911:3Y4V
#07912:0000000000000042004G000000000000
#07913:000000400000400000004E0000000000
#07914:00003Z00004100002E00004800002B00
#07915:004100003Y0000000000000047000000
#07922:2A00000000002D000000000000450000
#07923:002B000000002F42
#07924:00002C00002B0000
#07925:00000000000000000000000000000040
#08001:00
#08001:00
#08001:00
#08001:00
#08001:04040404
#08001:00
#08001:000K000K
#08001:00
#08001:00
#08001:0001000100010001
#08001:02030203020302030203020302030203
#08001:00
#08001:00
#08001:7H7I7H7Y7I7H7Y7I7H7I7H7Y7I7H7Y7I
#08001:00
#08001:00
#08001:1L001N001L001L1M001L1M001L001N00
#08001:00
#08001:00
#08001:8F8K8F008F8K8F008F8K8F008F8K0000
#08001:000000000000008E
#08006:030405060708090A0B0C0D0E0F0G0H0I030405060708090A0B0C0D0E0F0G0H0I
#08011:0000002F
#08012:00000000002B002B
#08013:2A2E
#08014:002B002D003Y0000
#08015:000000002C00003Z0000004L00000000
#08022:5E005F00005E000000002Q000000000000000000000000004P00000000000000
#08023:000000003Y00004200000000005B0000
#08024:5G005H00005G000000002K000000000000000000000000000000005C00000000
#08025:00003Z000000005D
#08101:00
#08101:00
#08101:00
#08101:00
#08101:04040404
#08101:00
#08101:000K000K
#08101:00
#08101:00
#08101:0001000100010001
#08101:02030203020302030203020302030203
#08101:00
#08101:00
#08101:7N7O7N817O7N817O7P7Q7P827Q7P827Q
#08101:00
#08101:00
#08101:1U001W001U001U1V001O1P001O001Q00
#08101:00
#08101:2A2B2C2D2E2B2F2B
#08101:8F008K008F0000008F008K008G8L8G8L8F0000008K0000008F008K0000000000
#08101:000000000000008E
#08106:030405060708090A0B0C0D0E0F0G0H0I030405060708090A0B0C0D0E0F0G0H0I
#08111:4C
#08112:004G0000000000000000000000000045
#08113:4E4E460000000042
#08114:00480048004500000000004000440040
#08115:00464242003Z3W3Z
#08122:0000004500400040003X003X003Y0000
#08123:0000003Z4L4L4L00
#08124:000000000000003X004O000000000000
#08125:004P
#08201:00
#08201:00
#08201:00
#08201:00
#08201:04040404
#08201:00
#08201:00
#08201:00
#08201:00
#08201:0001000100010001
#08201:02030203020302030203020302030203
#08201:00
#08201:00
#08201:7B7C7B7V7C7B7V7C7B7C7B7V7C7B7V7C
#08201:00
#08201:00
#08201:00
#08201:00
#08201:2A2B2C2D2E2B2F2B
#08201:8F8K8F008F8K8F008F8K8F008F8K0000
#08201:000000000000008E
#08206:030405060708090A0B0C0D0E0F0G0H0I030405060708090A0B0C0D0E0F0G0H0I
#08211:1R0000001R001R00001R00001R000000
#08213:00001T000000001S00001S0000001T00
#08214:004000000K0000000000000000000000
#08215:3Z003Z0000410000000000000K000000
#08222:000000003Y003Y00004L000000000000
#08223:00000041000000004N004N004P00004Q
#08224:000000000000004L00000000004Q0000
#08225:00000000000000000000004O00004S00
#08301:00
#08301:00
#08301:00
#08301:00
#08301:04040404
#08301:00
#08301:000K000K
#08301:00
#08301:00
#08301:0001000100010001
#08301:02030203020302030203020302030203
#08301:00
#08301:00
#08301:7L7M7L807M7L807M7L7M7L807M7L807M
#08301:00
#08301:00
#08301:00
#08301:00
#08301:2A2B2C2D2E2B2F2B
#08301:8F008K008F0000008F008K008G8L8G8L8F0000008K0000008F008K0000000000
#08301:000000000000008E
#08306:030405060708090A0B0C0D0E0F0G0H0I030405060708090A0B0C0D0E0F0G0H0I
#08312:1X0000001X001X00001X00001X000000
#08314:00001Z000000001Y00001Y0000001Z00
#08315:0000004O00004O00000000000000004O
#08322:00004P00004P000000004P004P004P00
#08323:004Q00004Q0000002R00004W00000000
#08324:4R0000000000003Y00000000004Q0000
#08401:00
#08401:00
#08401:00
#08401:00
#08401:04040404
#08401:00
#08401:000G000G000G000G000G000G000G000G
#08401:00
#08401:0F0F0F0F0F0F0F0F
#08401:0001000100010001
#08401:00000200020000030203020302030203
#08401:00
#08401:00
#08401:00007D007E00007E7D7E7D7W7E7D7W7E
#08401:00
#08401:00
#08401:20002200200020210020210020002200
#08401:00
#08401:2A2B2C2D2E2B2F2B
#08401:8F8K8F008F8K8F008F8K8F008F8K0000
#08401:000000000000008E
#08406:030405060708090A0B0C0D0E0F0G0H0I030405060708090A0B0C0D0E0F0G0H0I
#08411:00030003000302004B00000000000000
#08412:43000000000000000041000000000000
#08413:007E007W007D7W0000003Y004N000000
#08414:02000000000000004300004L004O0000
#08415:00000000000000000040000000004P00
#08422:7D0000000000000000003Z003Y00004Q
#08423:003X003Y003X3Y0000000041004L0000
#08424:450000000000004N
#08425:003Z004B003Z4B00000000000000004O
#08501:00
#08501:0I000I0J00000H00
#08501:00
#08501:00
#08501:07070707
#08501:00
#08501:00
#08501:00
#08501:00
#08501:0001000100010001
#08501:02030203020302030203020302030203
#08501:00
#08501:00
#08501:7R7S7R837S7R837S7T7U7T847U7T847U
#08501:00
#08501:00
#08501:23002500230023240026270026002800
#08501:00
#08501:2A2B2C2D2E2B2F2B
#08501:8F008K008F0000008F008K008G8L8G8L8F0000008K0000008F008K0000000000
#08501:000000000000008E
#08506:030405060708090A0B0C0D0E0F0G0H0I030405060708090A0B0C0D0E0F0G0H0I
#08511:0000000000000G0G
#08512:000000000G0G0000
#08513:000000000G000G0000000000000F000F
#08514:0G000G0000000000000F000F00000000
#08515:00000000000F000F000000000000004K
#08522:000F000F0000000000000000008M0000
#08523:004P4X004P4X004P4X004P4X00004X00
#08524:000000000000000000000000004Y0000
#08525:4R00004R00004R00004R00004S000000
#08601:00
#08601:0I00000I00000000
#08601:00
#08601:00
#08601:00
#08601:00
#08601:00
#08601:00
#08601:00
#08601:00
#08601:00
#08601:00
#08601:00
#08601:7B7C000000007B7C000000007B7C0000
#08606:030405060708090A0B0C0D0E0F0G0H0I030405060708090A0B0C0D0E0F0G0H0I
#08611:4G00000Y00000J00
#08612:004800000000000000000000454M0045
#08613:1546001500000Y00
#08614:00000047000000000000004000000000
#08615:00004500003Z0000
#08622:00000000004300000041000000000000
#08623:0Y0000403Y001500
#08624:000000000000003Z000000003Z3W003Z
#08625:0400000400000400
#08701:0D
#08701:0I00000I00000000
#08701:00
#08701:00
#08701:00
#08701:00
#08701:00
#08701:00
#08701:00
#08701:00
#08701:00
#08701:00
#08701:00
#08701:7B7C000000007B7C000000007B7C0000
#08706:030405060708090A0B0C0D0E0F0G0H0I030405060708090A0B0C0D0E0F0G0H0I
#08711:4G00000Y00000J00
#08712:004800000000000000000000454M0045
#08713:0Y46001500000Y00
#08714:00000047000000000000004000000000
#08715:00004500003Z0000
#08722:00000000004300000041000000000000
#08723:150000403Y001500
#08724:000000000000003Z000000003Z3W003Z
#08725:0400000400000400
#08801:8N
#08801:0I00000000000I00005I000000000000
#08801:00
#08801:00
#08801:00000007
#08801:00
#08801:00
#08801:00
#08801:00
#08801:00
#08801:00
#08801:00
#08801:00
#08801:7B7C000000007B7C00000000007C0000
#08801:00
#08801:00
#08801:00
#08801:00
#08801:00
#08801:00
#08801:00
#08801:00
#08801:0000000000000000000000003Z4B003Z
#08806:030405060708090A0B0C0D0E0F0G0H0I030405060708090A0B0C0D0E0F0G0H0I
#08811:0400003Z00007B00
#08812:000000000041000000000000454M0045
#08813:0Y003Y0400000J00
#08814:00000041000000000000004700000000
#08815:003Y000000450000
#08822:004L0000000000000040000000000000
#08823:4N00000Y3Z000Y00
#08824:0000000000000040000000003Y3X003Y
#08825:1500001500001500
#08901:00
#08901:0C
#08906:030405060708090A0B0C0D0E0F0G0H0I030405060708090A0B0C0D0E0F0G0H0I
#08911:08
#08913:2H
#08923:2L
#08925:2O