2844 lines
56 KiB
Plaintext
2844 lines
56 KiB
Plaintext
|
|
*---------------------- HEADER FIELD
|
|
|
|
#PLAYER 1
|
|
#GENRE RENAISSANCE
|
|
#TITLE Joker[HYPER]
|
|
#ARTIST D.J.Nero
|
|
#BPM 184
|
|
#PLAYLEVEL 11
|
|
#RANK 3
|
|
#TOTAL 400
|
|
#STAGEFILE title.jpg
|
|
|
|
#WAV01 opHH.wav
|
|
#WAV02 close.wav
|
|
#WAV03 close.wav
|
|
#WAV04 kickA.wav
|
|
#WAV05 kickB.wav
|
|
#WAV06 kickB.wav
|
|
#WAV07 kick32.wav
|
|
#WAV08 FXkick.wav
|
|
#WAV09 snare.wav
|
|
#WAV0A snare.wav
|
|
#WAV0B reverse.wav
|
|
#WAV0C SE1.wav
|
|
#WAV0D bell.wav
|
|
#WAV0E ride.wav
|
|
#WAV0F snare-Fill.wav
|
|
#WAV0G snare-Fill.wav
|
|
#WAV0H clashA.wav
|
|
#WAV0I clashB.wav
|
|
#WAV0J clashC.wav
|
|
#WAV0K clap.wav
|
|
#WAV0L clap-deep.wav
|
|
#WAV0M clashB.wav
|
|
#WAV0N bgm1.wav
|
|
#WAV0O bgm1.wav
|
|
#WAV0P bgm2.wav
|
|
#WAV0Q bgm2.wav
|
|
#WAV0R bgm3.wav
|
|
#WAV0S str01.wav
|
|
#WAV0T str01.wav
|
|
#WAV0U str02.wav
|
|
#WAV0V str03.wav
|
|
#WAV0W str03.wav
|
|
#WAV0X str04.wav
|
|
#WAV0Y str05.wav
|
|
#WAV0Z str-01.wav
|
|
#WAV10 str-01.wav
|
|
#WAV11 str-02.wav
|
|
#WAV12 str-03.wav
|
|
#WAV13 str-03.wav
|
|
#WAV14 str-04.wav
|
|
#WAV15 str-05.wav
|
|
#WAV16 harp1.wav
|
|
#WAV17 harp2.wav
|
|
#WAV18 harp3.wav
|
|
#WAV19 harp4.wav
|
|
#WAV1A harp5.wav
|
|
#WAV1B harp6.wav
|
|
#WAV1C harp16-01.wav
|
|
#WAV1D harp16-02.wav
|
|
#WAV1E harp16-03.wav
|
|
#WAV1F harp16-04.wav
|
|
#WAV1G harp16-05.wav
|
|
#WAV1H harp16-06.wav
|
|
#WAV1I core1.wav
|
|
#WAV1J core1.wav
|
|
#WAV1K core1b.wav
|
|
#WAV1L core2.wav
|
|
#WAV1M core2.wav
|
|
#WAV1N core2b.wav
|
|
#WAV1O core3.wav
|
|
#WAV1P core3.wav
|
|
#WAV1Q core3b.wav
|
|
#WAV1R core4.wav
|
|
#WAV1S core4.wav
|
|
#WAV1T core4b.wav
|
|
#WAV1U core5.wav
|
|
#WAV1V core5.wav
|
|
#WAV1W core5b.wav
|
|
#WAV1X core6.wav
|
|
#WAV1Y core6.wav
|
|
#WAV1Z core6b.wav
|
|
#WAV20 core7.wav
|
|
#WAV21 core7.wav
|
|
#WAV22 core7b.wav
|
|
#WAV23 core8.wav
|
|
#WAV24 core8.wav
|
|
#WAV25 core8b.wav
|
|
#WAV26 core9.wav
|
|
#WAV27 core9.wav
|
|
#WAV28 core9b.wav
|
|
#WAV29 arp-bgm.wav
|
|
#WAV2A arp1.wav
|
|
#WAV2B arp2.wav
|
|
#WAV2C arp3.wav
|
|
#WAV2D arp4.wav
|
|
#WAV2E arp5.wav
|
|
#WAV2F arp6.wav
|
|
#WAV2G p-8-1.wav
|
|
#WAV2H p-8-2.wav
|
|
#WAV2I p-8-3.wav
|
|
#WAV2J p-8-4.wav
|
|
#WAV2K p-8-5.wav
|
|
#WAV2L p-8-6.wav
|
|
#WAV2M p-8-7.wav
|
|
#WAV2N p-8-8.wav
|
|
#WAV2O p-8-9.wav
|
|
#WAV2P p-8-10.wav
|
|
#WAV2Q p-8-11.wav
|
|
#WAV2R p-8-12.wav
|
|
#WAV2S p-8-13.wav
|
|
#WAV2T pA-1.wav
|
|
#WAV2U pA-2.wav
|
|
#WAV2V pA-2b.wav
|
|
#WAV2W pA-3.wav
|
|
#WAV2X pA-4.wav
|
|
#WAV2Y pA-4b.wav
|
|
#WAV2Z pA-5.wav
|
|
#WAV30 pA-6.wav
|
|
#WAV31 pA-7.wav
|
|
#WAV32 pA-8.wav
|
|
#WAV33 pA-9.wav
|
|
#WAV34 pA-10.wav
|
|
#WAV35 pA-11.wav
|
|
#WAV36 pA-12.wav
|
|
#WAV37 SE3.wav
|
|
#WAV38 pA-12b.wav
|
|
#WAV39 pA-13.wav
|
|
#WAV3A pA-13b.wav
|
|
#WAV3B pA-14.wav
|
|
#WAV3C pA-14b.wav
|
|
#WAV3D pA-15.wav
|
|
#WAV3E pA-15b.wav
|
|
#WAV3F p-16-1.wav
|
|
#WAV3G p-16-2.wav
|
|
#WAV3H p-16-3.wav
|
|
#WAV3I p-16-4.wav
|
|
#WAV3J p-16-5.wav
|
|
#WAV3K p-16-6.wav
|
|
#WAV3L p-16-7.wav
|
|
#WAV3M p-16-8.wav
|
|
#WAV3N p-16-9.wav
|
|
#WAV3O p-16-10.wav
|
|
#WAV3P p-16-11.wav
|
|
#WAV3Q p-16-12.wav
|
|
#WAV3R p-16-13.wav
|
|
#WAV3S p-16-14.wav
|
|
#WAV3T p-16-15.wav
|
|
#WAV3U p-16-16.wav
|
|
#WAV3V p-16-17.wav
|
|
#WAV3W ps-16-2.wav
|
|
#WAV3X ps-16-1.wav
|
|
#WAV3Y ps-16-1.wav
|
|
#WAV3Z ps-16-2.wav
|
|
#WAV40 ps-16-3.wav
|
|
#WAV41 ps-16-4.wav
|
|
#WAV42 ps-16-5.wav
|
|
#WAV43 ps-16-6.wav
|
|
#WAV44 ps-16-3.wav
|
|
#WAV45 ps-16-7.wav
|
|
#WAV46 ps-16-8.wav
|
|
#WAV47 ps-16-9.wav
|
|
#WAV48 ps-16-10.wav
|
|
#WAV49 ps-16-5.wav
|
|
#WAV4A ps-16-8.wav
|
|
#WAV4B ps-16-2.wav
|
|
#WAV4C ps-16-11.wav
|
|
#WAV4D ps-16-12.wav
|
|
#WAV4E ps-16-13.wav
|
|
#WAV4F ps-16-14.wav
|
|
#WAV4G ps-16-15.wav
|
|
#WAV4H ps-16-16.wav
|
|
#WAV4I ps-16-17.wav
|
|
#WAV4J ps-16-18.wav
|
|
#WAV4K ps-16-19.wav
|
|
#WAV4L ps-16-20.wav
|
|
#WAV4M ps-16-7.wav
|
|
#WAV4N ps-16-21.wav
|
|
#WAV4O ps-16-22.wav
|
|
#WAV4P ps-16-23.wav
|
|
#WAV4Q ps-16-24.wav
|
|
#WAV4R ps-16-25.wav
|
|
#WAV4S ps-16-26.wav
|
|
#WAV4T ps-16-27.wav
|
|
#WAV4U ps-16-28.wav
|
|
#WAV4V ps-16-29.wav
|
|
#WAV4W ps-16-30.wav
|
|
#WAV4X ps-16-23.wav
|
|
#WAV4Y ps-16-31.wav
|
|
#WAV4Z ps-32-1.wav
|
|
#WAV50 ps-32-1.wav
|
|
#WAV51 ps-32-1b.wav
|
|
#WAV52 ps-32-1b.wav
|
|
#WAV53 ps-32-2.wav
|
|
#WAV54 ps-32-2.wav
|
|
#WAV55 ps-32-2b.wav
|
|
#WAV56 ps-32-2b.wav
|
|
#WAV57 ps-32-3.wav
|
|
#WAV58 ps-32-4.wav
|
|
#WAV59 ps-32-5.wav
|
|
#WAV5A ps-32-6.wav
|
|
#WAV5B ps-32-7.wav
|
|
#WAV5C ps-32-8.wav
|
|
#WAV5D ps-32-9.wav
|
|
#WAV5E ps-32-10.wav
|
|
#WAV5F ps-32-10.wav
|
|
#WAV5G ps-32-10b.wav
|
|
#WAV5H ps-32-10b.wav
|
|
#WAV5I SE2.wav
|
|
#WAV5J chero 1.wav
|
|
#WAV5K chero 2.wav
|
|
#WAV5L chero 3.wav
|
|
#WAV5M chero 4.wav
|
|
#WAV5N chero 9.wav
|
|
#WAV5O chero 10.wav
|
|
#WAV5P chero 11.wav
|
|
#WAV5Q chero 12.wav
|
|
#WAV5R chero 13.wav
|
|
#WAV5S chero 14.wav
|
|
#WAV5T chero 15.wav
|
|
#WAV5U chero 16.wav
|
|
#WAV5V chero 17.wav
|
|
#WAV5W chero 18.wav
|
|
#WAV5X chero 19.wav
|
|
#WAV5Y chero 20.wav
|
|
#WAV5Z chero 21.wav
|
|
#WAV60 chero 22.wav
|
|
#WAV61 solo 1.wav
|
|
#WAV62 solo 2.wav
|
|
#WAV63 solo 3.wav
|
|
#WAV64 solo 4.wav
|
|
#WAV65 solo 5.wav
|
|
#WAV66 solo 6.wav
|
|
#WAV67 solo 7.wav
|
|
#WAV68 solo 8.wav
|
|
#WAV69 solo 9.wav
|
|
#WAV6A solo 10.wav
|
|
#WAV6B solo 11.wav
|
|
#WAV6C solo 12.wav
|
|
#WAV6D solo 13.wav
|
|
#WAV6E solo 14.wav
|
|
#WAV6F solo 15.wav
|
|
#WAV6G solo 16.wav
|
|
#WAV6H solo 17.wav
|
|
#WAV6I solo 18.wav
|
|
#WAV6J solo 19.wav
|
|
#WAV6K solo 20.wav
|
|
#WAV6L solo 21.wav
|
|
#WAV6M solo 22.wav
|
|
#WAV6N solo 23.wav
|
|
#WAV6O solo 24.wav
|
|
#WAV6P solo 25.wav
|
|
#WAV6Q solo 26.wav
|
|
#WAV6R solo 27.wav
|
|
#WAV6S solo 28.wav
|
|
#WAV6T solo 29.wav
|
|
#WAV6U solo 30.wav
|
|
#WAV6V solo 31.wav
|
|
#WAV6W solo 32.wav
|
|
#WAV6X solo 33.wav
|
|
#WAV6Y solo 34.wav
|
|
#WAV6Z solo 35.wav
|
|
#WAV70 solo 36.wav
|
|
#WAV71 solo 37.wav
|
|
#WAV72 solo 38.wav
|
|
#WAV73 solo 39.wav
|
|
#WAV74 solo 40.wav
|
|
#WAV75 solo 41.wav
|
|
#WAV76 solo 42.wav
|
|
#WAV77 solo 43.wav
|
|
#WAV78 solo 44.wav
|
|
#WAV79 solo 45.wav
|
|
#WAV7A solo 46.wav
|
|
#WAV7B bass1.wav
|
|
#WAV7C bass2.wav
|
|
#WAV7D bass3.wav
|
|
#WAV7E bass4.wav
|
|
#WAV7F bass5.wav
|
|
#WAV7G bass6.wav
|
|
#WAV7H bass7.wav
|
|
#WAV7I bass8.wav
|
|
#WAV7J bass9.wav
|
|
#WAV7K bass10.wav
|
|
#WAV7L bass11.wav
|
|
#WAV7M bass12.wav
|
|
#WAV7N bass13.wav
|
|
#WAV7O bass14.wav
|
|
#WAV7P bass15.wav
|
|
#WAV7Q bass16.wav
|
|
#WAV7R bass17.wav
|
|
#WAV7S bass18.wav
|
|
#WAV7T bass19.wav
|
|
#WAV7U bass20.wav
|
|
#WAV7V bass1.wav
|
|
#WAV7W bass3.wav
|
|
#WAV7X bass5.wav
|
|
#WAV7Y bass7.wav
|
|
#WAV7Z bass9.wav
|
|
#WAV80 bass11.wav
|
|
#WAV81 bass13.wav
|
|
#WAV82 bass15.wav
|
|
#WAV83 bass17.wav
|
|
#WAV84 bass19.wav
|
|
#WAV85 chero1.wav
|
|
#WAV86 chero2.wav
|
|
#WAV87 chero3.wav
|
|
#WAV88 chero4.wav
|
|
#WAV89 vio1.wav
|
|
#WAV8A vio2.wav
|
|
#WAV8B vio3.wav
|
|
#WAV8C vio4.wav
|
|
#WAV8D tim.wav
|
|
#WAV8E tanbarin.wav
|
|
#WAV8F suzu.wav
|
|
#WAV8G suzu32.wav
|
|
#WAV8H syuooo.wav
|
|
#WAV8I SE5.wav
|
|
#WAV8J horn.wav
|
|
#WAV8K suzu.wav
|
|
#WAV8L suzu32.wav
|
|
#WAV8M cym B.wav
|
|
#WAV8N cym C.wav
|
|
#WAV8O SE4.wav
|
|
|
|
#BMP01 joker.mpg
|
|
#BMP03 miss 01.bmp
|
|
#BMP04 miss 02.bmp
|
|
#BMP05 miss 03.bmp
|
|
#BMP06 miss 04.bmp
|
|
#BMP07 miss 05.bmp
|
|
#BMP08 miss 06.bmp
|
|
#BMP09 miss 07.bmp
|
|
#BMP0A miss 08.bmp
|
|
#BMP0B miss 09.bmp
|
|
#BMP0C miss 10.bmp
|
|
#BMP0D miss 11.bmp
|
|
#BMP0E miss 12.bmp
|
|
#BMP0F miss 13.bmp
|
|
#BMP0G miss 14.bmp
|
|
#BMP0H miss 15.bmp
|
|
#BMP0I miss 16.bmp
|
|
|
|
|
|
|
|
|
|
#DIFFICULTY 3
|
|
#BACKBMP logo.jpg
|
|
|
|
|
|
|
|
*---------------------- MAIN DATA FIELD
|
|
|
|
|
|
#00104:01
|
|
#00106:030405060708090A0B0C0D0E0F0G0H0I030405060708090A0B0C0D0E0F0G0H0I
|
|
#00116:000B000000000000
|
|
|
|
#00201:00
|
|
#00201:00
|
|
#00201:00
|
|
#00201:00
|
|
#00201:00
|
|
#00201:00
|
|
#00201:00
|
|
#00201:00
|
|
#00201:00
|
|
#00201:00
|
|
#00201:00
|
|
#00201:00
|
|
#00201:00
|
|
#00201:7B7C7B7V7C7B7V7C7B7C7B7V7C7B7V7C
|
|
#00206:030405060708090A0B0C0D0E0F0G0H0I030405060708090A0B0C0D0E0F0G0H0I
|
|
#00211:0400000400040000
|
|
#00212:0S0T000000000000
|
|
#00213:0000000U00000000
|
|
#00215:0Z10000000000000
|
|
#00218:0000001100000000
|
|
#00219:00000K00000K0000
|
|
|
|
#00301:00
|
|
#00301:00
|
|
#00301:00
|
|
#00301:00
|
|
#00301:00
|
|
#00301:00
|
|
#00301:00
|
|
#00301:00
|
|
#00301:00
|
|
#00301:00
|
|
#00301:00
|
|
#00301:00
|
|
#00301:00
|
|
#00301:7B7C7B7V7C7B7V7C7B7C7B7V7C7B7V7C
|
|
#00306:030405060708090A0B0C0D0E0F0G0H0I030405060708090A0B0C0D0E0F0G0H0I
|
|
#00311:0400000400040000
|
|
#00313:0V0W000000000000
|
|
#00314:0000000X00000000
|
|
#00318:1213000000000000
|
|
#00319:00000K14000K0000
|
|
|
|
#00401:00
|
|
#00401:00
|
|
#00401:00
|
|
#00401:00
|
|
#00401:00
|
|
#00401:00
|
|
#00401:00
|
|
#00401:0F0F0F0F0F0F0F0F
|
|
#00401:000G000G000G000G000G000G000G000G
|
|
#00401:00
|
|
#00401:00
|
|
#00401:00
|
|
#00401:00
|
|
#00401:7B7C7B7V7C7B7V7C7B7C7B7V7C7B7V7C
|
|
#00406:030405060708090A0B0C0D0E0F0G0H0I030405060708090A0B0C0D0E0F0G0H0I
|
|
#00411:0400000400040000
|
|
#00412:0S0T000000000000
|
|
#00413:0000000U00000000
|
|
#00415:0Z10000000000000
|
|
#00416:0J00000I000I0000
|
|
#00418:0000001100000000
|
|
|
|
#00501:00
|
|
#00501:00
|
|
#00501:00
|
|
#00501:00
|
|
#00501:00
|
|
#00501:00
|
|
#00501:00
|
|
#00501:0F0F0F0F0F0F0F0F
|
|
#00501:000G000G000G000G000G000G000G000G
|
|
#00501:00
|
|
#00501:00
|
|
#00501:00
|
|
#00501:00
|
|
#00501:7B7C7B7V7C7B7V7C7B7C7B7V7C7B7V7C
|
|
#00506:030405060708090A0B0C0D0E0F0G0H0I030405060708090A0B0C0D0E0F0G0H0I
|
|
#00511:0400000400040000
|
|
#00513:0V0W000000000007
|
|
#00514:0000000X00000000
|
|
#00516:0J00000I000I0000
|
|
#00518:1213000000000000
|
|
#00519:0000001400000000
|
|
|
|
#00601:00
|
|
#00601:00
|
|
#00601:00
|
|
#00601:00
|
|
#00601:00
|
|
#00601:00
|
|
#00601:00
|
|
#00601:00
|
|
#00601:00
|
|
#00601:0001000100010001
|
|
#00601:02030203020302030203020302030203
|
|
#00601:00
|
|
#00601:00
|
|
#00601:7B7C7B7V7C7B7V7C7B7C7B7V7C7B7V7C
|
|
#00601:00
|
|
#00601:00
|
|
#00601:00
|
|
#00601:00
|
|
#00601:00
|
|
#00601:00
|
|
#00601:00
|
|
#00601:00
|
|
#00601:00
|
|
#00601:00
|
|
#00601:00
|
|
#00601:00
|
|
#00601:00
|
|
#00601:00
|
|
#00601:00
|
|
#00601:00
|
|
#00601:00
|
|
#00601:0N
|
|
#00606:030405060708090A0B0C0D0E0F0G0H0I030405060708090A0B0C0D0E0F0G0H0I
|
|
#00611:04040404
|
|
#00612:000000000000002H
|
|
#00613:000K000K
|
|
#00614:2G000000002I0000
|
|
#00615:0000002H00002J00
|
|
#00616:0C
|
|
#00618:002H00002K000000
|
|
#00619:002I0000
|
|
|
|
#00701:00
|
|
#00701:00
|
|
#00701:00
|
|
#00701:00
|
|
#00701:00
|
|
#00701:00
|
|
#00701:00
|
|
#00701:00
|
|
#00701:00
|
|
#00701:0001000100010001
|
|
#00701:02030203020302030203020302030203
|
|
#00701:00
|
|
#00701:00
|
|
#00701:7B7C7B7V7C7B7V7C7B7C7B7V7C7B7V7C
|
|
#00706:030405060708090A0B0C0D0E0F0G0H0I030405060708090A0B0C0D0E0F0G0H0I
|
|
#00711:04040404
|
|
#00712:000000000000002I
|
|
#00713:000K000K
|
|
#00714:2G000000002H0000
|
|
#00715:002J0000
|
|
#00718:002I002K00002K00
|
|
#00719:002L
|
|
|
|
#00801:00
|
|
#00801:00
|
|
#00801:00
|
|
#00801:00
|
|
#00801:00
|
|
#00801:00
|
|
#00801:00
|
|
#00801:00
|
|
#00801:00
|
|
#00801:0001000100010001
|
|
#00801:02030203020302030203020302030203
|
|
#00801:00
|
|
#00801:00
|
|
#00801:7D7E7D7W7E7D7W7E7D7E7D7W7E7D7W7E
|
|
#00806:030405060708090A0B0C0D0E0F0G0H0I030405060708090A0B0C0D0E0F0G0H0I
|
|
#00811:04040404
|
|
#00813:000K000K
|
|
#00814:2J00002H00000000
|
|
#00815:002K0000002K0000
|
|
#00818:002L002L
|
|
#00819:000000002M00002M
|
|
|
|
#00901:00
|
|
#00901:00
|
|
#00901:00
|
|
#00901:00
|
|
#00901:00
|
|
#00901:00
|
|
#00901:00
|
|
#00901:00
|
|
#00901:00
|
|
#00901:0001000100010001
|
|
#00901:02030203020302030203020302030203
|
|
#00901:00
|
|
#00901:00
|
|
#00901:7D7E7D7W7E7D7W7E7D7E7D7W7E7D7W7E
|
|
#00906:030405060708090A0B0C0D0E0F0G0H0I030405060708090A0B0C0D0E0F0G0H0I
|
|
#00911:04040404
|
|
#00912:000000000000002N
|
|
#00913:000K000K
|
|
#00914:2H00002I00000000
|
|
#00915:0000002I
|
|
#00918:00002K00002J0000
|
|
#00919:002L00002K000000
|
|
|
|
#01001:00
|
|
#01001:00
|
|
#01001:00
|
|
#01001:00
|
|
#01001:00
|
|
#01001:00
|
|
#01001:00
|
|
#01001:00
|
|
#01001:00
|
|
#01001:0001000100010001
|
|
#01001:02030203020302030203020302030203
|
|
#01001:00
|
|
#01001:00
|
|
#01001:7F7G7F7X7G7F7X7G7F7G7F7X7G7F7X7G
|
|
#01006:030405060708090A0B0C0D0E0F0G0H0I030405060708090A0B0C0D0E0F0G0H0I
|
|
#01011:04040404
|
|
#01012:000000000000002H
|
|
#01013:000K000K
|
|
#01014:2G000000002I0000
|
|
#01015:0000002H00002J00
|
|
#01018:002H00002K000000
|
|
#01019:002I0000
|
|
|
|
#01101:00
|
|
#01101:00
|
|
#01101:00
|
|
#01101:00
|
|
#01101:00
|
|
#01101:00
|
|
#01101:00
|
|
#01101:00
|
|
#01101:00
|
|
#01101:0001000100010001
|
|
#01101:02030203020302030203020302030203
|
|
#01101:00
|
|
#01101:00
|
|
#01101:7F7G7F7X7G7F7X7G7F7G7F7X7G7F7X7G
|
|
#01106:030405060708090A0B0C0D0E0F0G0H0I030405060708090A0B0C0D0E0F0G0H0I
|
|
#01111:04040404
|
|
#01112:000000000000002I
|
|
#01113:000K000K
|
|
#01114:2G
|
|
#01115:00002J00002H0000
|
|
#01118:002I002K00002K00
|
|
#01119:002L
|
|
|
|
#01201:00
|
|
#01201:00
|
|
#01201:00
|
|
#01201:00
|
|
#01201:00
|
|
#01201:00
|
|
#01201:00
|
|
#01201:00
|
|
#01201:00
|
|
#01201:0001000100010001
|
|
#01201:02030203020302030203020302030203
|
|
#01201:00
|
|
#01201:00
|
|
#01201:7B7C7B7V7C7B7V7C7B7C7B7V7C7B7V7C
|
|
#01206:030405060708090A0B0C0D0E0F0G0H0I030405060708090A0B0C0D0E0F0G0H0I
|
|
#01211:04040404
|
|
#01213:000K000K
|
|
#01214:2J00002H00000000
|
|
#01215:002K0000002K0000
|
|
#01218:002L002L
|
|
#01219:000000002M00002M
|
|
|
|
#01301:00
|
|
#01301:00
|
|
#01301:00
|
|
#01301:00
|
|
#01301:00
|
|
#01301:00
|
|
#01301:00
|
|
#01301:00
|
|
#01301:00
|
|
#01301:0001000100010001
|
|
#01301:02030203020302030203020302030203
|
|
#01301:00
|
|
#01301:00
|
|
#01301:7B7C7B7V7C7B7V7C7B7C7B7V7C7B7V7C
|
|
#01306:030405060708090A0B0C0D0E0F0G0H0I030405060708090A0B0C0D0E0F0G0H0I
|
|
#01311:04040404
|
|
#01312:0000002I0000002N
|
|
#01313:2H0K000K
|
|
#01314:00000000002J0000
|
|
#01315:002K002I
|
|
#01316:000000000000000000000000008M0000
|
|
#01318:002L00002K000000
|
|
|
|
#01401:00
|
|
#01401:00
|
|
#01401:00
|
|
#01401:00
|
|
#01401:00040004
|
|
#01401:00
|
|
#01401:00
|
|
#01401:00
|
|
#01401:00
|
|
#01401:00
|
|
#01401:02030203020302030203020302030203
|
|
#01401:00
|
|
#01401:00
|
|
#01401:7B7C7B7V7C7B7V7C7B7C7B7V7C7B7V7C
|
|
#01406:030405060708090A0B0C0D0E0F0G0H0I030405060708090A0B0C0D0E0F0G0H0I
|
|
#01411:2G04
|
|
#01412:000000000000002H
|
|
#01413:002H002H00000K00
|
|
#01414:00000000002I0000
|
|
#01415:042I002J
|
|
#01418:0001000100010001
|
|
#01419:000K2K00
|
|
|
|
#01501:00
|
|
#01501:00
|
|
#01501:00
|
|
#01501:00
|
|
#01501:00040004
|
|
#01501:00
|
|
#01501:00
|
|
#01501:00
|
|
#01501:00
|
|
#01501:00
|
|
#01501:02030203020302030203020302030203
|
|
#01501:00
|
|
#01501:00
|
|
#01501:7B7C7B7V7C7B7V7C7B7C7B7V7C7B7V7C
|
|
#01506:030405060708090A0B0C0D0E0F0G0H0I030405060708090A0B0C0D0E0F0G0H0I
|
|
#01511:2G04
|
|
#01512:0000000K
|
|
#01513:002I00010000002I
|
|
#01514:00002J00002H0000
|
|
#01515:0400002K
|
|
#01518:0001002K00010001
|
|
#01519:000K2L00
|
|
|
|
#01601:00
|
|
#01601:00
|
|
#01601:00
|
|
#01601:00
|
|
#01601:00040004
|
|
#01601:00
|
|
#01601:00
|
|
#01601:00
|
|
#01601:00
|
|
#01601:00
|
|
#01601:02030203020302030203020302030203
|
|
#01601:00
|
|
#01601:00
|
|
#01601:7D7E7D7W7E7D7W7E7D7E7D7W7E7D7W7E
|
|
#01606:030405060708090A0B0C0D0E0F0G0H0I030405060708090A0B0C0D0E0F0G0H0I
|
|
#01611:0404
|
|
#01613:0000002H00010000
|
|
#01614:2J0K000K
|
|
#01615:002K0001002K0001
|
|
#01618:002L002L
|
|
#01619:000100002M00002M
|
|
|
|
#01701:00
|
|
#01701:00
|
|
#01701:00
|
|
#01701:00
|
|
#01701:00040004
|
|
#01701:00
|
|
#01701:00
|
|
#01701:00
|
|
#01701:00
|
|
#01701:00
|
|
#01701:02030203020302030203020302030203
|
|
#01701:00
|
|
#01701:00
|
|
#01701:7D7E7D7W7E7D7W7E7D7E7D7W7E7D7W7E
|
|
#01706:030405060708090A0B0C0D0E0F0G0H0I030405060708090A0B0C0D0E0F0G0H0I
|
|
#01711:0404
|
|
#01712:00000K000000002N
|
|
#01713:2H00002I
|
|
#01714:0001002I002J0001
|
|
#01715:002K0000
|
|
#01718:00002K0K
|
|
#01719:002L000100010000
|
|
|
|
#01801:00
|
|
#01801:00
|
|
#01801:00
|
|
#01801:00
|
|
#01801:00040004
|
|
#01801:00
|
|
#01801:00
|
|
#01801:00
|
|
#01801:00
|
|
#01801:00
|
|
#01801:02030203020302030203020302030203
|
|
#01801:00
|
|
#01801:00
|
|
#01801:7F7G7F7X7G7F7X7G7F7G7F7X7G7F7X7G
|
|
#01806:030405060708090A0B0C0D0E0F0G0H0I030405060708090A0B0C0D0E0F0G0H0I
|
|
#01811:2G04
|
|
#01812:000000000000002H
|
|
#01813:002H002H00000K00
|
|
#01814:00000000002I0000
|
|
#01815:042I002J
|
|
#01818:0001000100010001
|
|
#01819:000K2K00
|
|
|
|
#01901:00
|
|
#01901:00
|
|
#01901:00
|
|
#01901:00
|
|
#01901:00040004
|
|
#01901:00
|
|
#01901:00
|
|
#01901:00
|
|
#01901:00
|
|
#01901:00
|
|
#01901:02030203020302030203020302030203
|
|
#01901:00
|
|
#01901:00
|
|
#01901:7F7G7F7X7G7F7X7G7F7G7F7X7G7F7X7G
|
|
#01906:030405060708090A0B0C0D0E0F0G0H0I030405060708090A0B0C0D0E0F0G0H0I
|
|
#01911:2G04
|
|
#01912:00000K00002H0000
|
|
#01913:002I000000000K00
|
|
#01914:000000010000002I
|
|
#01915:04002J0000010000
|
|
#01918:0001002K00002K00
|
|
#01919:000000002L000001
|
|
|
|
#02001:00
|
|
#02001:00
|
|
#02001:00
|
|
#02001:00
|
|
#02001:00040004
|
|
#02001:00
|
|
#02001:00
|
|
#02001:00
|
|
#02001:00
|
|
#02001:00
|
|
#02001:02030203020302030203020302030203
|
|
#02001:00
|
|
#02001:00
|
|
#02001:7B7C7B7V7C7B7V7C7B7C7B7V7C7B7V7C
|
|
#02006:030405060708090A0B0C0D0E0F0G0H0I030405060708090A0B0C0D0E0F0G0H0I
|
|
#02011:0404
|
|
#02012:0001000000000K00
|
|
#02013:2J00002H00000000
|
|
#02014:00000K00002K0001
|
|
#02015:002K000100002L00
|
|
#02018:00002L0000010000
|
|
#02019:000000002M00002M
|
|
|
|
#02101:00
|
|
#02101:00
|
|
#02101:00
|
|
#02101:00
|
|
#02101:00
|
|
#02101:00
|
|
#02101:000K000K
|
|
#02101:00
|
|
#02101:00
|
|
#02101:0001000100010001
|
|
#02101:02030203020302030203020302030203
|
|
#02101:00
|
|
#02101:00
|
|
#02101:7B7C7B7V7C7B7V7C7B7C7B7V7C7B7V7C
|
|
#02106:030405060708090A0B0C0D0E0F0G0H0I030405060708090A0B0C0D0E0F0G0H0I
|
|
#02111:04000004000400000400040000000700
|
|
#02112:00000000000000000000000000060000
|
|
#02113:00000500000000050000000005000000
|
|
#02114:000000000000002N
|
|
#02115:2H00002I00002I00
|
|
#02116:0I000M0J00000H00
|
|
#02118:00002K00002J0000
|
|
#02119:002L00002K000000
|
|
|
|
#02201:00
|
|
#02201:00
|
|
#02201:00
|
|
#02201:00
|
|
#02201:00
|
|
#02201:00
|
|
#02201:00
|
|
#02201:00
|
|
#02201:00
|
|
#02201:0001000100010001
|
|
#02201:02030203020302030203020302030203
|
|
#02201:00
|
|
#02201:00
|
|
#02201:7B7C7B7V7C7B7V7C7B7C7B7V7C7B7V7C
|
|
#02201:00
|
|
#02201:00
|
|
#02201:1I001K001I001I1J001I1J001I001K00
|
|
#02201:00
|
|
#02201:8F8K8F008F8K8F008F8K8F008F8K0000
|
|
#02201:000000000000008E
|
|
#02201:00
|
|
#02201:00
|
|
#02201:00
|
|
#02201:00
|
|
#02201:00
|
|
#02201:00
|
|
#02201:00
|
|
#02201:00
|
|
#02201:00
|
|
#02201:00
|
|
#02201:00
|
|
#02201:0O
|
|
#02206:030405060708090A0B0C0D0E0F0G0H0I030405060708090A0B0C0D0E0F0G0H0I
|
|
#02211:04040404
|
|
#02213:1600000K
|
|
#02214:0000000000000017
|
|
#02215:00171700
|
|
#02216:0C
|
|
#02218:0000000000180000
|
|
#02219:000K0019
|
|
|
|
#02301:00
|
|
#02301:00
|
|
#02301:00
|
|
#02301:00
|
|
#02301:00
|
|
#02301:00
|
|
#02301:00
|
|
#02301:00
|
|
#02301:00
|
|
#02301:0001000100010001
|
|
#02301:02030203020302030203020302030203
|
|
#02301:00
|
|
#02301:00
|
|
#02301:7B7C7B7V7C7B7V7C7B7C7B7V7C7B7V7C
|
|
#02301:00
|
|
#02301:00
|
|
#02301:1I001K001I001I1J001I1J001I001K00
|
|
#02301:00
|
|
#02301:8F008K008F0000008F008K008G8L8G8L8F0000008K0000008F008K0000000000
|
|
#02301:000000000000008E
|
|
#02306:030405060708090A0B0C0D0E0F0G0H0I030405060708090A0B0C0D0E0F0G0H0I
|
|
#02311:04040404
|
|
#02312:0000001700000000
|
|
#02313:00000016
|
|
#02314:00180000
|
|
#02315:181A
|
|
#02318:0019000000000000
|
|
#02319:000K000K
|
|
|
|
#02401:00
|
|
#02401:00
|
|
#02401:00
|
|
#02401:00
|
|
#02401:00
|
|
#02401:00
|
|
#02401:00
|
|
#02401:00
|
|
#02401:00
|
|
#02401:0001000100010001
|
|
#02401:02030203020302030203020302030203
|
|
#02401:00
|
|
#02401:00
|
|
#02401:7D7E7D7W7E7D7W7E7D7E7D7W7E7D7W7E
|
|
#02401:00
|
|
#02401:00
|
|
#02401:1L001N001L001L1M001L1M001L001N00
|
|
#02401:00
|
|
#02401:8F8K8F008F8K8F008F8K8F008F8K0000
|
|
#02401:000000000000008E
|
|
#02406:030405060708090A0B0C0D0E0F0G0H0I030405060708090A0B0C0D0E0F0G0H0I
|
|
#02411:04040404
|
|
#02413:160K000K
|
|
#02414:0000000000000017
|
|
#02415:00171700
|
|
#02418:0000000000180000
|
|
#02419:00000019
|
|
|
|
#02501:00
|
|
#02501:00
|
|
#02501:00
|
|
#02501:00
|
|
#02501:00
|
|
#02501:00
|
|
#02501:00
|
|
#02501:00
|
|
#02501:00
|
|
#02501:0001000100010001
|
|
#02501:02030203020302030203020302030203
|
|
#02501:00
|
|
#02501:00
|
|
#02501:7D7E7D7W7E7D7W7E7D7E7D7W7E7D7W7E
|
|
#02501:00
|
|
#02501:00
|
|
#02501:1L001N001L001L1M001L1M001L001N00
|
|
#02501:00
|
|
#02501:8F008K008F0000008F008K008G8L8G8L8F0000008K0000008F008K0000000000
|
|
#02501:000000000000008E
|
|
#02506:030405060708090A0B0C0D0E0F0G0H0I030405060708090A0B0C0D0E0F0G0H0I
|
|
#02511:04040404
|
|
#02513:000K1A0K
|
|
#02514:000000170000001A
|
|
#02515:0000180000170000
|
|
#02518:0019000000001800
|
|
#02519:1B
|
|
|
|
#02601:00
|
|
#02601:00
|
|
#02601:00
|
|
#02601:00
|
|
#02601:00
|
|
#02601:00
|
|
#02601:00
|
|
#02601:00
|
|
#02601:00
|
|
#02601:0001000100010001
|
|
#02601:02030203020302030203020302030203
|
|
#02601:00
|
|
#02601:00
|
|
#02601:7F7G7F7X7G7F7X7G7F7G7F7X7G7F7X7G
|
|
#02601:00
|
|
#02601:00
|
|
#02601:1O001Q001O001O1P001O1P001O001Q00
|
|
#02601:00
|
|
#02601:8F8K8F008F8K8F008F8K8F008F8K0000
|
|
#02601:000000000000008E
|
|
#02606:030405060708090A0B0C0D0E0F0G0H0I030405060708090A0B0C0D0E0F0G0H0I
|
|
#02611:04040404
|
|
#02613:1600000K
|
|
#02615:0000170017000017
|
|
#02618:0000000000180000
|
|
#02619:000K0019
|
|
|
|
#02701:00
|
|
#02701:00
|
|
#02701:00
|
|
#02701:00
|
|
#02701:00
|
|
#02701:00
|
|
#02701:00
|
|
#02701:00
|
|
#02701:00
|
|
#02701:0001000100010001
|
|
#02701:02030203020302030203020302030203
|
|
#02701:00
|
|
#02701:00
|
|
#02701:7F7G7F7X7G7F7X7G7F7G7F7X7G7F7X7G
|
|
#02701:00
|
|
#02701:00
|
|
#02701:1O001Q001O001O1P001O1P001O001Q00
|
|
#02701:00
|
|
#02701:8F008K008F0000008F008K008G8L8G8L8F0000008K0000008F008K0000000000
|
|
#02701:000000000000008E
|
|
#02706:030405060708090A0B0C0D0E0F0G0H0I030405060708090A0B0C0D0E0F0G0H0I
|
|
#02711:04040404
|
|
#02712:000000000000001F
|
|
#02713:000000001C1C0000
|
|
#02714:00000000000017000000001D00000000
|
|
#02715:0018001E
|
|
#02718:18
|
|
#02719:00190K0000000K00
|
|
|
|
#02801:00
|
|
#02801:00
|
|
#02801:00
|
|
#02801:00
|
|
#02801:00
|
|
#02801:00
|
|
#02801:00
|
|
#02801:00
|
|
#02801:00
|
|
#02801:0001000100010001
|
|
#02801:02030203020302030203020302030203
|
|
#02801:00
|
|
#02801:00
|
|
#02801:7B7C7B7V7C7B7V7C7B7C7B7V7C7B7V7C
|
|
#02801:00
|
|
#02801:00
|
|
#02801:1R001T001R001R1S001R1S001R001T00
|
|
#02801:00
|
|
#02801:8F8K8F008F8K8F008F8K8F008F8K0000
|
|
#02801:000000000000008E
|
|
#02806:030405060708090A0B0C0D0E0F0G0H0I030405060708090A0B0C0D0E0F0G0H0I
|
|
#02811:04040404
|
|
#02813:160K000K
|
|
#02815:0000170017000017
|
|
#02818:0000000000180000
|
|
#02819:00000019
|
|
|
|
#02901:00
|
|
#02901:00
|
|
#02901:00
|
|
#02901:00
|
|
#02901:00
|
|
#02901:00
|
|
#02901:00
|
|
#02901:00
|
|
#02901:00
|
|
#02901:0001000100010001
|
|
#02901:02030203020302030203020302030203
|
|
#02901:00
|
|
#02901:00
|
|
#02901:7B7C7B7V7C7B7V7C7B7C7B7V7C7B7V7C
|
|
#02901:00
|
|
#02901:00
|
|
#02901:1R001T001R001R1S001R1S001R001T00
|
|
#02901:00
|
|
#02901:8F008K008F0000008F008K008G8L8G8L8F0000008K0000008F008K0000000000
|
|
#02901:000000000000008E
|
|
#02906:030405060708090A0B0C0D0E0F0G0H0I030405060708090A0B0C0D0E0F0G0H0I
|
|
#02911:04040404
|
|
#02913:000K1A0K
|
|
#02914:0000001D0017001A
|
|
#02915:001E0018
|
|
#02916:000000000000000000000000008M0000
|
|
#02918:0000001H000000000000000000000000
|
|
#02919:1G1G000000000000
|
|
|
|
#03001:00
|
|
#03001:00
|
|
#03001:00
|
|
#03001:00
|
|
#03001:04040404
|
|
#03001:00
|
|
#03001:000K000K
|
|
#03001:00
|
|
#03001:00
|
|
#03001:0001000100010001
|
|
#03001:02030203020302030203020302030203
|
|
#03001:00
|
|
#03001:00
|
|
#03001:7B7C7B7V7C7B7V7C7B7C7B7V7C7B7V7C
|
|
#03001:00
|
|
#03001:00
|
|
#03001:00
|
|
#03001:00
|
|
#03001:8F8K8F008F8K8F008F8K8F008F8K0000
|
|
#03001:000000000000008E
|
|
#03006:030405060708090A0B0C0D0E0F0G0H0I030405060708090A0B0C0D0E0F0G0H0I
|
|
#03011:1I0000001I001I00001I00001I000000
|
|
#03013:00001K000000001J00001J0000001K00
|
|
#03014:16
|
|
#03015:0000000017000017
|
|
#03018:0000170000180000
|
|
#03019:00000019
|
|
|
|
#03101:00
|
|
#03101:00
|
|
#03101:00
|
|
#03101:00
|
|
#03101:04040404
|
|
#03101:00
|
|
#03101:000K000K
|
|
#03101:00
|
|
#03101:00
|
|
#03101:0001000100010001
|
|
#03101:02030203020302030203020302030203
|
|
#03101:00
|
|
#03101:00
|
|
#03101:7B7C7B7V7C7B7V7C7B7C7B7V7C7B7V7C
|
|
#03101:00
|
|
#03101:00
|
|
#03101:00
|
|
#03101:00
|
|
#03101:8F008K008F0000008F008K008G8L8G8L8F0000008K0000008F008K0000000000
|
|
#03101:000000000000008E
|
|
#03106:030405060708090A0B0C0D0E0F0G0H0I030405060708090A0B0C0D0E0F0G0H0I
|
|
#03111:1I0000001I001I00001I00001I000000
|
|
#03113:00001K000000001J00001J0000001K00
|
|
#03114:18000016
|
|
#03115:0000001700000000
|
|
#03118:00181A00
|
|
#03119:0019000000000000
|
|
|
|
#03201:00
|
|
#03201:00
|
|
#03201:00
|
|
#03201:00
|
|
#03201:04040404
|
|
#03201:00
|
|
#03201:000K000K
|
|
#03201:00
|
|
#03201:00
|
|
#03201:0001000100010001
|
|
#03201:02030203020302030203020302030203
|
|
#03201:00
|
|
#03201:00
|
|
#03201:7D7E7D7W7E7D7W7E7D7E7D7W7E7D7W7E
|
|
#03201:00
|
|
#03201:00
|
|
#03201:00
|
|
#03201:00
|
|
#03201:8F8K8F008F8K8F008F8K8F008F8K0000
|
|
#03201:000000000000008E
|
|
#03206:030405060708090A0B0C0D0E0F0G0H0I030405060708090A0B0C0D0E0F0G0H0I
|
|
#03212:1L0000001L001L00001L00001L000000
|
|
#03214:16001N000000001M00001M0000001N00
|
|
#03215:00171700
|
|
#03218:0000000000180017
|
|
#03219:00000019
|
|
|
|
#03301:00
|
|
#03301:00
|
|
#03301:00
|
|
#03301:00
|
|
#03301:04040404
|
|
#03301:00
|
|
#03301:000K000K
|
|
#03301:00
|
|
#03301:00
|
|
#03301:0001000100010001
|
|
#03301:02030203020302030203020302030203
|
|
#03301:00
|
|
#03301:00
|
|
#03301:7D7E7D7W7E7D7W7E7D7E7D7W7E7D7W7E
|
|
#03301:00
|
|
#03301:00
|
|
#03301:00
|
|
#03301:00
|
|
#03301:8F008K008F0000008F008K008G8L8G8L8F0000008K0000008F008K0000000000
|
|
#03301:000000000000008E
|
|
#03306:030405060708090A0B0C0D0E0F0G0H0I030405060708090A0B0C0D0E0F0G0H0I
|
|
#03312:1L0000001L001L00001L00001L000000
|
|
#03314:00001N000000001M00001M0000001N00
|
|
#03315:000000171A000000
|
|
#03318:000018000017001A
|
|
#03319:1B19000000001800
|
|
|
|
#03401:00
|
|
#03401:00
|
|
#03401:00
|
|
#03401:00
|
|
#03401:04040404
|
|
#03401:00
|
|
#03401:000K000K
|
|
#03401:00
|
|
#03401:00
|
|
#03401:0001000100010001
|
|
#03401:02030203020302030203020302030203
|
|
#03401:00
|
|
#03401:00
|
|
#03401:7F7G7F7X7G7F7X7G7F7G7F7X7G7F7X7G
|
|
#03401:00
|
|
#03401:00
|
|
#03401:00
|
|
#03401:00
|
|
#03401:8F8K8F008F8K8F008F8K8F008F8K0000
|
|
#03401:000000000000008E
|
|
#03406:030405060708090A0B0C0D0E0F0G0H0I030405060708090A0B0C0D0E0F0G0H0I
|
|
#03411:1617
|
|
#03413:1O0000001O001O00001O00001O000000
|
|
#03414:0000170000180017
|
|
#03415:00001Q000000001P00001P0000001Q00
|
|
#03419:00000019
|
|
|
|
#03501:00
|
|
#03501:00
|
|
#03501:00
|
|
#03501:00
|
|
#03501:04040404
|
|
#03501:00
|
|
#03501:000K000K
|
|
#03501:00
|
|
#03501:00
|
|
#03501:0001000100010001
|
|
#03501:02030203020302030203020302030203
|
|
#03501:00
|
|
#03501:00
|
|
#03501:7F7G7F7X7G7F7X7G7F7G7F7X7G7F7X7G
|
|
#03501:00
|
|
#03501:00
|
|
#03501:00
|
|
#03501:00
|
|
#03501:8F008K008F0000008F008K008G8L8G8L8F0000008K0000008F008K0000000000
|
|
#03501:000000000000008E
|
|
#03506:030405060708090A0B0C0D0E0F0G0H0I030405060708090A0B0C0D0E0F0G0H0I
|
|
#03511:000000001C1C0000
|
|
#03512:00000000000000000000001D00001F00
|
|
#03513:1O0000001O001O00001O00001O000000
|
|
#03514:0000001700000000
|
|
#03515:00001Q000000001P00001P0000001Q00
|
|
#03518:1818001E
|
|
#03519:0019000000000000
|
|
|
|
#03601:00
|
|
#03601:00
|
|
#03601:00
|
|
#03601:00
|
|
#03601:04040404
|
|
#03601:00
|
|
#03601:000K000K
|
|
#03601:00
|
|
#03601:00
|
|
#03601:0001000100010001
|
|
#03601:02030203020302030203020302030203
|
|
#03601:00
|
|
#03601:00
|
|
#03601:7B7C7B7V7C7B7V7C7B7C7B7V7C7B7V7C
|
|
#03601:00
|
|
#03601:00
|
|
#03601:00
|
|
#03601:00
|
|
#03601:8F8K8F008F8K8F008F8K8F008F8K0000
|
|
#03601:000000000000008E
|
|
#03606:030405060708090A0B0C0D0E0F0G0H0I030405060708090A0B0C0D0E0F0G0H0I
|
|
#03611:16
|
|
#03612:00171700
|
|
#03613:0000000000180017
|
|
#03614:1R0000001R001R00001R00001R000000
|
|
#03618:00001T000000001S00001S0000001T00
|
|
#03619:00000019
|
|
|
|
#03701:00
|
|
#03701:00
|
|
#03701:00
|
|
#03701:00
|
|
#03701:00
|
|
#03701:00
|
|
#03701:000K000K
|
|
#03701:00
|
|
#03701:00
|
|
#03701:0001000100010001
|
|
#03701:02030203020302030203020302030203
|
|
#03701:00
|
|
#03701:00
|
|
#03701:7B7C7B7V7C7B7V7C7B7C7B7V7C7B7V7C
|
|
#03701:00
|
|
#03701:00
|
|
#03701:1R001T001R001R1S001R1S001R001T00
|
|
#03701:00
|
|
#03701:8F008K008F0000008F008K008G8L8G8L8F0000008K0000008F008K0000000000
|
|
#03701:000000000000008E
|
|
#03706:030405060708090A0B0C0D0E0F0G0H0I030405060708090A0B0C0D0E0F0G0H0I
|
|
#03711:04040404
|
|
#03712:0000000000000007
|
|
#03713:001A
|
|
#03714:0000001D0000001A
|
|
#03715:00001E0000170000
|
|
#03716:0I000M0J00000H00
|
|
#03718:0000001H000000000000000000000000
|
|
#03719:1G1G000000001800
|
|
|
|
#03801:00
|
|
#03801:00
|
|
#03801:00
|
|
#03801:00
|
|
#03801:00040404
|
|
#03801:00
|
|
#03801:0000000K
|
|
#03801:00
|
|
#03801:00
|
|
#03801:0001000100010001
|
|
#03801:00030203020300030203020302030203
|
|
#03801:00
|
|
#03801:00
|
|
#03801:7B7C7B7V7C7B7V7C7B7C7B7V7C7B7V7C
|
|
#03801:00
|
|
#03801:00
|
|
#03801:00
|
|
#03801:00
|
|
#03801:00
|
|
#03801:00
|
|
#03801:61
|
|
#03801:00
|
|
#03801:5J5K5J5K005L005M
|
|
#03801:00
|
|
#03801:00
|
|
#03801:00
|
|
#03801:00
|
|
#03801:00
|
|
#03801:00
|
|
#03801:00
|
|
#03801:00
|
|
#03801:0P
|
|
#03806:030405060708090A0B0C0D0E0F0G0H0I030405060708090A0B0C0D0E0F0G0H0I
|
|
#03811:04
|
|
#03813:02
|
|
#03814:00000K0200000000
|
|
#03815:2T
|
|
#03816:0C
|
|
#03819:00002U2V00000000
|
|
|
|
#03901:00
|
|
#03901:00
|
|
#03901:00
|
|
#03901:00
|
|
#03901:04040404
|
|
#03901:00
|
|
#03901:000K000K
|
|
#03901:00
|
|
#03901:00
|
|
#03901:0001000100010001
|
|
#03901:02030203020302030203020302030203
|
|
#03901:00
|
|
#03901:00
|
|
#03901:7B7C7B7V7C7B7V7C7B7C7B7V7C7B7V7C
|
|
#03901:00
|
|
#03901:00
|
|
#03901:00
|
|
#03901:00
|
|
#03901:00
|
|
#03901:00
|
|
#03901:62000000000000000000000000006364
|
|
#03901:00
|
|
#03901:5J5K5J5K005L005M
|
|
#03906:030405060708090A0B0C0D0E0F0G0H0I030405060708090A0B0C0D0E0F0G0H0I
|
|
#03913:2L2L
|
|
#03915:002O002O002O0000
|
|
#03919:002P0000
|
|
|
|
#04001:00
|
|
#04001:00
|
|
#04001:00
|
|
#04001:00
|
|
#04001:00040404
|
|
#04001:00
|
|
#04001:0000000K
|
|
#04001:00
|
|
#04001:00
|
|
#04001:0001000000010001
|
|
#04001:00030203020302030203020302030203
|
|
#04001:00
|
|
#04001:00
|
|
#04001:7F7G7F7X7G7F7X7G7F7G7F7X7G7F7X7G
|
|
#04001:00
|
|
#04001:00
|
|
#04001:00
|
|
#04001:00
|
|
#04001:00
|
|
#04001:00
|
|
#04001:65000000000000006600670068696A6B
|
|
#04001:00
|
|
#04001:5N5O5N5O005P005Q
|
|
#04006:030405060708090A0B0C0D0E0F0G0H0I030405060708090A0B0C0D0E0F0G0H0I
|
|
#04011:04
|
|
#04012:02
|
|
#04013:00000K0100000000
|
|
#04014:2W
|
|
#04018:00002X2Y00000000
|
|
|
|
#04101:00
|
|
#04101:00
|
|
#04101:00
|
|
#04101:00
|
|
#04101:04040404
|
|
#04101:00
|
|
#04101:000K000K
|
|
#04101:00
|
|
#04101:00
|
|
#04101:0001000100010001
|
|
#04101:02030203020302030203020302030203
|
|
#04101:00
|
|
#04101:00
|
|
#04101:7F7G7F7X7G7F7X7G7F7G7F7X7G7F7X7G
|
|
#04101:00
|
|
#04101:00
|
|
#04101:00
|
|
#04101:00
|
|
#04101:00
|
|
#04101:00
|
|
#04101:6C6D
|
|
#04101:00
|
|
#04101:5N5O5N5O005P005Q
|
|
#04106:030405060708090A0B0C0D0E0F0G0H0I030405060708090A0B0C0D0E0F0G0H0I
|
|
#04112:00000000002K0000
|
|
#04113:002Q000000000000
|
|
#04114:2O
|
|
#04115:002Q
|
|
#04118:0000002O00000000
|
|
#04119:002P0000
|
|
|
|
#04201:00
|
|
#04201:00
|
|
#04201:00
|
|
#04201:00
|
|
#04201:00040404
|
|
#04201:00
|
|
#04201:000K000K
|
|
#04201:00
|
|
#04201:00
|
|
#04201:0001000100010001
|
|
#04201:00030203020300030203020300030203
|
|
#04201:00
|
|
#04201:00
|
|
#04201:7H7I7H7Y7I7H7Y7I7H7I7H7Y7I7H7Y7I
|
|
#04201:00
|
|
#04201:00
|
|
#04201:00
|
|
#04201:00
|
|
#04201:00
|
|
#04201:00
|
|
#04201:6E
|
|
#04201:00
|
|
#04201:5R5S5R5T005U005V
|
|
#04206:030405060708090A0B0C0D0E0F0G0H0I030405060708090A0B0C0D0E0F0G0H0I
|
|
#04211:04
|
|
#04213:2Z00000200000000
|
|
#04214:00000002
|
|
#04215:0000003000000000
|
|
#04218:02000031
|
|
|
|
#04301:00
|
|
#04301:00
|
|
#04301:00
|
|
#04301:00
|
|
#04301:04040404
|
|
#04301:00
|
|
#04301:000K000K
|
|
#04301:00
|
|
#04301:00
|
|
#04301:0001000100010001
|
|
#04301:02030203020302030203020302030203
|
|
#04301:00
|
|
#04301:00
|
|
#04301:7H7I7H7Y7I7H7Y7I7H7I7H7Y7I7H7Y7I
|
|
#04301:00
|
|
#04301:00
|
|
#04301:00
|
|
#04301:00
|
|
#04301:00
|
|
#04301:00
|
|
#04301:6F6G
|
|
#04301:00
|
|
#04301:5R5S5R5T005U005V
|
|
#04306:030405060708090A0B0C0D0E0F0G0H0I030405060708090A0B0C0D0E0F0G0H0I
|
|
#04312:00000000002L0000
|
|
#04313:002Q
|
|
#04314:0000002O00000000
|
|
#04315:002P0000
|
|
#04318:002S000000000000
|
|
#04319:2R
|
|
|
|
#04401:00
|
|
#04401:00
|
|
#04401:00
|
|
#04401:00
|
|
#04401:00040404
|
|
#04401:00
|
|
#04401:000K000K
|
|
#04401:00
|
|
#04401:00
|
|
#04401:0001000100010001
|
|
#04401:00030203020302030203020302030203
|
|
#04401:00
|
|
#04401:00
|
|
#04401:7F7G7F7X7G7F7X7G7F7G7F7X7G7F7X7G
|
|
#04401:00
|
|
#04401:00
|
|
#04401:00
|
|
#04401:00
|
|
#04401:00
|
|
#04401:00
|
|
#04401:6H
|
|
#04401:00
|
|
#04401:5O5U5S5T005U005V
|
|
#04406:030405060708090A0B0C0D0E0F0G0H0I030405060708090A0B0C0D0E0F0G0H0I
|
|
#04411:04
|
|
#04412:0000002P00000000
|
|
#04413:002S2S00
|
|
#04414:32000000002R0000
|
|
#04415:0000003F
|
|
#04418:020000000000000000000000003G0000
|
|
#04419:000000000000003H
|
|
|
|
#04501:00
|
|
#04501:00
|
|
#04501:00
|
|
#04501:00
|
|
#04501:00040004
|
|
#04501:00
|
|
#04501:000K000K
|
|
#04501:00
|
|
#04501:00
|
|
#04501:0001000100010001
|
|
#04501:00030203020302030003020302030203
|
|
#04501:00
|
|
#04501:00
|
|
#04501:7J7K7J7Z7K7J7Z7K7L7M7L807M7L807M
|
|
#04501:00
|
|
#04501:00
|
|
#04501:00
|
|
#04501:00
|
|
#04501:00
|
|
#04501:00
|
|
#04501:6I6J
|
|
#04501:00
|
|
#04501:5W5X5Y5Z0060005Y
|
|
#04506:030405060708090A0B0C0D0E0F0G0H0I030405060708090A0B0C0D0E0F0G0H0I
|
|
#04511:04
|
|
#04512:0004
|
|
#04513:02
|
|
#04514:0002
|
|
#04515:33
|
|
#04516:000000000000000000000000008M0000
|
|
#04518:0034
|
|
|
|
#04601:00
|
|
#04601:00
|
|
#04601:00
|
|
#04601:00
|
|
#04601:00040404
|
|
#04601:00
|
|
#04601:000K000K
|
|
#04601:00
|
|
#04601:00
|
|
#04601:0001000100010001
|
|
#04601:00030203020302030203020302030203
|
|
#04601:00
|
|
#04601:00
|
|
#04601:7B7C7B7V7C7B7V7C7B7C7B7V7C7B7V7C
|
|
#04601:00
|
|
#04601:00
|
|
#04601:00
|
|
#04601:00
|
|
#04601:00
|
|
#04601:00
|
|
#04601:6K6L6K6M6N6O0000
|
|
#04601:00
|
|
#04601:5J5K5J5K005L005M
|
|
#04606:030405060708090A0B0C0D0E0F0G0H0I030405060708090A0B0C0D0E0F0G0H0I
|
|
#04611:040000003I0000000000003P00000000
|
|
#04612:00000000003J0000000000003Q000000
|
|
#04613:0000000000003K0000000000003R0000
|
|
#04614:020000000000003L0000000000003S00
|
|
#04615:00000000000000003M0000000000003T
|
|
#04618:3500000000000000003N000000000000
|
|
#04619:00000000003O0000
|
|
|
|
#04701:00
|
|
#04701:00
|
|
#04701:00
|
|
#04701:00
|
|
#04701:04040404
|
|
#04701:00
|
|
#04701:000K000K
|
|
#04701:00
|
|
#04701:00
|
|
#04701:0001000100010001
|
|
#04701:00000203020302030203020302030203
|
|
#04701:00
|
|
#04701:00
|
|
#04701:7B7C7B7V7C7B7V7C7B7C7B7V7C7B7V7C
|
|
#04701:00
|
|
#04701:00
|
|
#04701:00
|
|
#04701:00
|
|
#04701:00
|
|
#04701:00
|
|
#04701:6K6L6K6M6N6O0000
|
|
#04701:00
|
|
#04701:5J5K5J5K005L005M
|
|
#04706:030405060708090A0B0C0D0E0F0G0H0I030405060708090A0B0C0D0E0F0G0H0I
|
|
#04713:02030000000000000000000000002L00
|
|
#04714:0000002Q
|
|
#04715:002O
|
|
#04718:363800000000000000002P0000000000
|
|
|
|
#04801:00
|
|
#04801:00
|
|
#04801:00
|
|
#04801:00
|
|
#04801:00040400
|
|
#04801:00
|
|
#04801:000K000K
|
|
#04801:00
|
|
#04801:00
|
|
#04801:0001000100010000
|
|
#04801:00030203020302030203020300030003
|
|
#04801:00
|
|
#04801:00
|
|
#04801:7F7G7F7X7G7F7X7G7F7G7F7X7G7F7X7G
|
|
#04801:00
|
|
#04801:00
|
|
#04801:00
|
|
#04801:00
|
|
#04801:00
|
|
#04801:00
|
|
#04801:6P6Q6R6S6T6U6V6W
|
|
#04801:00
|
|
#04801:5N5O5N5O005P005Q
|
|
#04806:030405060708090A0B0C0D0E0F0G0H0I030405060708090A0B0C0D0E0F0G0H0I
|
|
#04811:003U0000
|
|
#04812:0400003J00000401
|
|
#04813:003L
|
|
#04814:39000000003I000000003N0002000200
|
|
#04815:000000000000003K0000000000000000
|
|
#04818:0000000000000000003M00003A003A00
|
|
#04819:02000000000000000000003O00000000
|
|
|
|
#04901:00
|
|
#04901:00
|
|
#04901:00
|
|
#04901:00
|
|
#04901:04040404
|
|
#04901:00
|
|
#04901:000K000K
|
|
#04901:00
|
|
#04901:00
|
|
#04901:0001000100010001
|
|
#04901:02030203020302030203020302030203
|
|
#04901:00
|
|
#04901:00
|
|
#04901:7F7G7F7X7G7F7X7G7F7G7F7X7G7F7X7G
|
|
#04901:00
|
|
#04901:00
|
|
#04901:00
|
|
#04901:00
|
|
#04901:00
|
|
#04901:00
|
|
#04901:6X6Y6Z70
|
|
#04901:00
|
|
#04901:5N5O5N5O005P005Q
|
|
#04901:00
|
|
#04901:00
|
|
#04901:00
|
|
#04901:00
|
|
#04901:00
|
|
#04901:00
|
|
#04901:00
|
|
#04901:008O
|
|
#04906:030405060708090A0B0C0D0E0F0G0H0I030405060708090A0B0C0D0E0F0G0H0I
|
|
#04911:0000000000000000000000000000003J
|
|
#04912:00000000000000000000003L00003L00
|
|
#04913:000000000000003N00003N00003N0000
|
|
#04914:0000003P00003P00003P00003P000000
|
|
#04915:00003R00003R00003R00000000000000
|
|
#04918:003T00003T0000000000000000000000
|
|
#04919:3V
|
|
|
|
#05001:00
|
|
#05001:00
|
|
#05001:00
|
|
#05001:00
|
|
#05001:00040400
|
|
#05001:00
|
|
#05001:000K000K
|
|
#05001:00
|
|
#05001:00
|
|
#05001:0001000000010001
|
|
#05001:00030203020300030203020300030203
|
|
#05001:00
|
|
#05001:00
|
|
#05001:7H7I7H7Y7I7H7Y7I7H7I7H7Y7I7H7Y7I
|
|
#05001:00
|
|
#05001:00
|
|
#05001:00
|
|
#05001:00
|
|
#05001:00
|
|
#05001:00
|
|
#05001:7172717200730074
|
|
#05001:00
|
|
#05001:5R5S5R5T005U005V
|
|
#05006:030405060708090A0B0C0D0E0F0G0H0I030405060708090A0B0C0D0E0F0G0H0I
|
|
#05012:04
|
|
#05013:0000003000000000
|
|
#05014:2Z000004
|
|
#05015:0000000100000000
|
|
#05018:02000031
|
|
#05019:0000000200000200
|
|
|
|
#05101:00
|
|
#05101:00
|
|
#05101:00
|
|
#05101:00
|
|
#05101:04040404
|
|
#05101:00
|
|
#05101:000K000K
|
|
#05101:00
|
|
#05101:00
|
|
#05101:0001000100010001
|
|
#05101:02030203020302030203020302030203
|
|
#05101:00
|
|
#05101:00
|
|
#05101:7H7I7H7Y7I7H7Y7I7H7I7H7Y7I7H7Y7I
|
|
#05101:00
|
|
#05101:00
|
|
#05101:00
|
|
#05101:00
|
|
#05101:00
|
|
#05101:00
|
|
#05101:7172717200737475
|
|
#05101:00
|
|
#05101:5R5S5R5T005U005V
|
|
#05106:030405060708090A0B0C0D0E0F0G0H0I030405060708090A0B0C0D0E0F0G0H0I
|
|
#05112:00000000002L0000
|
|
#05113:002Q
|
|
#05114:0000002O00000000
|
|
#05115:002P0000
|
|
#05118:002S000000000000
|
|
#05119:2R
|
|
|
|
#05201:00
|
|
#05201:00
|
|
#05201:00
|
|
#05201:00
|
|
#05201:00040404
|
|
#05201:00
|
|
#05201:00
|
|
#05201:0F0F0F0F0F0F0F0F
|
|
#05201:000G000G000G000G000G000G000G000G
|
|
#05201:0001000100010001
|
|
#05201:00030203020302030203020302030203
|
|
#05201:00
|
|
#05201:00
|
|
#05201:7F7G7F7X7G7F7X7G7F7G7F7X7G7F7X7G
|
|
#05201:00
|
|
#05201:00
|
|
#05201:00
|
|
#05201:00
|
|
#05201:00
|
|
#05201:00
|
|
#05201:7677
|
|
#05201:00
|
|
#05201:5O5U5S5T005U005V
|
|
#05206:030405060708090A0B0C0D0E0F0G0H0I030405060708090A0B0C0D0E0F0G0H0I
|
|
#05211:04
|
|
#05212:0000002P00000000
|
|
#05213:022S2S00
|
|
#05214:32000000002R0000
|
|
#05215:0000003F
|
|
#05218:000000000000000000000000003G0000
|
|
#05219:000000000000003H
|
|
|
|
#05301:00
|
|
#05301:00
|
|
#05301:00
|
|
#05301:0I000M0J00000H00
|
|
#05301:0400040004000407
|
|
#05301:00
|
|
#05301:00
|
|
#05301:000F0F0F00000F0F
|
|
#05301:00000000000G000G0000000G000G000G
|
|
#05301:0001000100010001
|
|
#05301:00000200020302030000020002030203
|
|
#05301:00
|
|
#05301:00
|
|
#05301:7J7K7J7Z7K7J7Z7K7L7M7L807M7L807M
|
|
#05301:00
|
|
#05301:00
|
|
#05301:00
|
|
#05301:00
|
|
#05301:00
|
|
#05301:00
|
|
#05301:7879
|
|
#05301:00
|
|
#05301:5W5X5Y5Z0060005Y
|
|
#05301:00
|
|
#05301:00
|
|
#05301:008J
|
|
#05301:00
|
|
#05301:00
|
|
#05301:00
|
|
#05301:0000000000000000005I000000000000
|
|
#05301:0000008I
|
|
#05306:030405060708090A0B0C0D0E0F0G0H0I030405060708090A0B0C0D0E0F0G0H0I
|
|
#05311:02030003000000000000000000000000
|
|
#05312:00000000000000000203000300000000
|
|
#05313:0F0G000G000000000000000000000000
|
|
#05314:00000000000000000F0G000F00000000
|
|
#05315:3B3C003B000000000000000000000000
|
|
#05318:00000000000000003D3E003D00000000
|
|
|
|
#05401:00
|
|
#05401:00
|
|
#05401:00
|
|
#05401:00
|
|
#05401:00
|
|
#05401:00
|
|
#05401:00
|
|
#05401:00
|
|
#05401:00
|
|
#05401:00
|
|
#05401:00
|
|
#05401:00
|
|
#05401:00
|
|
#05401:00
|
|
#05401:00
|
|
#05401:00
|
|
#05401:00
|
|
#05401:00
|
|
#05401:00
|
|
#05401:00
|
|
#05401:7A
|
|
#05401:00
|
|
#05401:00
|
|
#05401:00
|
|
#05401:00
|
|
#05401:89898989
|
|
#05401:00
|
|
#05401:00
|
|
#05401:00
|
|
#05401:00
|
|
#05401:00
|
|
#05401:0Q
|
|
#05403:5C
|
|
#05406:030405060708090A0B0C0D0E0F0G0H0I030405060708090A0B0C0D0E0F0G0H0I
|
|
#05411:08
|
|
#05415:000D
|
|
#05416:0C
|
|
|
|
#05501:00
|
|
#05501:00
|
|
#05501:00
|
|
#05501:00
|
|
#05501:00
|
|
#05501:00
|
|
#05501:00
|
|
#05501:00
|
|
#05501:00
|
|
#05501:00
|
|
#05501:00
|
|
#05501:00
|
|
#05501:00
|
|
#05501:00
|
|
#05501:00
|
|
#05501:00
|
|
#05501:00
|
|
#05501:00
|
|
#05501:00
|
|
#05501:00
|
|
#05501:00
|
|
#05501:00
|
|
#05501:00
|
|
#05501:00
|
|
#05501:00
|
|
#05501:8A8A8A8A
|
|
#05506:030405060708090A0B0C0D0E0F0G0H0I030405060708090A0B0C0D0E0F0G0H0I
|
|
|
|
#05601:00
|
|
#05601:00
|
|
#05601:00
|
|
#05601:00
|
|
#05601:00
|
|
#05601:00
|
|
#05601:00
|
|
#05601:00
|
|
#05601:00
|
|
#05601:00
|
|
#05601:00
|
|
#05601:00
|
|
#05601:00
|
|
#05601:00
|
|
#05601:00
|
|
#05601:00
|
|
#05601:00
|
|
#05601:00
|
|
#05601:00
|
|
#05601:00
|
|
#05601:00
|
|
#05601:00
|
|
#05601:00
|
|
#05601:00
|
|
#05601:00
|
|
#05601:8B8B8B8B
|
|
#05606:030405060708090A0B0C0D0E0F0G0H0I030405060708090A0B0C0D0E0F0G0H0I
|
|
#05615:000D
|
|
|
|
#05701:00
|
|
#05701:00
|
|
#05701:00
|
|
#05701:00
|
|
#05701:00
|
|
#05701:00
|
|
#05701:00
|
|
#05701:00
|
|
#05701:00
|
|
#05701:00
|
|
#05701:00
|
|
#05701:00
|
|
#05701:00
|
|
#05701:00
|
|
#05701:00
|
|
#05701:00
|
|
#05701:00
|
|
#05701:00
|
|
#05701:00
|
|
#05701:00
|
|
#05701:00
|
|
#05701:00
|
|
#05701:00
|
|
#05701:00
|
|
#05701:008D
|
|
#05701:8C8C8C8C
|
|
#05701:00
|
|
#05701:00
|
|
#05701:00
|
|
#05701:00
|
|
#05701:00
|
|
#05701:8H
|
|
#05706:030405060708090A0B0C0D0E0F0G0H0I030405060708090A0B0C0D0E0F0G0H0I
|
|
#05716:0000000000000000000B000000000000
|
|
|
|
#05801:00
|
|
#05801:00
|
|
#05801:00
|
|
#05801:00
|
|
#05801:00
|
|
#05801:00
|
|
#05801:00
|
|
#05801:00
|
|
#05801:0009000900090009
|
|
#05801:00
|
|
#05801:00
|
|
#05801:0E0E0E0E0E0E0E0E
|
|
#05806:030405060708090A0B0C0D0E0F0G0H0I030405060708090A0B0C0D0E0F0G0H0I
|
|
#05811:04000004040000040004000404000000
|
|
#05813:000L000L
|
|
#05815:89898989
|
|
#05816:0C
|
|
#05819:85858585
|
|
|
|
#05901:00
|
|
#05901:00
|
|
#05901:00
|
|
#05901:00
|
|
#05901:00
|
|
#05901:00
|
|
#05901:00
|
|
#05901:00
|
|
#05901:000000000900000000000000090000000000000009000000000000000F0G0F00
|
|
#05901:00
|
|
#05901:00
|
|
#05901:0E0E0E0E0E0E0E0E
|
|
#05906:030405060708090A0B0C0D0E0F0G0H0I030405060708090A0B0C0D0E0F0G0H0I
|
|
#05911:04000004040000040004000404000000
|
|
#05913:000L000L
|
|
#05914:8A8A8A8A
|
|
#05918:86868686
|
|
|
|
#06001:00
|
|
#06001:00
|
|
#06001:00
|
|
#06001:00
|
|
#06001:00
|
|
#06001:00
|
|
#06001:00
|
|
#06001:000A000A000A000A000A000A000A000A
|
|
#06001:0909090909090909
|
|
#06001:00
|
|
#06001:00
|
|
#06001:000E0E0E0E0E0E0E
|
|
#06006:030405060708090A0B0C0D0E0F0G0H0I030405060708090A0B0C0D0E0F0G0H0I
|
|
#06011:04000004040000040004000404060400
|
|
#06013:00000000000000000L0000000000000000000000000000000L00000500000000
|
|
#06015:8B8B8B8B
|
|
#06016:0H
|
|
#06018:87878787
|
|
|
|
#06101:00
|
|
#06101:00
|
|
#06101:00
|
|
#06101:00
|
|
#06101:00
|
|
#06101:00
|
|
#06101:00
|
|
#06101:000G000G000G000G000G000G000G000G000G000G000G000G000G000G000G000G
|
|
#06101:0F0F0F0F0F0F0F0F0F0F0F0F0F0F0F0F
|
|
#06101:00
|
|
#06101:00
|
|
#06101:0E0E0E0E0E0E0E0E
|
|
#06106:030405060708090A0B0C0D0E0F0G0H0I030405060708090A0B0C0D0E0F0G0H0I
|
|
#06111:04000004040000040004000404000000
|
|
#06113:000L000L
|
|
#06118:8C8C8C8C
|
|
#06119:88888888
|
|
|
|
#06201:00
|
|
#06201:00
|
|
#06201:00
|
|
#06201:08
|
|
#06201:00
|
|
#06201:00
|
|
#06201:00
|
|
#06201:00
|
|
#06201:00
|
|
#06201:00
|
|
#06201:00
|
|
#06201:00
|
|
#06201:00
|
|
#06201:7B7C7B7V7C7B7V7C7B7C7B7V7C7B7V7C
|
|
#06201:00
|
|
#06201:00
|
|
#06201:00
|
|
#06201:00
|
|
#06201:00
|
|
#06201:00
|
|
#06201:00
|
|
#06201:00
|
|
#06201:00
|
|
#06201:00
|
|
#06201:00
|
|
#06201:00
|
|
#06201:00
|
|
#06201:00
|
|
#06201:00
|
|
#06201:00
|
|
#06201:00
|
|
#06201:29
|
|
#06203:B8
|
|
#06206:030405060708090A0B0C0D0E0F0G0H0I030405060708090A0B0C0D0E0F0G0H0I
|
|
#06211:00000000000000000000000000000042
|
|
#06212:0000000000004040
|
|
#06213:00000000000051520000003Z003Z0000
|
|
#06214:0040000000410000
|
|
#06215:003Z003Z000000004100000000000000
|
|
#06216:0C
|
|
#06218:3Y00000000004Z50003Y000000000000
|
|
|
|
#06301:00
|
|
#06301:00
|
|
#06301:00
|
|
#06301:00
|
|
#06301:00
|
|
#06301:00
|
|
#06301:00
|
|
#06301:00
|
|
#06301:00
|
|
#06301:00
|
|
#06301:00
|
|
#06301:00
|
|
#06301:00
|
|
#06301:7F7G7F7X7G7F7X7G7F7G7F7X7G7F7X7G
|
|
#06306:030405060708090A0B0C0D0E0F0G0H0I030405060708090A0B0C0D0E0F0G0H0I
|
|
#06312:4300000000000000550056000055000000000000000000000000480000000000
|
|
#06313:00400000000000000000000046004600
|
|
#06314:00003Z00000000000040000000470000
|
|
#06315:0000000000000000530054000053000000000000000000004500000045000000
|
|
#06318:0000003Y000000003Z003Z0000000000
|
|
|
|
#06401:00
|
|
#06401:00
|
|
#06401:00
|
|
#06401:00
|
|
#06401:00
|
|
#06401:00
|
|
#06401:00
|
|
#06401:00
|
|
#06401:00
|
|
#06401:00
|
|
#06401:00
|
|
#06401:00
|
|
#06401:00
|
|
#06401:7H7I7H7Y7I7H7Y7I7H7I7H7Y7I7H7Y7I
|
|
#06406:030405060708090A0B0C0D0E0F0G0H0I030405060708090A0B0C0D0E0F0G0H0I
|
|
#06411:4C00004F00000057
|
|
#06412:00004E000000004G4G00000000000000
|
|
#06413:000000000000000000004E000000000000000000000000000000000000580000
|
|
#06414:004D00004D0000000000480000480000
|
|
#06415:00000048000000000046000000000059
|
|
#06418:00000046
|
|
#06419:000000000000000000000000000000000000000000004700000000000000005A
|
|
|
|
#06501:00
|
|
#06501:00
|
|
#06501:00
|
|
#06501:00
|
|
#06501:00
|
|
#06501:00
|
|
#06501:00
|
|
#06501:00
|
|
#06501:00
|
|
#06501:00
|
|
#06501:00
|
|
#06501:00
|
|
#06501:00
|
|
#06501:7N7O7N817O7N817O7P7Q7P827Q7P827Q
|
|
#06501:00
|
|
#06501:00
|
|
#06501:00
|
|
#06501:00
|
|
#06501:00
|
|
#06501:00
|
|
#06501:00
|
|
#06501:00
|
|
#06501:00
|
|
#06501:00
|
|
#06501:00
|
|
#06501:00
|
|
#06501:0046004I004H0049
|
|
#06501:004E0000004D00000048000000460000
|
|
#06501:00
|
|
#06501:00
|
|
#06501:37
|
|
#06506:030405060708090A0B0C0D0E0F0G0H0I030405060708090A0B0C0D0E0F0G0H0I
|
|
#06511:4H
|
|
#06512:4200450000480000
|
|
#06513:0000004D42004300
|
|
#06514:3Z000000430000004000000000000046
|
|
#06515:00004E00004I0000004H00003Z004A00
|
|
#06518:000000004J0000004K00000000420042
|
|
#06519:0046000000000000000000004L000000
|
|
|
|
#06601:00
|
|
#06601:00
|
|
#06601:00
|
|
#06601:00
|
|
#06601:00
|
|
#06601:00
|
|
#06601:00
|
|
#06601:00
|
|
#06601:00
|
|
#06601:00
|
|
#06601:00
|
|
#06601:00
|
|
#06601:00
|
|
#06601:7B7C7B7V7C7B7V7C7B7C7B7V7C7B7V7C
|
|
#06606:030405060708090A0B0C0D0E0F0G0H0I030405060708090A0B0C0D0E0F0G0H0I
|
|
#06611:00000000450000000000000000470000
|
|
#06612:00004600004200000000000000004500
|
|
#06613:00000000000043000040000000000042
|
|
#06614:00470000000000400000000040000000
|
|
#06615:00000047000000000000003Z00000000
|
|
#06618:003Z
|
|
#06619:4500000000410000
|
|
|
|
#06701:00
|
|
#06701:00
|
|
#06701:00
|
|
#06701:00
|
|
#06701:00
|
|
#06701:00
|
|
#06701:00
|
|
#06701:00
|
|
#06701:00
|
|
#06701:00
|
|
#06701:00
|
|
#06701:00
|
|
#06701:00
|
|
#06701:7L7M7L807M7L807M7L7M7L807M7L807M
|
|
#06706:030405060708090A0B0C0D0E0F0G0H0I030405060708090A0B0C0D0E0F0G0H0I
|
|
#06711:003Z4N00
|
|
#06712:004200000000000000004P0000000000
|
|
#06713:0000000000410000004O00004R000000
|
|
#06714:43004300000000000000004Q00004T00
|
|
#06715:0000000000003Y0000000000004S0000
|
|
#06718:0000004000000000000000000000004U
|
|
#06719:000000000000004L0000000000000000
|
|
|
|
#06801:00
|
|
#06801:00
|
|
#06801:00
|
|
#06801:00
|
|
#06801:00
|
|
#06801:00
|
|
#06801:00
|
|
#06801:00
|
|
#06801:00
|
|
#06801:00
|
|
#06801:00
|
|
#06801:00
|
|
#06801:00
|
|
#06801:7D7E7D7W7E7D7W7E7D7E7D7W7E7D7W7E
|
|
#06806:030405060708090A0B0C0D0E0F0G0H0I030405060708090A0B0C0D0E0F0G0H0I
|
|
#06811:00000000000000000041000000000000
|
|
#06812:43000000000000000000000000000041
|
|
#06813:003Z004B003Z4B0000003Y0000000000
|
|
#06814:000000003Y00003Y
|
|
#06815:00000000000000000000004L00000000
|
|
#06818:003X003Y003X3Y0000000000004L0000
|
|
#06819:0000004N
|
|
|
|
#06901:00
|
|
#06901:00
|
|
#06901:00
|
|
#06901:00
|
|
#06901:00
|
|
#06901:00
|
|
#06901:00
|
|
#06901:00
|
|
#06901:00
|
|
#06901:00
|
|
#06901:00
|
|
#06901:00
|
|
#06901:00
|
|
#06901:7R7S7R837S7R837S7T7U7T847U7T847U
|
|
#06906:030405060708090A0B0C0D0E0F0G0H0I030405060708090A0B0C0D0E0F0G0H0I
|
|
#06911:003Y
|
|
#06912:00000000004N0000
|
|
#06913:000000003Y000000004L00004P000000
|
|
#06914:3Y000000004L00000000004O00000000
|
|
#06915:0000004L0000000000000000004Q0000
|
|
#06916:00000000000B0000
|
|
#06918:004L00000000004L000000000000004S
|
|
#06919:004N004N0000004T
|
|
|
|
#07001:00
|
|
#07001:00
|
|
#07001:00
|
|
#07001:00
|
|
#07001:04040404
|
|
#07001:00
|
|
#07001:000K000K
|
|
#07001:00
|
|
#07001:00
|
|
#07001:0001000100010001
|
|
#07001:02030203020302030203020302030203
|
|
#07001:00
|
|
#07001:00
|
|
#07001:7B7C7B7V7C7B7V7C7B7C7B7V7C7B7V7C
|
|
#07001:00
|
|
#07001:00
|
|
#07001:1R001T001R001R1S001R1S001R001T00
|
|
#07001:00
|
|
#07001:2A2B2C2D2E2B2F2B
|
|
#07001:8F8K8F008F8K8F008F8K8F008F8K0000
|
|
#07001:000000000000008E
|
|
#07001:00
|
|
#07001:00
|
|
#07001:00
|
|
#07001:00
|
|
#07001:00
|
|
#07001:00
|
|
#07001:00
|
|
#07001:00
|
|
#07001:00
|
|
#07001:00
|
|
#07001:0R
|
|
#07006:030405060708090A0B0C0D0E0F0G0H0I030405060708090A0B0C0D0E0F0G0H0I
|
|
#07011:0045
|
|
#07012:0000004000430000
|
|
#07013:4500000000000000004200003Z000000
|
|
#07014:000040000000003Z0000004000000000
|
|
#07015:003Z0000003Z00000000000000410000
|
|
#07016:0C
|
|
#07018:0000003Z000000000000000000003Y00
|
|
#07019:0000000041000000000000000000004L
|
|
|
|
#07101:00
|
|
#07101:00
|
|
#07101:00
|
|
#07101:00
|
|
#07101:04040404
|
|
#07101:00
|
|
#07101:000K000K
|
|
#07101:00
|
|
#07101:00
|
|
#07101:0001000100010001
|
|
#07101:02030203020302030203020302030203
|
|
#07101:00
|
|
#07101:00
|
|
#07101:7F7G7F7X7G7F7X7G7F7G7F7X7G7F7X7G
|
|
#07101:00
|
|
#07101:00
|
|
#07101:1O001Q001O001O1P001O1P001O001Q00
|
|
#07101:00
|
|
#07101:2A2B2C2D2E2B2F2B
|
|
#07101:8F008K008F0000008F008K008G8L8G8L8F0000008K0000008F008K0000000000
|
|
#07101:000000000000008E
|
|
#07106:030405060708090A0B0C0D0E0F0G0H0I030405060708090A0B0C0D0E0F0G0H0I
|
|
#07111:004V
|
|
#07112:0000000000000042004G000000000000
|
|
#07113:00000040000040000000000047000000
|
|
#07114:00003Z000041000000004E0000000000
|
|
#07115:004100003Y0000000000000000450000
|
|
#07118:3Y000000000000000000004800004200
|
|
#07119:00000000000000000000000000000040
|
|
|
|
#07201:00
|
|
#07201:00
|
|
#07201:00
|
|
#07201:00
|
|
#07201:04040404
|
|
#07201:00
|
|
#07201:000K000K
|
|
#07201:00
|
|
#07201:00
|
|
#07201:0001000100010001
|
|
#07201:02030203020302030203020302030203
|
|
#07201:00
|
|
#07201:00
|
|
#07201:7H7I7H7Y7I7H7Y7I7H7I7H7Y7I7H7Y7I
|
|
#07201:00
|
|
#07201:00
|
|
#07201:1L001N001L001L1M001L1M001L001N00
|
|
#07201:00
|
|
#07201:2A2B2C2D2E2B2F2B
|
|
#07201:8F8K8F008F8K8F008F8K8F008F8K0000
|
|
#07201:000000000000008E
|
|
#07206:030405060708090A0B0C0D0E0F0G0H0I030405060708090A0B0C0D0E0F0G0H0I
|
|
#07211:00000000003Y0000
|
|
#07212:5G005H00005G00000000000000004200000000000000000000005B0000000000
|
|
#07213:00000000002K00000000004L00000000
|
|
#07214:00000000000000003Z0000000000000000000000000000000000005C00000000
|
|
#07215:5E005F00005E00000000000000003Z0000000000000000004P00000000000000
|
|
#07218:00000000002Q00000000000000005D00
|
|
#07219:003Y0000
|
|
|
|
#07301:00
|
|
#07301:00
|
|
#07301:00
|
|
#07301:00
|
|
#07301:04040404
|
|
#07301:00
|
|
#07301:000K000K
|
|
#07301:00
|
|
#07301:00
|
|
#07301:0001000100010001
|
|
#07301:02030203020302030203020302030203
|
|
#07301:00
|
|
#07301:00
|
|
#07301:7N7O7N817O7N817O7P7Q7P827Q7P827Q
|
|
#07301:00
|
|
#07301:00
|
|
#07301:1U001W001U001U1V001O1P001O001Q00
|
|
#07301:00
|
|
#07301:2A2B2C2D2E2B2F2B
|
|
#07301:8F008K008F0000008F008K008G8L8G8L8F0000008K0000008F008K0000000000
|
|
#07301:000000000000008E
|
|
#07301:00
|
|
#07301:00
|
|
#07301:00
|
|
#07301:00
|
|
#07301:00
|
|
#07301:0046004I004H0000
|
|
#07301:004E0000004D00000048000000000000
|
|
#07306:030405060708090A0B0C0D0E0F0G0H0I030405060708090A0B0C0D0E0F0G0H0I
|
|
#07311:4H
|
|
#07312:42000000450000000000480000000049
|
|
#07313:0000004D4200003W
|
|
#07314:3Z434000
|
|
#07315:00004E00004I0000004H0000004K0000
|
|
#07318:004J4K4L
|
|
#07319:00460000000000000000000000000000
|
|
|
|
#07401:00
|
|
#07401:00
|
|
#07401:00
|
|
#07401:00
|
|
#07401:04040404
|
|
#07401:00
|
|
#07401:000K000K
|
|
#07401:00
|
|
#07401:00
|
|
#07401:0001000100010001
|
|
#07401:02030203020302030203020302030203
|
|
#07401:00
|
|
#07401:00
|
|
#07401:7B7C7B7V7C7B7V7C7B7C7B7V7C7B7V7C
|
|
#07401:00
|
|
#07401:00
|
|
#07401:1R001T001R001R1S001R1S001R001T00
|
|
#07401:00
|
|
#07401:2A2B2C2D2E2B2F2B
|
|
#07401:8F8K8F008F8K8F008F8K8F008F8K0000
|
|
#07401:000000000000008E
|
|
#07406:030405060708090A0B0C0D0E0F0G0H0I030405060708090A0B0C0D0E0F0G0H0I
|
|
#07411:00004600000000000000000000470000
|
|
#07412:00000047000000000000000000004500
|
|
#07413:00470000450000000000000040000000
|
|
#07414:45000000004200000040000000000042
|
|
#07415:00000000000043000000003Z00000000
|
|
#07418:00000000000000400000410000000000
|
|
#07419:003Z
|
|
|
|
#07501:00
|
|
#07501:00
|
|
#07501:00
|
|
#07501:00
|
|
#07501:04040404
|
|
#07501:00
|
|
#07501:000K000K
|
|
#07501:00
|
|
#07501:00
|
|
#07501:0001000100010001
|
|
#07501:02030203020302030203020302030203
|
|
#07501:00
|
|
#07501:00
|
|
#07501:7L7M7L807M7L807M7L7M7L807M7L807M
|
|
#07501:00
|
|
#07501:00
|
|
#07501:1X001Z001X001X1Y001X1Y001X001Z00
|
|
#07501:00
|
|
#07501:2A2B2C2D2E2B2F2B
|
|
#07501:8F008K008F0000008F008K008G8L8G8L8F0000008K0000008F008K0000000000
|
|
#07501:000000000000008E
|
|
#07506:030405060708090A0B0C0D0E0F0G0H0I030405060708090A0B0C0D0E0F0G0H0I
|
|
#07511:0042000000410000000000004R000000
|
|
#07512:0000003Y00000000
|
|
#07513:000043000000004L00000000004S0000
|
|
#07514:004N
|
|
#07515:0000004000000000004O000000004T00
|
|
#07518:43000000004P0000
|
|
#07519:000000003Z0000000000004Q0000004U
|
|
|
|
#07601:00
|
|
#07601:00
|
|
#07601:00
|
|
#07601:00
|
|
#07601:04040404
|
|
#07601:00
|
|
#07601:000K000K
|
|
#07601:00
|
|
#07601:00
|
|
#07601:0001000100010001
|
|
#07601:02030203020302030203020302030203
|
|
#07601:00
|
|
#07601:00
|
|
#07601:7D7E7D7W7E7D7W7E7D7E7D7W7E7D7W7E
|
|
#07601:00
|
|
#07601:00
|
|
#07601:20002200200020002120002120002200
|
|
#07601:00
|
|
#07601:2A2B2C2D2E2B2F2B
|
|
#07601:8F8K8F008F8K8F008F8K8F008F8K0000
|
|
#07601:000000000000008E
|
|
#07606:030405060708090A0B0C0D0E0F0G0H0I030405060708090A0B0C0D0E0F0G0H0I
|
|
#07611:0043
|
|
#07612:4500000000000000004000003Y000000
|
|
#07613:00000000000000004B003Z00004L0000
|
|
#07614:003Z004B003Z4B00004100004N004N00
|
|
#07615:430000000000000000000041004O004O
|
|
#07618:00000000003Y004P
|
|
#07619:003X003Y003X3Y000000004L0000004Q
|
|
|
|
#07701:00
|
|
#07701:00
|
|
#07701:00
|
|
#07701:0I000M0J00000H00
|
|
#07701:0400040004000407
|
|
#07701:00
|
|
#07701:000K000K
|
|
#07701:00
|
|
#07701:00
|
|
#07701:0001000100010001
|
|
#07701:02030203020302030203020302030203
|
|
#07701:00
|
|
#07701:00
|
|
#07701:7R7S7R837S7R837S7T7U7T847U7T847U
|
|
#07701:00
|
|
#07701:00
|
|
#07701:23002500230023240026270026002800
|
|
#07701:00
|
|
#07701:2A2B2C2D2E2B2F2B
|
|
#07701:8F008K008F0000008F008K008G8L8G8L8F0000008K0000008F008K0000000000
|
|
#07701:000000000000008E
|
|
#07706:030405060708090A0B0C0D0E0F0G0H0I030405060708090A0B0C0D0E0F0G0H0I
|
|
#07712:00004X00004X00004X00004X0000004K
|
|
#07713:000000000000004X
|
|
#07714:004P00004P00004P00004P0000000000
|
|
#07715:000000000000000000000000004Y0000
|
|
#07718:4R00004R00004R00004R000000000000
|
|
#07719:0000004S
|
|
|
|
#07801:00
|
|
#07801:00
|
|
#07801:00
|
|
#07801:00
|
|
#07801:00
|
|
#07801:00
|
|
#07801:00
|
|
#07801:00
|
|
#07801:00
|
|
#07801:00
|
|
#07801:02030203020302030203020302030203
|
|
#07801:00
|
|
#07801:00
|
|
#07801:7B7C7B7V7C7B7V7C7B7C7B7V7C7B7V7C
|
|
#07801:00
|
|
#07801:00
|
|
#07801:1R001T001R001R1S001R1S001R001T00
|
|
#07801:00
|
|
#07801:00
|
|
#07801:8F8K8F008F8K8F008F8K8F008F8K0000
|
|
#07801:00
|
|
#07801:00
|
|
#07801:453Z403Z413Z403Z454243403Z413Y4L
|
|
#07806:030405060708090A0B0C0D0E0F0G0H0I030405060708090A0B0C0D0E0F0G0H0I
|
|
#07811:04040404
|
|
#07812:0001000100010001
|
|
#07813:2A00002F
|
|
#07814:002B0000002B002B
|
|
#07815:000K2E0K
|
|
#07816:0C
|
|
#07818:0000002D00000000
|
|
#07819:00002C000000008E
|
|
|
|
#07901:00
|
|
#07901:00
|
|
#07901:00
|
|
#07901:00
|
|
#07901:00
|
|
#07901:00
|
|
#07901:00
|
|
#07901:00
|
|
#07901:00
|
|
#07901:00
|
|
#07901:02030203020302030203020302030203
|
|
#07901:00
|
|
#07901:00
|
|
#07901:7F7G7F7X7G7F7X7G7F7G7F7X7G7F7X7G
|
|
#07901:00
|
|
#07901:00
|
|
#07901:1O001Q001O001O1P001O1P001O001Q00
|
|
#07901:00
|
|
#07901:00
|
|
#07901:8F008K008F0000008F008K008G8L8G8L8F0000008K0000008F008K0000000000
|
|
#07901:00
|
|
#07901:00
|
|
#07901:3Y413Z403Y4140424V4G4E4847454240
|
|
#07906:030405060708090A0B0C0D0E0F0G0H0I030405060708090A0B0C0D0E0F0G0H0I
|
|
#07911:0000040004000001
|
|
#07912:0001000100000400
|
|
#07913:0400000000010000
|
|
#07914:00000K0000000K8E
|
|
#07915:2A000000002B0000
|
|
#07918:002B002D00002F00
|
|
#07919:00002C002E00002B
|
|
|
|
#08001:00
|
|
#08001:00
|
|
#08001:00
|
|
#08001:00
|
|
#08001:00
|
|
#08001:00
|
|
#08001:00
|
|
#08001:00
|
|
#08001:00
|
|
#08001:00
|
|
#08001:02030203020302030203020302030203
|
|
#08001:00
|
|
#08001:00
|
|
#08001:7H7I7H7Y7I7H7Y7I7H7I7H7Y7I7H7Y7I
|
|
#08001:00
|
|
#08001:00
|
|
#08001:1L001N001L001L1M001L1M001L001N00
|
|
#08001:00
|
|
#08001:00
|
|
#08001:8F8K8F008F8K8F008F8K8F008F8K0000
|
|
#08001:00
|
|
#08001:00
|
|
#08001:000000000000000000003Y4L4P000000
|
|
#08001:5E005F00005E00003Y002Q0000003Z00000000000000000000005B5C5D000000
|
|
#08001:5G005H00005G00003Z002K000000420000000000000000000000000000000000
|
|
#08006:030405060708090A0B0C0D0E0F0G0H0I030405060708090A0B0C0D0E0F0G0H0I
|
|
#08011:00040400
|
|
#08012:0001000100010001
|
|
#08013:04000004
|
|
#08014:00000K0000000K8E
|
|
#08015:2A00002F
|
|
#08018:002B002D002B002B
|
|
#08019:002C2E00
|
|
|
|
#08101:00
|
|
#08101:00
|
|
#08101:00
|
|
#08101:00
|
|
#08101:04040404
|
|
#08101:00
|
|
#08101:000K000K
|
|
#08101:00
|
|
#08101:00
|
|
#08101:0001000100010001
|
|
#08101:02030203020302030203020302030203
|
|
#08101:00
|
|
#08101:00
|
|
#08101:7N7O7N817O7N817O7P7Q7P827Q7P827Q
|
|
#08101:00
|
|
#08101:00
|
|
#08101:1U001W001U001U1V001O1P001O001Q00
|
|
#08101:00
|
|
#08101:2A2B2C2D2E2B2F2B
|
|
#08101:8F008K008F0000008F008K008G8L8G8L8F0000008K0000008F008K0000000000
|
|
#08101:000000000000008E
|
|
#08101:00
|
|
#08101:00
|
|
#08101:4E48464542403Z3X4P4O4L3X4L3Y3Z40
|
|
#08106:030405060708090A0B0C0D0E0F0G0H0I030405060708090A0B0C0D0E0F0G0H0I
|
|
#08111:4C
|
|
#08112:004G0000460000000000000000000045
|
|
#08113:00004E00004500000000004000000000
|
|
#08114:0000004200000042
|
|
#08115:000000480000000000003Z0000440000
|
|
#08118:0000000000000040003X00003W000000
|
|
#08119:004L
|
|
|
|
#08201:00
|
|
#08201:00
|
|
#08201:00
|
|
#08201:00
|
|
#08201:04040404
|
|
#08201:00
|
|
#08201:00
|
|
#08201:00
|
|
#08201:00
|
|
#08201:00
|
|
#08201:02030203020302030203020302030203
|
|
#08201:00
|
|
#08201:00
|
|
#08201:7B7C7B7V7C7B7V7C7B7C7B7V7C7B7V7C
|
|
#08201:00
|
|
#08201:00
|
|
#08201:00
|
|
#08201:00
|
|
#08201:00
|
|
#08201:8F8K8F008F8K8F008F8K8F008F8K0000
|
|
#08201:000000000000008E
|
|
#08201:00
|
|
#08201:3Z403Z413Y413Y4L4N4L4N4O4P4Q4S4Q
|
|
#08206:030405060708090A0B0C0D0E0F0G0H0I030405060708090A0B0C0D0E0F0G0H0I
|
|
#08211:1R0000001R001R00001R00001R000000
|
|
#08212:00001T000000001S00001S0000001T00
|
|
#08213:2A00002D00002F00
|
|
#08214:002B0000002B0000
|
|
#08215:00002C000000002B
|
|
#08218:000K2E0K
|
|
#08219:0001000100010001
|
|
|
|
#08301:00
|
|
#08301:00
|
|
#08301:00
|
|
#08301:00
|
|
#08301:04040404
|
|
#08301:00
|
|
#08301:00
|
|
#08301:00
|
|
#08301:00
|
|
#08301:00
|
|
#08301:02030203020302030203020302030203
|
|
#08301:00
|
|
#08301:00
|
|
#08301:7L7M7L807M7L807M7L7M7L807M7L807M
|
|
#08301:00
|
|
#08301:00
|
|
#08301:00
|
|
#08301:00
|
|
#08301:00
|
|
#08301:8F008K008F0000008F008K008G8L8G8L8F0000008K0000008F008K0000000000
|
|
#08301:000000000000008E
|
|
#08301:00
|
|
#08301:4R4Q4P4O4Q4P4O3Y2R004P4W4P4Q4P4O
|
|
#08306:030405060708090A0B0C0D0E0F0G0H0I030405060708090A0B0C0D0E0F0G0H0I
|
|
#08312:1X0000001X001X00001X00001X000000
|
|
#08313:00001Z000000001Y00001Y0000001Z00
|
|
#08314:2A00002D00002F00
|
|
#08315:002B2C00002B002B
|
|
#08318:000K2E0K
|
|
#08319:0001000100010001
|
|
|
|
#08401:00
|
|
#08401:00
|
|
#08401:00
|
|
#08401:00
|
|
#08401:04040404
|
|
#08401:00
|
|
#08401:00
|
|
#08401:00
|
|
#08401:00
|
|
#08401:0001000100010001
|
|
#08401:02030203020302030203020302030203
|
|
#08401:00
|
|
#08401:00
|
|
#08401:7D7E7D7W7E7D7W7E7D7E7D7W7E7D7W7E
|
|
#08401:00
|
|
#08401:00
|
|
#08401:00
|
|
#08401:00
|
|
#08401:2A2B2C2D2E2B2F2B
|
|
#08401:8F8K8F008F8K8F008F8K8F008F8K0000
|
|
#08401:000000000000008E
|
|
#08401:00
|
|
#08401:00
|
|
#08401:43000000000000004B413Y4L4N4O4P4Q
|
|
#08401:450000000000000043403Z413Y4L4N4O
|
|
#08401:003X003Y003X3Y000000000000000000
|
|
#08401:003Z004B003Z4B000000000000000000
|
|
#08406:030405060708090A0B0C0D0E0F0G0H0I030405060708090A0B0C0D0E0F0G0H0I
|
|
#08411:20000000200020000020000020000000
|
|
#08412:00002200000000210000210000002200
|
|
#08415:000G000G000G000G000G000G000G000G
|
|
#08419:0F0F0F0F0F0F0F0F
|
|
|
|
#08501:000000000000000000000000008M0000
|
|
#08501:00
|
|
#08501:00
|
|
#08501:00
|
|
#08501:00
|
|
#08501:00
|
|
#08501:00
|
|
#08501:00
|
|
#08501:00
|
|
#08501:0001000100010001
|
|
#08501:02030203020302030203020302030203
|
|
#08501:00
|
|
#08501:00
|
|
#08501:7R7S7R837S7R837S7T7U7T847U7T847U
|
|
#08501:00
|
|
#08501:00
|
|
#08501:00
|
|
#08501:00
|
|
#08501:2A2B2C2D2E2B2F2B
|
|
#08501:8F008K008F0000008F008K008G8L8G8L8F0000008K0000008F008K0000000000
|
|
#08501:000000000000008E
|
|
#08501:00
|
|
#08501:4R4P4X4R4P4X4R4P4X4R4P4X4S4Y4X4K
|
|
#08506:030405060708090A0B0C0D0E0F0G0H0I030405060708090A0B0C0D0E0F0G0H0I
|
|
#08511:07070707
|
|
#08512:23000000230023000000000F0000000F
|
|
#08513:00002500000000240026000026000000
|
|
#08514:0000000F0000000F0000270000002800
|
|
#08515:000G000G000G000G
|
|
#08516:0I000I0J00000H00
|
|
#08518:000F0000000F0000000F0000000F0000
|
|
#08519:0G0G0G0G
|
|
|
|
#08601:00
|
|
#08601:00
|
|
#08601:00
|
|
#08601:00
|
|
#08601:0400000400000400
|
|
#08601:00
|
|
#08601:00
|
|
#08601:0Y00000Y00000Y00
|
|
#08601:1500001500001500
|
|
#08601:00
|
|
#08601:00
|
|
#08601:00
|
|
#08601:00
|
|
#08601:7B7C000000007B7C000000007B7C0000
|
|
#08606:030405060708090A0B0C0D0E0F0G0H0I030405060708090A0B0C0D0E0F0G0H0I
|
|
#08611:4G
|
|
#08612:000046000000000000000000454M0045
|
|
#08613:00480000450000000000000000000000
|
|
#08614:00000047000040000000004000000000
|
|
#08615:000000000043000000003Z003Z3W003Z
|
|
#08616:0I00000I00000J00
|
|
#08618:000000000000003Z0041000000000000
|
|
#08619:003Y
|
|
|
|
#08701:0D
|
|
#08701:00
|
|
#08701:00
|
|
#08701:00
|
|
#08701:0400000400000400
|
|
#08701:00
|
|
#08701:00
|
|
#08701:0Y00000Y00000Y00
|
|
#08701:1500001500001500
|
|
#08701:00
|
|
#08701:00
|
|
#08701:00
|
|
#08701:00
|
|
#08701:7B7C000000007B7C000000007B7C0000
|
|
#08706:030405060708090A0B0C0D0E0F0G0H0I030405060708090A0B0C0D0E0F0G0H0I
|
|
#08711:4G
|
|
#08712:000000004500000000000000454M0045
|
|
#08713:00480000004300000000004000000000
|
|
#08714:00460000003Z0000
|
|
#08715:0000000000004000004100003Z3W003Z
|
|
#08716:0I00000I00000J00
|
|
#08718:000000470000003Z0000000000000000
|
|
#08719:003Y
|
|
|
|
#08801:8N
|
|
#08801:00
|
|
#08801:00
|
|
#08801:00
|
|
#08801:0400000400000700
|
|
#08801:00
|
|
#08801:00
|
|
#08801:0Y00000Y00000Y00
|
|
#08801:1500001500001500
|
|
#08801:00
|
|
#08801:00
|
|
#08801:00
|
|
#08801:00
|
|
#08801:7B7C000000007B7C000000007B7C0000
|
|
#08801:00
|
|
#08801:00
|
|
#08801:00
|
|
#08801:00
|
|
#08801:00
|
|
#08801:00
|
|
#08801:00
|
|
#08801:00
|
|
#08801:0000000000000000000000003Z4B003Z
|
|
#08806:030405060708090A0B0C0D0E0F0G0H0I030405060708090A0B0C0D0E0F0G0H0I
|
|
#08811:00000000000000000000004700000000
|
|
#08812:000000000000004000000000454M0045
|
|
#08813:00000041000000000000450000000000
|
|
#08814:0000000000003Z000040000000000000
|
|
#08815:00003Y00004100003Z00000000000000
|
|
#08816:0I00000000000I00005I00000J000000
|
|
#08818:004L00003Y000000000000003Y3X003Y
|
|
#08819:4N
|
|
|
|
#08906:030405060708090A0B0C0D0E0F0G0H0I030405060708090A0B0C0D0E0F0G0H0I
|
|
#08911:08
|
|
#08913:2H
|
|
#08915:2L
|
|
#08916:0C
|
|
#08919:2O
|
|
|