Files
admin-leaf-alice-in-misanth…/_alice_futabather.bms

4663 lines
95 KiB
Plaintext
Raw Permalink Blame History

This file contains ambiguous Unicode characters
This file contains Unicode characters that might be confused with other characters. If you think that this is intentional, you can safely ignore this warning. Use the Escape button to reveal them.
*---------------------- HEADER FIELD
#PLAYER 1
#GENRE GOTHIC CHOIR
#TITLE Alice in Misanthrope -‰}<7D>¢ƒAƒŠƒX-[Futabather]
#ARTIST LeaF
#BPM 172
#PLAYLEVEL 13
#RANK 3
#TOTAL 661
#STAGEFILE _title.png
#WAV01 kick1_4g.wav
#WAV02 kick1_4.wav
#WAV03 kick1_8.wav
#WAV04 kick1_16.wav
#WAV05 kick1_32.wav
#WAV06 kick1_sub1.wav
#WAV07 kick1_sub2.wav
#WAV08 cym1_1.wav
#WAV09 cym1_2.wav
#WAV0A cym1_3.wav
#WAV0B cym1_4.wav
#WAV0C cym1_5.wav
#WAV0D cym1_6.wav
#WAV0E cym1_7_spr.wav
#WAV0F cym1_9.wav
#WAV0G cym1_10.wav
#WAV0H cym1_11.wav
#WAV0I hat1.wav
#WAV0J hat2.wav
#WAV0K hat3.wav
#WAV0L hat4.wav
#WAV0M hat5.wav
#WAV0N ride1.wav
#WAV0O ride2.wav
#WAV0P ride3.wav
#WAV0Q snare1.wav
#WAV0R snaredrum1_1.wav
#WAV0S snaredrum1_1.wav
#WAV0T snaredrum1_2.wav
#WAV0U snaredrum1_3.wav
#WAV0V clap1.wav
#WAV0W clap2.wav
#WAV0X tom1.wav
#WAV0Y tom2.wav
#WAV0Z tom3.wav
#WAV10 tom4.wav
#WAV11 tom5.wav
#WAV12 tom6.wav
#WAV13 break1_1.wav
#WAV14 break1_2.wav
#WAV15 break1_3.wav
#WAV16 break1_4.wav
#WAV17 break1_5.wav
#WAV18 break1_6.wav
#WAV19 break1_7.wav
#WAV1A break1_8.wav
#WAV1B break2_1.wav
#WAV1C break2_2.wav
#WAV1D break2_3.wav
#WAV1E break2_4.wav
#WAV1F break2_5.wav
#WAV1G break2_6.wav
#WAV1H break2_7.wav
#WAV1I break2_8.wav
#WAV1J break3_1.wav
#WAV1K break3_2.wav
#WAV1L break3_3.wav
#WAV1M break3_4.wav
#WAV1N break3_5.wav
#WAV1O break3_6.wav
#WAV1P break3_7.wav
#WAV1Q break3_8.wav
#WAV1R break3_9.wav
#WAV1S break3_10.wav
#WAV1T break3_11.wav
#WAV1U break3_12.wav
#WAV1V break3_14.wav
#WAV1W break3_15.wav
#WAV1X break3_16.wav
#WAV1Y break3_17.wav
#WAV1Z break3_18.wav
#WAV20 break3_19.wav
#WAV21 break3_20.wav
#WAV22 break3_21.wav
#WAV23 break3_22.wav
#WAV24 break3_23.wav
#WAV25 break3_24.wav
#WAV26 break3_25.wav
#WAV27 break3_26.wav
#WAV28 break3_27.wav
#WAV29 break3_28.wav
#WAV2A break3_29.wav
#WAV2B break3_30.wav
#WAV2C break3_31.wav
#WAV2D break3_32.wav
#WAV2E break3_33.wav
#WAV2F break3_34.wav
#WAV2G break3_35.wav
#WAV2H break3_36.wav
#WAV2I break3_37.wav
#WAV2J break3_38.wav
#WAV2K break3_39.wav
#WAV2L break3_40.wav
#WAV2M break3_41.wav
#WAV2N break3_42.wav
#WAV2O break4_1.wav
#WAV2P break4_2.wav
#WAV2Q break4_3.wav
#WAV2R break4_4.wav
#WAV2S break4_5.wav
#WAV2T break4_6.wav
#WAV2U break4_7.wav
#WAV2V break4_8.wav
#WAV2W break4_9.wav
#WAV2X break4_10.wav
#WAV2Y break4_11.wav
#WAV2Z break4_12.wav
#WAV30 ens1_1.wav
#WAV31 ens1_2.wav
#WAV32 ens1_3.wav
#WAV33 ens1_4.wav
#WAV34 ens1_5.wav
#WAV35 ens1_6.wav
#WAV36 ens1_7.wav
#WAV37 ens1_8.wav
#WAV38 ens1_9.wav
#WAV39 ens1_10.wav
#WAV3A fx1.wav
#WAV3B synth1_1.wav
#WAV3C synth1_2.wav
#WAV3D synth1_3.wav
#WAV3E synth1_4.wav
#WAV3F synth1_5.wav
#WAV3G synth1_6.wav
#WAV3H synth1_7.wav
#WAV3I synth1_8.wav
#WAV3J synth1_9.wav
#WAV3K synth1_10.wav
#WAV3L synth1_11.wav
#WAV3M synth1_12.wav
#WAV3N synth1_13.wav
#WAV3O synth1_14.wav
#WAV3P synth1_15.wav
#WAV3Q synth1_16.wav
#WAV3R synth1_17.wav
#WAV3S synth1_18.wav
#WAV3T synth1_19.wav
#WAV3U synth1_20.wav
#WAV3V synth1_21.wav
#WAV3W synth1_22.wav
#WAV3X synth1_23.wav
#WAV3Y synth1_24.wav
#WAV3Z synth1_25.wav
#WAV40 synth1_26.wav
#WAV41 synth1_27.wav
#WAV42 synth1_28.wav
#WAV43 synth1_29.wav
#WAV44 synth1_30.wav
#WAV45 synth1_31.wav
#WAV46 synth2_1.wav
#WAV47 synth2_2.wav
#WAV48 synth2_3.wav
#WAV49 synth2_4.wav
#WAV4A synth2_5.wav
#WAV4B synth2_6.wav
#WAV4C synth2_7.wav
#WAV4D synth2_8.wav
#WAV4E synth2_9.wav
#WAV4F synth2_10.wav
#WAV4G synth2_11.wav
#WAV4H synth2_12.wav
#WAV4I synth2_13.wav
#WAV4J synth2_14.wav
#WAV4K synth2_15.wav
#WAV4L synth2_16.wav
#WAV4M synth2_17.wav
#WAV4N synth2_18.wav
#WAV4O synth2_19.wav
#WAV4P synth2_20.wav
#WAV4Q synth2_21.wav
#WAV4R synth2_22.wav
#WAV4S synth2_23.wav
#WAV4T synth2_24.wav
#WAV4U synth2_25.wav
#WAV4V synth2_26.wav
#WAV4W synth2_27.wav
#WAV4X synth2_28.wav
#WAV4Y synth3_1.wav
#WAV4Z synth3_2.wav
#WAV50 synth3_3.wav
#WAV51 synth3_5.wav
#WAV52 synth3_6.wav
#WAV53 synth3_7.wav
#WAV54 synth3_8.wav
#WAV55 synth3_9.wav
#WAV56 synth3_10.wav
#WAV57 synth3_11.wav
#WAV58 synth3_12.wav
#WAV59 synth3_13.wav
#WAV5A synth3_14.wav
#WAV5B synth3_15.wav
#WAV5C synth3_16.wav
#WAV5D synth3_17.wav
#WAV5E synth3_18.wav
#WAV5F synth3_19.wav
#WAV5G synth3_20.wav
#WAV5H synth3_21.wav
#WAV5I synth3_22.wav
#WAV5J synth3_23.wav
#WAV5K synth3_24.wav
#WAV5L synth3_25.wav
#WAV5M synth3_26.wav
#WAV5N synth3_27.wav
#WAV5O synth3_28.wav
#WAV5P synth3_29.wav
#WAV5Q stringsfx1_1.wav
#WAV5R stringsfx1_2.wav
#WAV5S stringsfx1_3.wav
#WAV5T strings1_1.wav
#WAV5U strings1_2.wav
#WAV5V strings1_4.wav
#WAV5W strings1_5.wav
#WAV5X strings1_6.wav
#WAV5Y strings1_7.wav
#WAV5Z strings1_8.wav
#WAV60 strings1_9.wav
#WAV61 strings1_10.wav
#WAV62 strings1_11.wav
#WAV63 strings1_12.wav
#WAV64 strings1_13.wav
#WAV65 strings1_14.wav
#WAV66 strings1_15.wav
#WAV67 strings1_16.wav
#WAV68 strings1_17.wav
#WAV69 strings1_18.wav
#WAV6A strings1_19.wav
#WAV6B strings1_20.wav
#WAV6C strings1_21.wav
#WAV6D strings1_22.wav
#WAV6E strings1_23.wav
#WAV6F strings1_24.wav
#WAV6G strings1_25.wav
#WAV6H strings1_27.wav
#WAV6I strings1_28.wav
#WAV6J strings1_29.wav
#WAV6K strings1_30.wav
#WAV6L strings1_31.wav
#WAV6M strings1_32.wav
#WAV6N strings1_33.wav
#WAV6O strings1_34.wav
#WAV6P strings1_35.wav
#WAV6Q strings1_36.wav
#WAV6R strings1_37.wav
#WAV6S strings1_38.wav
#WAV6T strings1_39.wav
#WAV6U strings1_40.wav
#WAV6V strings1_41.wav
#WAV6W strings2_1.wav
#WAV6X strings2_2.wav
#WAV6Y strings2_3.wav
#WAV6Z strings2_4.wav
#WAV70 strings2_5.wav
#WAV71 strings2_6.wav
#WAV72 strings2_7.wav
#WAV73 strings2_8.wav
#WAV74 strings2_9.wav
#WAV75 strings2_10.wav
#WAV76 strings2_11.wav
#WAV77 strings2_12.wav
#WAV78 strings2_13.wav
#WAV79 strings2_14.wav
#WAV7A strings2_15.wav
#WAV7B strings2_16.wav
#WAV7C strings2_17.wav
#WAV7D strings2_18.wav
#WAV7E strings2_19.wav
#WAV7F strings2_20.wav
#WAV7G strings2_21.wav
#WAV7H strings2_22.wav
#WAV7I strings2_23.wav
#WAV7J strings2_24.wav
#WAV7K strings2_25.wav
#WAV7L strings2_26.wav
#WAV7M strings2_27.wav
#WAV7N strings2_28.wav
#WAV7O strings4_1.wav
#WAV7P strings4_2.wav
#WAV7Q strings4_3.wav
#WAV7R strings4_4.wav
#WAV7S strings4_5.wav
#WAV7T strings4_6.wav
#WAV7U strings4_7.wav
#WAV7V strings4_8.wav
#WAV7W strings4_9.wav
#WAV7X strings4_10.wav
#WAV7Y strings4_11.wav
#WAV7Z strings4_12.wav
#WAV80 strings4_13.wav
#WAV81 strings4_14.wav
#WAV82 strings4_15.wav
#WAV83 strings4_16.wav
#WAV84 strings4_17.wav
#WAV85 strings4_18.wav
#WAV86 strings4_19.wav
#WAV87 strings4_20.wav
#WAV88 strings4_21.wav
#WAV89 strings4_22.wav
#WAV8A strings4_23.wav
#WAV8B strings4_24.wav
#WAV8C strings4_25.wav
#WAV8D strings4_26.wav
#WAV8E strings4_27.wav
#WAV8F strings4_28.wav
#WAV8G strings4_29.wav
#WAV8H strings4_30.wav
#WAV8I strings4_31.wav
#WAV8J strings4_32.wav
#WAV8K strings4_33.wav
#WAV8L strings4_34.wav
#WAV8M strings4_35_bgm.wav
#WAV8N strings4_36.wav
#WAV8O strings4_37.wav
#WAV8P strings4_38.wav
#WAV8Q strings4_39.wav
#WAV8R strings4_40.wav
#WAV8S strings4_41.wav
#WAV8T strings4_42.wav
#WAV8U strings7_1.wav
#WAV8V strings7_2.wav
#WAV8W strings7_3.wav
#WAV8X strings7_4.wav
#WAV8Y strings7_5.wav
#WAV8Z strings7_6.wav
#WAV90 strings7_7.wav
#WAV91 strings7_8.wav
#WAV92 strings7_9.wav
#WAV93 strings7_10.wav
#WAV94 strings7_11.wav
#WAV95 strings7_12.wav
#WAV96 strings7_13.wav
#WAV97 strings7_14.wav
#WAV98 strings7_15.wav
#WAV99 strings7_16.wav
#WAV9A strings7_17.wav
#WAV9B strings7_18.wav
#WAV9C strings7_19.wav
#WAV9D strings7_20.wav
#WAV9E strings7_21.wav
#WAV9F strings7_22.wav
#WAV9G strings7_23.wav
#WAV9H strings7_24.wav
#WAV9I strings8_1.wav
#WAV9J strings8_2.wav
#WAV9K strings8_3.wav
#WAV9L strings8_4.wav
#WAV9M strings8_5.wav
#WAV9N strings8_6.wav
#WAV9O strings8_7.wav
#WAV9P strings8_8.wav
#WAV9Q strings8_9.wav
#WAV9R strings8_10.wav
#WAV9S strings8_11.wav
#WAV9T strings8_12.wav
#WAV9U strings8_13.wav
#WAV9V strings8_14.wav
#WAV9W strings8_15.wav
#WAV9X strings8_16.wav
#WAV9Y strings8_17.wav
#WAV9Z strings8_18.wav
#WAVA0 strings8_19.wav
#WAVA1 strings8_20.wav
#WAVA2 strings8_21.wav
#WAVA3 strings8_22.wav
#WAVA4 strings8_23.wav
#WAVA5 strings8_24.wav
#WAVA6 strings8_25.wav
#WAVA7 strings8_26.wav
#WAVA8 strings8_27.wav
#WAVA9 strings8_28.wav
#WAVAA strings8_29.wav
#WAVAB strings8_30.wav
#WAVAC strings8_31.wav
#WAVAD strings8_32.wav
#WAVAE strings8_33.wav
#WAVAF strings8_34.wav
#WAVAG strings8_35.wav
#WAVAH strings8_36.wav
#WAVAI strings8_37.wav
#WAVAJ strings8_38.wav
#WAVAK strings8_39.wav
#WAVAL strings8_40.wav
#WAVAM strings8_41.wav
#WAVAN strings8_42.wav
#WAVAO strings8_43.wav
#WAVAP strings9_1.wav
#WAVAQ strings9_2.wav
#WAVAR strings9_3.wav
#WAVAS strings9_4.wav
#WAVAT strings9_5.wav
#WAVAU strings9_6.wav
#WAVAV strings9_7.wav
#WAVAW strings9_8.wav
#WAVAX strings9_9.wav
#WAVAY strings9_10.wav
#WAVAZ strings9_11.wav
#WAVB0 strings9_12.wav
#WAVB1 strings9_13.wav
#WAVB2 strings9_14.wav
#WAVB3 strings9_15.wav
#WAVB4 strings9_16.wav
#WAVB5 strings9_17.wav
#WAVB6 strings9_18.wav
#WAVB7 strings9_19.wav
#WAVB8 strings9_20.wav
#WAVB9 strings9_21.wav
#WAVBA strings9_22.wav
#WAVBB strings9_23.wav
#WAVBC strings9_24.wav
#WAVBD strings9_25.wav
#WAVBE strings9_26.wav
#WAVBF strings10_1.wav
#WAVBG strings10_2.wav
#WAVBH strings10_3.wav
#WAVBI strings10_4.wav
#WAVBJ strings10_5.wav
#WAVBK strings10_6.wav
#WAVBL strings10_7.wav
#WAVBM strings10_8.wav
#WAVBN strings10_8.wav
#WAVBO strings10_10.wav
#WAVBP strings10_11.wav
#WAVBQ strings10_12.wav
#WAVBR strings10_13.wav
#WAVBS strings10_14.wav
#WAVBT strings11_1.wav
#WAVBU strings11_2.wav
#WAVBV strings11_3.wav
#WAVBW strings11_5.wav
#WAVBX strings11_6.wav
#WAVBY strings11_7.wav
#WAVBZ strings11_8.wav
#WAVC0 strings11_9.wav
#WAVC1 strings11_11.wav
#WAVC2 strings11_12.wav
#WAVC3 strings11_13.wav
#WAVC4 strings11_14.wav
#WAVC5 strings11_15.wav
#WAVC6 strings11_16.wav
#WAVC7 strings11_17.wav
#WAVC8 strings11_18.wav
#WAVC9 strings11_19.wav
#WAVCA strings11_20.wav
#WAVCB strings11_21.wav
#WAVCC strings12_1.wav
#WAVCD strings12_2.wav
#WAVCE strings12_3.wav
#WAVCF strings12_4.wav
#WAVCG strings12_5.wav
#WAVCH strings12_6.wav
#WAVCI strings12_7.wav
#WAVCJ strings12_8.wav
#WAVCK strings12_9.wav
#WAVCL strings12_10.wav
#WAVCM strings12_11.wav
#WAVCN strings12_12.wav
#WAVCO strings12_13.wav
#WAVCP strings12_14.wav
#WAVCQ strings12_15.wav
#WAVCR strings12_16.wav
#WAVCS strings12_18.wav
#WAVCT strings13_1.wav
#WAVCU strings13_2.wav
#WAVCV strings13_3.wav
#WAVCW strings13_4.wav
#WAVCX strings13_5.wav
#WAVCY strings13_6.wav
#WAVCZ strings13_7.wav
#WAVD0 strings13_8.wav
#WAVD1 strings13_9.wav
#WAVD2 strings13_10.wav
#WAVD3 strings13_11.wav
#WAVD4 strings13_12.wav
#WAVD5 strings13_13.wav
#WAVD6 strings13_14.wav
#WAVD7 strings13_15.wav
#WAVD8 strings13_16.wav
#WAVD9 strings13_17.wav
#WAVDA strings14_1.wav
#WAVDB strings14_2.wav
#WAVDC strings14_3.wav
#WAVDD strings14_4.wav
#WAVDE strings14_5.wav
#WAVDF strings14_6.wav
#WAVDG strings14_7.wav
#WAVDH strings14_8.wav
#WAVDI strings14_9.wav
#WAVDJ strings14_10.wav
#WAVDK strings14_11.wav
#WAVDL strings14_12.wav
#WAVDM strings14_13.wav
#WAVDN strings14_14.wav
#WAVDO strings14_15.wav
#WAVDP strings14_16.wav
#WAVDQ strings14_6.wav
#WAVDR strings14_7.wav
#WAVDS strings14_8.wav
#WAVDT chenvalo1_1.wav
#WAVDU chenvalo1_2.wav
#WAVDV chenvalo1_3.wav
#WAVDW chenvalo1_4.wav
#WAVDX chenvalo1_5.wav
#WAVDY chenvalo1_6.wav
#WAVDZ chenvalo1_7.wav
#WAVE0 chenvalo1_8.wav
#WAVE1 chenvalo1_9.wav
#WAVE2 chenvalo1_10.wav
#WAVE3 chenvalo1_11.wav
#WAVE4 chenvalo1_12.wav
#WAVE5 chenvalo1_13.wav
#WAVE6 chenvalo1_14.wav
#WAVE7 chenvalo1_15.wav
#WAVE8 chenvalo2_1.wav
#WAVE9 chenvalo2_2.wav
#WAVEA chenvalo2_3.wav
#WAVEB chenvalo2_4.wav
#WAVEC chenvalo2_5.wav
#WAVED chenvalo2_6.wav
#WAVEE chenvalo2_7.wav
#WAVEF chenvalo3_1.wav
#WAVEG chenvalo3_2.wav
#WAVEH chenvalo3_3.wav
#WAVEI chenvalo3_4.wav
#WAVEJ chenvalo3_5.wav
#WAVEK chenvalo3_6.wav
#WAVEL chenvalo3_7.wav
#WAVEM chenvalo3_8.wav
#WAVEN chenvalo3_9.wav
#WAVEO chenvalo3_10.wav
#WAVEP chenvalo3_11.wav
#WAVEQ chenvalo3_12.wav
#WAVER chenvalo3_13.wav
#WAVES chenvalo3_14.wav
#WAVET chenvalo3_15.wav
#WAVEU chenvalo3_16.wav
#WAVEV chenvalo3_17.wav
#WAVEW chenvalo3_18.wav
#WAVEX chenvalo3_19.wav
#WAVEY chenvalo3_20.wav
#WAVEZ chenvalo3_21.wav
#WAVF0 chenvalo3_22.wav
#WAVF1 chenvalo3_23.wav
#WAVF2 chenvalo3_24.wav
#WAVF3 chenvalo3_25.wav
#WAVF4 chenvalo3_26.wav
#WAVF5 chenvalo3_27.wav
#WAVF6 chenvalo3_28.wav
#WAVF7 chenvalo3_29.wav
#WAVF8 chenvalo3_30.wav
#WAVF9 chenvalo3_31.wav
#WAVFA chenvalo3_32.wav
#WAVFB chenvalo3_33.wav
#WAVFC chenvalo3_34.wav
#WAVFD chenvalo3_35.wav
#WAVFE chenvalo4_1.wav
#WAVFF chenvalo4_2.wav
#WAVFG chenvalo4_3.wav
#WAVFH chenvalo4_4.wav
#WAVFI chenvalo4_5.wav
#WAVFJ chenvalo4_6.wav
#WAVFK chenvalo4_7.wav
#WAVFL chenvalo4_8.wav
#WAVFM chenvalo4_9.wav
#WAVFN chenvalo4_10.wav
#WAVFO chenvalo5_1.wav
#WAVFP chenvalo5_2.wav
#WAVFQ chenvalo5_3.wav
#WAVFR chenvalo5_4.wav
#WAVFS chenvalo5_5.wav
#WAVFT chenvalo5_6.wav
#WAVFU chenvalo5_7.wav
#WAVFV chenvalo5_8.wav
#WAVFW chenvalo5_9.wav
#WAVFX chenvalo5_10.wav
#WAVFY chenvalo5_11.wav
#WAVFZ chenvalo5_12.wav
#WAVG0 chenvalo5_13.wav
#WAVG1 chenvalo5_14.wav
#WAVG2 chenvalo5_15.wav
#WAVG3 chenvalo5_16.wav
#WAVG4 chenvalo5_17.wav
#WAVG5 chenvalo5_18.wav
#WAVG6 chenvalo5_19.wav
#WAVG7 chenvalo5_20.wav
#WAVG8 chenvalo5_21.wav
#WAVG9 chenvalo5_22.wav
#WAVGA chenvalo5_23.wav
#WAVGB chenvalo5_24.wav
#WAVGC chenvalo5_25.wav
#WAVGD chenvalo5_26.wav
#WAVGE chenvalo6_1.wav
#WAVGF chenvalo6_2.wav
#WAVGG chenvalo6_3.wav
#WAVGH chenvalo6_4.wav
#WAVGI chenvalo6_5.wav
#WAVGJ chenvalo6_6.wav
#WAVGK chenvalo6_7.wav
#WAVGL chenvalo6_8.wav
#WAVGM chenvalo6_9.wav
#WAVGN chenvalo6_10.wav
#WAVGO chenvalo6_11.wav
#WAVGP chenvalo6_12.wav
#WAVGQ chenvalo6_13.wav
#WAVGR chor1_1.wav
#WAVGS chor2_1.wav
#WAVGT chor2_2.wav
#WAVGU chor2_3.wav
#WAVGV chor2_4.wav
#WAVGW chor2_5.wav
#WAVGX chor2_6.wav
#WAVGY chor2_7.wav
#WAVGZ chor2_8.wav
#WAVH0 chor2_9.wav
#WAVH1 chor2_10.wav
#WAVH2 chor2_11.wav
#WAVH3 chor2_12.wav
#WAVH4 chor2_13.wav
#WAVH5 chor2_14.wav
#WAVH6 chor2_15.wav
#WAVH7 chor2_16.wav
#WAVH8 chor3_1.wav
#WAVH9 glissando1.wav
#WAVHA harp1_1.wav
#WAVHB harp1_2.wav
#WAVHC harp1_3.wav
#WAVHD harp1_4.wav
#WAVHE harp1_5.wav
#WAVHF harp1_6.wav
#WAVHG harp1_7.wav
#WAVHH harp1_8.wav
#WAVHI harp1_9.wav
#WAVHJ celesta1_1.wav
#WAVHK celesta1_2.wav
#WAVHL celesta1_3.wav
#WAVHM celesta1_4.wav
#WAVHN celesta1_5.wav
#WAVHO celesta1_6.wav
#WAVHP celesta1_7.wav
#WAVHQ celesta1_8.wav
#WAVHR celesta1_9.wav
#WAVHS celesta1_10.wav
#WAVHT celesta1_11.wav
#WAVHU celesta1_12.wav
#WAVHV celesta1_13.wav
#WAVHW celesta1_14.wav
#WAVHX celesta1_15.wav
#WAVHY piano1_1.wav
#WAVHZ piano1_2.wav
#WAVI0 piano1_3.wav
#WAVI1 piano1_4.wav
#WAVI2 piano1_5.wav
#WAVI3 piano1_6.wav
#WAVI4 piano1_7.wav
#WAVI5 piano1_8.wav
#WAVI6 piano1_9.wav
#WAVI7 piano1_10.wav
#WAVI8 piano1_11.wav
#WAVI9 piano1_12.wav
#WAVIA piano1_13.wav
#WAVIB piano1_14.wav
#WAVIC piano1_15.wav
#WAVID piano1_16.wav
#WAVIE piano1_17.wav
#WAVIF piano1_18.wav
#WAVIG piano1_19.wav
#WAVIH piano1_20.wav
#WAVII piano1_21.wav
#WAVIJ piano1_22.wav
#WAVIK piano1_23.wav
#WAVIL piano1_24.wav
#WAVIM piano2_1.wav
#WAVIN piano2_2.wav
#WAVIO piano2_3.wav
#WAVIP piano2_4.wav
#WAVIQ piano2_5.wav
#WAVIR piano2_6.wav
#WAVIS piano2_7.wav
#WAVIT piano2_8.wav
#WAVIU piano2_9.wav
#WAVIV piano2_10.wav
#WAVIW piano2_11.wav
#WAVIX piano2_12.wav
#WAVIY piano2_13.wav
#WAVIZ piano2_14.wav
#WAVJ0 piano2_15.wav
#WAVJ1 piano2_16.wav
#WAVJ2 piano2_17.wav
#WAVJ3 piano2_18.wav
#WAVJ4 piano2_19.wav
#WAVJ5 piano2_21.wav
#WAVJ6 piano2_23.wav
#WAVJ7 piano2_24.wav
#WAVJ8 piano2_25.wav
#WAVJ9 piano2_26.wav
#WAVJA piano2_27.wav
#WAVJB piano2_28.wav
#WAVJC piano2_29.wav
#WAVJD piano2_30.wav
#WAVJE piano2_31.wav
#WAVJF piano2_32.wav
#WAVJG piano2_33.wav
#WAVJH piano2_34.wav
#WAVJI piano3_1.wav
#WAVJJ piano3_2.wav
#WAVJK piano3_3.wav
#WAVJL piano3_4.wav
#WAVJM piano3_5.wav
#WAVJN piano3_6.wav
#WAVJO piano3_7.wav
#WAVJP piano3_8.wav
#WAVJQ piano3_9.wav
#WAVJR piano3_10.wav
#WAVJS piano3_11.wav
#WAVJT piano3_12.wav
#WAVJU piano3_13.wav
#WAVJV piano3_14.wav
#WAVJW piano3_15.wav
#WAVJX piano3_16.wav
#WAVJY piano3_17.wav
#WAVJZ piano3_18.wav
#WAVK0 piano3_19.wav
#WAVK1 piano3_20.wav
#WAVK2 piano3_21.wav
#WAVK3 piano3_22.wav
#WAVK4 piano3_23.wav
#WAVK5 piano3_24.wav
#WAVK6 piano3_25.wav
#WAVK7 piano3_26.wav
#WAVK8 piano3_27.wav
#WAVK9 piano3_28.wav
#WAVKA piano3_29.wav
#WAVKB piano3_30.wav
#WAVKC piano3_31.wav
#WAVKD piano3_32.wav
#WAVKE piano3_33.wav
#WAVKF piano3_34.wav
#WAVKG piano3_35.wav
#WAVKH piano3_36.wav
#WAVKI piano3_37.wav
#WAVKJ piano3_38.wav
#WAVKK piano3_39.wav
#WAVKL piano3_40.wav
#WAVKM piano3_41.wav
#WAVKN piano3_42.wav
#WAVKO piano3_43.wav
#WAVKP piano4_1.wav
#WAVKQ piano4_2.wav
#WAVKR piano4_3.wav
#WAVKS piano4_4.wav
#WAVKT piano4_5.wav
#WAVKU piano4_6.wav
#WAVKV piano4_7.wav
#WAVKW piano4_8.wav
#WAVKX piano4_9.wav
#WAVKY piano4_10.wav
#WAVKZ piano4_11.wav
#WAVL0 piano4_12.wav
#WAVL1 piano4_13.wav
#WAVL2 piano4_14.wav
#WAVL3 piano4_15.wav
#WAVL4 piano4_16.wav
#WAVL5 piano4_17.wav
#WAVL6 piano4_18.wav
#WAVL7 piano4_19.wav
#WAVL8 piano4_20.wav
#WAVL9 piano4_21.wav
#WAVLA piano4_22.wav
#WAVLB piano4_23.wav
#WAVLC piano4_24.wav
#WAVLD piano4_25.wav
#WAVLE piano4_26.wav
#WAVLF piano4_27.wav
#WAVLG piano4_28.wav
#WAVLH piano4_29.wav
#WAVLI piano4_30.wav
#WAVLJ piano4_31.wav
#WAVLK piano4_32.wav
#WAVLL piano4_33.wav
#WAVLM piano4_34.wav
#WAVLN piano4_35.wav
#WAVLO piano4_36.wav
#WAVLP piano4_37.wav
#WAVLQ piano4_38.wav
#WAVLR piano4_39.wav
#WAVLS piano4_40.wav
#WAVLT piano4_41.wav
#WAVLU piano4_42.wav
#WAVLV piano4_43.wav
#WAVLW piano4_44.wav
#WAVLX piano4_45.wav
#WAVLY piano4_46.wav
#WAVLZ piano4_47.wav
#WAVM0 piano4_48.wav
#WAVM1 piano4_49.wav
#WAVM2 piano5_1.wav
#WAVM3 piano5_2.wav
#WAVM4 piano5_3.wav
#WAVM5 piano5_4.wav
#WAVM6 piano5_5.wav
#WAVM7 piano5_6.wav
#WAVM8 piano5_7.wav
#WAVM9 piano5_8.wav
#WAVMA piano5_9.wav
#WAVMB piano5_10.wav
#WAVMC piano5_11.wav
#WAVMD piano5_12.wav
#WAVME piano5_13.wav
#WAVMF piano5_14.wav
#WAVMG piano6_1.wav
#WAVMH piano6_2.wav
#WAVMI piano6_3.wav
#WAVMJ piano6_4.wav
#WAVMK piano6_5.wav
#WAVML piano6_6.wav
#WAVMM piano6_7.wav
#WAVMN piano6_8.wav
#WAVMO piano6_9.wav
#WAVMP piano6_10.wav
#WAVMQ piano6_11.wav
#WAVMR piano6_12.wav
#WAVMS piano6_13.wav
#WAVMT piano6_14.wav
#WAVMU piano6_15.wav
#WAVMV piano6_16.wav
#WAVMW piano6_17.wav
#WAVMX piano6_18.wav
#WAVMY piano6_19.wav
#WAVMZ piano6_20.wav
#WAVN0 piano6_21.wav
#WAVN1 piano6_22.wav
#WAVN2 piano6_23.wav
#WAVN3 piano6_24.wav
#WAVN4 piano6_25.wav
#WAVN5 piano6_26.wav
#WAVN6 piano6_27.wav
#WAVN7 piano6_28.wav
#WAVN8 piano6_29.wav
#WAVN9 piano6_30.wav
#WAVNA piano6_31.wav
#WAVNB piano6_32.wav
#WAVNC piano7_1.wav
#WAVND piano7_2.wav
#WAVNE piano7_3.wav
#WAVNF piano7_4.wav
#WAVNG piano7_5.wav
#WAVNH piano7_6.wav
#WAVNI piano7_7.wav
#WAVNJ piano7_8.wav
#WAVNK piano7_9.wav
#WAVNL piano7_10.wav
#WAVNM piano7_11.wav
#WAVNN piano7_12.wav
#WAVNO piano7_13.wav
#WAVNP piano7_14.wav
#WAVNQ piano7_15.wav
#WAVNR piano7_16.wav
#WAVNS piano7_17.wav
#WAVNT piano7_18.wav
#WAVNU piano7_19.wav
#WAVNV piano7_20.wav
#WAVNW piano7_21.wav
#WAVNX piano7_22.wav
#WAVNY piano7_23.wav
#WAVNZ piano7_24.wav
#WAVO0 piano7_25.wav
#WAVO1 piano7_26.wav
#WAVO2 piano7_27.wav
#WAVO3 piano7_28.wav
#WAVO4 piano7_29.wav
#WAVO5 piano7_30.wav
#WAVO6 piano7_31.wav
#WAVO7 piano7_32.wav
#WAVO8 piano7_33.wav
#WAVO9 piano7_34.wav
#WAVOA piano7_35.wav
#WAVOB piano7_36.wav
#WAVOC piano7_37.wav
#WAVOD piano7_38.wav
#WAVOE piano7_39.wav
#WAVOF piano8_1.wav
#WAVOG piano8_2.wav
#WAVOH piano8_3.wav
#WAVOI piano8_4.wav
#WAVOJ piano8_5.wav
#WAVOK piano8_6.wav
#WAVOL piano8_7.wav
#WAVOM piano8_8.wav
#WAVON piano8_9.wav
#WAVOO piano8_10.wav
#WAVOP piano8_11.wav
#WAVOQ piano8_12.wav
#WAVOR piano8_14.wav
#WAVOS piano8_15.wav
#WAVOT piano8_16.wav
#WAVOU piano8_17.wav
#WAVOV piano8_18.wav
#WAVOW piano8_19.wav
#WAVOX piano8_20.wav
#WAVOY piano8_21.wav
#WAVOZ piano8_22.wav
#WAVP0 piano8_23.wav
#WAVP1 piano8_24.wav
#WAVP2 piano8_25.wav
#WAVP3 piano8_26.wav
#WAVP4 piano8_27.wav
#WAVP5 piano8_28.wav
#WAVP6 piano8_29.wav
#WAVP7 piano8_30.wav
#WAVP8 piano8_31.wav
#WAVP9 piano8_32.wav
#WAVPA piano8_33.wav
#WAVPB piano8_34.wav
#WAVPC piano8_35.wav
#WAVPD piano8_36.wav
#WAVPE piano9_1.wav
#WAVPF piano9_2.wav
#WAVPG piano9_3.wav
#WAVPH piano9_4.wav
#WAVPI piano9_5.wav
#WAVPJ piano9_6.wav
#WAVPK piano9_7.wav
#WAVPL piano9_8.wav
#WAVPM piano9_9.wav
#WAVPN piano9_10.wav
#WAVPO piano9_11.wav
#WAVPP piano9_12.wav
#WAVPQ piano9_13.wav
#WAVPR piano9_14.wav
#WAVPS piano9_15.wav
#WAVPT piano9_16.wav
#WAVPU piano9_17.wav
#WAVPV piano9_18.wav
#WAVPW piano9_19.wav
#WAVPX piano9_20.wav
#WAVPY piano9_21.wav
#WAVPZ piano9_22.wav
#WAVQ0 pianoadrib1_1.wav
#WAVQ1 pianoadrib1_2.wav
#WAVQ2 pianoadrib1_3.wav
#WAVQ3 pianoadrib1_4.wav
#WAVQ4 pianoadrib1_5.wav
#WAVQ5 pianoadrib1_6.wav
#WAVQ6 pianoadrib1_7.wav
#WAVQ7 pianoadrib1_8.wav
#WAVQ8 pianoadrib1_9.wav
#WAVQ9 pianoadrib1_10.wav
#WAVQA pianoadrib1_11.wav
#WAVQB pianoadrib1_12.wav
#WAVQC pianoadrib1_13.wav
#WAVQD pianoadrib1_14.wav
#WAVQE pianoadrib1_15.wav
#WAVQF pianoadrib1_16.wav
#WAVQG pianoadrib1_17.wav
#WAVQH pianoadrib1_18.wav
#WAVQI pianoadrib1_19.wav
#WAVQJ pianoadrib1_20.wav
#WAVQK pianoadrib1_21.wav
#WAVQL pianoadrib1_22.wav
#WAVQM pianoadrib1_23.wav
#WAVQN pianoadrib1_24.wav
#WAVQO pianoadrib1_25.wav
#WAVQP pianoadrib1_26.wav
#WAVQQ pianoadrib1_27.wav
#WAVQR pianoadrib1_28.wav
#WAVQS pianoadrib1_29.wav
#WAVQT pianoadrib1_30.wav
#WAVQU pianoadrib1_31.wav
#WAVQV pianoadrib1_32.wav
#WAVQW pianoadrib1_33.wav
#WAVQX pianoadrib1_34.wav
#WAVQY pianoadrib1_35.wav
#WAVQZ pianoadrib1_36.wav
#WAVR0 pianoadrib1_37.wav
#WAVR1 pianoadrib1_38.wav
#WAVR2 pianoadrib1_39.wav
#WAVR3 pianoadrib1_40.wav
#WAVR4 pianoadrib1_41.wav
#WAVR5 pianoadrib1_42.wav
#WAVR6 pianoadrib1_43.wav
#WAVR7 pianoadrib1_44.wav
#WAVR8 pianoadrib1_45.wav
#WAVR9 pianoadrib1_46.wav
#WAVRA pianoadrib1_47.wav
#WAVRB pianoadrib1_48.wav
#WAVRC pianoadrib1_49.wav
#WAVRD pianoadrib1_50.wav
#WAVRE pianoadrib1_64.wav
#WAVRF pianoadrib1_51.wav
#WAVRG pianoadrib1_52.wav
#WAVRH pianoadrib1_53.wav
#WAVRI pianoadrib1_54.wav
#WAVRJ pianoadrib1_55.wav
#WAVRK pianoadrib1_56.wav
#WAVRL pianoadrib1_57.wav
#WAVRM pianoadrib1_58.wav
#WAVRN pianoadrib1_59.wav
#WAVRO pianoadrib1_60.wav
#WAVRP pianoadrib1_61.wav
#WAVRQ pianoadrib1_62.wav
#WAVRR pianoadrib1_63.wav
#WAVRS piano10_1.wav
#WAVRT piano10_2.wav
#WAVRU piano10_3.wav
#WAVRV piano10_4.wav
#WAVRW piano10_5.wav
#WAVRX piano10_6.wav
#WAVRY piano10_7.wav
#WAVRZ piano10_8.wav
#WAVS0 piano10_9.wav
#WAVS1 piano10_10.wav
#WAVS2 piano11_1.wav
#WAVS3 piano11_2.wav
#WAVS4 piano11_3.wav
#WAVS5 piano11_4.wav
#WAVS6 piano11_5.wav
#WAVS7 piano11_6.wav
#WAVS8 piano11_7.wav
#WAVS9 piano11_8.wav
#WAVSA piano11_9.wav
#WAVSB piano11_10.wav
#WAVSC piano11_11.wav
#WAVSD piano11_12.wav
#WAVSE piano11_13.wav
#WAVSF piano11_14.wav
#WAVSG piano11_15.wav
#WAVSH synthlo1_168_000.wav
#WAVSI synthlo1_168_001.wav
#WAVSJ synthlo1_168_002.wav
#WAVSK synthlo1_168_003.wav
#WAVSL synthlo1_168_004.wav
#WAVSM synthlo1_168_005.wav
#WAVSN synthlo1_168_006.wav
#WAVSO synthlo1_168_007.wav
#WAVSP synthlo1_168_008.wav
#WAVSQ synthl1_0170_000.wav
#WAVSR synthl1_0170_001.wav
#WAVSS synthl1_0170_002.wav
#WAVST synthl1_0170_003.wav
#WAVSU synthl1_0170_004.wav
#WAVSV synthl1_172_000.wav
#WAVSW synthl1_172_001.wav
#WAVSX synthl1_172_002.wav
#WAVSY synthl1_172_003.wav
#WAVSZ synthl1_172_004.wav
#WAVT0 synthl1_172_005.wav
#WAVT1 synthl1_172_006.wav
#WAVT2 synthl1_172_007.wav
#WAVT3 synthl1_172_008.wav
#WAVT4 synthl1_174_000.wav
#WAVT5 synthl1_174_001.wav
#WAVT6 synthl1_174_002.wav
#WAVT7 synthl1_174_003.wav
#WAVT8 synthl1_174_004.wav
#WAVT9 synthl1_174_005.wav
#WAVTA synthl1_174_006.wav
#WAVTB synthlo2_172_000.wav
#WAVTC synthlo2_172_001.wav
#WAVTD synthlo2_172_002.wav
#WAVTE synthlo2_172_003.wav
#WAVTF synthlo2_172_004.wav
#WAVTG synthlo2_172_005.wav
#WAVTH synthlo2_172_006.wav
#WAVTI synthlo2_172_007.wav
#WAVTJ synthlo2_172_008.wav
#WAVTK synthlo2_172_009.wav
#WAVTL synthlo2_172_010.wav
#WAVTM synthlo2_172_011.wav
#WAVTN synthlo2_172_012.wav
#WAVTO synthlo2_172_013.wav
#WAVTP synthlo2_172_014.wav
#WAVTQ synthlo2_172_015.wav
#WAVTR synthlo2_172_016.wav
#WAVTS synthlo2_172_017.wav
#WAVTT synthlo2_172_018.wav
#WAVTU synthlo2_172_019.wav
#WAVTV synthlo2_172_020.wav
#WAVTW synthlo2_172_021.wav
#WAVTX synthlo2_172_022.wav
#WAVTY slap_000.wav
#WAVTZ slap_001.wav
#WAVU0 slap_002.wav
#WAVU1 slap_003.wav
#WAVU2 slap_004.wav
#WAVU3 slap_005.wav
#WAVU4 slap_006.wav
#WAVU5 slap2_000.wav
#WAVU6 slap2_001.wav
#WAVU7 slap2_002.wav
#WAVU8 slap2_003.wav
#WAVU9 slap2_004.wav
#WAVUA slap2_005.wav
#WAVUB piano9_23.wav
#WAVUC piano9_24.wav
#WAVUD piano9_25.wav
#WAVUE piano9_26.wav
#WAVUF piano9_27.wav
#WAVUG strings34_1_000.wav
#WAVUH strings34_1_001.wav
#WAVUI strings34_1_002.wav
#WAVUJ strings34_1_003.wav
#WAVUK strings34_1_004.wav
#WAVUL strings34_1_005.wav
#WAVUM strings34_1_006.wav
#WAVUN strings34_1_007.wav
#WAVUO strings34_1_008.wav
#WAVUP strings34_1_009.wav
#WAVUQ strings34_1_010.wav
#WAVUR strings34_1_011.wav
#WAVUS strings34_1_012.wav
#WAVUT strings34_1_013.wav
#WAVUU strings34_1_014.wav
#WAVUV strings34_1_015.wav
#WAVUW strings34_1_016.wav
#WAVUX strings34_1_017.wav
#WAVUY strings34_1_018.wav
#WAVUZ strings34_1_019.wav
#WAVV0 strings34_1_020.wav
#WAVV1 strings34_1_021.wav
#WAVV2 strings34_1_022.wav
#WAVV3 strings34_1_023.wav
#WAVV4 strings34_1_024.wav
#WAVV5 strings34_1_025.wav
#WAVV6 strings34_2_000.wav
#WAVV7 strings34_2_001.wav
#WAVV8 strings34_2_002.wav
#WAVV9 strings34_2_003.wav
#WAVVA strings34_2_004.wav
#WAVVB strings34_2_005.wav
#WAVVC strings34_2_006.wav
#WAVVD strings34_2_007.wav
#WAVVE strings34_2_008.wav
#WAVVF strings34_2_009.wav
#WAVVG strings34_2_010.wav
#WAVVH strings34_2_011.wav
#WAVVI strings34_2_012.wav
#WAVVJ strings34_2_013.wav
#WAVVK strings34_2_014.wav
#WAVVL strings34_2_015.wav
#WAVVM strings34_2_016.wav
#WAVVN strings34_2_017.wav
#WAVVO strings34_2_018.wav
#WAVVP strings34_2_019.wav
#WAVVQ strings34_2_020.wav
#WAVVR strings34_2_021.wav
#WAVVS strings34_2_022.wav
#WAVVT strings34_2_023.wav
#WAVVU strings34_2_024.wav
#WAVVV strings34_3_000.wav
#WAVVW strings34_3_001.wav
#WAVVX strings34_3_002.wav
#WAVVY strings34_3_003.wav
#WAVVZ strings34_3_004.wav
#WAVW0 strings34_3_005.wav
#WAVW1 strings34_3_006.wav
#WAVW2 strings34_3_007.wav
#WAVW3 strings34_4_000.wav
#WAVW4 strings34_4_001.wav
#WAVW5 strings34_4_002.wav
#WAVW6 strings34_4_003.wav
#WAVW7 strings34_4_004.wav
#WAVW8 strings34_4_005.wav
#WAVW9 strings34_4_006.wav
#WAVWA strings34_4_007.wav
#WAVWB strings34_5_000.wav
#WAVWC strings34_5_001.wav
#WAVWD strings34_5_002.wav
#WAVWE strings34_5_003.wav
#WAVWF strings34_5_004.wav
#WAVWG strings34_5_005.wav
#WAVWH strings34_5_006.wav
#WAVWI strings34_5_007.wav
#WAVWJ piano34_1_000.wav
#WAVWK piano34_1_001.wav
#WAVWL piano34_1_002.wav
#WAVWM piano34_1_003.wav
#WAVWN piano34_1_004.wav
#WAVWO piano34_1_005.wav
#WAVWP piano34_1_006.wav
#WAVWQ piano34_1_007.wav
#WAVWR piano34_1_008.wav
#WAVWS piano34_1_009.wav
#WAVWT piano34_1_010.wav
#WAVWU piano34_1_011.wav
#WAVWV piano34_1_012.wav
#WAVWW piano34_1_013.wav
#WAVWX piano34_1_014.wav
#WAVWY piano34_1_015.wav
#WAVWZ piano34_1_016.wav
#WAVX0 piano34_1_017.wav
#WAVX1 piano34_1_018.wav
#WAVX2 piano34_1_019.wav
#WAVX3 piano34_1_020.wav
#WAVX4 piano34_1_021.wav
#WAVX5 piano34_1_022.wav
#WAVX6 piano34_1_023.wav
#WAVX7 piano34_1_024.wav
#WAVX8 piano34_1_025.wav
#WAVX9 piano34_1_026.wav
#WAVXA piano34_6_000.wav
#WAVXB piano34_6_001.wav
#WAVXC piano34_6_002.wav
#WAVXD piano34_6_003.wav
#WAVXE piano34_6_004.wav
#WAVXF piano34_6_005.wav
#WAVXG piano34_6_006.wav
#WAVXH piano34_6_007.wav
#WAVXI piano34_6_008.wav
#WAVXJ piano34_6_009.wav
#WAVXK piano34_6_010.wav
#WAVXL piano34_6_011.wav
#WAVXM piano34_6_012.wav
#WAVXN piano34_6_013.wav
#WAVXO piano34_6_014.wav
#WAVXP piano34_6_015.wav
#WAVXQ piano34_6_016.wav
#WAVXR piano34_6_017.wav
#WAVXS piano34_6_018.wav
#WAVXT piano34_6_019.wav
#WAVXU piano34_6_020.wav
#WAVXV piano34_6_021.wav
#WAVXW piano34_6_022.wav
#WAVXX piano34_6_023.wav
#WAVXY piano34_6_024.wav
#WAVXZ piano34_6_025.wav
#WAVY0 piano34_6_026.wav
#WAVY1 piano34_6_027.wav
#WAVY2 piano34_6_028.wav
#WAVY3 piano34_6_029.wav
#WAVY4 piano34_6_030.wav
#WAVY5 piano34_6_031.wav
#WAVY6 piano34_6_032.wav
#WAVY7 piano34_9_000.wav
#WAVY8 piano34_9_001.wav
#WAVY9 piano34_9_002.wav
#WAVYA piano34_9_003.wav
#WAVYB piano34_9_004.wav
#WAVYC piano34_9_005.wav
#WAVYD piano34_9_006.wav
#WAVYE piano34_9_007.wav
#WAVYF piano34_9_008.wav
#WAVYG piano34_9_009.wav
#WAVYH piano34_9_010.wav
#WAVYI piano34_9_011.wav
#WAVYJ piano34_9_012.wav
#WAVYK pianost22_000.wav
#WAVYL pianost22_001.wav
#WAVYM pianost22_002.wav
#WAVYN pianost22_003.wav
#WAVYO pianost22_004.wav
#WAVYP pianost22_005.wav
#WAVYQ pianost22_006.wav
#WAVYR pianost22_007.wav
#WAVYS pianost22_008.wav
#WAVYT pianost22_009.wav
#WAVYU pianost22_010.wav
#WAVYV pianost22_011.wav
#WAVYW pianost22_012.wav
#WAVYX pianost22_013.wav
#WAVYY pianost22_014.wav
#WAVYZ pianost22_015.wav
#WAVZ0 pianost22_016.wav
#WAVZ1 pianost22_017.wav
#WAVZ2 pianost22_018.wav
#WAVZ3 pianost22_019.wav
#WAVZ4 pianost22_020.wav
#WAVZ5 pianost22_021.wav
#WAVZ6 pianost22_022.wav
#WAVZ7 pianost22_023.wav
#WAVZ8 pianost22_024.wav
#WAVZ9 pianost22_025.wav
#WAVZA pianost22_026.wav
#WAVZB pianost22_027.wav
#WAVZC pianost22_028.wav
#WAVZD pianost22_1_000.wav
#WAVZE pianost22_1_001.wav
#WAVZF pianost22_1_002.wav
#WAVZG pianost22_2_000.wav
#WAVZH pianost22_2_001.wav
#WAVZI pianost22_2_002.wav
#WAVZJ pianost22_3_000.wav
#WAVZK pianost22_3_001.wav
#WAVZL pianost22_3_002.wav
#WAVZM bgm2.wav
#WAVZN bgm6.wav
#WAVZO bgm22.wav
#WAVZP bgm34.wav
#WAVZQ bgm50.wav
#WAVZR bgm58.wav
#WAVZS bgm72.wav
#WAVZT bgm90.wav
#WAVZU celesta1_2.wav
#WAVZV celesta1_7.wav
#WAVZW celesta1_1.wav
#WAVZX celesta1_9.wav
#WAVZY celesta1_10.wav
#BMP01 _bga.mpg
#SUBARTIST Movie:zN / Illust:ƒZƒVƒ<C692>žƒ^ƒCƒg
#BACKBMP _backbmp.png
#DIFFICULTY 5
#BANNER _banner.png
*---------------------- MAIN DATA FIELD
#00002:0.0625
#00103:9A
#00104:0001
#00201:00
#00201:00
#00201:00
#00201:00
#00201:00
#00201:00
#00201:00
#00201:00
#00201:00
#00201:00
#00201:00
#00201:00
#00201:00
#00201:00
#00201:00
#00201:00
#00201:00
#00201:00
#00201:00
#00201:00
#00201:00
#00201:00
#00201:00
#00201:00
#00201:00
#00201:00
#00201:00
#00201:00
#00201:00
#00201:00
#00201:00
#00201:ZM
#00203:009C
#00211:00HK00ZU00HK00ZU
#00214:HP
#00215:000000HR
#00216:3A
#00218:00HS
#00219:00HU0000
#00303:A0A4
#00311:00HK000000HK0000
#00313:00000000000000HO
#00314:HPZV00HP
#00315:000000HR00000000
#00318:00HS
#00403:A8AC
#00411:0202
#00412:00HJ00ZW000T0000
#00413:000000000000000000000000HL0000000R000000000R00000000000S00000000000000000S0000000000000000000000
#00414:ZV00000000000000000S000000000S000000000000000000HP00000000000000000R0000000000000000000000000000
#00415:00000R0000000S000000HR00000T000R
#00416:0A0B
#00418:HY0R00HS
#00419:0U000000HY0000HU
#00501:00
#00501:00
#00501:00
#00501:00
#00501:00
#00501:00
#00501:00
#00501:00
#00501:00
#00501:I1I1I200
#00501:00
#00501:00
#00501:00
#00501:00
#00501:00
#00501:00
#00501:00
#00501:00
#00501:00
#00501:00
#00501:00
#00501:00
#00501:00
#00501:00
#00501:00
#00501:00
#00501:00
#00501:00
#00501:00
#00501:0000000000000000U500U60000U800UA
#00503:AD
#00511:02020200
#00512:0000HM0000000000I00000I300000000
#00513:00000000HZ00000S000000000000I400
#00514:HZ000S000000HP000000005T00000000
#00515:0000HR00ZX00005U
#00516:0C0000000C0000000D0000U70000U900
#00518:ZY00000R00000R00000000DT00000000
#00519:0U000T000U0000DU
#00601:00
#00601:00
#00601:0I0000000I0000000I00000I0I000000
#00601:000J000J000J000J
#00601:00
#00601:0N0N0N0N
#00601:00
#00601:00
#00601:00I700I8
#00601:I5I5
#00601:00I600I600I60000
#00601:00
#00601:00
#00601:00
#00601:00
#00601:00
#00601:00
#00601:00
#00601:00
#00601:006T006T006T006T
#00601:5V
#00601:00
#00601:00
#00601:00
#00601:00DX00DY
#00601:DVDV
#00601:00DW00DW00DW0000
#00601:00
#00601:00
#00601:00
#00601:GR
#00601:ZN
#00603:AC
#00611:0200020002000303
#00612:00000000000000IN00000R006S000000
#00613:000000006S000S000S00000S00000U00
#00614:6R0000000R00000000IP00000R000000
#00615:0U00000S000000006R00IQ00000000IQ
#00616:08
#00618:00000R000000000R000000IR0000IR00
#00619:IM00IOIS
#00701:00
#00701:00
#00701:0I0000000I0000000I0I000I0I000000
#00701:000J000J000J000J
#00701:00
#00701:0N0N0N0N
#00701:00
#00701:00
#00701:00I70000
#00701:I5I5
#00701:00I600I600I60000
#00701:000000I9
#00701:00
#00701:00
#00701:00
#00701:00
#00701:00
#00701:00
#00701:00
#00701:006T006T006T006T
#00701:0000006V
#00701:00
#00701:005V
#00701:00
#00701:00DX0000
#00701:DVDV
#00701:00DW00DW00DW0000
#00701:000000DZ
#00711:02000000020000000200000403000300
#00712:0U00000S00000000IY0000006U000000
#00713:00000R00IW000000005W000000000U00
#00714:IT0000IV0000IX000S005X000R000000
#00715:0000IU000000000R0000005Y00006100
#00718:00006S0S000R5Z00
#00719:6R0000000R0000006R00000S00600060
#00801:00
#00801:00
#00801:0I000000000000000I000000000000000K0L0M0I00000I000I00000000000000
#00801:000J000J000J000J
#00801:00
#00801:0N0N0N0N
#00801:00
#00801:00
#00801:00000000I700000000000000IA00IBIC
#00801:I5I5
#00801:00I600I600I60000
#00801:00
#00801:00
#00801:00
#00801:00
#00801:00
#00801:00
#00801:00
#00801:00
#00801:006T006T006T006T
#00801:00
#00801:00
#00801:00
#00801:00
#00801:00DX00DY
#00801:DVDV
#00801:00DW00DW00DW0000
#00811:02000000020000000200000403000404
#00812:6200000S00006S00
#00813:000R6S006R000069
#00814:6R00000S0000000R0000000068000000
#00815:00000R650067000U
#00818:0U006400660R0R00
#00819:00006300000000000S00000S00000000
#00901:00
#00901:00
#00901:0I0000000I0000000I0I000I0I000000
#00901:000J000J000J000J
#00901:000000000000000U
#00901:0N0N0N0N
#00901:00
#00901:00
#00901:00I70000
#00901:I5I5
#00901:00I600I600I60000
#00901:000000I9
#00901:00
#00901:00
#00901:00
#00901:00
#00901:00
#00901:00
#00901:00
#00901:006T006T006T0000
#00901:00
#00901:00
#00901:00
#00901:00
#00901:00000000DX000000000000E000000000
#00901:DVDV
#00901:00DW00DW00DW00E2
#00901:00
#00901:000000E1
#00911:0200020002000303
#00912:0U00000S000000000S00006C00000000
#00913:00000R006S000000000T00006D000000
#00914:6R0000006B000S006R0000J100006E00
#00915:00000000J000000R00000R0000000000
#00918:IZ00000000000000IZ00000U0000J200
#00919:6A0R6A0U
#01001:00
#01001:00
#01001:0I
#01001:000J000J000J000J
#01001:00
#01001:0N0N0N0N
#01001:00
#01001:00
#01001:00I700I8
#01001:I5I5
#01001:00I600I600I60000
#01001:00
#01001:00
#01001:00
#01001:00
#01001:00
#01001:00
#01001:00
#01001:00
#01001:006T006T006T006T
#01001:00
#01001:00
#01001:00
#01001:00
#01001:00DX00DY
#01001:DVDV
#01001:00DW00DW00DW0000
#01001:00
#01001:00
#01001:00
#01001:GR
#01011:0200020002000303
#01012:006S0I6S
#01013:6R0000006R0R000U
#01014:0000000000000R00000000000000000000000000000000000000000000000000000S000000000000000000006F000000
#01015:0000000S00000S00000000000I00006G
#01016:08
#01018:0U000000000000000R00000000000R000000000000000I00000000000000006H
#01019:J30I0S0R
#01101:00
#01101:00
#01101:0I0000000I0000000I0I000I0I000000
#01101:000J000J000J000J
#01101:0U
#01101:0N0N0N0N
#01101:00
#01101:00
#01101:00I70000
#01101:I5I5
#01101:00I600I600I60000
#01101:000000I9
#01101:00
#01101:00J4
#01101:00
#01101:00
#01101:00
#01101:00
#01101:00
#01101:006T006T006T006T
#01101:0000006V
#01101:00
#01101:00
#01101:00
#01101:00DX0000
#01101:DVDV
#01101:00DW00DW00DW0000
#01101:000000DZ
#01111:02000000020000000200000403000300
#01112:6R006S006NIW0000
#01113:0000000S00006M000000000S00000U00
#01114:00000R006L00000R00000R006U000000
#01115:0000006K00000S000S0000000000IX00
#01118:006J00006R00J500
#01119:6I0R000R
#01201:00
#01201:00
#01201:0I0000000I0000000I00000I0I000000
#01201:000J000J000J000J
#01201:00000000000000000000000U0U00000S
#01201:0N0N0N0N
#01201:00
#01201:00
#01201:00000000I700000000000000000000IG
#01201:I500000000000000I50000ID0000IF00
#01201:00I600I600I6IE00
#01201:00
#01201:00
#01201:J6
#01201:00
#01201:00
#01201:00
#01201:00
#01201:00
#01201:006T006T006T006T
#01201:00
#01201:00
#01201:00
#01201:00
#01201:00000000DX000000000000E3DY000000
#01201:DV000000DV0000E4
#01201:0000DW000000DW000000DW00000000E5
#01211:02000000020000000200000403000404
#01212:J7J8J8000R006S00
#01213:000000J900J90000JC000S0000000R00
#01214:000000000000JA0000JD0000JG000000
#01215:00000R006S0000JB0000JE0000JF0000
#01218:6R00000S00000T006R0000JF0000JG00
#01219:0U0000000R00000S00000000000000JH
#01301:00
#01301:00
#01301:00
#01301:00
#01301:00000000000S0R0S0000000000000000
#01301:00
#01301:00000000000V0000
#01301:00
#01301:000000IL
#01301:00
#01301:00II0000
#01301:IHIH
#01311:02
#01312:0U020000
#01313:IJ0R0200
#01314:E6IK0U00
#01315:6OE7IJ00
#01316:090C0D0W
#01318:006PE600
#01319:006Q
#01401:00
#01401:00
#01401:00
#01401:00
#01401:00
#01401:00
#01401:00
#01401:797A
#01401:00JS00JS00JS00JS
#01401:JJ
#01401:00JJ0000
#01401:JI
#01401:000000JL
#01401:00JK
#01401:00
#01401:00
#01401:6W
#01401:00
#01401:00
#01401:00
#01401:00
#01401:00
#01401:00
#01401:00
#01401:00HP0000
#01401:HS
#01401:000000HV
#01401:00HW
#01403:A6A8
#01411:02
#01412:0014000000140000
#01413:0000001618000000
#01414:00000000000000170019000000001600
#01415:00000000000000000000000015000017
#01416:08
#01418:00150000
#01419:13
#01501:00
#01501:00
#01501:00
#01501:00
#01501:00
#01501:00
#01501:00
#01501:7B7C
#01501:0000000000KO00KO
#01501:00JT00JT00000000
#01501:00JN
#01501:00JM00JQ
#01501:JL000000000000JL
#01501:00
#01501:00
#01501:00
#01501:006Y
#01501:6X
#01501:00
#01501:00
#01501:00
#01501:00
#01501:00
#01501:00
#01501:00HT
#01501:00HU00HU
#01501:HV000000000000HV
#01503:AA
#01513:1300000000140000
#01514:0000001618000000
#01515:00001A00000000170019000000001600
#01518:00000000150000000000000000000017
#01519:00000015
#01601:00
#01601:00
#01601:00
#01601:00
#01601:00
#01601:00
#01601:00
#01601:7D7E
#01601:00KO000000000000
#01601:000000JJ00JJ00JJ
#01601:00JO0000
#01601:JM
#01601:00
#01601:JK0000JK
#01601:00JP
#01601:00
#01601:00
#01601:6Z
#01601:00
#01601:00
#01601:00
#01601:00
#01601:00
#01601:00
#01601:00HQ0000
#01601:00
#01601:00
#01601:HW
#01601:000000HW
#01601:00HX
#01603:AC
#01611:00000000000000000000000015000017
#01612:00001400000000170019000000001600
#01613:0000001618000000
#01614:1300000000140000
#01615:00150000
#01701:00
#01701:00
#01701:00
#01701:00
#01701:00
#01701:00
#01701:00
#01701:7F7G
#01701:00JO00JO00000000
#01701:0000000000JU0000
#01701:00
#01701:000000JM0000JQ00
#01701:0000JL00JL0000JR
#01701:JK
#01701:00
#01701:00
#01701:70
#01701:0071
#01701:00
#01701:00
#01701:00
#01701:00
#01701:00
#01701:00
#01701:00
#01701:00
#01701:000000HU00000000
#01701:00HVHV00
#01701:HW
#01703:AE
#01712:001A000000000000
#01713:1300000000HR0016
#01714:000000000000000000001400HU000017
#01715:00000016180015HV
#01718:00000000000000170019000000000000
#01719:00150000
#01801:00
#01801:00
#01801:00
#01801:00
#01801:00
#01801:00
#01801:00
#01801:7H
#01801:00KI
#01801:0000000000K00000
#01801:000000K1
#01801:KH000000000000K2
#01801:00
#01801:00
#01801:00
#01801:00
#01801:72
#01803:ACAA
#01811:00150000
#01812:13000000000000000000HP0015000017
#01813:000014000000001700190000HT001600
#01814:00000016180000HU
#01815:00000000000000JZ0000140000000000
#01818:HW0000JYJY000000
#01819:JV0000JWJX0000000000000000000000
#01901:00
#01901:00
#01901:00
#01901:00
#01901:00
#01901:00
#01901:00
#01901:7I
#01901:000000KK
#01901:00
#01901:0000000000K00000
#01901:0000KJK1
#01901:00
#01901:00000000000000K2
#01901:00
#01901:00
#01901:00
#01901:73
#01903:A8A7
#01911:001A000000HP0000
#01912:00000000000000K600000000HT000000
#01913:000000JZJZ0000HU
#01914:13000015
#01915:HV000000000000170019000000001600
#01918:K30000K4K50016001800000000000017
#01919:0000150000140000
#02001:00
#02001:00
#02001:00
#02001:00
#02001:0U00000000000R00000S00000R000S000R000S00000R00000000000S00000000000000000S0000000000000000000000
#02001:00
#02001:00
#02001:00
#02001:00
#02001:HYHY
#02001:00
#02001:00K80000
#02001:K7
#02001:000000KA
#02001:00K9
#02003:ACAD
#02011:0200000002140000
#02012:00000000HR001600180000001500000R
#02013:HS0000007500001700190000HW000000
#02014:74140000HX007700
#02015:130000001500000076000T00000T0000
#02016:0A0B
#02018:000000007K000000000000007M000017
#02019:7J000000000000007L00000R00001600
#02101:00
#02101:00
#02101:00
#02101:00
#02101:0000000R0T000R0S0000000000000000
#02101:00
#02101:00
#02101:00
#02101:I1I10000
#02101:00
#02101:00
#02101:00
#02101:00
#02101:00
#02101:00
#02101:00
#02101:00
#02101:00
#02101:78
#02101:00000000005Q0000
#02101:7N
#02101:00
#02101:00
#02101:EDEDEE00
#02101:00
#02101:00
#02101:00
#02101:00
#02101:HW
#02101:0000000000000000TY0000U000U200U4
#02103:00AC
#02111:0200020003TZ0000
#02112:000000KEKG00U100
#02113:KB0000KCKD0000KF0000KL000000U300
#02114:HZ0S0000I200KM00
#02115:E80000E9EA0000EC00005L000000KN00
#02116:0C0C5K00
#02118:000000EBEB005M00
#02119:0U00HZ00I000005N
#02201:000Q000Q
#02201:00
#02201:0I0I00000I0I00000I0I00000I0I0000
#02201:0000000J00000000
#02201:00
#02201:00
#02201:1B001C001D001E1F1G1H1C001D001E1F
#02201:00000607000006070000060700000607
#02201:00
#02201:00
#02201:00004Z00005100000000540000000000
#02201:00000055
#02201:00000000000000530000000000005600
#02201:0000005252000000
#02201:4Y00005P500000000000000000000000
#02201:00
#02201:00
#02201:00
#02201:00
#02201:00
#02201:00
#02201:00
#02201:00
#02201:00
#02201:00
#02201:00
#02201:00
#02201:00
#02201:00
#02201:00
#02201:00
#02201:ZO
#02211:01010101
#02212:00000J00000000YO000000EG00000J00
#02213:EI00EIYNYPELEI00
#02214:00EL00EL00EL000000EI000000EL00EL
#02215:0000EQ00000000EN0000ZD000000EQ00
#02216:08
#02218:000000EOEO00ZE00
#02219:YK0000YLYM00000000000J000000ZF00
#02301:000Q000Q
#02301:00
#02301:0I000I00000000000I000I00000000000K0L0M0I000000000I0000000I000000
#02301:0000000J00000000
#02301:00
#02301:00
#02301:1B001I001D001E1F1G1H1C001D001E1F
#02301:00000607000006070000060700000607
#02301:00
#02301:0058000000000000
#02301:00000000005C0000
#02301:000000000000005B000000005D000000
#02301:0000005A53000057
#02301:57000059570000000000000000000000
#02311:01010101
#02312:EF000J0000EF00YU0000ZG00000J000J
#02313:00EH00000000EH00YV000000ZH000000
#02314:0000EJ00EJ0000EJ00EJ0000EI00ZI00
#02315:000000EN0000YT00EN00EG0000EM0000
#02318:YQ0000YRYS000000000000EK0000EN00
#02319:000000000000000000000J00000000EQ
#02401:00
#02401:00
#02401:0I0I00000I0I00000I0I00000I0I0000
#02401:00
#02401:00
#02401:00
#02401:1B001C001D001E1F1G1H1C001D001E1F
#02401:00000607000006070000060700000607
#02401:00
#02401:0000005F00005H0000005H0000000000
#02401:0000000000000000000000000000004Z
#02411:01010101
#02412:0000YX00EJ0J5EZ0
#02413:YW0000005G00EL0000EO000000EO00Z1
#02414:EI000J0000EM00EM0000EQ00YZ000000
#02415:00EK0000EO000J00000000ER00000J00
#02418:5E00EO000Q0000005I000000ES0000ES
#02419:000000ER00000000YY0000000Q00EV00
#02501:0000000Q
#02501:00
#02501:0I000I00000000000I000I00000000000K0L0M0I000000000I0000000I000000
#02501:000000000000000000000J00000J000J
#02501:00
#02501:00
#02501:1B001I001D001E1F1G1H1C001D001E1F
#02501:00000607000006070000060700000607
#02501:00
#02501:00
#02501:00000000005J0000
#02501:005O000000005D00
#02501:0000005600000057
#02501:00575200
#02501:00000050000000000000000000000000
#02501:00
#02501:00
#02501:00
#02501:000000000000000000Z6000000000000
#02501:00000000000000000000000000ZA00ZC
#02501:0000000000000000000000Z800000000
#02511:01010101
#02512:00000J000Q0000EQ0000ZJ000000ZB00
#02513:00EQ00000000EM0000ES0000ZK000000
#02514:Z200ER0000ER0000ER0000EU0000ZL00
#02515:4Y0000ES00000J000000ET0000ES0000
#02518:00000000ET00Z4000000Z700EW0000ET
#02519:EM00Z300Z500Z9EU
#02601:000Q0000
#02601:00
#02601:0I0I00000I0I00000I0I00000I0I0000
#02601:000J000J000J000J
#02601:00
#02601:00
#02601:1B001C001D001E1F1G1H1C001D001E1F
#02601:00000607000006070000060700000607
#02601:00
#02601:00
#02601:0000000000EL00000000540000000000
#02601:00000000005100000000000055000000
#02601:0000000000000056
#02611:01010101
#02612:000000EY000052005200ZD0000EI0000
#02613:00000000EI0000EQ00000000ZE00EL00
#02614:EX4Z00EOEZ00EP00
#02615:4Y00000000000000005P0000500000000000000000YO0000000000000000F0000000EQ00000000000000000000EP0000
#02616:08
#02618:000000000000000000YN0000YP000000ER00000000ZF0000
#02619:YK0000YLYM000053000000000Q000000
#02701:000Q000Q
#02701:00
#02701:0I000I00000000000I000I00000000000K0L0M0I000000000I000I0000000000
#02701:000J000J000J0000
#02701:00
#02701:00
#02701:1B001I001D001E1F1G1H1C001D001E1F
#02701:00000607000006070000060700000607
#02711:0100010001000103
#02712:EH0000EH0000YT00YV00540000000000
#02713:00F10000F20000YU0000F40055000000
#02714:57000059570000EP00000000F5000J00
#02715:005800ELF3ZD0056
#02718:YQ0000YRYS00005B00000000ZE000000
#02719:0000005A530000ZF
#02801:00
#02801:00
#02801:00
#02801:00
#02801:00
#02801:0N0N0N0N
#02801:00
#02801:00000007000000070000000700000007
#02801:00
#02801:00
#02801:00L80000
#02801:L70000LA
#02801:00
#02801:00L9
#02801:00
#02801:00
#02801:0000007R
#02801:007P0000
#02801:7O7Q
#02801:00
#02801:00
#02801:00
#02801:00
#02801:00
#02801:00
#02801:00
#02801:00
#02801:00
#02801:00
#02801:HSHRHXHW
#02811:00010000
#02812:01068D0000000106
#02813:8C000I0601068F00
#02814:0I0JF7008E000I0J
#02815:F600KQ0J0I0JF900
#02816:08
#02818:KP00F8KS
#02819:00KR
#02901:00000001
#02901:00
#02901:000I000I
#02901:00000000000J000J
#02901:00
#02901:0N0N0N0N
#02901:00
#02901:00000007000000000000060700000607
#02901:00
#02901:00LC0000
#02901:00LD
#02901:00
#02901:LB
#02901:00
#02901:00
#02901:00
#02901:007T0000
#02901:7S7U
#02901:00
#02901:00
#02901:008H
#02901:00
#02901:00
#02901:00
#02901:00
#02901:00
#02901:00
#02901:00
#02901:00
#02901:HWHV
#02911:0106000601LELF00
#02912:8G0000000100000700000000KX00LG00
#02913:0I0J000J0IKW00KY
#02914:FA000000000000KV000000007V000000
#02915:KT0000KUKU8I007W
#02918:00000000000000FC000000008J000000
#02919:000000FBFD00008K
#03001:00
#03001:00
#03001:00
#03001:00
#03001:00
#03001:00
#03001:00003131000031310034353100363136
#03001:00
#03001:00
#03001:00
#03001:00
#03001:00
#03001:00
#03001:00
#03001:00
#03001:KZ
#03001:00
#03001:00
#03001:00
#03001:00
#03001:00
#03001:00
#03001:8L
#03001:00
#03001:00
#03001:00
#03001:00
#03001:00
#03001:00
#03001:00
#03001:00
#03001:008M0000
#03011:7X020002
#03012:000N
#03013:0235020N
#03014:0N0N0080
#03015:LH7YLJ36
#03016:08
#03018:00LI31LK
#03019:357Z
#03101:00
#03101:00
#03101:00
#03101:00
#03101:00
#03101:00
#03101:00003030003236000000303000000000
#03111:00000000820000003700000000003733
#03112:0NLM0N84
#03113:020N0002
#03114:LL00020N
#03115:00310036
#03116:000E
#03118:370283LO
#03119:81LN
#03201:00
#03201:00
#03201:00
#03201:00
#03201:00
#03201:0N0N0N0N
#03201:37333633
#03201:00070607000706070007060700070607
#03201:00
#03201:00LQ0000
#03201:LP
#03201:00LR
#03201:000000LS
#03211:02020202
#03212:000000008600000I00000I0000000000
#03213:85000000L10000008700000I00000000
#03214:L08OL288
#03215:8NFF8PL3
#03218:FE000I0000000000FG0000008Q00000I
#03219:0000000I00000I0000000000FH000I00
#03301:00
#03301:00
#03301:000000000000000000000000000000000I000I000M0M0I000M0M0I000I000I00
#03301:00
#03301:0000000000000000000000001J001K1L
#03301:0N0N0N00
#03301:31323600370031003700000000000000
#03301:00070607000706070000000000000000
#03301:00
#03301:00000000000000M0
#03301:000000LY
#03301:LT00LT00000000000000LW00000000M1
#03301:00000000LU00LU000000000000LZ0000
#03301:0000000000000000LV0000LX00000000
#03311:89000I000000000I0000000000000000
#03312:L40000008A000I000000040000000004
#03313:02000000L50000008B00000400000400
#03314:8R00000002000000L600FL0005040000
#03315:FI000000000000008S00000000000000030000000000FL00000500000000FN00
#03318:0000FJ008T00FMFN
#03319:0000000I00000000FK00000000FM0000
#03401:00
#03401:00
#03401:00
#03401:00
#03401:1M001N001O001P001Q001R001S1T1U1V
#03401:00
#03401:00
#03401:00
#03401:00
#03401:00
#03401:00
#03401:00
#03401:00
#03401:00
#03401:00
#03401:00WK000000000000
#03401:000000WM00000000
#03401:00UH000000WO0000
#03401:000000UJ000000WQ
#03401:0000000000UL0000
#03401:00000000000000UN
#03401:00
#03401:00
#03401:00
#03401:00
#03401:00
#03401:00
#03401:00
#03401:00
#03401:00
#03401:00
#03401:ZP
#03411:02020202
#03412:003D0000UI000000UK0000003K000000
#03413:3B00003H00000J00WN003Q00WP003R00
#03414:WJ003E00003M00003Y000J00003O0000
#03415:000000003I00003U0000003M0000003W
#03418:UG000J00WL003R00003T0000UM000J00
#03419:0F0F0F0F
#03501:00
#03501:00
#03501:00
#03501:00
#03501:1W001X1Y1Z0020212223240025252525
#03501:00
#03501:00
#03501:00
#03501:00
#03501:00
#03501:00
#03501:00
#03501:00
#03501:00
#03501:00
#03501:00VV
#03501:000000000000WU0000VW000000000000
#03501:00WS000000VX0000
#03501:000000000000UR00000000VY00000000
#03501:00UP000000WW0000
#03501:00
#03501:00US
#03511:020002000200FSW1
#03512:3J000000WT000000WV003S0000FT00W2
#03513:003O00003K000J00003V00003M00FU00
#03514:UO003R00003O00004000003O003Q00FV
#03515:0000003V00003T00FO0000FR00003T00
#03518:WR000J00UQ00003W00FP0000VZ00003Y
#03519:0F0000000F0000000F00FQ0000W00000
#03601:00
#03601:00
#03601:00
#03601:00
#03601:26272727282929292A2B2B2B2C2D2D2D
#03601:00
#03601:00
#03601:00
#03601:00
#03601:00
#03601:00
#03601:00
#03601:00
#03601:00
#03601:00
#03601:00
#03601:000000000000X3X4
#03601:0000WZX000000000
#03601:00000000X1X200V0
#03601:WXWY00UW00000000
#03601:0000000000UY0000
#03601:00UU000000000000
#03611:02020202
#03612:00003K003M0J0000
#03613:3N000J000000003S003R00003H000J00
#03614:003R0000003P00000000003V003M0000
#03615:UT00003U00003W00UX003Y000000003P
#03616:GSGTGUGV
#03618:003ZUV0J0000UZ3T
#03619:0F0F0F0F
#03701:00
#03701:00
#03701:00
#03701:00
#03701:2E002F002G002H002I002J2J1J001K1L
#03701:00
#03701:00
#03701:0E
#03701:00
#03701:00
#03701:00
#03701:00
#03701:00
#03701:00
#03701:00
#03701:0000X7X800000000
#03701:00
#03701:X5X600V400000000
#03701:00
#03701:00V20000X9000000
#03701:00
#03701:00V5
#03701:00
#03701:00
#03701:00
#03701:00FW
#03701:000000000000000000FX000000000000
#03701:0000000000FY0000
#03701:0000000000000000000000FZ00000000
#03711:02000000020000000200000000G10000
#03712:3J00000000000J00W3000000G000003F
#03713:003O00003P000000003Y003Q00003K00
#03714:V1003R00003T000000003V00003O00WA
#03715:0000003V00003W004200W5003R00W900
#03716:GWGXGY00
#03718:00000J00V300004100W400W600W800G3
#03719:0F000F000F00W7G2
#03801:00
#03801:00
#03801:00
#03801:00
#03801:1M001N001O001P001Q001R001S1T1U1V
#03801:00
#03801:00
#03801:00
#03801:00
#03801:00
#03801:00
#03801:00
#03801:00
#03801:00
#03801:00
#03801:WJWK000000000000
#03801:000000WM00000000
#03801:00UH000000WO0000
#03801:000000UJ000000WQ
#03801:0000000000UL0000
#03801:00000000000000UN
#03811:02020202
#03812:000000003I000000WN000J00WP00003W
#03813:3B000J00UI003R00UK00003M003O0000
#03814:00003E00003M0000003T000000003R00
#03815:UG000000WL00003U00003Q003K000J00
#03818:003D003H00000J003Y000000UM000000
#03819:0F0F0F0F
#03901:00
#03901:00
#03901:00
#03901:00
#03901:1W001X1Y1Z0020212223240025252525
#03901:00
#03901:00
#03901:00
#03901:00
#03901:00
#03901:00
#03901:00
#03901:00
#03901:00
#03901:00
#03901:00VV
#03901:000000WU00000000
#03901:00WS000000000000
#03901:000000UR00000000
#03901:00UP000000WW0000
#03901:00
#03901:00
#03901:00
#03901:00FO
#03901:000000000000000000FP000000000000
#03901:0000000000FQ0000
#03901:0000000000000000000000FR00000000
#03911:02000200020000FU
#03912:000000003K000000US0000003M0000FV
#03913:3J000J00003O000000VW003O003Q0000
#03914:003O0000UQ003T00WV003S00VZ003T00
#03915:UO003R00WT00003W003V000000W0003Y
#03918:WR00003V00000J004000VX00FS00W100
#03919:0F0000000F0000000F0000VY00FT00W2
#04001:00
#04001:00
#04001:00
#04001:00
#04001:26272727282929292A2B2B2B2C2D2D2D
#04001:00
#04001:00
#04001:00
#04001:00
#04001:00
#04001:00
#04001:00
#04001:00
#04001:00
#04001:00
#04001:00
#04001:000000000000X3X4
#04001:0000WZX000000000
#04001:00000000X1X200V0
#04001:WXWY00UW00000000
#04001:0000000000UY0000
#04001:00UU000000000000
#04011:02020202
#04012:000J000J00003H00
#04013:0F0000003K0000003M000J00003M0000
#04014:3N000000003P0000003R0000UZ000J00
#04015:003R00000F00003S000000000F00003P
#04016:GSGTGUGV
#04018:UT00003U00003W00UX00003V00003T00
#04019:003ZUV000F3Y0000
#04101:00
#04101:00
#04101:00
#04101:00
#04101:2E002F002G002H002I002J2J1J001K1L
#04101:00
#04101:00000000000000003536003637003600
#04101:0E
#04101:00
#04101:00
#04101:00
#04101:00
#04101:00
#04101:00
#04101:00
#04101:0000X7X800000000
#04101:00
#04101:X5X600V400000000
#04101:00
#04101:00V20000X9000000
#04101:00
#04101:00V5
#04101:00
#04101:00
#04101:00
#04101:00FW
#04101:000000000000000000FX000000000000
#04101:0000000000FY0000
#04101:0000000000000000000000FZ00000000
#04111:02000000020000000200003Q00G1003F
#04112:3J00000J0F00G03K
#04113:003O00003P000000W300W500003O00WA
#04114:0F003R00003T000000W400003R00W900
#04115:0000003V00003W0000003V0000W80000
#04116:GWGXGY00
#04118:000000000F000041003Y0000W70000G3
#04119:V1000J00V3000000420000W60000G200
#04201:00
#04201:00
#04201:00
#04201:00
#04201:1M001N001O001P001Q001R001S1T1U1V
#04201:0N0N0N0N
#04201:37000000000000000000000000003435
#04201:00
#04201:00
#04201:00
#04201:00
#04201:00
#04201:00
#04201:00
#04201:00
#04201:00
#04201:XAXB000000000000
#04201:000000XD00000000
#04201:00V7000000XF0000
#04201:000000V9000000XH
#04201:0000000000VB0000
#04201:00000000000000VD
#04211:003LXE3N
#04212:02003G00003P000041000J000F000000
#04213:003E000002003U000000003P003R0000
#04214:V600003K00000J000F00000002000J00
#04215:3C0JV800023T003U
#04218:000000000F00003X003W0000VC000000
#04219:0F000000XC000000VA000000XG00003Z
#04301:00
#04301:00
#04301:00
#04301:000J000J00000000
#04301:1W001X1Y1Z0020212223240025252525
#04301:0N0000000N0000000N0000000P0P0P0P
#04301:36000000000034353600000034343535
#04301:00
#04301:00
#04301:00
#04301:00
#04301:00
#04301:00
#04301:00
#04301:00
#04301:00WB
#04301:00
#04301:000000XL00000000
#04301:0000XJ0000000000000000WE00000000
#04301:000000VH00XN0000
#04301:00VF000000000000
#04301:00
#04301:00
#04301:00G4
#04301:000000000000000000G5000000000000
#04301:00000000000000000000G60000G90000
#04301:0000000000000000000000G700000000
#04301:000000000000000000000000000000GB
#04311:3M000F0002000404
#04312:XI0000000200000000WC0000WF00WH00
#04313:02000000003R0000VI00WD0000040004
#04314:003R0000VG003W00XM00003R00WG00WI
#04315:VE003U00XK0000000F003V00003T0041
#04318:0F00003Y0000003Z003Y0000G800GA00
#04319:00003N0043003P3W
#04401:00
#04401:00
#04401:00
#04401:00
#04401:26272727282929292A2B2B2B2C2D2D2D
#04401:0N0N0N0N
#04401:36353535
#04401:00
#04401:00
#04401:00
#04401:00
#04401:00
#04401:00
#04401:00
#04401:00
#04401:00
#04401:000000000000XUXV
#04401:0000XQXR00000000
#04401:00000000XSXT00VQ
#04401:XOXP00VM00000000
#04401:0000000000VO0000
#04401:00VK000000000000
#04411:0F003N000F0J0000
#04412:3Q0000000F0000003P0000000F00003S
#04413:003U0000003S0000003U0000VP003W00
#04414:00000J00VL00003V0000000002000000
#04415:0000000002003Z00VN00003Y00000J00
#04416:GZH0H1H2
#04418:VJ00003X00000000020041003K000000
#04419:0200420000000J0000000000003P0000
#04501:00
#04501:00
#04501:00
#04501:00
#04501:2E002F002G002H002K2L2K2L2M002N2N
#04501:0N0000000N0000000P0P0P0P0P000P0P
#04501:35350000
#04501:0E
#04501:00
#04501:0000000000000000000000003P00003H
#04501:000000000000003M
#04501:00000000000000000000003T00000000
#04501:00000000003Y0000
#04501:00000000000000000041000000000000
#04501:0045
#04501:00
#04501:00
#04501:XW00XX0000000000Y0Y1Y2Y3Y400Y5Y6
#04501:0000XYXZ00000000
#04501:0000VS00000000005R5R5R5R5R005R5R
#04501:000000VU00000000
#04511:0F
#04512:003R00000F0000000404040404000404
#04513:3M3U3S0J00000000
#04514:VR00003Y003W0000GDGDGDGDGC00GDGD
#04515:0200VT3Z00000000
#04516:H3H40000
#04518:00000J00020000000H0H0H0H0H000H0H
#04519:00000000000000440000000000000000
#04601:00
#04601:00
#04601:00
#04601:00
#04601:1M001N001O001P001Q001R001S1T1U1V
#04601:0N0N0N0N
#04601:36000000000000000000000000003435
#04601:00
#04601:00
#04601:00
#04601:00
#04601:00
#04601:00
#04601:00
#04601:00
#04601:00
#04601:XAXB000000000000
#04601:000000XD00000000
#04601:00V7000000XF0000
#04601:000000V9000000XH
#04601:0000000000VB0000
#04601:00000000000000VD
#04611:023LXE3N
#04612:00000J00020000004100003P003R0000
#04613:3C000000003P000002003T00XG003U00
#04614:003E0000V8000J00003W00000200003Z
#04615:V63G0F000F0J0000
#04618:0000003K00003U00VA0000000F000J00
#04619:0F000000XC00003X00000000VC000000
#04701:00
#04701:00
#04701:00
#04701:00
#04701:1W001X1Y1Z002021000000000000002N
#04701:0N0000000N0000000P0P000P0P000O00
#04701:36000000343434340000000000000000
#04701:00
#04701:00
#04701:00
#04701:0000003P
#04701:00000000000000000000003R003T0000
#04701:00000000003V003W
#04701:0000000000000000003Y000000000041
#04701:0043
#04701:00WB
#04701:000000000000000000WC0000WF000000
#04701:000000000000XL000000WD0000WG0000
#04701:0000XJ0000000000000000WE0000WH00
#04701:000000000000VH00XM00XN00000000WI
#04701:00VF000000000000
#04701:00VI
#04701:00
#04701:00G4
#04701:000000000000000000G50000G8000000
#04701:00000000000000000000G60000G90000
#04701:0000000000000000000000G70000GA00
#04701:000000000000000000000000000000GB
#04711:3M00020J00000004
#04712:02000J000F00003Z0000000404003600
#04713:0F000000000000000404003636000000
#04714:003R0000VG0000003536000000002N00
#04715:VE003U003N0000000000002N2M000H00
#04718:XI00003Y003R00002N2M000H0H000000
#04719:00000000XK003W000H0H000000000000
#04801:00
#04801:00
#04801:00
#04801:00
#04801:26272727282929292A2B2B2B2C2D2D2D
#04801:0N0N0N0N
#04801:36363636
#04801:00
#04801:00
#04801:00
#04801:00
#04801:00
#04801:00
#04801:00
#04801:00
#04801:00
#04801:000000000000YDYE
#04801:0000Y9YA00000000
#04801:00000000YBYC00VQ
#04801:Y7Y800VM00000000
#04801:0000000000VO0000
#04801:00VK000000000000
#04811:0303030303030303
#04812:000J000J00003K00
#04813:003N3PVP
#04814:3Q000000003S0000VN00003Y003P0000
#04815:003U00000F00003V003U00000F00003S
#04816:GZH0H1H5
#04818:0F00003X00003Z000000410000000J00
#04819:VJ42VL000F0J003W
#04901:000I
#04901:00
#04901:00000000000V0000
#04901:00
#04901:2E002F002G002H002I002J2J00000000
#04901:0N0N0N00
#04901:36000000360000003600343435353535
#04901:0E
#04901:00
#04901:00
#04901:00
#04901:00
#04901:00
#04901:00
#04901:00
#04901:00
#04901:00
#04901:YFYG000000000000
#04901:0000YHYI00000000
#04901:00VS0000YJ000000
#04901:000000VU00000000
#04911:030303033P000000
#04912:3M000J0000000J00000000000000003K
#04913:003R00003N000000003U000000003R00
#04914:0F003U00003S000000000000003K0000
#04915:0000003Y00003W0000003Y0000000000
#04916:H6H7000W
#04918:VR0000000F00003Z000000003S000000
#04919:00000000VT0000000200004100000000
#05001:00
#05001:00
#05001:00
#05001:00
#05001:00
#05001:00
#05001:00
#05001:00SI00SL00000000
#05001:SH0000SJ00000000000000SN0000SP00
#05001:00
#05001:00
#05001:00
#05001:000000SO
#05001:00SKSM00
#05001:00HL00HL00HL00HL
#05001:00
#05001:00
#05001:00
#05001:98
#05001:00
#05001:00
#05001:8U
#05001:008V
#05001:00
#05001:00
#05001:00
#05001:00
#05001:00
#05001:00
#05001:00
#05001:00
#05001:ZQ
#05003:A8
#05011:HP
#05016:3A
#05018:000000HU
#05019:00HVHV00
#05101:00
#05101:00
#05101:00
#05101:00
#05101:00
#05101:00
#05101:00
#05101:00
#05101:00
#05101:00SR000000000000
#05101:000000ST00000000
#05101:00SSSU00
#05101:SQ
#05101:00
#05101:00HM000000000000
#05101:00
#05101:00
#05101:00
#05101:00
#05101:00
#05101:8W
#05101:008X
#05103:AA
#05114:000000HR00000000
#05115:00HSHS00
#05118:HU
#05201:00
#05201:00
#05201:00
#05201:00
#05201:00
#05201:00
#05201:00
#05201:00SW00SZ00000000
#05201:0000000000000000000000T10000T300
#05201:SV0000SX000000000000000000000000
#05201:00
#05201:00
#05201:00SYT0T2
#05201:00
#05201:00HJ00HM00HN00HN
#05201:00
#05201:00
#05201:99
#05201:00
#05201:8Y
#05201:008Z
#05203:AC
#05211:HM
#05214:000000HR
#05215:00HSHS00
#05301:00
#05301:00
#05301:00
#05301:00
#05301:00
#05301:00
#05301:00
#05301:00
#05301:000000T900000000
#05301:00TA
#05301:00T5T80000000000
#05301:T400000000T7000000000000000000000000000000000000
#05301:00T600000000
#05301:00
#05301:00HM000000000000
#05301:00
#05301:00
#05301:00
#05301:009B
#05301:9A
#05301:00
#05301:0091
#05301:90
#05301:00
#05301:00MG
#05301:00000000000000000000000000MH00000000MM0000000000
#05301:0000000000000000000000000000MI00000000MN00000000
#05301:000000000000000000000000000000MJ00000000MO000000
#05301:00000000000000000000000000000000MK00000000MP0000
#05301:0000000000000000000000000000000000ML00000000MQ00
#05301:0000000000000000000000000000000000000000000000MR
#05303:AE
#05312:000000HO00000000
#05313:00HPHP00
#05314:HR
#05401:00
#05401:00
#05401:00
#05401:00
#05401:00
#05401:36000031310031003700003131003500
#05401:00
#05401:00
#05401:00
#05401:00
#05401:00
#05401:00
#05401:00
#05401:00
#05401:00HL00HL00HL00HL
#05401:00
#05401:00
#05401:9C9D
#05401:00
#05401:00
#05401:00
#05401:00
#05401:00
#05401:00
#05401:MSMS
#05401:00MV000000000000000000MW00MT000000000000000000MT
#05401:00MX000000MX00MW000000MW
#05401:000000MZ00000000MZ000000000000MZ00000000MY000000
#05401:00000000N300000000N0000000000000N100000000MZ0000
#05401:0000000000N500N3000000000000000000N500N100000000
#05401:00N700N6
#05403:AC
#05411:0202
#05412:0000TC0000000000000000TH0000TJ00
#05413:HP0000TF00000000
#05414:TB0000TD00000000HV00000000000000
#05415:M200M3TI
#05416:0A0B
#05418:92TETGHU
#05419:00HV9300
#05501:00
#05501:00
#05501:00
#05501:00
#05501:00
#05501:37000031310031003700000035003500
#05501:000E
#05501:00
#05501:00
#05501:00
#05501:00
#05501:00
#05501:00
#05501:00
#05501:00HM000000000000
#05501:00
#05501:00
#05501:9E9C
#05501:00
#05501:00
#05501:00
#05501:00
#05501:00
#05501:00
#05501:MS00MSM6
#05501:00MU000000000000000000MW00MV00000000000000MV0000
#05501:00MW000000MX00MX000000MX
#05501:000000MX0000000000MZ0000000000MZ00000000MZ0000MZ
#05501:00000000MZ000000N200000000000000N30000N500000000
#05501:0000000000N200N4000000000000000000N4000000000000
#05501:00N500N7
#05511:0202
#05512:00TL0000HS00TP00
#05513:M40000TN0000HO00
#05514:TK00TMHRM2000000
#05515:94HSTO00
#05516:0A0A
#05518:HU92
#05601:00
#05601:00
#05601:00
#05601:00
#05601:0U000000000000000000000000000S000R000000000000000000000S00000000000R0000000000000000000000000000
#05601:37003839380039380039380039383700
#05601:00
#05601:00
#05601:00
#05601:00
#05601:00
#05601:00
#05601:00
#05601:00
#05601:00
#05601:00
#05601:00
#05601:9F9C
#05601:00
#05601:00
#05601:00
#05601:00
#05601:00
#05601:00
#05601:00000000MS00000000000000N500000000N5000000000000
#05601:0000000000MV0000000000000000000000000000000000N2
#05601:000000000000MX00000000N80000N800000000000000N300
#05601:00000000000000MZ0000000000000000N900000000N40000
#05601:M700000000000000N300000000NA000000000000N5000000
#05601:000000000000000000N50000000000NB000000N600000000
#05601:0000000000N7000000N70000
#05611:0202
#05612:TQ000000000000000000TR00000T0000
#05613:M50000000000000000000000TS00000R
#05614:9500000S0000000R0000HR000000TT00
#05615:HP00M2HS
#05616:0A0B
#05618:000R0R0S000T00HU
#05619:0000920S
#05701:00
#05701:00
#05701:000000000000000I0I0000000I0I0I00
#05701:00
#05701:0U00000R00000R0S0U00000000000000
#05701:37003500360036003600003536353635
#05701:00
#05701:00
#05701:00
#05701:00
#05701:00
#05701:TU
#05701:00
#05701:00
#05701:HS
#05701:00
#05701:00
#05701:9G9H
#05701:00
#05701:00
#05701:00
#05701:00
#05701:00
#05701:00
#05701:00
#05701:00
#05701:00000000000000000000000000MF0000
#05701:00000000000000MCMD00000000000000
#05701:M8000000M9000000M9000000MA0000MB0000000000000000000000000000000000000000000000000000000000000000
#05703:00A8
#05711:0200020003040000
#05712:M200000I00000I00M400000400000004
#05713:00000000000000TW00000I0004000400
#05714:000I00000I00TV00TX00000I0004000I
#05715:00000000000000HP00003600ME00ME00
#05716:0A0A
#05718:0I000S000T00HR00HR0000MF000000MF
#05719:9600000097ME0000
#05801:00
#05801:00
#05801:00
#05801:00
#05801:000Q000Q
#05801:00
#05801:1B001C001D001E1F1G1H1C001D001E1F
#05801:3A
#05801:00
#05801:000000000000004C
#05801:00
#05801:00
#05801:00
#05801:00
#05801:00
#05801:00
#05801:AP
#05801:00
#05801:00
#05801:00
#05801:00
#05801:00
#05801:00
#05801:00
#05801:00
#05801:00
#05801:00
#05801:00
#05801:00
#05801:00
#05801:HPHLHVHLHVHLHUHL
#05801:ZR
#05803:AC
#05811:01010101
#05812:0047004700000I00
#05813:0I000048000I0000000I0000000I0000
#05814:000I0000490000000I00004800000J00
#05815:460J000J000J4B9M
#05816:08
#05818:000000000I0000004A0000009L00009N
#05819:9I9J9K00
#05901:00
#05901:00
#05901:00000000000000000000000000000000000L000I000000000000000000000000
#05901:00
#05901:000Q000Q
#05901:00
#05901:1B001I001D001E1F1G1H1C001D001E1F
#05901:00
#05901:00
#05901:00
#05901:00
#05901:00
#05901:00
#05901:00
#05901:00
#05901:00
#05901:00AR
#05901:AQ
#05901:00
#05901:00
#05901:00
#05901:00
#05901:0000000000000000NCNDNENFNGNHNINJ
#05901:00
#05901:00
#05901:00
#05901:00
#05901:00
#05901:00
#05901:00
#05901:HUHMHSHRHS000000
#05911:01000000010000000100000403000300
#05912:00004D0000004X0000AS000000000000
#05913:0I004E004GATAV00
#05914:000I000000009Q00000000AU00AW0000
#05915:4B009P009R000IAX
#05918:00000J00000I0000000M0000000I00AY
#05919:9O000I0J0K0J000J
#06001:00
#06001:00
#06001:00
#06001:00
#06001:000Q000Q
#06001:00
#06001:1B001C001D001E1F1G1H1C001D001E1F
#06001:00
#06001:00
#06001:00
#06001:00
#06001:00
#06001:00
#06001:00
#06001:00
#06001:00
#06001:B1
#06001:00
#06001:00
#06001:00
#06001:00
#06001:00
#06001:00
#06001:00
#06001:00
#06001:00
#06001:00
#06001:00
#06001:00
#06001:00
#06001:HMHJHSHMHSHNHRHN
#06011:01010101
#06012:000I000000004H0000000J0000004M00
#06013:9S004H000I000000000I004K000I0000
#06014:00000J00000I00000I0000000I009W00
#06015:4D00004I00000J00000000004L00009X
#06018:004E4J9V
#06019:0I009T009U00000J
#06101:00
#06101:00
#06101:00000000000000000000000000000000000L000I000000000000000000000000
#06101:00
#06101:000Q000Q
#06101:00
#06101:1B001I001D001E1F1G1H1C001D001E1F
#06101:00
#06101:00
#06101:00
#06101:00
#06101:00
#06101:00
#06101:00
#06101:00AT
#06101:00
#06101:00
#06101:B2
#06101:00
#06101:00
#06101:00
#06101:00
#06101:00NE
#06101:000000000000000000NF000000000000
#06101:0000000000NGNI00
#06101:0000000000000000000000NH00NJ0000
#06101:00000000000000NK
#06101:000000000000000000000000000000NL
#06101:00
#06101:00
#06101:HRHMHPHOHP000000
#06111:01000000010000000100000403000300
#06112:000I00000000A000000M0000AX000000
#06113:4L000J009Z004N0000000J0000AY0000
#06114:0I0046004P0000AZ
#06115:0000000000004N0000004F000000000000000J0000000000000000AU00000000000000000I0000000000000000B00000
#06116:000E
#06118:9Y000000000000004O0000000000000I0000000000000000A10000000000AV00000000000000000000000I0000000000
#06119:000000000I0000000K0000AW000J000J
#06201:00
#06201:00
#06201:00
#06201:00
#06201:000Q000Q
#06201:00
#06201:1B001C001D001E1F1G1H1C001D001E1F
#06201:00
#06201:00
#06201:00
#06201:00
#06201:00
#06201:00
#06201:00
#06201:00
#06201:00
#06201:00B3
#06201:00
#06201:00
#06201:00
#06201:00
#06201:00
#06201:00
#06201:00
#06201:00
#06201:00
#06201:00
#06201:00
#06201:00
#06201:00
#06201:HPHLHVHLHVHLHUHL
#06211:01010101
#06212:00470047000J009M
#06213:460000000I000000000I0000000I009N
#06214:9I000048000I00000I0000009L000J00
#06215:000I000000000J00000000004B000000
#06216:08
#06218:0I0000009J0000009K00004800004C00
#06219:000J49004A000I00
#06301:00
#06301:00
#06301:00000000000000000000000000000000000L000I000000000000000000000000
#06301:00
#06301:000Q000Q
#06301:00
#06301:1B001I001D001E1F1G1H1C001D001E1F
#06301:00
#06301:00
#06301:00
#06301:00
#06301:00
#06301:00
#06301:00
#06301:00
#06301:00
#06301:0000B5B6
#06301:B4
#06301:00
#06301:00
#06301:00
#06301:00
#06301:00
#06301:00
#06301:00
#06301:00
#06301:00
#06301:00
#06301:00
#06301:00
#06301:HUHMHSHRHS00HO00
#06311:01000000010000000100000403000300
#06312:004D004X00004R00
#06313:00000J004E0000004Q000000000I0000
#06314:000I000000009Q00000M00000000A300
#06315:4B0000009P000J009U000000A20000A4
#06318:9O000000000I000000000J0000000J00
#06319:0I0I0K0I
#06401:00
#06401:00
#06401:00
#06401:00
#06401:000Q000Q
#06401:00
#06401:1B001C001D001E1F1G1H1C001D001E1F
#06401:00
#06401:00
#06401:00
#06401:00
#06401:00
#06401:00
#06401:00
#06401:00
#06401:00
#06401:B7B2
#06401:00
#06401:00
#06401:00
#06401:00
#06401:00
#06401:00000000000000AK
#06401:000000AJ
#06401:0000000000AI0000
#06401:00
#06401:00
#06401:00
#06401:00
#06401:00
#06401:HP00000000HRHSHU
#06411:01010101
#06412:0000AD00000J0I00
#06413:4S00000000AE000000004L00000I0000
#06414:0I0000AFAH004E0J
#06415:000I00000I0000AG0000A60000004T00
#06418:00000J00000I0000000I0000A7000000
#06419:A500000J0I0000A8
#06501:00
#06501:00
#06501:00000000000000000000000000000000000L000I000000000000000000000000
#06501:00
#06501:000Q000Q
#06501:00
#06501:1B001I001D001E1F1G1H1C001D001E1F
#06501:00
#06501:00
#06501:00
#06501:00
#06501:00
#06501:00
#06501:00
#06501:00
#06501:00
#06501:B7B8
#06501:00
#06501:00
#06501:00
#06501:00
#06501:00
#06501:00000000AONM0000
#06501:AL000000000000AN000000NN00000000
#06501:000000AM0000NO00
#06501:00000000000000000000000000NP0000
#06501:00000000000000NQ
#06501:000000000000000000000000000000NR
#06501:00
#06501:00
#06501:HS0000000000HRHPHR00000000000000
#06511:01000004010003000100030004000400
#06512:000000000I0000000K00B90000040004
#06513:4U000000000I004V000M0000BB000000
#06514:0I00000000004X004W0000BA00BC000J
#06515:000I0000000000AB00000J000000BD00
#06518:A9000J000000AA00AC000000000J00BE
#06519:0000000J00000I0I
#06601:00
#06601:00
#06601:00
#06601:00
#06601:000Q000Q
#06601:0N0N0N0N
#06601:1B001C001D001E1F1G1H1C001D001E1F
#06601:00
#06601:00
#06601:00
#06601:00
#06601:00
#06601:00
#06601:00
#06601:00
#06601:00
#06601:AP
#06601:00
#06601:00
#06601:00
#06601:00
#06601:00
#06601:00
#06601:00
#06601:00
#06601:00
#06601:00
#06601:00
#06601:00
#06601:00
#06601:HPHLHVHLHVHLHUHL
#06611:01010101
#06612:00004700000I000000000J0000004C00
#06613:4600004800000J00000I00000I009M00
#06614:000I00000I0000000I0000009L00009N
#06615:9I0000009J0000009K00004800000J00
#06616:08
#06618:000J004700004B00
#06619:0I000000490000004A000000000I0000
#06701:00
#06701:00
#06701:00
#06701:00
#06701:0R0U0S0R0U0S0R0U0S0R0U0S00000000
#06701:00
#06701:00
#06701:2O002P2Q2R002S2T2P2Q2R002O002P2Q
#06701:00
#06701:00
#06701:004D004X00000000
#06701:4B4E4G00
#06701:00
#06701:00
#06701:00
#06701:00
#06701:00AR
#06701:AQ0000000000000000AS000000000000
#06701:0000000000ATAV00
#06701:0000000000009Q00000000AU00AW0000
#06701:9O009P009R0000AX
#06701:000000000000000000000000000000AY
#06701:00
#06701:00
#06701:00
#06701:00
#06701:00
#06701:00
#06701:00
#06701:00
#06701:HUHMHSHRHS000000
#06711:04030004030004030004030000000300
#06712:NS000000000000NV0000NV0003000G00
#06713:00NT00NS0000000G00NU0000NW00NX00
#06714:00000000NT00NU0000000G00000I0000
#06715:0I000G00000J0U0U
#06718:000J000I0000000J000I00000G000J00
#06719:000G00000J000I00000000000I000000
#06801:00
#06801:00
#06801:00
#06801:00
#06801:000Q000Q
#06801:0N0N0N0N
#06801:1B001C001D001E1F1G1H1C001D001E1F
#06801:00
#06801:00
#06801:00
#06801:00
#06801:00
#06801:00
#06801:00
#06801:00
#06801:00
#06801:B1
#06801:00
#06801:00
#06801:00
#06801:00
#06801:00
#06801:00
#06801:00
#06801:00
#06801:00
#06801:00
#06801:00
#06801:00
#06801:00
#06801:HMHJHSHMHSHNHRHN
#06811:01000000010000000100040401000300
#06812:4D4H004H0000004M
#06813:0000004I000I00000I0000009V000000
#06814:9S0000009T0000009U00004K000I009X
#06815:000I000000000J0000000J004L009W00
#06816:08
#06818:000J4E004J000000
#06819:0I0000000I000000000I00000I000J00
#06901:00
#06901:00
#06901:00
#06901:00
#06901:0R0U0S0R0U0S0R0U0S0R0U0S00000000
#06901:00
#06901:00
#06901:2U2V2W002X002Y2Z2U2V2X002W002Y2Z
#06901:00
#06901:004N004N00000000
#06901:00000000004F000000000000000000000000000000000000
#06901:4L004O4600004P0000000000
#06901:00
#06901:00
#06901:00
#06901:00
#06901:00AT
#06901:B20000000000000000AU000000000000
#06901:000000A000AVAX00
#06901:000000009Z000000A10000AW00AY0000
#06901:9Y000000000000AZ
#06901:000000000000000000000000000000B0
#06901:00
#06901:00
#06901:00
#06901:00
#06901:00
#06901:00
#06901:00
#06901:00
#06901:HRHMHPHOHP000000
#06911:000G00000J000I000000000003000G00
#06912:000J000I0000000J000I0000O2000300
#06913:0I000G0000O100O3
#06914:00000000NZ00O00000000G00000I0000
#06915:00NZ00NY000000O100O000000U000000
#06918:NY0000000000000G00000J000G000U00
#06919:0403000403000403000403000I000J00
#07001:00
#07001:00
#07001:00
#07001:00
#07001:000Q000Q
#07001:0N0N0N0N
#07001:1B001C001D001E1F1G1H1C001D001E1F
#07001:00
#07001:00
#07001:00
#07001:00
#07001:00
#07001:00
#07001:00
#07001:00
#07001:00
#07001:00
#07001:00
#07001:00BF
#07001:00
#07001:00
#07001:00
#07001:00
#07001:00
#07001:00
#07001:00
#07001:00
#07001:00
#07001:00
#07001:00
#07001:HPHLHVHLHVHLHUHL
#07011:01010101
#07012:004700470I00009M
#07013:000I00000I00000000000J00000I009N
#07014:9I00004800000J00000I00009L004C00
#07015:46000J009J0000009K00004800000J00
#07016:08
#07018:00000000000I0000000000004B000000
#07019:0I494A0I
#07101:00
#07101:00
#07101:00000000000000000000000000000000000L000I000000000I0000000I000000
#07101:00
#07101:000Q000Q
#07101:0N0N0N0N
#07101:1B001I001D001E1F1G1H1C001D001E1F
#07101:00
#07101:00
#07101:00
#07101:004D000000000000
#07101:00
#07101:00
#07101:00
#07101:00
#07101:00
#07101:BG0000BI
#07101:00BH
#07101:00
#07101:00
#07101:00
#07101:00
#07101:00
#07101:00
#07101:00
#07101:00
#07101:00
#07101:00
#07101:00
#07101:00
#07101:HUHMHSHRHS00HO00
#07111:010000000100000001000004030000BL
#07112:000I000000009Q000000O4004R000300
#07113:00000J009P0000009U0000O500BJ0000
#07114:9O00004X0000O6BK
#07115:000000004E000J004Q00000000O70000
#07116:0E
#07118:4B000000000I00000K000J000000O800
#07119:0I0000000I000000000M0000000000O9
#07201:00
#07201:00
#07201:00
#07201:00
#07201:00
#07201:00
#07201:00
#07201:00
#07201:00
#07201:00
#07201:00
#07201:00
#07201:00
#07201:00
#07201:00
#07201:00
#07201:00
#07201:00
#07201:00BO
#07201:000000BP
#07201:00
#07201:00
#07201:00
#07201:00
#07201:00
#07201:00
#07201:00
#07201:00
#07201:00
#07201:00
#07201:HP000000HPHRHSHU
#07201:ZS
#07211:00OC
#07212:4646000000000000
#07213:OAOB000000000000
#07214:0102000000000000
#07215:0I0I000000000000
#07216:0G0G000000000000
#07218:BMBN000000000000
#07301:00
#07301:00
#07301:00
#07301:00
#07301:00
#07301:00
#07301:00
#07301:00
#07301:00
#07301:00
#07301:00
#07301:00
#07301:00
#07301:00
#07301:00
#07301:00
#07301:00
#07301:00
#07301:00
#07301:00
#07301:BQ
#07301:00BR0000
#07301:00BS
#07301:00
#07301:00
#07301:00
#07301:00
#07301:00
#07301:00
#07301:00
#07301:HS00HRHPHR000000
#07314:OD
#07319:00OE
#07401:0H0H0H0H0G000H0H0H0H0G000H0H0H0H
#07401:00
#07401:0I0I0I0I00000I0I0I0I00000I0I0I0I
#07401:00000J00000J0000
#07401:00
#07401:00
#07401:00
#07401:00
#07401:00
#07401:00
#07401:00
#07401:00
#07401:00
#07401:OF
#07401:00
#07401:00
#07401:00
#07401:00
#07401:BTBUBVBUBV00BTBUBVBUBV00BTBUBVBU
#07411:000000OI000004000000000000000000
#07412:04000004OK00CC000000030000OI0000
#07413:OH0000000300000400000000OH0000OI
#07414:CC0000000000OHOI0000OK00CC040000
#07415:00040000CD000000040400000000OJ04
#07416:08
#07418:00OI04000000000000OICD0004000000
#07419:00OJ0000OJ000004
#07501:0G000H0H0H0H0G000000000000000000
#07501:00
#07501:00000I0I0I0I00000I0I00000I0I0000
#07501:0J00000J00000000
#07501:00
#07501:00
#07501:00
#07501:00
#07501:000000OM
#07501:00OL
#07501:00
#07501:00
#07501:000000OG
#07501:00
#07501:00
#07501:00
#07501:00
#07501:00
#07501:BV00BTBUBVBUBV000000000000000000
#07511:OK00000300000000
#07512:000004000004OK000000000003000300
#07513:0300OJ0003030000
#07514:CD00000400000000000000000F000J00
#07515:0000OH0004OI00000F000J00BW000000
#07518:0000CCOI00000000BT000000CE000000
#07519:000000CDCC000000
#07601:0H0H0H0H0G000H0H0H0H0G000H0H0H0H
#07601:00
#07601:0I0I0I0I0J000I0I0I0I00000I0I0I0I
#07601:00000000000J0000
#07601:00
#07601:00
#07601:00
#07601:00
#07601:00
#07601:00
#07601:00
#07601:00
#07601:00
#07601:OF
#07601:00
#07601:00
#07601:00
#07601:00
#07601:BTBUBVBUBV00BTBUBVBUBV00BTBUBVBU
#07611:040000CC00CD0000
#07612:OHOI0000000000000400000000000004
#07613:00040000OK000004OJ000000040000OI
#07614:0000OJ000300000000OIOK000004OJ00
#07615:000004OI000004OI00000300OHOI0000
#07618:00000004CD0000000004000000000400
#07619:CC0000OH0000CC00
#07701:0G000H0H0H0H0G000000000000000000
#07701:00
#07701:00000I0I0I0I00000I0I00000I0I0000
#07701:0J00000J00000000
#07701:00
#07701:00
#07701:00
#07701:00
#07701:00
#07701:00
#07701:00
#07701:00
#07701:00
#07701:00
#07701:00
#07701:00
#07701:00
#07701:00
#07701:BV00BTBUBVBUBV00BT00000000000000
#07701:000000BX
#07711:030000OK00000000
#07712:OK000000OJOI0000OL00000000000000
#07713:000400ON
#07714:000000OI000000000F000J0000000000
#07715:CD00OH0400040000CC0000000F000J00
#07718:00CC00CD0303CF00
#07719:0004000300000303
#07801:0H0H0H0H0G000H0H0H0H0G000H0H0H0H
#07801:00
#07801:0I0I0I0I00000I0I0I0I00000I0I0I0I
#07801:00000J00000J0000
#07801:00
#07801:00
#07801:00
#07801:00
#07801:00
#07801:00
#07801:00
#07801:00
#07801:00
#07801:00
#07801:00
#07801:00
#07801:00
#07801:00
#07801:00
#07801:00
#07801:BYBZC0BZC000BYBZC0BZC000BYBZC0BZ
#07811:0000030000CHCG00
#07812:04000004OR000000OQOP000004000000
#07813:OO0400OP0000000004000000OO000004
#07814:00OP04000000OO040000000000040000
#07815:0000OQ00000000OP0004OR0000OPOQ00
#07818:00000000CH00040000000000000004OP
#07819:CG0000CG00030000
#07901:0G000H0H0H0H0G000000000000000000
#07901:00
#07901:00000I0I0I0I0000000I0000000I0000
#07901:0J00000J00000000
#07901:00
#07901:00
#07901:00
#07901:00
#07901:00
#07901:00
#07901:00
#07901:00
#07901:00
#07901:00
#07901:00
#07901:00
#07901:00
#07901:000000CF
#07901:00CG
#07901:000000C1
#07901:C000BYBZC0BZC000BY00000000000000
#07911:0300000003030000
#07912:00CG00CH00000303
#07913:OR000004000000000I0000000I000000
#07914:CH00000000OP0300000000000F000J00
#07915:000004OP0000OR000F000J0000000000
#07918:00000000OQ04000000000000OT000000
#07919:00OO0400OS000000
#08001:0H0H0H0H0G000H0H0H0H0G000H0H0H0H
#08001:00
#08001:0I0I0I0I00000I0I0I0I00000I0I0I0I
#08001:00000J00000J0000
#08001:00
#08001:00
#08001:00
#08001:00
#08001:00
#08001:00
#08001:00
#08001:00
#08001:00
#08001:00
#08001:00
#08001:00
#08001:00
#08001:00
#08001:00
#08001:00
#08001:BYBZC0BZC000BYBZC0BZC000BYBZC0BZ
#08011:0000040000000000OQOP0000CG000000
#08012:000000OPOR00040000000000OO040000
#08013:0004OQ00000000000004CH0000000000
#08014:00000000000000040000OR0000OP0400
#08015:OOOP00040000CG000400000004000000
#08018:04000000CH00OOOP0000030000000004
#08019:CG00000003000000000000000000OQOP
#08101:0G000H0H0H0H0G000000000000000000
#08101:00
#08101:00000I0I0I0I00000I0I00000I0I0000
#08101:0J00000J00000000
#08101:00
#08101:00
#08101:00
#08101:00
#08101:00
#08101:00
#08101:00
#08101:00
#08101:00
#08101:00
#08101:00
#08101:00
#08101:00
#08101:00
#08101:00
#08101:00
#08101:C000BYBZC0BZC000BY00000000000000
#08101:000000C2
#08111:030000ORCG000000
#08112:00OO00030000CI00
#08113:CH0400000F0J0000
#08114:0000000400OP0000000000000F000J00
#08115:OR0004CHOS00OU00
#08118:00000000OQ0400000000000003000300
#08119:0000CGOP000000000300030000000000
#08201:00
#08201:00
#08201:0I0I0I0I00000I0I0I0I00000I0I0I0I
#08201:00000J00000J0000
#08201:0N0N0N0N
#08201:00
#08201:37003131310036003131310036003131
#08201:00
#08201:00
#08201:00
#08201:00
#08201:00
#08201:00
#08201:00
#08201:00
#08201:00
#08201:00
#08201:CJCKCLCJCKCLCJCK
#08211:0000000000000303
#08212:000000000000OV00OX00OY0000C400C4
#08213:C300C500C50000OW00OW0000C300C500
#08214:00C400C40000C300C500C50000OW00OW
#08215:OV00OX00OY0000C400C40000OV00OX00
#08216:08
#08218:00OW00OW000003000300030000000000
#08219:0303030000000000
#08301:00
#08301:00
#08301:00000I0I0I0I00000I0I00000I0I0000
#08301:0J00000J00000000
#08301:0N0N0N0N
#08301:00
#08301:3136363137313631
#08301:00
#08301:00
#08301:00
#08301:00
#08301:00
#08301:00
#08301:00
#08301:00
#08301:00
#08301:00
#08301:CLCJCKCL00000000
#08311:03000000000000000300030003000404
#08312:00OVOXOY0000P000
#08313:C50000OW00OW0000OZ00000000000000
#08314:00C3C5C50000CN0J
#08315:OY0000C400C40000CM000J0000000000
#08318:000303030000C600
#08319:00C3
#08401:00
#08401:00
#08401:0I0I0I0I00000I0I0I0I00000I0I0I0I
#08401:00000J00000J0000
#08401:0N0N0N0N
#08401:00
#08401:37003131310036003131310036003131
#08401:00
#08401:00
#08401:00
#08401:00
#08401:00
#08401:00
#08401:00
#08401:00
#08401:00
#08401:00
#08401:CJCKCLCJCKCLCJCK
#08411:0303030000000000
#08412:00OW00OW000003000300030000000000
#08413:00C400C4000000C400C40000OV00OX00
#08414:OV00OX00OY0000OW00OW0000C300C500
#08415:C300C500C500C300C500C50000OW00OW
#08416:08
#08418:000000000000OV00OX00OY0000C400C4
#08419:0000000000000303
#08501:00
#08501:00
#08501:00000I0I0I0I00000I0I00000I0I0000
#08501:0J00000J00000000
#08501:0N0N0N0N
#08501:00
#08501:3136363137313631
#08501:00
#08501:00
#08501:00
#08501:00
#08501:00
#08501:00
#08501:00
#08501:00
#08501:00
#08501:00
#08501:CLCJCKCL00000000
#08511:00000000000000000300030003000404
#08512:00OVOXOYOZ000000
#08513:OYC3C5C50000P100
#08514:C50000OW00OW0000CM000J0000000000
#08515:000000C400C4000000000000CO000J00
#08518:00030303C3000000
#08519:030000C7
#08601:0H0H0H0H0G000H0H0H0H0G000H0H0H0H
#08601:00
#08601:0I0I0I0I00000I0I0I0I00000I0I0I0I
#08601:00000J00000J0000
#08601:0N0N0N0N
#08601:00
#08601:00
#08601:00
#08601:00
#08601:00
#08601:00
#08601:00
#08601:00
#08601:P2P3P4P3P500P2P3P4P3P500P2P3P4P3
#08601:00
#08601:00
#08601:00
#08601:00
#08601:00
#08601:CQ00CQCQ00CQCQ00
#08601:00
#08601:00
#08601:CP
#08611:00000000000000000000000004040404
#08612:04040404030000000000000000000000
#08613:000000000000000000000000C8C9CAC9
#08614:C8C9CAC9CA0000000000000000000000
#08615:000000000000C8C9CAC9CA0000000000
#08619:00000000000004040404030000000000
#08701:0G000H0H0H0H0G000000000000000000
#08701:00
#08701:00000I0I0I0I00000I0I00000I0I0000
#08701:0J00000J00000000
#08701:0N0N0000
#08701:00
#08701:00
#08701:00
#08701:00
#08701:00
#08701:00
#08701:000000P7
#08701:00P6
#08701:P500P2P3P4P3P5000000000000000000
#08701:00
#08701:00
#08701:00
#08701:00
#08701:00
#08701:CQCQ00CQ00000000
#08711:03000NCR
#08712:0000000000000303
#08713:CA00000003030000
#08714:0000C8C9CAC9CA000F0000000F000000
#08715:00000000C80J0000
#08718:000004040404030000000000CB000J00
#08719:0000CQ0N
#08801:0H0H0H0H0G000H0H0H0H0G000H0H0H0H
#08801:00
#08801:0I0I0I0I00000I0I0I0I00000I0I0I0I
#08801:00000J00000J0000
#08801:0N0N0N0N
#08801:00
#08801:00
#08801:00
#08801:00
#08801:00
#08801:P900PAP900PAP900
#08801:00
#08801:P2P3P4P3P500P2P3P4P3P500P2P3P4P3
#08801:00
#08801:00
#08801:00
#08801:00
#08801:00
#08801:00
#08801:CQ00CQCQ00CQCQ00
#08801:00
#08801:00
#08801:CP
#08811:04040404030000000000000000000000
#08812:00000000000004040404030000000000
#08813:00000000000000000000000004040404
#08815:000000000000000000000000C8C9CAC9
#08818:000000000000C8C9CAC9CA0000000000
#08819:C8C9CAC9CA0000000000000000000000
#08901:0H0H0H0H0H0H0H0H0H0H0H0H0H0H0H0H
#08901:00
#08901:0I0I0I0I0I0I0I0I0I0I0I0I0I0I0I0I
#08901:00
#08901:0N0N0N0N
#08901:00
#08901:00
#08901:00
#08901:00
#08901:00
#08901:PBPCPBPCPBPCPBPC
#08901:00
#08901:P4P3P4P3P4P3P4P3P4P3P4P3P4P3P4P8
#08901:00
#08901:00
#08901:00
#08901:00
#08901:00
#08901:00
#08901:CQCQCQCQCQCQCQCQ
#08911:00000004040000000000000004000000
#08912:000004C90000000000000000CA040000
#08913:00000000CA040000000000C900C90400
#08914:0004CA0000C904000000CA040000CA04
#08915:000000000000CA0400040400000000C9
#08918:04C900000000000004C9000000000000
#08919:CA000000000000C9CA00000000000000
#09001:00
#09001:02
#09001:00
#09001:00
#09001:00
#09001:00
#09001:00
#09001:00
#09001:000000000000000000000000PQ0000PT
#09001:00000000000000000000000000PR0000
#09001:PE00000000000000PM0000PP0000PS00
#09001:0000000000PJ00PL0000PO0000000000
#09001:00PF00PH0000PK0000PN000000000000
#09001:00PG000000000000
#09001:00PI0000
#09001:00
#09001:00
#09001:CS
#09001:00
#09001:00
#09001:00
#09001:00
#09001:000000UE
#09001:0000000000000000UB0000UB00UB00UF
#09001:0000000000UD00UD
#09001:000000000000000000UC000000000000
#09001:00
#09001:00
#09001:00
#09001:00
#09001:00
#09001:ZT
#09003:AA
#09016:0G
#09101:00
#09101:00
#09101:00
#09101:00
#09101:00000000000S0R0S0000000000000000
#09101:00
#09101:00000000000V0000
#09101:00
#09101:00
#09101:00
#09101:00
#09101:00
#09101:00
#09101:PW
#09103:AC
#09111:02020200
#09112:00PVZZ00
#09113:PU0IPU00
#09114:0I0I
#09115:0U0R0U00
#09116:090C0D0W
#09118:006PPW00
#09119:6OPX6Q00
#09201:00
#09201:00
#09201:0I0000000I000I000M0M0M0M0M000I0000000I0000000I000I0000000I000000
#09201:00
#09201:00
#09201:000000000000000Z10000000000000000000000000000000
#09201:00
#09201:37003031320032333735363733003600
#09201:00
#09201:00
#09201:00
#09201:00
#09201:00
#09201:00
#09201:00
#09201:00
#09201:00
#09201:00
#09201:00
#09201:00
#09201:00
#09201:00
#09201:CT00CVCUCV00CU00CT00CVCUCV00CU00
#09212:0202
#09214:00000X0X0Y00111112000Z100X000R00
#09218:PYPY
#09301:00
#09301:00
#09301:0I000I0I0I000I000I0I0I0I00000000
#09301:00
#09301:00
#09301:00
#09301:00
#09301:37003133370033003700000000000000
#09301:00
#09301:00H9
#09301:00
#09301:00
#09301:00CX
#09301:00000000000000000000000000CY00000000000000000000
#09301:00000000000000CZ00000000
#09301:0000000000D00000
#09301:0000D1
#09301:0000000000000000000000000000000000D2000000000000
#09301:000000D3
#09301:00000000000000000000000000000000000000D400000000
#09301:0000000000D5
#09301:00000000000000D6
#09301:CW0000000000CU0000CV0000CW0000000000CU0000000000CV00000000000000000000000000000000000000D7000000
#09301:0000000000000000000000000000000000000000000000D8
#09312:02020300
#09314:0U000S0R0U000S000U00030002000000
#09318:PZPZPZ00
#09401:00
#09401:00
#09401:0I0000000I0000000I00000I0I000000
#09401:000J000J000J000J
#09401:00000R0S0R000S0R0S00000S0R000000
#09401:0N0N0N0N
#09401:00
#09401:00
#09401:00
#09401:00
#09401:00
#09401:00
#09401:00
#09401:HAHA
#09401:00HB000000000000000000HI00HB000000000000000000HI
#09401:00HC000000HC00HC000000HC
#09401:00HD00HD00HD00HD
#09401:00HEHH00HEHH
#09401:0000000000HF00HF000000000000000000HF00HF00000000
#09401:00HG00HG
#09401:00
#09401:00
#09401:00
#09401:006T006T006T006T
#09401:D9
#09401:00
#09401:00DX00DY
#09401:DVDV
#09401:00DW00DW00DW0000
#09411:0200020002000303
#09412:0UR000R900R6000U
#09413:00006SRC6R00R800
#09414:000000000000R30000000000QR0000000000000000000000QI0000000000000000R7000000000000R900000000000000
#09415:000000R40000000000RE0000QL0000000000RJ000000RA00
#09416:08
#09418:GR0000000000QS0000000000QN00000R00000000RC000000
#09419:6R0000QT00000000006S00RD
#09501:00
#09501:00
#09501:0I0000000I0000000I0I000I0I000000
#09501:000J000J000J000J
#09501:0U000000000000000S000R0S0R000U00
#09501:0N0N0N0N
#09501:00
#09501:00
#09501:00
#09501:00
#09501:00
#09501:00
#09501:00
#09501:HAHA
#09501:00HB000000000000000000HI00HB000000000000000000HI
#09501:00HC000000HC00HC000000HC
#09501:00HD00HD00HD00HD
#09501:00HEHH00HEHH
#09501:0000000000HF00HF000000000000000000HF00HF00000000
#09501:00HG00HG
#09501:00
#09501:00
#09501:00
#09501:006T006T006T006T
#09501:0000006V
#09501:00
#09501:00DX0000
#09501:DVDV
#09501:00DW00DW00DW0000
#09501:000000DZ
#09511:02000000020000000200000403000300
#09512:00000000000000006S00000000000R0000000000R1000000000000Q600000000
#09513:6R000R006RR300Q7
#09514:0000000000000S0000000000IX000000QH000000000000006U00000000Q80000
#09515:00000R00IW000000QI00R800QG0000QA
#09518:IT0000000000IV00000000000S0000000000000000000000QJ000000000000QB
#09519:00IU0000QM00QO00
#09601:00
#09601:00
#09601:0I000000000000000I000000000000000K0L0M0I00000I000I00000000000000
#09601:000J000J000J000J
#09601:0U000R0S0R000S0R0S000R0S0R000U00
#09601:0N0N0N0N
#09601:00
#09601:00
#09601:00
#09601:00
#09601:00
#09601:00
#09601:00
#09601:HAHA
#09601:00HB000000000000000000HI00HB000000000000000000HI
#09601:00HC000000HC00HC000000HC
#09601:00HD00HD00HD00HD
#09601:00HEHH00HEHH
#09601:0000000000HF00HF000000000000000000HF00HF00000000
#09601:00HG00HG
#09601:00
#09601:00
#09601:00
#09601:006T006T006T006T
#09601:00
#09601:00
#09601:00DX00DY
#09601:DVDV
#09601:00DW00DW00DW0000
#09611:02000000020000000200000403000404
#09612:6R0000000000R400000000006S0000000000000000QZ00000000000000000000R9000000000000000000000000000000
#09613:QX00000000R500R100R40000RD000000
#09614:R00000000000R80000000000000000R800000000000000006R00000000000000RA000000RB0000000000RM0000000000
#09615:000000000000000000000000000000000000000000R50000000000R800000000RC0000000000RH0000000000RN000000
#09618:000000000000RA0000000000000000RA0000000000000000000000RA000000000000000000000000RK00000000000000
#09619:R40000RB000000000000000000000000RF006S00000000RQ
#09701:00
#09701:00
#09701:0I0000000I0000000I0I000I0I000000
#09701:000J000J000J000J
#09701:0U000R0S0R000S0R0S0T0R0U0U000U00
#09701:0N0N0N0N
#09701:00
#09701:00
#09701:00
#09701:00
#09701:00
#09701:00
#09701:00
#09701:HAHA
#09701:00HB000000000000000000HI00HB000000000000000000HI
#09701:00HC000000HC00HC000000HC
#09701:00HD00HD00HD00HD
#09701:00HEHH00HEHH
#09701:0000000000HF00HF000000000000000000HF00HF00000000
#09701:00HG00HG
#09701:00000000000000000000006C00000000
#09701:00
#09701:000000000000006E
#09701:006T006T006T0000
#09701:00
#09701:00
#09701:00000000DX000000000000E000000000
#09701:DVDV
#09701:00DW00DW00DW00E2
#09701:000000E1
#09711:0200020002000303
#09712:0000000000006S0000RH00006R000000RF006D00000000RB
#09713:6R0000000000000000000000000000QP00000000000000000000QE0000000000RI000000RP00000000000000RF000000
#09714:QS0000000000000000000000QQ0000000000000000QY00000000QG0000000000RK000000QV0000000000RL0000000000
#09715:000000QT0000000000QR0000000000000000000000R000000000QI0000000000RM00000000000000RQ00000000000000
#09718:000000000000QU0000000000000000000000000000R100000000QK0000000000000000000000RR000000000000000000
#09719:00000000000000R300000000QW000000
#09801:00
#09801:00
#09801:0I0000000I0000000I00000I0I000000
#09801:000J000J000J000J
#09801:0U000R0S000000000S00000000000000
#09801:0N0N0N0N
#09801:00
#09801:00
#09801:00
#09801:00
#09801:00
#09801:00
#09801:00
#09801:HAHA
#09801:00HB000000000000000000HI00HB000000000000000000HI
#09801:00HC000000HC00HC000000HC
#09801:00HD00HD00HD00HD
#09801:00HEHH00HEHH
#09801:0000000000HF00HF000000000000000000HF00HF00000000
#09801:00HG00HG
#09801:00
#09801:00
#09801:00
#09801:006T006T006T006T
#09801:00
#09801:00
#09801:00DX00DY
#09801:DVDV
#09801:00DW00DW00DW0000
#09801:00
#09801:GR
#09811:0200020002000303
#09812:0000Q70S6R000RQJ
#09813:6R00000000000000000000000000Q80000000000000R00000000000000000000000S0000000000QL0000000000000000
#09814:0000000000000000Q90000000000000R0000QN0000000000
#09815:Q00000000000QC00QI0000QO00000000
#09816:08
#09818:000000006S0000QG0000QR006S0000QF
#09819:Q10000000R00000000QN000000000U00
#09901:00
#09901:00
#09901:0I0000000I0000000I0I000I0I000000
#09901:000J000J000J000J
#09901:0U000R0S0R000S0R0S000R0S0R000000
#09901:0N0N0N0N
#09901:00
#09901:00
#09901:00
#09901:00
#09901:00
#09901:00
#09901:00
#09901:HAHA
#09901:00HB000000000000000000HI00HB000000000000000000HI
#09901:00HC000000HC00HC000000HC
#09901:00HD00HD00HD00HD
#09901:00HEHH00HEHH
#09901:0000000000HF00HF000000000000000000HF00HF00000000
#09901:00HG00HG
#09901:00
#09901:00
#09901:00
#09901:006T006T006T006T
#09901:0000006V
#09901:00
#09901:00DX0000
#09901:DVDV
#09901:00DW00DW00DW0000
#09901:000000DZ
#09911:02000000020000000200000403000300
#09912:0000R2006RRA0000
#09913:6RQD00RDR8RGQ200
#09914:QC00R400RH00Q30U
#09915:00QH6SRGRJRJ6U00
#09918:00QJR80000RLQ400
#09919:000000RO0000Q500
#10001:00
#10001:00
#10001:0I0000000I0000000I00000I0I000000
#10001:000J000J000J000J
#10001:0000000U
#10001:0N0N0N0N
#10001:00
#10001:00
#10001:00
#10001:00
#10001:00
#10001:00
#10001:00
#10001:HAHA
#10001:00HB000000000000000000HI00HB000000000000000000HI
#10001:00HC000000HC00HC000000HC
#10001:00HD00HD00HD00HD
#10001:00HEHH00HEHH
#10001:0000000000HF00HF000000000000000000HF00HF00000000
#10001:00HG00HG
#10001:00
#10001:00
#10001:00
#10001:006T006T006T006T
#10001:00
#10001:00
#10001:00000000DX000000000000E3DY000000
#10001:DV000000DV0000E4
#10001:0000DW000000DW000000DW00000000E5
#10011:02000000020000000200000403000404
#10012:J7000000J800000S00000S0000000000
#10013:0000J80000J90000JC00000U00000000
#10014:000000J90000JA0000JD0000JG000R00
#10015:000000006S0000JB0000JE0000JF000S
#10018:6R000R000R0000006R0000JF0000JG00
#10019:0U00000S00000T000R0000006S0000JH
#10101:00
#10101:00
#10101:0I0000000000000I
#10101:00
#10101:00
#10101:00
#10101:S20000000000000000000000000000SG
#10101:000000000000SDSF
#10101:0000000000000000S90000SC00SE0000
#10101:00000000000000S80000SB0000000000
#10101:0000S3000000S70000SA000000000000
#10101:000000S400S600000000000000000000
#10101:00S50000
#10101:00
#10101:00
#10101:00
#10101:00
#10101:00
#10101:00
#10101:00000000000000DE
#10101:00
#10101:00000000000000DA
#10101:00
#10101:00
#10101:00
#10101:00
#10101:00
#10101:00
#10101:00000000000000GE
#10101:E6
#10101:H8
#10111:02
#10113:5S00000000000003
#10114:000000000000000G
#10115:00000000000000RS
#10116:09
#10118:0U
#10201:00
#10201:00
#10201:0I00000I00000I00000I000000000000
#10201:0N00000N00000N00000N000000000000
#10201:0R00000R00000R00000R00000R0S0U00
#10201:00
#10201:00
#10201:00
#10201:00
#10201:00
#10201:00
#10201:00
#10201:00
#10201:00
#10201:00
#10201:00
#10201:000000DGDR0000000000000000000000
#10201:000000DI
#10201:000000000000DHDS0000000000000000
#10201:00000000000000DJ
#10201:DFDQ00000000000000DFDQ0000000000
#10201:00000000000000DD
#10201:DBDC00DBDC00DBDC00DBDC00DB000000
#10201:00
#10201:000000000000GPGK0000000000000000
#10201:000000000000000000GQGL0000000000
#10201:GNGI00000000000000000000GI000000
#10201:000000GOGJ000000000000000000GJ00
#10201:00000000000000GH
#10201:GFGG00GFGG00GFGG00GFGG00GG000000
#10211:0003000003000003000003000I000I00
#10212:04000I04000I0003
#10213:000I00040000000I0004000003000000
#10214:0H0G000H0G000H0G000H0G000G000G00
#10215:000U00RT0000000U00RT0000RV000000
#10218:RT000URT000U00RW
#10219:00RU0000RU0000RU0000RU000O000O00
#10301:00
#10301:00
#10301:00
#10301:00
#10301:00
#10301:00
#10301:00
#10301:00
#10301:00
#10301:00
#10301:00000000DLDMDNDODP00000000000000
#10311:02
#10312:GR
#10313:DK
#10314:00000000RXRYRZS0S100000000000000
#10315:DC
#10316:0G
#10318:GM
#10319:RV